osu file format v14

[General]
AudioFilename: audio.mp3
AudioLeadIn: 0
PreviewTime: 53078
Countdown: 0
SampleSet: Soft
StackLeniency: 0.7
Mode: 2
LetterboxInBreaks: 0
WidescreenStoryboard: 1

[Editor]
Bookmarks: 17198,33149,54381,71599
DistanceSpacing: 1.3
BeatDivisor: 4
GridSize: 4
TimelineZoom: 2.799999

[Metadata]
Title:Kaze no Uta (TV Size)
TitleUnicode:風ノ唄 (TV Size)
Artist:FLOW
ArtistUnicode:FLOW
Creator:Secre
Version:Overdose
Source:テイルズ オブ ゼスティリア ザ クロス
Tags:chickenbible blackbn blackbq greaper Tales of Zestiria the X opening anime shanipika male vocal japanese pop jpop j-pop jrock j-rock rock op KOHSHI Asakawa Koshi TAKE Takeshi 浅川岳史 浅川甲史 KEIGO Hayashi 林圭吾 GOT'S Gotou Koutarou 後藤康太郎 IWASAKI Hiroshi 岩崎博詞 BURN
BeatmapID:3895954
BeatmapSetID:1820815

[Difficulty]
HPDrainRate:5
CircleSize:4.1
OverallDifficulty:9.2
ApproachRate:9.2
SliderMultiplier:2.34
SliderTickRate:2

[Events]
//Background and Video events
0,0,"hololive mmorpg waiting room.png",0,0
//Break Periods
//Storyboard Layer 0 (Background)
//Storyboard Layer 1 (Fail)
//Storyboard Layer 2 (Pass)
//Storyboard Layer 3 (Foreground)
//Storyboard Layer 4 (Overlay)
//Storyboard Sound Samples

[TimingPoints]
297,422.535211267606,4,2,1,37,1,0
719,-100,4,2,1,37,0,0
3677,-100,4,2,1,43,0,0
15508,-100,4,2,1,43,0,0
17198,-100,4,2,1,37,0,0
23747,-100,4,2,1,40,0,0
27339,-100,4,2,1,40,0,0
33888,-100,4,2,1,43,0,0
47620,-100,4,2,1,45,0,0
54381,-90.9090909090909,4,2,1,65,0,1
81423,-100,4,2,1,55,0,0

[Colours]
Combo1 : 247,141,138
Combo2 : 242,167,98
Combo3 : 159,234,174
Combo4 : 176,216,249

[HitObjects]
328,233,297,6,0,L|338:65,1,117
149,93,719,2,0,L|226:78,2,58.5,2|0|0,0:0|0:0|0:0,0:0:0:0:
31,176,1036,2,0,P|33:115|125:86,1,117,2|0,0:0|0:0,0:0:0:0:
201,74,1353,2,0,L|354:65,2,117,2|0|0,0:0|0:0|0:0,0:0:0:0:
392,106,1987,6,0,L|399:254,1,117,2|0,0:0|0:0,0:0:0:0:
218,255,2409,1,2,0:0:0:0:
306,231,2514,1,0,0:0:0:0:
394,190,2620,1,0,0:0:0:0:
306,231,2726,2,0,L|300:140,1,58.5,2|0,0:0|0:0,0:0:0:0:
393,103,2937,5,0,0:0:0:0:
481,89,3043,2,0,L|483:162,1,58.5,2|0,0:0|0:0,0:0:0:0:
260,145,3254,2,0,L|188:156,1,58.5,2|2,0:0|0:0,0:0:0:0:
378,54,3466,2,0,L|472:44,1,58.5,2|0,3:0|3:0,0:0:0:0:
240,68,3677,6,0,P|146:69|126:178,1,175.5,4|0,0:0|3:0,0:0:0:0:
238,164,4099,2,0,L|385:141,1,117,0|2,3:0|3:0,0:0:0:0:
64,232,4522,2,0,L|215:212,2,117,2|0|0,3:0|0:0|3:0,0:0:0:0:
240,131,5156,2,0,L|331:127,1,58.5,0|0,3:0|0:0,0:0:0:0:
120,208,5367,6,0,P|62:172|143:113,1,175.5,2|0,3:0|3:0,0:0:0:0:
308,83,5789,2,0,L|458:78,1,117,0|0,3:0|3:0,0:0:0:0:
225,187,6212,2,0,L|381:185,1,117,2|0,0:0|3:0,0:0:0:0:
69,87,6635,1,2,0:0:0:0:
361,78,6846,1,0,3:0:0:0:
26,171,7057,6,0,P|28:102|151:50,1,175.5,2|0,3:0|3:0,0:0:0:0:
234,84,7480,2,0,L|236:227,1,117,0|2,3:0|3:0,0:0:0:0:
41,236,7902,2,0,L|201:215,2,117,2|0|0,3:0|3:0|3:0,0:0:0:0:
240,117,8536,2,0,L|147:126,1,58.5,0|0,3:0|3:0,0:0:0:0:
393,96,8747,6,0,P|451:114|379:180,1,175.5,2|0,3:0|3:0,0:0:0:0:
193,200,9170,2,0,L|66:197,1,117,2|2,3:0|3:0,0:0:0:0:
271,119,9592,2,0,L|128:120,2,117,2|0|0,3:0|3:0|3:0,0:0:0:0:
482,86,10226,2,0,L|370:72,1,58.5,0|0,3:0|3:0,0:0:0:0:
216,221,10437,6,0,P|225:144|338:111,1,175.5,2|0,3:0|3:0,0:0:0:0:
442,104,10860,2,0,L|443:251,1,117,0|2,3:0|3:0,0:0:0:0:
244,288,11282,2,0,L|379:269,2,117,2|0|0,3:0|3:0|3:0,0:0:0:0:
45,157,11916,2,0,L|141:147,1,58.5,0|0,3:0|3:0,0:0:0:0:
323,134,12127,6,0,P|330:202|232:239,1,175.5,2|0,3:0|3:0,0:0:0:0:
117,218,12550,2,0,L|108:55,1,117,0|0,3:0|3:0,0:0:0:0:
305,126,12973,2,0,L|154:124,1,117,2|0,3:0|3:0,0:0:0:0:
466,221,13395,1,2,3:0:0:0:
108,175,13606,2,0,L|187:155,1,58.5,0|0,3:0|3:0,0:0:0:0:
426,114,13818,6,0,P|371:78|257:211,1,234,2|0,3:0|3:0,0:0:0:0:
421,216,14451,1,0,3:0:0:0:
234,171,14663,1,0,3:0:0:0:
228,112,14768,1,0,3:0:0:0:
223,54,14874,1,0,3:0:0:0:
422,83,15085,2,0,L|339:63,1,58.5,0|0,3:0|0:0,0:0:0:0:
182,53,15297,2,0,L|112:37,1,58.5,0|0,3:0|0:0,0:0:0:0:
342,87,15508,5,2,3:0:0:0:
256,192,15613,12,0,16775,0:0:0:0:
126,161,16987,6,0,L|221:146,1,58.5,0|0,3:0|3:0,0:0:0:0:
389,127,17198,6,0,P|401:207|294:259,1,175.5,2|0,3:2|0:0,0:0:0:0:
209,200,17620,2,0,L|271:164,1,58.5,2|0,3:2|0:0,0:0:0:0:
459,145,17832,2,0,P|346:117|242:197,1,234,2|2,3:2|3:0,0:0:0:0:
448,251,18466,2,0,L|450:104,1,117,2|0,3:0|3:2,0:0:0:0:
153,148,18888,6,0,L|372:113,1,175.5,2|0,3:2|0:0,0:0:0:0:
207,226,19311,2,0,L|200:143,1,58.5,2|0,3:2|0:0,0:0:0:0:
396,117,19522,2,0,P|461:136|388:237,1,234,2|2,3:2|3:0,0:0:0:0:
215,126,20156,2,0,L|381:118,1,117,2|0,3:0|3:2,0:0:0:0:
36,243,20578,6,0,P|39:164|160:127,1,175.5,2|0,3:2|0:0,0:0:0:0:
254,118,21001,2,0,L|321:113,1,58.5,2|0,3:2|0:0,0:0:0:0:
96,238,21212,2,0,L|88:111,1,117,2|0,3:2|3:0,0:0:0:0:
289,133,21635,2,0,L|171:137,1,117,2|2,3:2|3:0,0:0:0:0:
351,58,22057,2,0,L|426:55,1,58.5,0|0,3:2|3:0,0:0:0:0:
190,51,22268,6,0,P|120:51|92:191,1,234,2|2,3:0|3:0,0:0:0:0:
382,226,22902,2,0,L|146:209,1,234,2|2,3:0|3:0,0:0:0:0:
323,132,23536,1,2,3:0:0:0:
132,131,23747,2,0,L|224:108,1,58.5,0|0,3:2|3:2,0:0:0:0:
388,76,23958,5,2,3:2:0:0:
495,31,24170,2,0,L|413:24,1,58.5,0|0,3:2|3:2,0:0:0:0:
213,72,24381,1,2,3:2:0:0:
397,69,24592,1,2,3:2:0:0:
213,72,24804,1,0,3:2:0:0:
501,178,25015,2,0,L|250:159,1,234,2|0,3:2|3:0,0:0:0:0:
328,99,25543,1,0,3:0:0:0:
149,121,25649,6,0,L|-2:127,1,117,2|2,3:0|3:0,0:0:0:0:
223,195,26071,2,0,L|94:197,1,117,2|2,3:0|3:0,0:0:0:0:
169,140,26388,1,0,0:0:0:0:
363,161,26494,2,0,L|242:163,1,117,2|2,3:0|3:0,0:0:0:0:
453,91,26916,2,0,L|310:90,1,117,2|0,3:0|3:2,0:0:0:0:
401,144,27233,1,0,3:2:0:0:
185,262,27339,6,0,P|128:245|193:184,1,175.5,2|0,3:2|0:0,0:0:0:0:
314,157,27761,2,0,L|382:145,1,58.5,2|0,3:2|0:0,0:0:0:0:
139,130,27973,2,0,L|5:166,2,117,2|0|2,3:2|3:0|3:0,0:0:0:0:
431,99,28606,1,8,0:0:0:0:
464,28,28818,2,0,L|372:22,1,58.5,0|0,3:2|3:0,0:0:0:0:
234,51,29029,6,0,P|238:124|349:130,1,175.5,2|0,3:2|0:0,0:0:0:0:
451,145,29451,2,0,L|477:71,1,58.5,2|0,3:2|0:0,0:0:0:0:
297,103,29663,2,0,L|159:151,2,117,2|0|2,3:2|3:0|3:0,0:0:0:0:
119,214,30297,2,0,L|0:222,1,117,2|0,3:0|3:2,0:0:0:0:
350,161,30719,6,0,L|142:141,1,175.5,2|0,3:2|0:0,0:0:0:0:
355,81,31142,2,0,L|434:75,2,58.5,2|0|0,3:2|0:0|3:2,0:0:0:0:
142,132,31458,2,0,L|132:43,1,58.5,0|2,3:0|3:0,0:0:0:0:
430,60,31775,2,0,L|269:67,1,117,0|8,3:2|0:0,0:0:0:0:
495,168,32198,1,0,3:2:0:0:
149,176,32409,5,2,3:0:0:0:
324,166,32620,1,0,3:0:0:0:
149,176,32832,1,2,3:0:0:0:
442,107,33043,2,0,P|443:178|296:231,1,234,2|2,3:0|3:0,0:0:0:0:
126,148,33677,1,2,3:0:0:0:
303,72,33888,2,0,L|194:74,1,58.5,0|0,3:2|3:2,0:0:0:0:
429,76,34099,6,0,P|491:107|427:172,1,175.5,2|0,3:2|0:0,0:0:0:0:
222,186,34522,2,0,L|138:187,1,58.5,2|0,3:2|0:0,0:0:0:0:
377,192,34733,2,0,L|505:167,2,117,2|0|2,3:2|3:0|3:0,0:0:0:0:
42,121,35367,1,8,0:0:0:0:
24,73,35578,2,0,L|104:62,1,58.5,0|0,3:2|3:2,0:0:0:0:
268,85,35789,6,0,L|132:92,1,117,2|0,3:2|3:2,0:0:0:0:
349,171,36212,1,0,3:2:0:0:
166,98,36423,2,0,L|265:88,1,58.5,0|0,3:2|3:2,0:0:0:0:
41,193,36635,2,0,P|35:123|92:78,1,117,2|0,3:2|3:0,0:0:0:0:
157,55,36951,1,0,0:0:0:0:
354,56,37057,2,0,L|437:48,1,58.5,2|0,3:0|0:0,0:0:0:0:
175,127,37268,2,0,L|106:129,1,58.5,0|0,3:2|3:0,0:0:0:0:
355,120,37480,6,0,P|422:141|329:223,1,234,2|2,3:0|3:0,0:0:0:0:
69,209,38113,2,0,L|312:184,1,234,2|2,3:0|3:0,0:0:0:0:
236,131,38642,1,0,3:0:0:0:
424,78,38747,2,0,L|430:157,1,58.5,8|0,0:0|3:0,0:0:0:0:
234,236,38958,2,0,L|320:227,1,58.5,0|0,3:0|3:0,0:0:0:0:
100,206,39170,6,0,P|44:168|132:119,1,175.5,2|0,3:0|0:0,0:0:0:0:
329,126,39592,2,0,L|472:108,1,117,0|2,3:2|3:0,0:0:0:0:
377,192,39909,1,0,0:0:0:0:
201,168,40015,2,0,L|354:135,1,117,0|2,3:2|3:0,0:0:0:0:
244,94,40332,1,0,0:0:0:0:
26,189,40437,2,0,L|22:27,1,117,2|0,3:2|3:0,0:0:0:0:
109,32,40754,1,0,3:0:0:0:
338,74,40860,6,0,P|399:86|416:191,1,175.5,4|0,0:2|0:0,0:0:0:0:
209,196,41282,2,0,L|206:101,1,58.5,0|0,3:2|0:0,0:0:0:0:
395,113,41494,2,0,L|234:114,1,117,0|0,3:2|3:0,0:0:0:0:
451,52,41916,1,0,3:2:0:0:
149,55,42127,1,8,0:0:0:0:
339,51,42339,2,0,L|265:51,1,58.5,0|0,3:2|3:0,0:0:0:0:
51,189,42550,5,2,3:0:0:0:
227,150,42761,2,0,L|230:274,1,117,0|0,3:2|3:0,0:0:0:0:
51,189,43184,2,0,L|186:180,1,117,0|0,3:2|3:0,0:0:0:0:
356,113,43606,2,0,L|261:103,1,58.5,0|0,3:2|3:0,0:0:0:0:
113,70,43818,1,0,3:0:0:0:
282,45,44029,2,0,L|376:40,1,58.5,0|0,3:0|3:0,0:0:0:0:
97,182,44240,6,0,L|93:61,1,117,2|0,3:0|3:0,0:0:0:0:
387,123,44663,1,0,3:2:0:0:
210,68,44874,2,0,L|346:60,1,117,0|0,3:2|3:0,0:0:0:0:
143,142,45297,1,0,3:2:0:0:
435,131,45508,1,8,0:2:0:0:
475,56,45719,2,0,L|376:50,1,58.5,0|0,3:2|3:0,0:0:0:0:
168,129,45930,5,2,3:0:0:0:
344,63,46142,2,0,L|207:65,1,117,0|0,3:2|3:0,0:0:0:0:
503,97,46564,2,0,L|508:238,1,117,0|0,3:2|3:0,0:0:0:0:
338,227,46987,2,0,L|443:214,1,58.5,0|0,3:0|3:0,0:0:0:0:
189,117,47198,2,0,L|36:124,1,117,0|0,3:0|3:0,0:0:0:0:
138,69,47515,1,0,0:0:0:0:
376,73,47620,5,4,0:0:0:0:
265,91,47832,2,0,L|346:75,1,58.5,0|0,3:2|3:2,0:0:0:0:
137,131,48043,1,8,0:2:0:0:
118,127,48254,2,0,L|193:101,1,58.5,0|0,3:2|0:0,0:0:0:0:
298,84,48466,1,0,3:2:0:0:
111,68,48677,1,0,3:2:0:0:
420,77,48888,1,8,0:0:0:0:
453,32,49099,2,0,L|345:27,1,58.5,0|0,3:2|3:2,0:0:0:0:
177,157,49311,6,0,L|56:162,1,117,4|0,0:2|3:2,0:0:0:0:
336,294,49733,2,0,L|198:294,1,117,8|0,0:2|3:2,0:0:0:0:
423,212,50156,2,0,L|438:68,1,117,0|0,3:2|3:2,0:0:0:0:
161,93,50578,1,8,0:2:0:0:
355,75,50789,2,0,L|284:57,1,58.5,0|0,3:2|0:0,0:0:0:0:
86,158,51001,6,0,L|4:139,2,58.5,8|0|0,0:2|0:0|0:0,0:0:0:0:
258,180,51318,2,0,L|93:161,1,117,8|0,0:0|0:0,0:0:0:0:
348,110,51635,2,0,P|419:122|430:243,1,175.5,8|0,0:0|0:0,0:0:0:0:
271,240,52057,2,0,L|190:223,1,58.5,8|0,0:0|0:0,0:0:0:0:
404,164,52268,2,0,L|422:93,1,58.5,8|0,0:0|0:0,0:0:0:0:
175,80,52480,1,8,0:0:0:0:
94,89,52585,1,0,0:0:0:0:
309,151,52691,5,8,0:0:0:0:
140,156,52902,5,8,0:0:0:0:
256,192,53113,12,0,53958,0:0:0:0:
348,190,54381,6,0,L|168:179,1,128.700003927612,4|0,0:2|3:2,0:0:0:0:
427,119,54698,2,0,L|348:115,2,64.3500019638062,0|8|0,3:2|0:0|0:0,0:0:0:0:
197,109,55015,2,0,L|131:113,1,64.3500019638062,0|0,3:2|0:0,0:0:0:0:
347,85,55226,1,0,3:2:0:0:
167,168,55437,1,8,0:0:0:0:
472,175,55649,1,8,0:0:0:0:
491,92,55860,2,0,L|403:82,1,64.3500019638062,0|0,3:2|0:0,0:0:0:0:
210,98,56071,6,0,L|374:84,1,128.700003927612,0|0,3:2|3:2,0:0:0:0:
133,187,56388,2,0,L|52:183,2,64.3500019638062,0|8|0,3:2|0:0|0:0,0:0:0:0:
349,157,56705,2,0,L|360:83,1,64.3500019638062,0|0,3:2|0:0,0:0:0:0:
181,64,56916,1,0,3:2:0:0:
361,65,57127,1,8,0:0:0:0:
58,144,57339,1,8,0:0:0:0:
10,81,57550,2,0,L|91:75,1,64.3500019638062,0|0,3:2|0:0,0:0:0:0:
312,109,57761,6,0,P|372:147|340:208,1,128.700003927612,0|0,3:2|3:2,0:0:0:0:
255,211,58078,1,0,3:2:0:0:
447,172,58184,2,0,L|450:68,1,64.3500019638062,8|0,0:0|0:0,0:0:0:0:
332,86,58395,2,0,L|420:81,1,64.3500019638062,0|0,3:2|0:0,0:0:0:0:
183,102,58606,1,0,3:2:0:0:
364,106,58818,1,8,0:0:0:0:
65,142,59029,1,8,0:0:0:0:
16,60,59240,2,0,L|115:50,1,64.3500019638062,0|0,3:2|0:0,0:0:0:0:
294,76,59451,6,0,P|289:142|224:158,1,128.700003927612,0|0,3:2|3:2,0:0:0:0:
139,141,59768,1,0,3:2:0:0:
366,165,59874,2,0,L|377:76,1,64.3500019638062,8|0,0:0|0:0,0:0:0:0:
255,84,60085,2,0,L|171:92,1,64.3500019638062,0|0,3:2|0:0,0:0:0:0:
366,82,60297,1,8,0:2:0:0:
185,138,60508,1,8,0:0:0:0:
482,141,60719,1,4,0:0:0:0:
304,66,60930,1,0,3:2:0:0:
211,50,61036,1,0,3:0:0:0:
435,73,61142,6,0,P|469:128|433:172,1,128.700003927612,4|0,0:2|3:0,0:0:0:0:
340,147,61458,1,0,3:2:0:0:
86,137,61564,2,0,L|-7:139,1,64.3500019638062,8|0,0:2|0:0,0:0:0:0:
225,189,61775,2,0,L|118:189,1,64.3500019638062,0|0,3:2|0:0,0:0:0:0:
352,120,61987,1,0,3:2:0:0:
172,112,62198,1,8,0:0:0:0:
480,122,62409,1,8,0:0:0:0:
501,63,62620,2,0,L|402:58,1,64.3500019638062,0|0,3:2|3:0,0:0:0:0:
222,80,62832,6,0,P|157:95|146:157,1,128.700003927612,0|0,3:2|3:2,0:0:0:0:
232,175,63149,1,0,3:2:0:0:
48,188,63254,2,0,L|46:86,1,64.3500019638062,8|0,0:0|3:2,0:0:0:0:
165,88,63466,2,0,L|71:88,1,64.3500019638062,0|0,3:2|0:0,0:0:0:0:
312,88,63677,1,0,3:2:0:0:
495,90,63888,1,8,0:2:0:0:
141,163,64099,1,8,0:2:0:0:
336,162,64311,1,0,3:0:0:0:
41,204,64522,6,0,L|33:49,1,128.700003927612,0|0,3:2|3:0,0:0:0:0:
232,60,64944,1,8,0:0:0:0:
134,55,65050,1,0,0:0:0:0:
232,60,65156,1,0,3:0:0:0:
329,60,65261,1,0,3:0:0:0:
113,212,65367,2,0,L|105:57,1,128.700003927612,0|0,3:0|3:0,0:0:0:0:
390,95,65789,1,8,0:0:0:0:
195,104,66001,2,0,L|279:100,1,64.3500019638062,0|0,3:0|3:0,0:0:0:0:
491,141,66212,6,0,L|390:122,1,64.3500019638062,0|0,3:0|3:0,0:0:0:0:
296,76,66423,2,0,L|281:13,1,64.3500019638062,0|0,3:0|3:0,0:0:0:0:
480,48,66635,1,4,0:2:0:0:
398,56,66740,1,0,3:0:0:0:
304,94,66846,1,0,3:0:0:0:
274,144,66951,1,0,3:0:0:0:
480,179,67057,1,8,0:2:0:0:
396,187,67162,1,0,3:0:0:0:
480,179,67268,1,0,3:0:0:0:
162,101,67480,2,0,L|69:98,1,64.3500019638062,4|0,0:2|3:0,0:0:0:0:
321,47,67691,2,0,L|420:44,1,64.3500019638062,0|0,3:0|3:0,0:0:0:0:
164,190,67902,6,0,L|344:179,1,128.700003927612,4|0,0:2|3:2,0:0:0:0:
85,119,68219,2,0,L|164:115,2,64.3500019638062,0|8|0,3:2|0:0|0:0,0:0:0:0:
315,109,68536,2,0,L|381:113,1,64.3500019638062,0|0,3:2|0:0,0:0:0:0:
188,88,68747,1,0,3:2:0:0:
368,169,68958,1,8,0:0:0:0:
40,175,69170,1,8,0:0:0:0:
21,92,69381,2,0,L|109:82,1,64.3500019638062,0|0,3:2|3:0,0:0:0:0:
302,98,69592,6,0,L|138:84,1,128.700003927612,0|0,3:2|3:2,0:0:0:0:
379,187,69909,2,0,L|460:183,2,64.3500019638062,0|8|0,3:2|0:0|0:0,0:0:0:0:
163,157,70226,2,0,L|152:83,1,64.3500019638062,0|0,3:2|0:0,0:0:0:0:
342,60,70437,1,0,3:2:0:0:
163,63,70648,1,8,0:0:0:0:
454,144,70860,1,8,0:0:0:0:
502,81,71071,2,0,L|421:75,1,64.3500019638062,0|0,3:2|0:0,0:0:0:0:
200,109,71282,6,0,P|140:147|172:208,1,128.700003927612,0|0,3:2|3:2,0:0:0:0:
257,211,71599,1,0,3:2:0:0:
65,172,71705,2,0,L|62:68,1,64.3500019638062,8|0,0:0|0:0,0:0:0:0:
180,86,71916,2,0,L|92:81,1,64.3500019638062,0|0,3:2|0:0,0:0:0:0:
318,102,72127,1,0,3:2:0:0:
135,107,72339,1,8,0:0:0:0:
447,142,72550,1,8,0:0:0:0:
496,60,72761,2,0,L|397:50,1,64.3500019638062,0|0,3:2|3:0,0:0:0:0:
218,76,72972,6,0,P|223:142|288:158,1,128.700003927612,0|0,3:2|3:2,0:0:0:0:
373,141,73289,1,0,3:2:0:0:
146,165,73395,2,0,L|135:76,1,64.3500019638062,8|0,0:0|0:0,0:0:0:0:
257,84,73606,2,0,L|341:92,1,64.3500019638062,0|0,3:2|0:0,0:0:0:0:
145,100,73818,1,8,0:2:0:0:
325,134,74029,1,8,0:0:0:0:
22,142,74240,1,4,0:0:0:0:
208,66,74451,1,0,3:2:0:0:
301,50,74557,1,0,3:0:0:0:
77,73,74663,6,0,P|43:128|79:172,1,128.700003927612,0|0,3:2|3:2,0:0:0:0:
172,147,74979,1,0,3:2:0:0:
426,137,75085,2,0,L|519:139,1,64.3500019638062,8|0,0:0|0:0,0:0:0:0:
287,189,75296,2,0,L|394:189,1,64.3500019638062,0|0,3:2|0:0,0:0:0:0:
158,138,75508,1,0,3:2:0:0:
340,112,75719,1,8,0:0:0:0:
32,122,75930,1,8,0:0:0:0:
11,63,76141,2,0,L|110:58,1,64.3500019638062,0|0,3:2|3:0,0:0:0:0:
316,82,76353,6,0,L|148:79,1,128.700003927612,0|0,3:2|3:2,0:0:0:0:
403,102,76670,2,0,L|474:106,2,64.3500019638062,0|8|0,3:2|0:0|3:2,0:0:0:0:
189,155,76987,2,0,L|90:150,1,64.3500019638062,0|0,3:2|0:0,0:0:0:0:
315,80,77198,2,0,L|451:76,1,128.700003927612,0|8,3:2|0:2,0:0:0:0:
108,204,77620,1,8,0:2:0:0:
404,211,77832,1,0,3:0:0:0:
32,133,78043,6,0,L|25:-19,1,128.700003927612,0|0,3:2|3:0,0:0:0:0:
340,72,78466,2,0,L|258:72,1,64.3500019638062,8|0,0:0|0:0,0:0:0:0:
468,60,78677,2,0,L|468:155,1,64.3500019638062,0|0,3:0|3:0,0:0:0:0:
267,194,78888,2,0,L|432:193,1,128.700003927612,0|0,3:0|3:0,0:0:0:0:
81,100,79311,2,0,L|177:88,1,64.3500019638062,8|0,0:0|0:0,0:0:0:0:
360,63,79522,2,0,L|441:50,1,64.3500019638062,0|0,3:0|3:0,0:0:0:0:
163,192,79733,6,0,L|16:187,1,128.700003927612,8|8,0:2|0:2,0:0:0:0:
223,115,80156,1,0,3:2:0:0:
110,83,80297,1,0,3:2:0:0:
223,115,80437,1,0,3:2:0:0:
336,147,80578,5,0,3:2:0:0:
223,115,80719,1,0,3:2:0:0:
336,147,80859,1,0,3:2:0:0:
449,179,81001,1,0,3:2:0:0:
336,147,81142,1,0,3:2:0:0:
449,179,81282,1,0,3:2:0:0:
123,219,81423,6,0,P|87:177|128:137,1,117,4|0,0:0|0:0,0:0:0:0:
195,114,81740,1,0,3:0:0:0:
371,85,81846,1,8,0:0:0:0:
185,45,82057,2,0,L|307:39,2,117,8|0|0,0:0|3:0|3:0,0:0:0:0:
373,104,82691,2,0,L|534:94,1,117,8|0,0:0|3:0,0:0:0:0:
170,205,83113,6,0,L|313:190,1,117,4|0,0:0|3:0,0:0:0:0:
220,142,83430,1,0,3:0:0:0:
35,136,83536,2,0,L|28:10,1,117,0|8,3:0|0:0,0:0:0:0:
336,58,83958,1,0,3:0:0:0:
165,55,84170,1,0,3:0:0:0:
445,165,84381,1,8,0:0:0:0:
265,110,84592,2,0,L|182:103,1,58.5,0|0,3:0|3:0,0:0:0:0:
407,86,84804,6,0,P|449:139|407:172,1,117,4|0,0:0|0:0,0:0:0:0:
341,192,85120,1,0,3:0:0:0:
156,177,85226,2,0,L|78:179,1,58.5,8|0,0:0|0:0,0:0:0:0:
308,108,85437,2,0,L|464:98,1,117,8|0,0:0|3:0,0:0:0:0:
361,151,85754,1,0,3:0:0:0:
245,96,85860,2,0,L|240:15,1,58.5,0|0,3:0|3:0,0:0:0:0:
450,25,86071,2,0,L|457:162,1,117,8|0,0:0|3:0,0:0:0:0:
104,168,86494,5,8,0:0:0:0:
396,163,86705,1,8,0:0:0:0:
104,168,86916,1,8,0:0:0:0:
193,167,87022,1,8,0:0:0:0:
104,168,87127,1,8,0:0:0:0:
319,170,87233,5,8,0:0:0:0:
