osu file format v14

[General]
AudioFilename: audio.mp3
AudioLeadIn: 0
PreviewTime: 53078
Countdown: 0
SampleSet: Soft
StackLeniency: 0.7
Mode: 2
LetterboxInBreaks: 0
WidescreenStoryboard: 1

[Editor]
Bookmarks: 17198,33149,54381,71599
DistanceSpacing: 1.3
BeatDivisor: 4
GridSize: 4
TimelineZoom: 2.799999

[Metadata]
Title:Kaze no Uta (TV Size)
TitleUnicode:風ノ唄 (TV Size)
Artist:FLOW
ArtistUnicode:FLOW
Creator:Secre
Version:Cup
Source:テイルズ オブ ゼスティリア ザ クロス
Tags:chickenbible blackbn blackbq greaper Tales of Zestiria the X opening anime shanipika male vocal japanese pop jpop j-pop jrock j-rock rock op KOHSHI Asakawa Koshi TAKE Takeshi 浅川岳史 浅川甲史 KEIGO Hayashi 林圭吾 GOT'S Gotou Koutarou 後藤康太郎 IWASAKI Hiroshi 岩崎博詞 BURN
BeatmapID:3925276
BeatmapSetID:1820815

[Difficulty]
HPDrainRate:2
CircleSize:2.5
OverallDifficulty:6
ApproachRate:6
SliderMultiplier:1.54
SliderTickRate:1

[Events]
//Background and Video events
0,0,"hololive mmorpg waiting room.png",0,0
//Break Periods
//Storyboard Layer 0 (Background)
//Storyboard Layer 1 (Fail)
//Storyboard Layer 2 (Pass)
//Storyboard Layer 3 (Foreground)
//Storyboard Layer 4 (Overlay)
//Storyboard Sound Samples

[TimingPoints]
297,422.535211267606,4,2,1,37,1,0
719,-100,4,2,1,37,0,0
3677,-100,4,2,1,43,0,0
15508,-100,4,2,1,43,0,0
17198,-100,4,2,1,37,0,0
23747,-100,4,2,1,40,0,0
27339,-100,4,2,1,40,0,0
33888,-100,4,2,1,43,0,0
47620,-100,4,2,1,45,0,0
54381,-100,4,2,1,65,0,1
81423,-100,4,2,1,55,0,0

[Colours]
Combo1 : 247,141,138
Combo2 : 242,167,98
Combo3 : 159,234,174
Combo4 : 176,216,249

[HitObjects]
306,217,297,6,0,P|353:197|290:139,1,154,0|2,0:0|0:0,0:0:0:0:
153,124,1142,1,0,0:0:0:0:
305,104,1564,2,0,L|307:206,1,77
231,214,1987,6,0,L|65:206,1,154,2|2,0:0|0:0,0:0:0:0:
232,114,2832,1,0,0:0:0:0:
379,103,3254,2,0,L|380:192,1,77,2|2,0:0|3:0,0:0:0:0:
302,200,3677,6,0,P|228:199|215:337,1,231,4|2,0:0|3:0,0:0:0:0:
288,323,4522,2,0,L|288:144,1,154,2|0,3:0|3:0,0:0:0:0:
116,146,5367,6,0,L|300:140,1,154,2|0,3:0|3:0,0:0:0:0:
119,158,6212,2,0,L|119:70,1,77,2|0,0:0|3:0,0:0:0:0:
205,81,6635,2,0,L|299:79,1,77,2|0,0:0|3:0,0:0:0:0:
205,81,7057,6,0,P|146:84|112:238,1,231,2|2,3:0|3:0,0:0:0:0:
186,247,7902,2,0,L|356:245,1,154,2|0,3:0|3:0,0:0:0:0:
197,222,8747,6,0,L|194:61,1,154,2|2,3:0|3:0,0:0:0:0:
278,35,9381,1,2,3:0:0:0:
364,33,9592,2,0,L|367:224,1,154,2|0,3:0|3:0,0:0:0:0:
199,246,10437,6,0,P|129:217|211:119,1,231,2|2,3:0|3:0,0:0:0:0:
281,102,11282,2,0,L|278:271,1,154,2|0,3:0|3:0,0:0:0:0:
125,258,12127,6,0,L|296:238,1,154,2|0,3:0|3:0,0:0:0:0:
443,206,12973,2,0,L|446:96,1,77,2|0,3:0|3:0,0:0:0:0:
368,110,13395,2,0,L|281:117,1,77,2|0,3:0|3:0,0:0:0:0:
199,132,13818,6,0,P|147:148|346:263,1,616,2|2,3:0|3:0,0:0:0:0:
256,192,15930,12,0,16775,0:0:0:0:
197,219,17198,6,0,P|153:200|208:128,1,154,2|2,3:2|3:2,0:0:0:0:
279,102,17832,2,0,L|442:96,1,154,2|2,3:2|3:0,0:0:0:0:
284,128,18677,1,2,3:0:0:0:
205,118,18888,6,0,P|142:117|116:209,1,154,2|2,3:2|3:2,0:0:0:0:
191,246,19522,2,0,P|281:219|287:155,1,154,2|2,3:2|3:0,0:0:0:0:
133,96,20367,1,2,3:0:0:0:
58,157,20578,6,0,L|234:153,1,154,2|2,3:2|3:2,0:0:0:0:
301,149,21212,2,0,L|313:315,1,154,2|2,3:2|3:2,0:0:0:0:
162,229,22057,1,0,3:2:0:0:
83,205,22268,6,0,L|81:22,1,154,2|2,3:0|3:0,0:0:0:0:
160,37,22902,2,0,L|342:36,1,154,2|2,3:0|3:0,0:0:0:0:
156,94,23747,1,0,3:2:0:0:
154,55,23852,1,0,3:2:0:0:
153,17,23958,5,2,3:2:0:0:
234,6,24170,1,0,3:2:0:0:
316,17,24381,2,0,L|320:118,1,77,2|2,3:2|3:2,0:0:0:0:
236,132,24804,1,0,3:2:0:0:
152,143,25015,2,0,P|100:125|168:76,1,154,2|0,3:2|3:0,0:0:0:0:
233,60,25649,6,0,L|339:55,2,77,2|2|2,3:0|3:0|3:0,0:0:0:0:
79,171,26494,2,0,L|76:84,1,77,2|2,3:0|3:0,0:0:0:0:
161,52,26916,1,2,3:0:0:0:
341,60,27339,6,0,P|415:75|417:166,1,154,2|2,3:2|3:2,0:0:0:0:
346,158,27973,2,0,L|175:157,1,154,2|2,3:2|3:0,0:0:0:0:
192,157,28606,1,8,0:0:0:0:
359,177,29029,6,0,P|405:108|340:90,1,154,2|2,3:2|3:2,0:0:0:0:
283,25,29663,2,0,P|227:24|201:116,1,154,2|2,3:2|3:0,0:0:0:0:
279,121,30297,1,2,3:0:0:0:
453,145,30719,6,0,L|456:44,1,77,2|0,3:2|3:0,0:0:0:0:
373,54,31142,2,0,L|275:57,2,77,2|0|2,3:2|3:2|3:0,0:0:0:0:
456,46,31775,2,0,L|460:147,1,77,0|8,3:2|0:0,0:0:0:0:
291,167,32409,6,0,P|242:165|213:265,1,154,2|2,3:0|3:0,0:0:0:0:
286,280,33043,1,2,3:0:0:0:
435,204,33466,2,0,L|436:112,1,77,2|2,3:0|3:0,0:0:0:0:
348,114,33888,1,0,3:2:0:0:
272,113,34099,6,0,L|88:108,1,154,2|2,3:2|3:2,0:0:0:0:
201,197,34733,2,0,P|247:176|186:112,1,154,2|2,3:2|3:0,0:0:0:0:
129,109,35367,1,8,0:0:0:0:
281,109,35789,6,0,L|368:100,1,77,2|0,3:2|3:2,0:0:0:0:
281,109,36212,2,0,L|184:117,1,77,0|0,3:2|3:2,0:0:0:0:
281,109,36635,2,0,L|423:103,2,115.5,2|0|0,3:2|0:0|3:2,0:0:0:0:
198,193,37480,6,0,P|146:170|209:113,1,154,2|2,3:0|3:0,0:0:0:0:
267,92,38113,1,2,3:0:0:0:
413,89,38536,2,0,L|510:81,2,77,2|8|0,3:0|0:0|3:0,0:0:0:0:
330,104,39170,6,0,L|165:98,1,154,2|0,3:0|3:2,0:0:0:0:
313,111,40015,2,0,L|316:275,1,154,0|2,3:2|3:2,0:0:0:0:
159,220,40860,6,0,L|332:207,1,154,4|0,0:2|3:2,0:0:0:0:
392,182,41494,2,0,L|395:20,1,154,0|0,3:2|3:2,0:0:0:0:
234,78,42339,6,0,L|72:90,1,154,0|0,3:2|3:2,0:0:0:0:
230,85,43184,1,0,3:2:0:0:
377,74,43606,2,0,P|433:100|376:154,1,154,0|0,3:2|3:0,0:0:0:0:
309,167,44240,5,2,3:0:0:0:
150,159,44663,2,0,L|148:74,1,77,0|0,3:2|3:2,0:0:0:0:
289,68,45297,2,0,L|385:63,2,77,0|8|0,3:2|0:2|3:2,0:0:0:0:
211,80,45930,5,2,3:0:0:0:
130,151,46142,2,0,L|126:53,1,77,0|0,3:2|3:0,0:0:0:0:
205,40,46564,2,0,L|392:40,1,154,0|0,3:2|3:0,0:0:0:0:
359,40,47198,1,0,3:0:0:0:
199,127,47620,5,4,0:0:0:0:
119,93,47832,1,0,3:2:0:0:
112,16,48043,1,8,0:2:0:0:
273,60,48466,2,0,L|374:58,1,77,0|0,3:2|3:2,0:0:0:0:
207,161,49099,1,0,3:2:0:0:
130,153,49310,5,4,0:2:0:0:
207,161,49522,1,0,3:2:0:0:
287,165,49733,2,0,L|290:74,1,77,8|0,0:2|3:2,0:0:0:0:
213,73,50156,2,0,L|210:-7,1,77,0|0,3:2|3:2,0:0:0:0:
294,36,50578,2,0,L|395:35,1,77,8|0,0:2|3:2,0:0:0:0:
294,36,51001,6,0,L|154:37,2,115.5,8|8|8,0:2|0:0|0:0,0:0:0:0:
447,104,52057,2,0,L|449:196,1,77,8|8,0:0|0:0,0:0:0:0:
367,201,52480,1,8,0:0:0:0:
286,160,52691,6,0,L|179:156,1,77,8|8,0:0|0:0,0:0:0:0:
256,192,53219,12,0,53958,0:0:0:0:
292,153,54381,5,4,0:2:0:0:
366,120,54592,2,0,L|372:53,1,38.5,0|0,3:2|3:2,0:0:0:0:
251,84,55015,2,0,L|161:81,1,77,0|0,3:2|3:2,0:0:0:0:
326,167,55860,5,0,3:2:0:0:
251,84,56071,1,0,3:2:0:0:
186,50,56282,2,0,L|190:122,1,38.5,0|0,3:2|3:2,0:0:0:0:
296,148,56705,2,0,L|391:148,1,77,0|0,3:2|3:2,0:0:0:0:
221,175,57550,5,0,3:2:0:0:
143,138,57761,1,0,3:2:0:0:
219,126,57973,2,0,L|218:57,1,38.5,0|0,3:2|3:2,0:0:0:0:
104,72,58395,2,0,L|9:71,1,77,0|0,3:2|3:2,0:0:0:0:
181,105,59240,5,0,3:2:0:0:
103,107,59451,1,0,3:2:0:0:
182,187,59663,2,0,L|183:118,1,38.5,0|0,3:2|3:2,0:0:0:0:
297,133,60085,2,0,L|392:132,1,77,0|8,3:2|0:2,0:0:0:0:
226,73,60719,1,4,0:0:0:0:
374,72,61142,5,4,0:2:0:0:
266,127,61458,2,0,L|266:60,1,38.5,0|8,3:2|0:2,0:0:0:0:
340,43,61775,1,0,3:2:0:0:
422,27,61987,1,0,3:2:0:0:
268,64,62620,5,0,3:2:0:0:
189,66,62832,1,0,3:2:0:0:
268,64,63043,2,0,L|266:-2,1,38.5,0|0,3:2|3:2,0:0:0:0:
376,18,63466,1,0,3:2:0:0:
452,27,63677,2,0,L|453:122,1,77,0|8,3:2|0:2,0:0:0:0:
373,153,64099,6,0,L|201:153,1,154,8|0,0:2|3:2,0:0:0:0:
375,157,64944,2,0,L|377:320,1,154,8|0,0:0|3:0,0:0:0:0:
214,293,65789,1,8,0:0:0:0:
371,193,66212,6,0,L|376:109,1,77,0|0,3:0|3:0,0:0:0:0:
300,110,66635,2,0,L|129:116,1,154,4|8,0:2|0:2,0:0:0:0:
224,182,67268,1,0,3:0:0:0:
300,103,67480,1,4,0:2:0:0:
148,101,67902,5,4,0:2:0:0:
72,78,68113,2,0,L|69:5,1,38.5,0|0,3:2|3:2,0:0:0:0:
187,33,68536,1,0,3:2:0:0:
263,30,68747,1,0,3:2:0:0:
422,127,69381,5,0,3:2:0:0:
498,104,69592,1,0,3:2:0:0:
424,177,69804,2,0,L|424:105,1,38.5,0|0,3:2|3:2,0:0:0:0:
311,102,70226,1,0,3:2:0:0:
232,81,70437,1,0,3:2:0:0:
422,77,71071,5,0,3:2:0:0:
348,73,71282,1,0,3:2:0:0:
271,88,71494,2,0,L|269:155,1,38.5,0|0,3:2|3:2,0:0:0:0:
378,169,71916,1,0,3:2:0:0:
454,173,72127,1,0,3:2:0:0:
221,137,72761,5,0,3:2:0:0:
295,133,72972,1,0,3:2:0:0:
372,148,73184,2,0,L|374:215,1,38.5,0|0,3:2|3:2,0:0:0:0:
265,229,73606,1,0,3:2:0:0:
189,233,73817,1,8,0:2:0:0:
338,150,74240,1,4,0:0:0:0:
194,176,74663,6,0,L|189:6,1,154,0|8,3:2|0:0,0:0:0:0:
267,47,75297,1,0,3:2:0:0:
346,51,75508,1,0,3:2:0:0:
144,185,76142,5,0,3:2:0:0:
219,169,76353,1,0,3:2:0:0:
298,158,76564,2,0,L|301:86,1,38.5,0|0,3:2|3:2,0:0:0:0:
192,105,76987,1,0,3:2:0:0:
114,113,77198,2,0,L|114:224,1,77,0|8,3:2|0:2,0:0:0:0:
195,237,77620,6,0,L|359:240,1,154,8|0,0:2|3:2,0:0:0:0:
214,232,78466,2,0,L|28:229,2,154,8|0|8,0:0|3:0|0:0,0:0:0:0:
375,267,79733,6,0,L|378:167,1,77,8|8,0:2|0:2,0:0:0:0:
256,192,80261,12,0,81001,0:0:0:0:
199,219,81423,6,0,P|153:197|214:123,1,154,4|8,0:0|0:0,0:0:0:0:
264,100,82057,1,8,0:0:0:0:
422,101,82480,2,0,L|426:201,1,77,0|8,3:0|0:0,0:0:0:0:
266,211,83113,6,0,L|112:207,1,154,4|0,0:0|3:0,0:0:0:0:
191,137,83747,1,8,0:0:0:0:
274,133,83958,2,0,L|276:303,1,154,0|8,3:0|0:0,0:0:0:0:
200,285,84592,1,0,3:0:0:0:
121,213,84804,6,0,P|68:199|126:145,1,154,4|8,0:0|0:0,0:0:0:0:
188,119,85437,1,8,0:0:0:0:
343,119,85860,2,0,L|341:212,1,77,0|8,3:0|0:0,0:0:0:0:
196,228,86494,6,0,L|196:142,1,77,8|8,0:0|0:0,0:0:0:0:
284,122,86916,1,8,0:0:0:0:
284,122,87022,1,8,0:0:0:0:
284,122,87127,1,8,0:0:0:0:
284,122,87233,5,8,0:0:0:0:
