osu file format v14

[General]
AudioFilename: KAZENOUTAH.mp3
AudioLeadIn: 0
PreviewTime: 53112
Countdown: 0
SampleSet: Soft
StackLeniency: 0.7
Mode: 0
LetterboxInBreaks: 0
WidescreenStoryboard: 1

[Editor]
DistanceSpacing: 1
BeatDivisor: 4
GridSize: 4
TimelineZoom: 1

[Metadata]
Title:Kaze no Uta
TitleUnicode:風ノ唄
Artist:FLOW
ArtistUnicode:FLOW
Creator:Gear
Version:Normal
Source:テイルズ オブ ゼスティリア ザ クロス
Tags:Tales of Zestiria the X Cross Saiyaku no Jidai Opening Ending Full
BeatmapID:1113576
BeatmapSetID:524659

[Difficulty]
HPDrainRate:3
CircleSize:3
OverallDifficulty:4
ApproachRate:5
SliderMultiplier:1.2
SliderTickRate:1

[Events]
//Background and Video events
0,0,"LOOKATTHEVIEWDANG.jpg",0,0
//Break Periods
//Storyboard Layer 0 (Background)
//Storyboard Layer 1 (Fail)
//Storyboard Layer 2 (Pass)
//Storyboard Layer 3 (Foreground)
//Storyboard Sound Samples

[TimingPoints]
3676,422.535211267606,4,2,0,60,1,0
3676,-100,4,2,0,50,0,0
15506,-100,4,2,0,75,0,0
17197,-100,4,2,0,25,0,0
27337,-100,4,2,0,30,0,0
40859,-100,4,2,0,40,0,0
47619,-100,4,2,0,50,0,0
50577,-100,4,2,0,60,0,0
52690,-100,4,2,0,70,0,0
54380,-100,4,2,0,80,0,1
79732,-100,4,2,0,50,0,0
81422,-100,4,2,0,80,0,0
94943,-100,4,2,0,50,0,0
101704,-100,4,2,0,60,0,0
103394,-100,4,2,0,50,0,0
118605,-100,4,2,0,35,0,0
124943,-100,4,2,0,50,0,0
125366,-100,4,2,0,60,0,0
130436,-100,4,2,0,70,0,0
132126,-100,4,2,0,80,0,1
157478,-100,4,2,0,50,0,0
159168,-100,4,2,0,60,0,0
178605,-100,4,2,0,40,0,0
179450,-100,4,2,0,50,0,0
186210,-100,4,2,0,80,0,0
186211,-100,4,2,0,50,0,0
211563,-100,4,2,0,60,0,0
214943,-100,4,2,0,50,0,0
216633,-100,4,2,0,40,0,0
226774,-100,4,2,0,50,0,0
228464,-100,4,2,0,70,0,0
230154,-100,4,2,0,80,0,1
243676,-100,4,2,0,50,0,0
248746,-100,4,2,0,100,0,0
250436,-100,4,2,0,80,0,0

[Colours]
Combo1 : 255,191,0
Combo2 : 102,255,240
Combo3 : 242,125,255
Combo4 : 255,11,11

[HitObjects]
84,103,3676,6,0,P|143:96|200:111,1,120,2|0,3:2|3:2,3:3:0:0:
252,144,4310,1,0,3:2:0:0:
252,144,4521,2,0,P|309:159|368:151,1,120,2|0,3:2|3:2,3:3:0:0:
464,76,5366,2,0,P|484:189|401:268,1,240,2|2,3:2|3:2,3:3:0:0:
280,268,6634,1,2,3:2:0:0:
216,168,7056,6,0,L|195:49,1,120,2|0,3:2|3:2,3:3:0:0:
136,40,7690,1,0,3:2:0:0:
136,40,7901,2,0,P|83:64|60:118,1,120,2|0,3:2|3:2,3:3:0:0:
12,228,8746,6,0,P|71:235|127:216,1,120,2|2,3:2|3:2,3:3:0:0:
176,180,9380,1,0,3:2:0:0:
176,180,9592,2,0,L|295:187,1,120,2|0,3:2|3:2,3:3:0:0:
412,156,10437,6,0,P|413:215|385:267,1,120,2|0,3:2|3:2,3:3:0:0:
344,312,11070,1,0,3:2:0:0:
344,312,11282,2,0,L|224:304,1,120,2|0,3:2|3:2,3:3:0:0:
103,319,12127,2,0,P|142:211|254:187,1,240,2|2,3:2|3:2,3:3:0:0:
368,148,13394,1,2,3:2:0:0:
296,52,13817,6,0,L|176:63,1,120,2|0,3:2|3:2,3:3:0:0:
56,52,14662,2,0,L|68:112,1,60,0|0,3:2|0:0,3:3:0:0:
80,168,15085,1,0,3:2:0:0:
132,276,15507,6,0,P|253:333|180:220,1,360,2|0,0:2|0:0,0:0:0:0:
204,100,17197,6,0,P|262:109|315:137,1,120,2|0,3:2|3:2,3:3:0:0:
364,176,17831,2,0,P|342:120|340:60,1,120,2|0,3:2|3:2,3:3:0:0:
350,0,18465,1,0,3:2:0:0:
240,52,18887,6,0,L|120:67,1,120,2|0,3:2|3:2,3:3:0:0:
76,108,19521,2,0,P|97:163|91:222,1,120,2|0,3:2|3:2,3:3:0:0:
44,260,20155,2,0,L|55:318,1,60,0|0,3:2|3:2,0:0:0:0:
96,363,20577,6,0,P|141:325|199:312,1,120,2|0,3:2|3:2,3:3:0:0:
256,336,21211,2,0,P|218:289|204:232,1,120,2|2,3:2|3:2,3:3:0:0:
229,176,21845,1,0,3:2:0:0:
304,84,22268,6,0,L|423:94,1,120,2|0,3:2|3:2,3:3:0:0:
496,188,23113,2,0,L|376:198,1,120,0|0,3:2|3:2,3:3:0:0:
315,204,23746,1,0,3:2:0:0:
315,204,23958,6,0,P|286:210|260:225,1,60,2|0,3:2|3:2,0:0:0:0:
216,264,24380,2,0,P|189:278|160:285,1,60,2|2,3:2|3:2,0:0:0:0:
99,280,24803,2,0,P|58:238|53:179,1,120,2|0,3:2|0:0,0:0:0:0:
36,60,25648,6,0,L|95:66,1,60,2|2,3:2|3:2,0:0:0:0:
156,72,26070,1,2,3:2:0:0:
227,168,26493,2,0,P|250:148|264:121,1,60,2|2,3:2|3:2,0:0:0:0:
308,80,26915,2,0,P|337:85|362:101,1,60,2|0,3:2|3:2,0:0:0:0:
400,148,27338,6,0,L|388:268,1,120,2|0,3:2|3:2,3:3:0:0:
351,315,27972,2,0,P|295:296|235:294,1,120,2|0,3:2|3:2,3:3:0:0:
176,304,28606,1,0,1:2:0:0:
92,216,29028,6,0,P|136:176|152:119,1,120,2|0,3:2|3:2,3:3:0:0:
168,60,29662,2,0,P|179:117|221:160,1,120,2|0,3:2|3:2,3:3:0:0:
265,203,30296,2,0,L|256:262,1,60,0|0,3:2|3:2,0:0:0:0:
276,320,30718,6,0,P|332:336|389:317,1,120,2|0,3:2|3:2,3:3:0:0:
424,268,31352,2,0,L|431:148,1,120,2|0,3:2|3:2,3:3:0:0:
436,88,31986,1,0,1:2:0:0:
340,156,32408,6,0,L|336:215,2,60,0|0|0,3:2|0:0|3:2,3:3:0:0:
255,72,33254,2,0,P|202:96|176:148,1,120,0|0,3:2|3:2,0:0:0:0:
164,208,33887,1,0,3:2:0:0:
164,208,34099,6,0,L|47:235,1,120,2|0,3:2|3:2,3:3:0:0:
36,296,34732,2,0,P|61:349|114:373,1,120,2|0,3:2|3:2,3:3:0:0:
176,368,35366,1,0,1:2:0:0:
276,304,35789,6,0,L|279:244,1,60,2|2,3:2|3:2,0:0:0:0:
252,188,36211,2,0,P|304:204|372:184,1,120,2|2,3:2|3:2,3:3:0:0:
468,128,37056,1,2,3:2:0:0:
372,56,37479,6,0,L|252:52,1,120,2|0,3:2|1:2,3:3:0:0:
132,44,38324,1,0,3:2:0:0:
64,144,38746,1,2,1:2:0:0:
184,152,39169,1,2,3:2:0:0:
115,252,39592,2,0,P|114:311|145:361,1,120,2|2,3:2|3:2,3:3:0:0:
232,280,40437,1,2,3:2:0:0:
232,280,40859,6,0,L|351:273,1,120,6|0,3:2|3:2,3:3:0:0:
408,296,41493,2,0,P|385:240|387:181,1,120,2|0,3:2|3:2,3:3:0:0:
404,124,42127,1,0,1:2:0:0:
308,48,42549,6,0,L|188:54,1,120,2|0,3:2|3:2,0:0:0:0:
68,68,43394,1,0,3:2:0:0:
31,184,43817,2,0,P|31:213|37:243,1,60,2|2,3:2|3:2,0:0:0:0:
52,299,44239,6,0,P|105:273|164:274,1,120,2|0,3:2|3:2,3:3:0:0:
216,304,44873,2,0,P|275:304|328:278,1,120,2|0,3:2|3:2,3:3:0:0:
360,228,45507,1,0,1:2:0:0:
464,168,45930,6,0,L|470:287,1,120,2|0,3:2|3:2,0:0:0:0:
360,328,46775,2,0,P|339:306|329:278,1,60,0|0,3:2|3:2,0:0:0:0:
360,228,47197,1,0,3:2:0:0:
324,112,47620,6,0,L|264:120,1,60,2|2,3:2|3:2,0:0:0:0:
204,128,48042,1,2,1:2:0:0:
84,140,48465,2,0,P|82:110|92:82,2,60,2|2|2,3:2|3:2|1:2,0:0:0:0:
56,256,49310,2,0,P|85:262|115:260,1,60,2|2,3:2|3:2,0:0:0:0:
170,233,49732,2,0,P|199:231|229:237,1,60,2|2,1:2|3:2,0:0:0:0:
280,272,50155,1,2,3:2:0:0:
372,196,50577,1,2,1:2:0:0:
372,196,50789,1,2,3:2:0:0:
396,140,51000,6,0,L|399:50,2,90,0|0|0,1:2|1:2|1:2,0:0:0:0:
284,100,52056,1,0,1:2:0:0:
228,80,52268,2,0,L|169:93,1,60,0|0,1:2|1:2,0:0:0:0:
112,108,52690,5,0,1:2:0:0:
112,108,52901,1,0,1:2:0:0:
40,320,54380,6,0,P|95:340|153:327,1,120,6|2,3:2|1:2,0:0:0:0:
199,287,55014,1,2,3:2:0:0:
199,287,55225,2,0,P|257:274|312:294,1,120,2|0,3:2|1:2,0:0:0:0:
356,336,55859,1,2,3:2:0:0:
356,336,56070,6,0,L|372:264,1,60,2|0,3:2|3:2,0:0:0:0:
420,248,56493,2,0,L|416:174,1,60,2|2,1:2|3:2,0:0:0:0:
459,146,56915,1,2,3:2:0:0:
400,40,57338,2,0,L|340:48,1,60,0|2,1:2|3:2,0:0:0:0:
279,56,57761,6,0,P|230:88|171:95,1,120,2|2,3:2|1:2,0:0:0:0:
112,80,58394,1,2,3:2:0:0:
112,80,58606,2,0,L|119:199,1,120,2|0,3:2|1:2,0:0:0:0:
124,260,59239,1,2,3:2:0:0:
124,260,59451,6,0,P|137:287|158:309,1,60,2|0,3:2|3:2,0:0:0:0:
217,305,59873,2,0,P|237:283|250:256,1,60,2|2,1:2|3:2,0:0:0:0:
264,196,60296,1,2,3:2:0:0:
252,76,60718,2,0,L|311:83,1,60,4|2,1:2|3:2,0:0:0:0:
363,56,61141,6,0,P|381:112|431:143,1,120,6|2,3:2|1:2,3:3:0:0:
492,140,61775,1,2,3:2:0:0:
492,140,61986,2,0,L|473:258,1,120,2|0,3:2|1:2,0:0:0:0:
464,316,62620,1,2,3:2:0:0:
464,316,62831,6,0,P|477:342|497:364,2,60,2|0|2,3:2|3:2|1:2,0:0:0:0:
368,244,63676,2,0,P|338:242|308:248,1,60,2|2,3:2|3:2,0:0:0:0:
252,272,64099,1,2,1:2:0:0:
130,252,64521,6,0,P|133:311|164:361,2,120,2|0|0,3:2|1:2|3:2,3:3:0:0:
216,168,65789,1,0,1:2:0:0:
328,126,66211,1,0,3:3:0:0:
402,219,66634,1,6,1:2:0:0:
335,321,67056,1,2,1:2:0:0:
218,287,67479,1,6,1:2:0:0:
216,168,67901,6,0,P|158:156|99:167,1,120,6|2,3:2|1:2,0:0:0:0:
44,196,68535,1,2,3:2:0:0:
44,196,68746,2,0,P|83:151|103:95,1,120,2|0,3:2|1:2,0:0:0:0:
104,33,69380,1,2,3:2:0:0:
104,33,69592,5,2,3:2:0:0:
216,76,70014,2,0,L|208:148,2,60,2|2|2,1:2|3:2|3:2,0:0:0:0:
327,115,70859,2,0,P|355:127|385:129,1,60,0|2,1:2|3:2,0:0:0:0:
432,92,71282,6,0,L|435:211,1,120,2|2,3:2|1:2,0:0:0:0:
436,272,71915,1,2,3:2:0:0:
436,272,72127,2,0,P|380:254|320:254,1,120,2|0,3:2|1:2,0:0:0:0:
264,276,72761,1,2,3:2:0:0:
264,276,72972,6,0,L|240:216,1,60,2|0,3:2|3:2,0:0:0:0:
184,208,73394,2,0,L|176:143,1,60,2|2,1:2|3:2,0:0:0:0:
124,121,73817,1,2,3:2:0:0:
208,36,74239,2,0,P|237:42|267:42,1,60,0|2,1:2|3:2,0:0:0:0:
324,28,74662,6,0,P|384:40|420:104,1,120,2|2,3:2|1:2,0:0:0:0:
428,144,75296,1,2,3:2:0:0:
428,144,75507,2,0,L|420:263,1,120,2|0,3:2|1:2,0:0:0:0:
416,324,76141,1,2,3:2:0:0:
416,324,76352,6,0,P|433:348|454:369,2,60,2|0|2,3:2|3:2|1:2,0:0:0:0:
316,260,77197,2,0,P|286:262|257:270,1,60,2|2,3:2|3:2,0:0:0:0:
204,300,77620,1,2,1:2:0:0:
92,256,78042,6,0,P|69:200|73:141,1,120,2|0,3:2|1:2,3:3:0:0:
168,68,78887,2,0,P|190:123|186:182,1,120,0|0,3:2|1:2,3:3:0:0:
204,300,79732,5,2,1:2:0:0:
204,300,79944,1,2,1:2:0:0:
412,344,81423,6,0,L|416:220,1,120,6|0,3:2|1:2,3:3:0:0:
416,164,82056,1,2,3:2:0:0:
416,164,82268,2,0,P|357:172|299:159,1,120,2|0,3:2|1:2,3:3:0:0:
308,280,83113,2,0,P|249:272|201:236,1,120,2|0,3:2|1:2,3:3:0:0:
185,116,83958,1,2,3:2:0:0:
279,41,84380,1,2,1:2:0:0:
298,159,84803,6,0,P|356:172|415:164,1,120,2|0,3:2|1:2,3:3:0:0:
468,136,85437,1,2,3:2:0:0:
468,136,85648,2,0,L|465:256,1,120,2|0,3:2|1:2,3:3:0:0:
424,368,86493,2,0,P|376:332|317:327,1,120,2|2,3:2|1:2,3:3:0:0:
260,336,87127,1,0,3:2:0:0:
260,336,87338,2,0,P|201:331|154:295,1,120,2|0,3:2|1:2,0:0:0:0:
244,216,88183,6,0,P|251:157|225:103,1,120,2|0,3:2|1:2,3:3:0:0:
192,52,88817,1,2,3:2:0:0:
192,52,89028,2,0,P|239:87|298:92,1,120,2|0,3:2|1:2,3:3:0:0:
416,64,89873,2,0,L|398:182,1,120,2|0,3:2|1:2,3:3:0:0:
372,300,90718,1,2,3:2:0:0:
284,220,91141,1,2,1:2:0:0:
257,336,91563,6,0,P|200:352|143:337,1,120,2|0,3:2|1:2,3:3:0:0:
100,228,92408,2,0,P|114:170|155:127,1,120,0|0,3:2|1:2,3:3:0:0:
256,196,93254,1,2,3:2:0:0:
357,127,93676,1,4,3:2:0:0:
425,227,94099,2,0,P|426:257|415:285,1,60,0|0,3:2|3:2,0:0:0:0:
372,328,94521,1,4,3:2:0:0:
252,324,94944,6,0,L|132:314,1,120,2|0,3:2|3:2,3:3:0:0:
71,304,95577,2,0,P|135:242|145:155,1,180,2|0,3:2|3:2,3:3:0:0:
236,76,96634,2,0,L|355:85,1,120,2|0,3:2|3:2,3:3:0:0:
416,95,97268,2,0,P|352:156|342:243,1,180,2|0,3:2|3:2,3:3:0:0:
360,300,98113,1,2,3:2:0:0:
360,300,98324,6,0,P|304:319|244:323,1,120,2|0,3:2|3:2,3:3:0:0:
183,324,98958,2,0,P|184:234|143:155,1,180,2|0,3:2|3:2,3:3:0:0:
88,48,100014,2,0,L|207:54,1,120,2|0,3:2|3:2,3:3:0:0:
276,152,100859,2,0,L|395:145,1,120,0|0,0:0|3:2,0:0:0:0:
496,80,101704,5,2,1:2:0:0:
496,80,103394,6,0,L|493:139,1,60,2|2,3:2|3:2,0:0:0:0:
488,200,103817,1,2,3:2:0:0:
488,200,104028,1,0,1:2:0:0:
452,248,104239,2,0,P|423:252|394:247,1,60,2|2,3:2|3:2,0:0:0:0:
337,224,104662,2,0,P|307:218|278:223,1,60,2|0,1:2|1:2,0:0:0:0:
226,252,105085,6,0,P|171:233|140:184,1,120,6|0,1:2|3:2,0:2:0:0:
144,124,105718,1,2,1:2:0:0:
144,124,105929,2,0,L|152:56,1,60,0|0,1:2|0:2,0:2:0:0:
200,28,106352,1,0,1:2:0:0:
268,128,106775,6,0,P|324:143|380:124,1,120,2|0,3:2|3:2,3:3:0:0:
436,100,107408,1,2,1:2:0:0:
436,100,107619,2,0,L|439:159,1,60,0|0,1:0|0:0,0:0:0:0:
444,220,108042,1,0,1:2:0:0:
388,324,108465,6,0,L|320:316,1,60,2|0,3:2|0:0,3:3:0:0:
268,312,108887,1,0,3:2:0:0:
268,312,109099,2,0,P|296:264|296:200,1,120,2|0,1:2|3:2,0:0:0:0:
276,144,109732,1,0,1:2:0:0:
188,60,110155,6,0,L|69:79,1,120,2|0,3:2|3:2,3:3:0:0:
12,92,110789,1,0,1:2:0:0:
12,92,111000,2,0,L|8:151,1,60,0|0,1:2|3:2,0:0:0:0:
20,212,111423,2,0,L|23:271,1,60,0|0,1:2|3:2,0:0:0:0:
16,332,111845,6,0,P|68:359|127:355,1,120,2|0,3:2|3:2,0:0:0:0:
164,308,112478,1,2,1:2:0:0:
164,308,112690,2,0,L|224:308,1,60,0|0,1:0|0:0,0:0:0:0:
280,324,113113,1,0,1:2:0:0:
392,276,113535,6,0,B|404:248|404:248|404:158,1,120,2|0,3:2|3:2,3:3:0:0:
404,100,114169,1,2,1:2:0:0:
404,99,114380,2,0,P|375:109|345:112,1,60,0|0,1:0|0:0,0:0:0:0:
288,100,114802,1,0,1:0:0:0:
176,56,115225,6,0,L|56:70,1,120,2|0,3:2|3:2,3:3:0:0:
20,120,115859,1,0,1:2:0:0:
20,120,116070,2,0,P|16:149|19:179,1,60,0|0,3:2|3:2,0:0:0:0:
48,232,116493,2,0,P|52:261|49:291,1,60,0|0,1:2|3:2,0:0:0:0:
32,348,116915,5,6,3:2:0:0:
144,299,117338,2,0,P|198:277|257:283,1,120,6|0,3:2|1:2,0:0:0:0:
368,336,118183,1,0,3:2:0:0:
368,336,118606,6,0,L|374:216,1,120,6|0,3:2|0:2,0:0:0:0:
375,156,119239,2,0,P|317:144|275:103,1,120,2|0,0:2|0:2,0:0:0:0:
252,48,119873,1,2,0:2:0:0:
132,48,120296,2,0,L|126:168,1,120,2|0,0:2|0:2,0:0:0:0:
116,288,121141,1,0,0:0:0:0:
232,256,121563,2,0,P|261:251|291:254,1,60,2|0,0:2|0:2,0:0:0:0:
336,291,121986,6,0,P|344:232|375:181,1,120,2|0,0:2|0:2,0:0:0:0:
408,132,122620,2,0,P|352:154|293:153,1,120,2|0,0:2|0:2,0:0:0:0:
234,150,123254,1,2,0:2:0:0:
127,88,123676,2,0,P|110:144|123:202,1,120,2|0,0:2|0:2,0:0:0:0:
131,323,124521,2,0,P|161:320|188:306,1,60,0|0,3:3|3:3,0:0:0:0:
236,272,124944,1,4,1:2:0:0:
234,150,125366,6,0,L|293:145,1,60,2|0,3:2|3:2,0:0:0:0:
352,140,125789,1,2,3:2:0:0:
456,200,126211,2,0,P|469:173|471:143,2,60,2|2|0,3:2|3:2|3:2,0:0:0:0:
348,252,127056,2,0,P|318:253|291:266,1,60,2|2,3:2|3:2,0:0:0:0:
240,296,127479,2,0,P|210:294|183:281,1,60,2|2,3:2|3:2,0:0:0:0:
132,252,127901,2,0,L|73:266,2,60,2|2|2,3:2|3:2|1:2,0:0:0:0:
152,196,128535,1,2,0:2:0:0:
152,196,128746,6,0,L|239:175,2,90,0|0|0,1:2|1:2|1:2,0:0:0:0:
52,128,129803,1,0,1:2:0:0:
84,76,130014,2,0,L|152:64,1,60,0|0,1:2|1:2,0:0:0:0:
204,56,130437,5,0,1:2:0:0:
204,56,130648,1,0,1:2:0:0:
260,76,130859,2,0,B|320:88|320:88|377:74,1,120,6|6,3:2|3:2,0:0:0:0:
496,52,131704,2,0,L|492:111,1,60,2|0,1:2|1:2,0:0:0:0:
488,172,132127,6,0,P|465:226|411:248,1,120,6|2,3:2|1:2,0:0:0:0:
352,252,132761,1,2,3:2:0:0:
352,252,132972,2,0,L|232:241,1,120,2|0,3:2|1:2,0:0:0:0:
172,232,133606,1,2,3:2:0:0:
172,232,133817,6,0,P|149:214|135:187,1,60,2|0,3:2|3:2,0:0:0:0:
109,133,134239,2,0,P|113:103|129:78,1,60,2|2,1:2|3:2,0:0:0:0:
176,40,134662,1,2,3:2:0:0:
280,100,135085,2,0,L|340:100,1,60,0|2,1:2|3:2,0:0:0:0:
387,64,135507,6,0,P|380:123|397:180,1,120,2|2,3:2|1:2,0:0:0:0:
420,236,136141,1,2,3:2:0:0:
420,236,136352,2,0,L|284:240,1,120,2|0,3:2|1:2,0:0:0:0:
240,244,136986,1,2,3:2:0:0:
240,244,137197,6,0,P|211:249|185:263,1,60,2|0,3:2|3:2,0:0:0:0:
133,232,137620,2,0,P|143:203|143:174,1,60,2|2,1:2|3:2,0:0:0:0:
125,115,138042,2,0,P|158:66|214:48,1,120,2|4,3:2|1:2,0:0:0:0:
276,60,138676,1,2,3:2:0:0:
276,60,138887,6,0,L|396:80,1,120,6|2,3:2|1:2,3:3:0:0:
456,76,139521,1,2,3:2:0:0:
456,76,139732,2,0,P|429:128|428:188,1,120,2|0,3:2|1:2,0:0:0:0:
428,248,140366,1,2,3:2:0:0:
428,248,140577,6,0,L|496:240,2,60,2|0|2,3:2|3:2|1:2,0:0:0:0:
316,200,141423,2,0,L|256:192,1,60,2|2,3:2|3:2,0:0:0:0:
196,184,141845,1,2,1:2:0:0:
164,300,142268,6,0,P|110:274|80:224,2,120,2|0|0,3:2|1:2|3:2,3:3:0:0:
284,288,143535,1,0,1:2:0:0:
305,168,143958,1,0,3:3:0:0:
199,109,144380,1,6,1:2:0:0:
112,192,144803,1,2,1:2:0:0:
164,300,145225,1,4,1:2:0:0:
284,287,145648,6,0,P|342:275|399:292,1,120,6|2,3:2|1:2,0:0:0:0:
444,332,146282,1,2,3:2:0:0:
444,332,146493,2,0,L|447:212,1,120,2|0,3:2|1:2,0:0:0:0:
448,152,147127,1,2,3:2:0:0:
448,152,147338,5,2,3:2:0:0:
356,76,147761,2,0,P|328:86|298:86,1,60,2|2,1:2|3:2,0:0:0:0:
240,76,148183,1,2,3:2:0:0:
120,68,148606,2,0,P|119:97|130:125,1,60,0|2,1:2|3:2,0:0:0:0:
164,176,149028,6,0,P|172:234|154:291,1,120,2|2,3:2|1:2,0:0:0:0:
128,344,149662,1,2,3:2:0:0:
128,344,149873,2,0,P|175:307|233:294,1,120,2|0,3:2|1:2,0:0:0:0:
292,300,150507,1,2,3:2:0:0:
292,300,150718,6,0,L|296:240,1,60,2|0,3:2|3:2,0:0:0:0:
352,216,151141,2,0,L|340:157,1,60,2|2,1:2|3:2,0:0:0:0:
388,119,151563,1,2,3:2:0:0:
292,43,151986,2,0,P|263:53|233:57,1,60,0|2,1:2|3:2,0:0:0:0:
180,28,152408,6,0,L|176:147,1,120,2|2,3:2|1:2,0:0:0:0:
172,208,153042,1,2,3:2:0:0:
172,208,153254,2,0,P|117:187|58:191,1,120,2|0,3:2|1:2,0:0:0:0:
8,224,153887,1,2,3:2:0:0:
8,224,154099,6,0,L|11:164,2,60,2|0|2,3:2|3:2|1:2,0:0:0:0:
12,344,154944,2,0,P|41:341|68:328,1,60,2|2,3:2|3:2,0:0:0:0:
120,296,155366,1,2,1:2:0:0:
200,204,155789,6,0,P|232:253|237:312,1,120,2|0,3:2|1:2,3:3:0:0:
120,296,156634,2,0,P|87:246|82:187,1,120,0|0,3:2|1:2,3:3:0:0:
152,88,157479,5,2,1:2:0:0:
152,88,157690,1,2,1:2:0:0:
368,44,159169,6,0,L|376:168,1,120,6|0,3:2|3:2,3:3:0:0:
380,224,159803,1,0,3:3:0:0:
380,224,160014,2,0,P|357:278|305:303,1,120,0|0,1:2|3:2,3:3:0:0:
188,284,160859,1,0,3:2:0:0:
72,256,161282,2,0,P|96:202|146:169,1,120,2|2,3:2|1:2,3:3:0:0:
204,160,161915,1,0,3:2:0:0:
204,160,162127,1,6,1:2:0:0:
304,228,162549,6,0,P|372:244|468:176,1,180,2|0,3:2|3:2,3:3:0:0:
476,132,163394,2,0,L|479:12,1,120,0|2,1:2|3:2,3:3:0:0:
372,68,164239,2,0,P|313:80|255:66,1,120,0|0,3:2|3:2,0:0:0:0:
204,36,164873,1,0,3:2:0:0:
204,36,165085,2,0,P|146:46|106:89,1,120,0|2,1:2|1:2,0:0:0:0:
84,144,165718,1,2,3:2:0:0:
84,144,165930,6,0,L|96:284,1,120,6|0,3:2|3:2,3:3:0:0:
100,324,166563,1,0,3:2:0:0:
100,324,166775,2,0,P|156:304|215:301,1,120,0|2,1:2|3:2,3:3:0:0:
336,320,167620,1,2,3:2:0:0:
428,244,168042,2,0,P|436:192|416:104,1,120,0|2,3:2|1:2,0:0:0:0:
388,80,168676,1,0,3:2:0:0:
388,80,168887,1,6,1:2:0:0:
275,124,169310,6,0,P|188:140|105:108,1,180,2|0,3:2|3:2,3:3:0:0:
60,68,170155,2,0,L|57:127,1,60,2|0,1:2|3:2,0:0:0:0:
52,188,170577,1,6,1:2:0:0:
64,308,171000,1,2,3:2:0:0:
161,240,171423,1,6,3:2:0:0:
172,359,171845,2,0,P|202:357|228:342,1,60,2|0,3:2|3:2,0:0:0:0:
268,296,172268,1,6,3:2:0:0:
262,175,172690,5,6,3:2:0:0:
369,230,173113,1,2,1:2:0:0:
476,174,173535,2,0,P|488:116|471:59,1,120,2|2,3:2|1:2,3:3:0:0:
368,120,174380,1,2,3:2:0:0:
265,59,174803,1,2,1:2:0:0:
162,120,175225,1,2,3:2:0:0:
59,59,175648,1,2,1:2:0:0:
57,178,176070,6,0,P|97:221|153:240,1,120,2|0,3:2|1:2,3:3:0:0:
212,236,176704,1,2,3:2:0:0:
212,236,176915,2,0,L|330:217,1,120,2|0,3:2|1:2,3:3:0:0:
392,112,177761,2,0,P|435:152|450:209,1,120,2|4,3:2|1:2,3:3:0:0:
428,328,178605,2,0,B|388:324|388:324|352:344|352:344|313:340,1,120,8|0,3:3|3:3,0:0:0:0:
256,328,179239,1,0,0:0:0:0:
256,328,179451,6,0,P|200:313|169:263,1,120,6|0,3:2|3:2,3:3:0:0:
164,204,180085,1,0,3:2:0:0:
164,204,180296,1,0,1:2:0:0:
180,84,180718,2,0,P|209:91|235:105,1,60,2|0,3:2|3:2,0:0:0:0:
276,148,181141,6,0,P|328:176|387:173,1,120,2|0,3:2|3:2,3:3:0:0:
444,156,181775,1,0,3:2:0:0:
444,156,181986,1,0,1:2:0:0:
464,276,182408,1,6,1:2:0:0:
356,328,182831,2,0,P|268:332|184:296,1,180,2|0,3:2|3:2,3:3:0:0:
128,311,183676,2,0,P|150:256|156:196,1,120,2|2,1:2|3:2,3:3:0:0:
148,136,184310,1,0,3:2:0:0:
140,76,184521,5,2,3:2:0:0:
256,40,184944,1,2,1:2:0:0:
256,40,185155,1,0,1:2:0:0:
280,92,185366,2,0,P|304:108|333:118,1,60,2|0,1:2|1:2,0:0:0:0:
392,124,185789,2,0,P|421:118|448:105,1,60,2|0,1:2|1:2,0:0:0:0:
480,52,186211,6,0,L|472:196,1,120,6|0,3:2|1:2,3:3:0:0:
464,292,187056,1,0,3:2:0:0:
356,344,187479,1,0,1:2:0:0:
255,279,187901,2,0,P|227:269|198:267,1,60,2|0,3:2|3:2,3:3:0:0:
140,280,188324,1,0,1:2:0:0:
32,328,188746,1,2,3:2:0:0:
16,208,189169,2,0,L|22:148,1,60,2|0,1:2|3:2,0:0:0:0:
32,88,189592,5,2,3:2:0:0:
32,88,189803,2,0,P|76:104|112:100,1,60,2|0,3:2|1:2,3:3:0:0:
208,83,190437,2,0,P|252:79|297:83,2,90,2|0|0,3:2|3:2|3:2,3:3:0:0:
196,140,191282,2,0,P|173:194|187:252,1,120,2|2,3:2|1:2,3:3:0:0:
224,299,191915,1,0,3:2:0:0:
224,299,192127,2,0,L|283:309,1,60,0|0,3:2|3:2,0:0:0:0:
344,308,192549,1,2,1:2:0:0:
432,228,192972,6,0,L|436:168,1,60,2|2,3:2|3:2,0:0:0:0:
440,108,193394,1,0,1:2:0:0:
320,99,193817,2,0,P|329:56|356:21,2,90,2|2|2,3:2|3:2|3:2,3:3:0:0:
292,152,194662,2,0,B|264:160|264:160|204:152|204:152|174:159,1,120,2|0,2:2|1:2,3:3:0:0:
60,120,195507,2,0,P|52:148|55:178,1,60,2|0,3:2|3:2,0:0:0:0:
76,236,195930,2,0,P|83:264|80:294,1,60,2|0,1:2|3:2,3:3:0:0:
72,356,196352,6,0,L|12:349,2,60,2|2|2,3:2|3:2|1:2,0:0:0:0:
132,368,196986,2,0,P|184:364|236:292,1,120,2|2,3:2|3:2,3:3:0:0:
240,260,197620,2,0,L|240:200,1,60,0|0,1:2|3:2,0:0:0:0:
204,152,198042,6,0,P|262:163|321:153,1,120,2|2,3:2|1:2,0:0:0:0:
376,128,198676,1,2,3:2:0:0:
376,128,198887,2,0,L|435:131,1,60,0|2,1:2|1:2,0:0:0:0:
492,156,199309,1,2,1:2:0:0:
408,244,199732,6,0,P|402:302|361:344,1,120,6|2,3:2|1:2,0:0:0:0:
300,348,200366,1,0,3:2:0:0:
300,348,200577,2,0,L|240:339,1,60,2|2,3:2|3:2,0:0:0:0:
188,324,201000,1,2,1:2:0:0:
188,324,201211,2,0,P|192:265|165:212,1,120,2|2,3:2|3:2,3:3:0:0:
124,168,201845,1,2,1:2:0:0:
104,48,202268,2,0,L|163:51,1,60,2|2,3:2|3:2,0:0:0:0:
224,56,202690,1,2,1:2:0:0:
224,56,202901,1,2,3:2:0:0:
284,60,203113,6,0,P|317:108|374:124,1,120,2|0,3:2|1:2,3:3:0:0:
432,104,203746,2,0,L|424:223,1,120,2|2,3:2|3:2,3:3:0:0:
432,284,204380,2,0,P|425:312|408:337,1,60,2|2,1:2|3:2,0:0:0:0:
348,352,204803,6,0,L|288:345,1,60,2|2,3:2|3:2,0:0:0:0:
228,336,205225,1,2,1:2:0:0:
228,336,205437,2,0,B|172:312|172:312|115:328,1,120,2|0,3:2|3:2,0:0:0:0:
56,344,206070,1,0,1:2:0:0:
15,232,206493,6,0,P|45:225|74:225,1,60,2|2,3:2|3:2,3:3:0:0:
132,228,206915,2,0,P|157:212|177:190,1,60,2|2,1:2|3:2,3:3:0:0:
188,132,207338,2,0,L|172:74,2,60,2|2|2,3:2|3:2|1:2,0:0:0:0:
260,228,208183,6,0,P|289:235|319:236,1,60,2|2,3:2|3:2,0:0:0:0:
376,220,208605,1,2,1:2:0:0:
376,220,208816,1,2,3:2:0:0:
420,176,209028,2,0,L|420:116,1,60,2|2,3:2|3:2,3:3:0:0:
412,56,209451,1,2,1:2:0:0:
299,96,209873,6,0,P|273:109|243:113,1,60,2|2,3:2|3:2,0:0:0:0:
184,108,210296,1,2,1:2:0:0:
184,108,210507,1,2,3:2:0:0:
127,124,210718,2,0,P|91:171|91:230,1,120,2|2,3:2|1:2,3:3:0:0:
132,344,211563,5,2,1:2:0:0:
132,344,211775,1,2,1:2:0:0:
236,288,212197,2,0,B|268:272|268:272|350:287,1,120,2|2,0:2|0:2,0:0:0:0:
408,300,212831,1,2,0:2:0:0:
468,196,213254,5,2,1:2:0:0:
468,196,213465,1,2,1:2:0:0:
364,140,213887,2,0,B|332:124|332:124|249:139,1,120,2|2,0:2|0:2,0:0:0:0:
191,152,214521,2,0,P|170:172|160:200,1,60,2|2,0:2|0:2,0:0:0:0:
156,260,214944,5,6,1:2:0:0:
136,377,215366,2,0,P|195:373|244:340,1,120,2|2,0:2|0:2,0:0:0:0:
304,236,216211,2,0,L|300:176,1,60,2|0,0:2|3:2,0:0:0:0:
296,115,216634,6,0,P|224:165|137:150,1,180,2|2,0:2|0:2,0:0:0:0:
96,108,217479,1,2,0:2:0:0:
48,280,218112,1,0,0:2:0:0:
48,280,218324,2,0,B|108:280|160:320|160:320|212:284|272:291,1,240,2|2,0:2|0:2,0:0:0:0:
372,360,219592,2,0,L|412:315,1,60,0|2,0:2|0:2,0:0:0:0:
456,272,220014,6,0,P|353:251|396:155,1,240,2|2,0:2|0:2,0:0:0:0:
256,44,221493,1,2,0:2:0:0:
256,44,221704,2,0,B|196:44|144:84|144:84|91:48|31:55,1,240,2|2,0:2|0:2,0:0:0:0:
16,176,222972,2,0,L|25:235,1,60,0|2,0:2|3:2,0:0:0:0:
36,292,223394,6,0,P|83:326|142:328,1,120,2|0,0:2|0:2,0:0:0:0:
200,308,224028,1,2,0:2:0:0:
200,308,224239,2,0,L|319:315,1,120,2|0,0:2|0:2,0:0:0:0:
380,320,224873,1,2,3:2:0:0:
380,320,225084,6,0,P|384:349|398:376,2,60,2|0|2,0:2|0:2|0:2,0:0:0:0:
440,216,225929,2,0,P|436:187|422:160,1,60,2|2,0:2|0:2,0:0:0:0:
388,110,226352,1,2,0:2:0:0:
320,208,226775,6,0,B|236:240|236:240|206:232,1,120,2|0,3:2|3:2,3:3:0:0:
164,120,227620,2,0,L|222:133,2,60,0|0|0,3:2|3:2|3:2,0:0:0:0:
48,92,228465,5,2,1:2:0:0:
76,208,228887,1,2,1:2:0:0:
76,208,229099,1,0,1:2:0:0:
128,240,229310,2,0,P|157:244|187:239,1,60,2|0,1:2|1:2,1:1:0:0:
240,212,229732,2,0,P|269:207|299:211,1,60,2|0,1:2|1:2,0:0:0:0:
348,244,230155,6,0,P|407:245|461:220,1,120,6|2,3:2|1:2,0:0:0:0:
488,168,230789,1,2,3:2:0:0:
488,168,231000,2,0,L|472:49,1,120,2|0,3:2|1:2,0:0:0:0:
416,24,231634,1,2,3:2:0:0:
416,24,231845,5,2,3:2:0:0:
300,56,232268,1,2,1:2:0:0:
300,56,232479,1,2,3:2:0:0:
239,48,232690,2,0,P|188:77|167:132,1,120,2|0,3:2|1:2,0:0:0:0:
176,192,233324,1,2,3:2:0:0:
176,192,233535,6,0,P|154:213|126:224,1,60,2|0,3:2|3:2,0:0:0:0:
68,229,233958,2,0,P|40:239|18:260,1,60,2|2,1:2|3:2,0:0:0:0:
12,320,234380,2,0,P|52:362|111:368,1,120,2|0,3:2|1:2,0:0:0:0:
168,348,235014,1,2,3:2:0:0:
168,348,235225,6,0,L|227:338,1,60,2|0,3:2|3:2,0:0:0:0:
276,304,235648,2,0,L|335:313,1,60,2|2,1:2|3:2,0:0:0:0:
392,336,236070,2,0,P|450:341|497:306,1,120,2|0,3:2|1:2,0:0:0:0:
508,248,236704,1,2,3:2:0:0:
508,248,236915,6,0,L|492:128,1,120,2|2,3:2|1:2,0:0:0:0:
480,68,237549,1,2,3:2:0:0:
480,68,237761,2,0,P|432:102|373:109,1,120,2|0,3:2|1:2,0:0:0:0:
312,104,238394,1,2,3:2:0:0:
312,104,238606,6,0,L|253:91,2,60,2|0|2,3:2|3:2|1:2,0:0:0:0:
363,212,239450,1,2,3:2:0:0:
344,268,239661,1,2,3:2:0:0:
304,312,239873,1,2,1:2:0:0:
187,276,240296,6,0,P|129:288|72:271,1,120,2|0,3:2|1:2,3:3:0:0:
20,163,241141,2,0,P|79:151|136:168,1,120,0|0,3:2|1:2,3:3:0:0:
187,276,241986,6,0,B|228:284|228:284|264:268|264:268|304:276,1,120,2|6,1:2|1:2,3:3:0:0:
412,328,242831,2,0,B|419:287|419:287|403:251|403:251|411:211,1,120,2|6,1:2|1:2,3:3:0:0:
420,152,243465,1,0,3:2:0:0:
420,152,243676,6,0,P|366:175|309:163,1,120,6|0,3:2|1:2,3:3:0:0:
260,128,244310,1,2,3:2:0:0:
260,128,244521,2,0,P|202:115|148:139,1,120,2|0,3:2|1:2,0:0:0:0:
108,184,245155,1,0,3:2:0:0:
108,184,245366,6,0,L|119:303,1,120,2|0,3:2|1:2,3:3:0:0:
224,364,246211,1,2,3:2:0:0:
336,320,246634,1,0,1:2:0:0:
336,200,247056,6,0,P|331:170|322:141,1,60,2|2,3:2|3:2,0:0:0:0:
292,92,247479,1,0,1:2:0:0:
292,92,247690,1,0,1:2:0:0:
236,108,247901,2,0,P|206:115|176:116,1,60,0|0,1:2|1:2,0:0:0:0:
120,96,248324,2,0,B|124:124|124:124|116:155,1,60,2|0,1:2|3:2,3:3:0:0:
100,212,248746,5,0,1:2:0:0:
296,352,250437,6,0,P|354:360|407:333,1,120,6|0,3:2|1:2,3:3:0:0:
432,280,251070,1,0,3:2:0:0:
432,280,251282,2,0,L|424:208,1,60,0|0,1:2|0:0,3:3:0:0:
392,172,251704,1,0,1:2:0:0:
300,96,252127,6,0,P|252:130|193:128,1,120,2|0,3:2|1:2,0:0:0:0:
140,100,252761,1,0,1:2:0:0:
140,100,252972,2,0,L|126:158,1,60,2|0,1:2|0:0,0:0:0:0:
76,192,253394,2,0,L|107:243,1,60,2|0,1:2|0:0,3:3:0:0:
95,301,253817,6,0,P|150:280|209:286,1,120,2|0,3:2|1:2,3:3:0:0:
264,312,254451,1,0,3:2:0:0:
264,312,254662,2,0,L|344:304,1,60,0|0,1:2|1:2,0:0:0:0:
376,280,255085,1,0,1:2:0:0:
428,172,255507,5,0,1:2:0:0:
428,172,255718,1,0,1:2:0:0:
376,144,255930,2,0,B|346:143|346:143|317:155|317:155|287:155,1,90,0|0,1:2|1:2,0:0:0:0:
