osu file format v14

[General]
AudioFilename: KAZENOUTAH.mp3
AudioLeadIn: 0
PreviewTime: 53112
Countdown: 0
SampleSet: Soft
StackLeniency: 0.5
Mode: 0
LetterboxInBreaks: 0
WidescreenStoryboard: 1

[Editor]
DistanceSpacing: 1
BeatDivisor: 4
GridSize: 4
TimelineZoom: 1.8

[Metadata]
Title:Kaze no Uta
TitleUnicode:風ノ唄
Artist:FLOW
ArtistUnicode:FLOW
Creator:Gear
Version:Insane
Source:テイルズ オブ ゼスティリア ザ クロス
Tags:Tales of Zestiria the X Cross Saiyaku no Jidai Opening Ending Full
BeatmapID:1113574
BeatmapSetID:524659

[Difficulty]
HPDrainRate:5
CircleSize:4
OverallDifficulty:7
ApproachRate:8.5
SliderMultiplier:1.6
SliderTickRate:2

[Events]
//Background and Video events
0,0,"LOOKATTHEVIEWDANG.jpg",0,0
//Break Periods
//Storyboard Layer 0 (Background)
//Storyboard Layer 1 (Fail)
//Storyboard Layer 2 (Pass)
//Storyboard Layer 3 (Foreground)
//Storyboard Sound Samples

[TimingPoints]
3676,422.535211267606,4,2,0,60,1,0
3676,-125,4,2,0,60,0,0
15506,-166.666666666667,4,2,0,75,0,0
17197,-100,4,2,0,25,0,0
27337,-100,4,2,0,30,0,0
40859,-100,4,2,0,40,0,0
47619,-100,4,2,0,50,0,0
50577,-100,4,2,0,60,0,0
52690,-100,4,2,0,70,0,0
53112,-100,4,2,0,30,0,0
53535,-100,4,2,0,40,0,0
53957,-100,4,2,0,50,0,0
54380,-83.3333333333333,4,2,0,80,0,1
80154,-100,4,2,0,30,0,0
81422,-83.3333333333333,4,2,0,80,0,0
94943,-125,4,2,0,50,0,0
101704,-125,4,2,0,60,0,0
103394,-100,4,2,0,50,0,0
118605,-166.666666666667,4,2,0,35,0,0
124943,-166.666666666667,4,2,0,50,0,0
125366,-100,4,2,0,60,0,0
130436,-100,4,2,0,70,0,0
132126,-83.3333333333333,4,2,0,80,0,1
157901,-100,4,2,0,30,0,0
158746,-100,4,2,0,45,0,0
159168,-100,4,2,0,60,0,0
178605,-100,4,2,0,40,0,0
179450,-100,4,2,0,50,0,0
186210,-83.3333333333333,4,2,0,80,0,0
211563,-125,4,2,0,60,0,0
215366,-125,4,2,0,50,0,0
216633,-166.666666666667,4,2,0,40,0,0
226774,-125,4,2,0,50,0,0
228464,-100,4,2,0,70,0,0
230154,-83.3333333333333,4,2,0,80,0,1
248746,-83.3333333333333,4,2,0,100,0,0
250436,-83.3333333333333,4,2,0,80,0,0

[Colours]
Combo1 : 255,191,0
Combo2 : 102,255,240
Combo3 : 242,125,255
Combo4 : 255,11,11

[HitObjects]
144,92,3676,6,0,L|158:219,1,128,2|0,3:2|3:2,3:3:0:0:
168,296,4309,1,0,3:2:0:0:
244,199,4521,2,0,P|306:193|364:220,1,128,2|0,3:2|3:2,3:3:0:0:
408,284,5154,1,0,3:2:0:0:
484,186,5366,2,0,P|487:139|470:94,1,96,2|0,3:2|3:2,3:3:0:0:
447,64,5788,2,0,P|428:88|399:102,1,64,0|0,3:2|3:2,3:3:0:0:
304,112,6211,6,0,L|313:48,1,64,2|0,3:2|3:2,3:3:0:0:
200,108,6633,2,0,L|209:171,1,64,2|0,3:2|3:2,3:3:0:0:
195,12,7056,6,0,P|137:34|105:88,1,128,2|0,3:2|3:2,3:3:0:0:
108,164,7690,1,0,3:2:0:0:
232,184,7901,2,0,L|359:172,1,128,2|0,3:2|3:2,3:3:0:0:
424,132,8535,1,0,3:2:0:0:
483,244,8746,6,0,P|464:287|425:313,1,96,2|0,3:2|3:2,3:3:0:0:
388,324,9168,2,0,L|324:320,1,64,2|0,3:2|3:2,3:3:0:0:
232,232,9591,2,0,P|294:239|347:206,1,128,2|0,3:2|3:2,3:3:0:0:
432,128,10225,1,0,3:2:0:0:
432,128,10330,1,0,3:2:0:0:
432,128,10436,6,0,L|428:255,1,128,2|0,3:2|3:2,3:3:0:0:
424,332,11070,1,0,3:2:0:0:
323,263,11281,2,0,P|264:243|202:256,1,128,2|0,3:2|3:2,3:3:0:0:
140,300,11915,1,0,3:2:0:0:
56,207,12126,2,0,P|58:160|78:116,1,96,2|0,3:2|3:2,3:3:0:0:
92,80,12549,2,0,P|115:101|145:111,1,64,0|0,3:2|3:2,3:3:0:0:
240,92,12971,6,0,L|301:74,1,64,2|0,3:2|3:2,3:3:0:0:
360,184,13394,2,0,L|298:166,1,64,2|0,3:2|3:2,3:3:0:0:
448,184,13816,6,0,P|427:243|372:272,1,128,2|0,3:2|3:2,3:3:0:0:
300,244,14450,1,0,3:2:0:0:
248,300,14661,1,0,3:2:0:0:
247,300,14767,2,0,P|216:302|185:295,1,64,0|0,3:2|3:2,3:3:0:0:
168,260,15084,2,0,L|171:196,1,64,0|0,3:2|3:2,3:3:0:0:
136,76,15506,6,0,P|172:198|216:78,1,335.999989746094,2|0,0:2|0:2,0:0:0:0:
204,52,17091,1,0,0:2:0:0:
204,52,17197,6,0,L|363:59,1,160,2|0,3:2|3:2,3:3:0:0:
440,36,17830,2,0,P|424:111|352:137,1,160,2|0,3:2|3:2,3:3:0:0:
272,132,18464,1,0,3:2:0:0:
192,136,18676,1,0,3:2:0:0:
192,136,18781,1,0,3:2:0:0:
192,136,18887,6,0,P|116:120|90:48,1,160,2|0,3:2|3:2,3:3:0:0:
172,56,19521,2,0,L|68:178,1,160,2|0,3:2|3:2,3:3:0:0:
12,236,20154,1,0,3:2:0:0:
12,236,20260,1,0,3:2:0:0:
12,236,20366,1,0,3:2:0:0:
112,304,20577,6,0,P|189:306|246:252,1,160,2|0,3:2|3:2,3:3:0:0:
256,172,21211,2,0,P|292:186|319:216,1,80,2|0,3:2|3:2,3:3:0:0:
332,296,21633,2,0,P|368:281|395:251,1,80,2|0,3:2|3:2,3:3:0:0:
432,180,22056,1,0,3:2:0:0:
432,180,22161,1,0,3:2:0:0:
432,180,22267,6,0,P|424:103|364:53,1,160,2|0,3:2|3:2,3:3:0:0:
288,32,22901,1,0,3:2:0:0:
251,104,23112,2,0,P|212:106|173:96,1,80,0|0,3:2|3:2,3:3:0:0:
88,40,23535,1,0,3:2:0:0:
40,128,23746,1,0,3:2:0:0:
40,128,23852,1,0,3:2:0:0:
40,128,23957,6,0,L|48:228,1,80,2|0,3:2|3:2,0:0:0:0:
50,247,24274,1,0,3:2:0:0:
50,247,24380,1,2,3:2:0:0:
152,168,24591,1,2,3:2:0:0:
170,296,24802,1,2,3:2:0:0:
271,215,25014,2,0,P|279:177|275:137,1,80,2|0,3:2|3:2,3:3:0:0:
280,56,25436,1,0,3:2:0:0:
356,148,25647,5,2,3:2:0:0:
400,36,25859,1,2,3:2:0:0:
432,180,26070,1,2,3:2:0:0:
320,224,26282,1,0,3:2:0:0:
476,260,26492,1,2,3:2:0:0:
480,92,26704,1,2,3:2:0:0:
356,148,26915,1,2,3:2:0:0:
388,280,27126,1,0,3:2:0:0:
388,280,27232,1,0,3:2:0:0:
388,280,27337,6,0,P|319:312|250:276,1,160,2|0,3:2|3:2,3:3:0:0:
244,196,27971,2,0,B|244:116|244:116|203:47,1,160,2|0,3:2|3:2,3:3:0:0:
59,84,28605,2,0,P|96:97|136:92,1,80,0|0,1:2|3:2,0:0:0:0:
164,168,29028,6,0,L|164:328,1,160,2|0,3:2|3:2,3:3:0:0:
240,304,29661,2,0,P|316:287|383:327,1,160,2|0,3:2|3:2,3:3:0:0:
460,356,30295,1,0,3:2:0:0:
460,356,30401,1,0,3:2:0:0:
460,356,30506,1,0,3:2:0:0:
479,235,30718,6,0,P|457:159|469:81,1,160,2|0,3:2|3:2,3:3:0:0:
439,8,31352,2,0,P|407:30|389:65,1,80,2|0,3:2|3:2,3:3:0:0:
336,164,31774,1,0,3:2:0:0:
228,80,31985,2,0,L|308:80,1,80,0|0,1:2|3:2,0:0:0:0:
416,180,32408,6,0,P|400:216|367:238,2,80,0|0|0,3:2|3:2|3:2,3:3:0:0:
388,104,33042,1,0,3:2:0:0:
336,164,33253,2,0,L|256:164,1,80,0|0,3:2|3:2,3:3:0:0:
184,128,33676,1,0,3:2:0:0:
176,248,33887,1,0,3:2:0:0:
176,248,33992,1,0,3:2:0:0:
176,248,34098,6,0,P|244:285|318:261,1,160,2|0,3:2|3:2,3:3:0:0:
256,164,34732,2,0,P|187:126|113:150,1,160,2|0,3:2|3:2,3:3:0:0:
64,264,35366,2,0,B|102:276|102:276|140:265,1,80,0|0,1:2|3:2,0:0:0:0:
176,248,35683,1,0,3:2:0:0:
176,248,35788,5,2,3:2:0:0:
256,320,35999,1,2,3:2:0:0:
278,214,36211,1,2,3:2:0:0:
358,286,36422,1,0,3:2:0:0:
358,286,36528,1,0,3:2:0:0:
358,286,36633,2,0,P|395:299|434:296,1,80,2|0,3:2|3:2,3:3:0:0:
455,158,37056,2,0,P|438:194|408:220,1,80,2|0,3:2|3:2,3:3:0:0:
303,139,37478,6,0,P|228:153|200:224,1,160,2|0,3:2|1:2,3:3:0:0:
176,300,38112,2,0,L|96:300,1,80,0|0,3:2|3:2,3:3:0:0:
84,220,38535,1,2,3:2:0:0:
188,144,38746,1,2,1:2:0:0:
191,164,38851,1,0,2:2:0:0:
193,184,38957,1,0,2:2:0:0:
196,204,39062,1,0,2:2:0:0:
199,223,39168,6,0,P|221:296|296:310,1,160,2|2,3:2|3:2,3:3:0:0:
376,292,39802,1,0,3:2:0:0:
376,292,40014,2,0,P|386:254|389:214,1,80,2|0,3:2|3:2,3:3:0:0:
246,198,40436,2,0,P|274:226|307:249,1,80,2|0,3:2|3:2,3:3:0:0:
468,235,40859,6,0,P|453:160|381:132,1,160,6|0,3:2|3:2,3:3:0:0:
304,148,41492,2,0,B|264:160|264:160|146:148,1,160,2|0,3:2|3:2,3:3:0:0:
72,58,42126,2,0,L|152:68,1,80,0|0,1:2|3:2,0:0:0:0:
216,184,42549,6,0,P|151:225|82:193,1,160,2|0,3:2|3:2,0:0:0:0:
152,68,43183,2,0,L|148:148,1,80,2|0,3:2|3:2,3:3:0:0:
140,264,43605,1,0,3:2:0:0:
245,212,43816,1,2,3:2:0:0:
264,215,43921,1,0,3:2:0:0:
283,222,44027,1,2,3:2:0:0:
299,234,44132,1,0,3:2:0:0:
311,250,44239,6,0,P|376:289|443:252,1,160,2|0,3:2|3:2,3:3:0:0:
480,180,44873,2,0,L|468:20,1,160,2|0,3:2|3:2,3:3:0:0:
317,59,45506,2,0,B|356:68|356:68|396:60,1,80,0|0,1:2|3:2,0:0:0:0:
480,180,45929,6,0,L|323:144,1,160,2|0,3:2|3:2,0:0:0:0:
178,187,46563,2,0,P|217:196|256:188,1,80,2|0,3:2|3:2,3:3:0:0:
216,80,46985,1,0,3:2:0:0:
104,108,47197,1,0,3:2:0:0:
104,108,47302,1,0,3:2:0:0:
104,108,47408,1,0,3:2:0:0:
255,188,47619,5,2,3:2:0:0:
216,80,47830,1,2,3:2:0:0:
160,244,48042,1,2,1:2:0:0:
292,112,48253,1,0,3:2:0:0:
292,112,48359,1,0,3:2:0:0:
292,112,48464,5,2,3:2:0:0:
104,108,48676,1,2,3:2:0:0:
255,188,48887,1,2,1:2:0:0:
104,268,49098,1,0,3:2:0:0:
104,268,49204,1,0,3:2:0:0:
104,268,49309,6,0,L|183:273,1,80,2|2,3:2|3:2,0:0:0:0:
334,182,49732,2,0,L|254:187,1,80,2|2,1:2|3:2,0:0:0:0:
288,296,50154,1,2,3:2:0:0:
150,165,50366,1,2,3:2:0:0:
191,346,50577,5,2,1:2:0:0:
246,114,50789,1,2,3:2:0:0:
288,296,50999,5,0,1:2:0:0:
304,308,51316,5,0,1:2:0:0:
320,320,51633,5,0,1:2:0:0:
204,208,52056,5,0,1:2:0:0:
266,47,52267,1,0,1:2:0:0:
374,183,52478,1,0,1:2:0:0:
165,101,52690,5,0,1:2:0:0:
299,269,52901,1,0,1:2:0:0:
359,83,53112,5,2,0:2:0:0:
359,83,53535,1,2,0:2:0:0:
359,83,53957,1,2,0:2:0:0:
165,101,54380,6,0,L|164:196,1,95.9999970703126,6|0,3:2|3:2,3:3:0:0:
164,196,54697,1,0,3:2:0:0:
164,196,54802,1,2,1:2:0:0:
56,104,55014,1,2,3:2:0:0:
196,8,55225,2,0,P|236:33|257:75,1,95.9999970703126,2|8,3:2|3:2,0:0:0:0:
144,224,55647,1,8,1:2:0:0:
56,104,55859,1,2,3:2:0:0:
216,164,56070,6,0,L|311:160,1,95.9999970703126,2|0,3:2|3:2,3:3:0:0:
311,159,56387,1,0,3:2:0:0:
311,159,56492,1,2,1:2:0:0:
384,80,56704,1,2,3:2:0:0:
304,248,56915,2,0,P|350:241|383:208,1,95.9999970703126,2|8,3:2|3:2,0:0:0:0:
292,68,57337,1,8,1:2:0:0:
216,164,57549,1,2,3:2:0:0:
384,80,57760,5,2,3:2:0:0:
383,208,57971,1,0,3:2:0:0:
383,208,58077,1,0,3:2:0:0:
383,208,58183,1,2,1:2:0:0:
292,68,58394,1,2,3:2:0:0:
239,240,58605,2,0,P|192:241|154:214,1,95.9999970703126,2|8,3:2|3:2,0:0:0:0:
92,68,59028,1,8,1:2:0:0:
36,180,59239,1,2,3:2:0:0:
216,164,59450,5,2,3:2:0:0:
160,276,59661,1,0,3:2:0:0:
160,276,59767,1,0,3:2:0:0:
160,276,59873,2,0,L|172:372,1,95.9999970703126,2|2,1:2|3:2,0:0:0:0:
296,192,60295,2,0,L|284:288,1,95.9999970703126,2|8,3:2|3:2,0:0:0:0:
388,116,60718,1,12,1:2:0:0:
212,164,60929,1,2,3:2:0:0:
364,306,61140,6,0,L|387:115,1,191.999994140625,6|2,3:2|1:2,3:3:0:0:
296,16,61774,1,2,3:2:0:0:
211,164,61985,2,0,P|164:168|121:148,1,95.9999970703126,2|8,3:2|3:2,0:0:0:0:
48,32,62408,1,8,1:2:0:0:
24,184,62619,1,2,3:2:0:0:
136,56,62830,5,2,3:2:0:0:
284,104,63042,1,0,3:2:0:0:
284,104,63147,1,0,3:2:0:0:
284,104,63253,1,2,1:2:0:0:
136,152,63464,1,2,3:2:0:0:
228,26,63676,1,2,3:2:0:0:
228,182,63887,5,10,3:2:0:0:
328,14,64098,1,10,1:2:0:0:
328,14,64521,6,0,P|382:88|353:176,2,191.999994140625,2|0|0,3:2|1:2|3:2,3:3:0:0:
284,104,65577,1,0,3:2:0:0:
284,104,65788,2,0,L|188:100,1,95.9999970703126,0|0,1:2|3:2,3:3:0:0:
48,40,66211,5,8,3:3:0:0:
140,28,66422,1,8,3:3:0:0:
24,221,66633,2,0,B|12:176|12:176|20:128,1,95.9999970703126,6|0,1:2|3:2,3:3:0:0:
148,168,67056,1,2,1:2:0:0:
148,168,67161,1,0,1:2:0:0:
148,168,67267,1,0,1:2:0:0:
92,300,67478,2,0,P|137:314|184:307,1,95.9999970703126,6|0,1:2|3:2,3:3:0:0:
242,167,67901,6,0,L|147:167,1,95.9999970703126,6|0,3:2|3:2,3:3:0:0:
147,167,68218,1,0,3:2:0:0:
146,166,68323,1,2,1:2:0:0:
232,56,68535,1,2,3:2:0:0:
264,247,68746,2,0,P|304:224|323:181,1,95.9999970703126,2|8,3:2|3:2,0:0:0:0:
308,16,69168,1,8,1:2:0:0:
242,167,69380,1,2,3:2:0:0:
384,79,69591,6,0,P|448:107|469:173,1,143.999995605469,2|0,3:2|3:2,3:3:0:0:
468,200,70014,2,0,L|464:295,1,95.9999970703126,2|2,1:2|3:2,0:0:0:0:
283,238,70436,2,0,P|329:227|375:239,1,95.9999970703126,2|8,3:2|3:2,0:0:0:0:
328,376,70859,1,8,1:2:0:0:
464,296,71070,1,2,3:2:0:0:
283,238,71281,5,2,3:2:0:0:
216,332,71492,1,0,3:2:0:0:
216,332,71598,1,0,3:2:0:0:
216,332,71704,1,2,1:2:0:0:
168,176,71915,1,2,3:2:0:0:
32,292,72126,2,0,P|77:305|122:291,1,95.9999970703126,2|8,3:2|3:2,0:0:0:0:
260,184,72549,1,8,1:2:0:0:
216,332,72760,1,2,3:2:0:0:
168,176,72971,5,2,3:2:0:0:
288,272,73183,1,0,3:2:0:0:
288,272,73288,1,0,3:2:0:0:
288,272,73394,2,0,L|383:275,1,95.9999970703126,2|2,1:2|3:2,0:0:0:0:
392,120,73816,2,0,P|423:155|443:199,1,95.9999970703126,2|8,3:2|3:2,0:0:0:0:
416,20,74239,1,8,1:2:0:0:
312,144,74450,1,2,3:2:0:0:
244,28,74661,5,2,3:2:0:0:
184,200,74873,2,0,L|136:204,2,47.9999985351563,0|0|2,3:2|3:2|1:2,0:0:0:0:
312,144,75295,1,2,3:2:0:0:
164,72,75506,1,2,3:2:0:0:
324,60,75718,1,8,3:2:0:0:
268,224,75929,1,8,1:2:0:0:
244,28,76140,1,2,3:2:0:0:
184,200,76352,6,0,P|140:217|93:212,1,95.9999970703126,2|0,3:2|3:2,0:0:0:0:
92,211,76668,1,0,3:2:0:0:
92,211,76774,1,2,1:2:0:0:
164,72,76985,1,2,3:2:0:0:
268,224,77197,1,2,3:2:0:0:
244,28,77408,5,10,3:2:0:0:
188,268,77619,1,10,1:2:0:0:
187,268,78042,6,0,P|110:320|19:298,2,191.999994140625,2|0|0,3:2|1:2|3:2,3:3:0:0:
256,200,79098,1,0,3:2:0:0:
256,200,79309,2,0,L|239:105,1,95.9999970703126,0|0,1:2|3:2,3:3:0:0:
168,40,79732,5,2,1:2:0:0:
340,112,79943,1,2,1:2:0:0:
276,59,81422,6,0,P|364:39|416:113,1,191.999994140625,6|0,3:2|1:2,3:3:0:0:
428,208,82056,1,2,3:2:0:0:
320,304,82267,2,0,P|316:220|336:112,1,191.999994140625,2|0,3:2|1:2,3:3:0:0:
388,36,82901,1,0,3:2:0:0:
252,116,83112,6,0,P|157:118|78:66,1,191.999994140625,2|0,3:2|1:2,3:3:0:0:
20,144,83746,1,0,3:2:0:0:
52,279,83957,2,0,P|96:262|126:225,1,95.9999970703126,2|0,3:2|3:2,3:3:0:0:
169,80,84380,2,0,P|125:61|78:66,1,95.9999970703126,2|0,1:2|3:2,3:3:0:0:
212,167,84802,6,0,P|265:93|231:7,1,191.999994140625,2|0,3:2|1:2,3:3:0:0:
169,80,85436,1,2,3:2:0:0:
336,31,85647,2,0,P|427:46|473:126,1,191.999994140625,2|0,3:2|1:2,3:3:0:0:
472,224,86281,1,0,3:2:0:0:
284,152,86492,6,0,P|323:126|371:123,1,95.9999970703126,2|0,3:2|3:2,3:3:0:0:
368,268,86915,1,2,1:2:0:0:
226,283,87126,1,0,3:2:0:0:
284,152,87337,1,2,3:2:0:0:
284,152,87443,1,0,1:2:0:0:
284,152,87549,1,0,3:2:0:0:
164,68,87760,2,0,L|167:163,1,95.9999970703126,0|0,1:2|3:2,3:3:0:0:
159,340,88183,6,0,P|69:322|33:237,1,191.999994140625,2|0,3:2|1:2,3:3:0:0:
44,144,88816,1,2,3:2:0:0:
184,255,89028,2,0,P|255:198|244:107,1,191.999994140625,2|0,3:2|1:2,3:3:0:0:
167,163,89661,1,0,3:2:0:0:
167,163,89767,1,0,3:2:0:0:
167,163,89873,6,0,L|345:234,1,191.999994140625,2|0,3:2|1:2,3:3:0:0:
436,264,90506,1,0,3:2:0:0:
480,144,90718,2,0,P|489:97|479:50,1,95.9999970703126,2|0,3:2|3:2,3:3:0:0:
318,54,91140,2,0,P|354:85|400:100,1,95.9999970703126,2|0,1:2|3:2,3:3:0:0:
435,264,91563,6,0,P|367:325|278:302,1,191.999994140625,2|0,3:2|1:2,3:3:0:0:
220,224,92197,1,0,3:2:0:0:
148,288,92408,2,0,L|52:281,1,95.9999970703126,0|0,3:2|3:2,3:3:0:0:
4,196,92830,2,0,L|99:189,1,95.9999970703126,0|0,1:2|3:2,3:3:0:0:
144,64,93253,6,0,P|97:55|50:65,1,95.9999970703126,2|0,3:2|3:2,3:3:0:0:
220,224,93676,2,0,B|228:176|228:176|221:129,1,95.9999970703126,4|0,3:2|3:2,3:3:0:0:
99,189,94098,1,0,3:2:0:0:
99,189,94204,1,0,1:2:0:0:
99,189,94309,1,0,3:2:0:0:
176,308,94521,2,0,P|221:320|267:308,1,95.9999970703126,4|0,3:2|3:2,0:0:0:0:
288,288,94837,1,0,3:2:0:0:
288,288,94943,6,0,L|291:160,1,128,2|0,3:2|3:2,3:3:0:0:
240,103,95577,2,0,P|298:83|352:114,1,128,2|0,3:2|3:2,3:3:0:0:
372,188,96211,2,0,L|372:252,1,64,0|2,3:2|3:2,0:0:0:0:
348,324,96633,6,0,P|289:344|235:313,1,128,2|0,3:2|3:2,3:3:0:0:
200,244,97267,2,0,P|146:213|87:233,1,128,2|0,3:2|3:2,3:3:0:0:
36,176,97901,1,0,3:2:0:0:
12,104,98112,1,2,3:2:0:0:
60,44,98323,6,0,P|114:75|176:64,1,128,2|0,3:2|3:2,3:3:0:0:
244,28,98957,2,0,P|252:58|248:90,1,64,2|0,3:2|3:2,3:3:0:0:
188,140,99380,2,0,P|213:158|244:167,1,64,0|0,3:2|3:2,0:0:0:0:
320,156,99802,1,0,3:2:0:0:
320,156,99908,1,0,3:2:0:0:
320,156,100014,6,0,P|375:129|388:68,1,128,2|0,3:2|3:2,3:3:0:0:
456,32,100647,2,0,P|465:94|450:156,1,128,2|0,3:2|3:2,3:3:0:0:
396,212,101281,1,0,3:2:0:0:
396,212,101387,1,0,3:2:0:0:
396,212,101492,1,0,3:2:0:0:
320,156,101704,5,2,1:2:0:0:
319,155,103394,6,0,P|280:148|241:155,1,80,2|2,3:2|3:2,0:0:0:0:
204,168,103711,1,0,1:2:0:0:
204,168,103816,2,0,P|164:175|125:167,1,80,2|0,3:2|1:2,0:0:0:0:
68,112,104239,1,2,3:2:0:0:
68,112,104345,1,0,3:2:0:0:
68,112,104450,1,2,3:2:0:0:
24,224,104661,1,2,1:2:0:0:
128,284,104873,1,0,1:2:0:0:
128,284,104978,1,0,1:2:0:0:
128,284,105084,6,0,L|247:280,1,120,6|0,1:2|1:2,3:3:0:0:
283,299,105506,2,0,P|277:260|287:222,1,80,0|2,3:2|1:2,0:0:0:0:
316,148,105929,1,0,3:2:0:0:
316,148,106035,1,0,1:2:0:0:
316,148,106140,1,0,3:2:0:0:
452,92,106352,2,0,L|372:92,1,80,0|2,1:2|3:2,0:0:0:0:
340,68,106668,1,0,0:0:0:0:
340,68,106774,6,0,P|282:72|239:113,1,120,2|0,3:2|1:2,3:3:0:0:
220,148,107197,2,0,P|181:156|142:146,1,80,0|2,3:2|3:2,3:3:0:0:
80,96,107619,1,0,3:2:0:0:
80,96,107725,1,0,1:2:0:0:
80,96,107830,1,0,3:2:0:0:
32,208,108042,1,0,1:2:0:0:
88,264,108253,2,0,L|127:258,1,40,2|0,3:2|3:2,3:3:0:0:
180,208,108464,6,0,P|200:262|174:315,1,120,2|0,3:2|1:2,3:3:0:0:
140,336,108887,2,0,L|219:339,1,80,0|2,3:2|3:2,0:0:0:0:
276,280,109309,1,0,3:2:0:0:
276,280,109415,1,0,1:2:0:0:
276,280,109521,1,0,3:2:0:0:
356,356,109732,1,0,3:2:0:0:
356,356,110154,6,0,L|362:236,1,120,0|0,3:2|1:2,3:3:0:0:
344,200,110577,2,0,P|381:214|421:215,1,80,0|0,3:2|1:2,3:3:0:0:
488,172,110999,1,0,3:2:0:0:
488,172,111105,1,0,1:2:0:0:
488,172,111211,1,0,3:2:0:0:
440,28,111422,2,0,L|440:108,1,80,0|0,1:2|3:2,0:0:0:0:
412,136,111739,1,0,3:2:0:0:
412,136,111845,6,0,P|359:110|300:112,1,120,2|0,3:2|1:2,3:3:0:0:
260,120,112267,2,0,P|221:125|181:121,1,80,0|2,3:2|3:2,0:0:0:0:
120,68,112690,1,0,3:2:0:0:
120,68,112795,1,0,1:2:0:0:
120,68,112901,1,0,3:2:0:0:
44,156,113112,2,0,L|50:235,1,80,0|2,1:2|3:2,0:0:0:0:
52,316,113535,5,2,3:2:0:0:
72,319,113640,2,0,P|108:303|131:271,1,80,0|0,3:2|1:2,3:3:0:0:
136,252,113957,2,0,L|214:266,1,80,0|0,3:2|3:2,3:3:0:0:
284,228,114380,1,2,3:2:0:0:
284,228,114485,1,0,1:2:0:0:
284,228,114591,1,0,3:2:0:0:
348,320,114802,2,0,P|386:328|425:320,1,80,0|0,1:2|3:2,3:3:0:0:
468,208,115225,6,0,L|461:88,1,120,2|0,3:2|1:2,3:3:0:0:
464,48,115647,2,0,P|426:62|387:64,1,80,0|0,3:2|1:2,3:3:0:0:
316,24,116070,1,0,3:2:0:0:
316,24,116176,1,0,1:2:0:0:
316,24,116281,1,0,3:2:0:0:
244,60,116492,5,0,3:2:0:0:
235,88,116597,1,0,3:2:0:0:
232,118,116703,1,0,3:2:0:0:
235,148,116808,1,0,3:2:0:0:
244,176,116914,5,6,3:2:0:0:
156,44,117337,1,6,3:2:0:0:
76,180,117760,2,0,L|69:219,3,40,0|0|0|0,1:2|1:2|1:2|1:2,0:0:0:0:
136,244,118183,2,0,L|129:283,3,40,0|0|0|0,3:2|3:2|3:2|3:2,0:0:0:0:
196,308,118605,6,0,L|291:317,1,95.9999970703126,6|0,3:2|0:2,0:0:0:0:
284,240,119239,2,0,L|379:249,1,95.9999970703126,2|0,0:2|0:2,0:0:0:0:
372,172,119873,2,0,L|419:177,1,47.9999985351563,2|0,0:2|0:2,0:0:0:0:
363,84,120295,6,0,P|319:98|290:136,1,95.9999970703126,2|0,0:2|0:2,0:0:0:0:
212,136,120929,2,0,P|183:98|138:83,1,95.9999970703126,2|0,0:2|0:2,0:0:0:0:
60,84,121563,1,2,0:2:0:0:
60,84,121774,1,0,0:2:0:0:
28,188,121985,6,0,L|34:283,1,95.9999970703126,2|0,0:2|0:2,0:0:0:0:
112,296,122619,2,0,L|105:200,1,95.9999970703126,2|0,0:2|0:2,0:0:0:0:
182,212,123253,1,2,0:2:0:0:
154,139,123464,1,0,0:2:0:0:
154,139,123676,6,0,P|200:134|240:160,1,95.9999970703126,2|0,0:2|0:2,0:0:0:0:
260,232,124309,1,0,0:2:0:0:
308,116,124521,5,8,3:3:0:0:
324,192,124732,1,8,3:3:0:0:
372,76,124943,1,4,1:2:0:0:
372,76,125366,5,2,3:2:0:0:
324,192,125577,1,0,3:2:0:0:
324,192,125683,1,0,3:2:0:0:
324,192,125788,1,2,3:2:0:0:
247,92,125999,1,0,3:2:0:0:
247,92,126105,1,0,3:2:0:0:
247,92,126210,5,2,3:2:0:0:
176,256,126422,1,2,3:2:0:0:
324,192,126633,1,0,3:2:0:0:
168,136,126845,1,0,3:2:0:0:
168,136,126950,1,0,3:2:0:0:
168,136,127056,5,2,3:2:0:0:
256,268,127267,1,2,3:2:0:0:
112,196,127478,1,2,3:2:0:0:
244,108,127690,1,2,3:2:0:0:
176,288,127901,1,2,3:2:0:0:
308,200,128112,1,2,3:2:0:0:
112,196,128323,5,2,1:2:0:0:
324,124,128535,1,2,0:2:0:0:
256,268,128746,5,0,1:2:0:0:
252,288,129063,5,0,1:2:0:0:
248,308,129380,5,0,1:2:0:0:
324,168,129802,5,0,1:2:0:0:
152,199,130013,1,0,1:2:0:0:
211,34,130225,1,0,1:2:0:0:
251,257,130436,5,0,1:2:0:0:
325,51,130647,1,0,1:2:0:0:
133,99,130859,5,6,3:2:0:0:
133,99,131281,2,0,B|120:136|120:136|132:216,1,120,6|0,3:2|0:2,0:0:0:0:
135,235,131704,1,2,1:2:0:0:
139,255,131810,1,0,1:2:0:0:
142,275,131915,1,0,1:2:0:0:
145,295,132021,1,0,1:2:0:0:
148,314,132126,6,0,P|194:324|240:313,1,95.9999970703126,6|0,3:2|3:2,3:3:0:0:
240,312,132443,1,0,3:2:0:0:
240,312,132549,1,2,1:2:0:0:
288,204,132760,1,2,3:2:0:0:
368,352,132971,2,0,L|376:256,1,95.9999970703126,2|8,3:2|3:2,0:0:0:0:
384,104,133394,1,8,1:2:0:0:
288,204,133605,1,2,3:2:0:0:
468,224,133816,6,0,L|476:128,1,95.9999970703126,2|0,3:2|3:2,3:3:0:0:
475,128,134133,1,0,3:2:0:0:
475,128,134239,1,2,1:2:0:0:
375,256,134450,1,2,3:2:0:0:
291,100,134661,2,0,P|337:92|383:103,1,95.9999970703126,2|8,3:2|3:2,0:0:0:0:
360,280,135084,1,8,1:2:0:0:
468,224,135295,1,2,3:2:0:0:
272,272,135506,5,2,3:2:0:0:
170,207,135718,1,0,3:2:0:0:
170,207,135823,1,0,3:2:0:0:
170,207,135929,1,2,1:2:0:0:
172,360,136140,1,2,3:2:0:0:
32,272,136352,2,0,P|79:263|125:274,1,95.9999970703126,2|8,3:2|3:2,0:0:0:0:
260,356,136774,1,8,1:2:0:0:
360,280,136985,1,2,3:2:0:0:
170,207,137197,5,2,3:2:0:0:
242,111,137408,1,0,3:2:0:0:
242,111,137514,1,0,3:2:0:0:
242,111,137619,2,0,L|337:98,1,95.9999970703126,2|2,1:2|3:2,0:0:0:0:
170,207,138042,2,0,L|265:219,1,95.9999970703126,2|8,3:2|3:2,0:0:0:0:
98,111,138464,1,12,1:2:0:0:
236,32,138676,1,2,3:2:0:0:
356,228,138887,6,0,P|304:303|212:296,1,191.999994140625,6|2,3:2|1:2,3:3:0:0:
170,207,139521,1,2,3:2:0:0:
16,284,139732,2,0,P|61:299|108:293,1,95.9999970703126,2|8,3:2|3:2,0:0:0:0:
76,124,140154,1,8,1:2:0:0:
170,207,140366,1,2,3:2:0:0:
232,48,140577,5,2,3:2:0:0:
304,164,140788,1,0,3:2:0:0:
304,164,140894,1,0,3:2:0:0:
304,164,140999,1,2,1:2:0:0:
378,47,141211,1,2,3:2:0:0:
452,164,141422,1,2,3:2:0:0:
304,164,141633,5,10,3:2:0:0:
472,68,141845,1,10,1:2:0:0:
471,67,142267,6,0,P|378:47|290:9,2,191.999994140625,2|0|0,3:2|1:2|3:2,3:3:0:0:
452,164,143323,1,0,3:2:0:0:
452,164,143535,2,0,L|458:259,1,95.9999970703126,0|0,1:2|3:2,3:3:0:0:
460,292,143852,1,0,0:0:0:0:
460,292,143957,6,0,P|432:329|387:343,1,95.9999970703126,8|8,3:3|3:3,0:0:0:0:
267,214,144380,2,0,B|315:210|315:210|360:228,1,95.9999970703126,6|0,1:2|3:2,3:3:0:0:
264,352,144802,1,2,1:2:0:0:
264,352,144908,1,0,1:2:0:0:
264,352,145014,1,0,1:2:0:0:
168,196,145225,2,0,L|168:292,1,95.9999970703126,4|0,1:2|3:2,3:3:0:0:
92,140,145647,6,0,P|127:108|174:101,1,95.9999970703126,6|0,3:2|3:2,3:3:0:0:
174,101,145964,1,0,3:2:0:0:
174,101,146070,1,2,1:2:0:0:
304,200,146281,1,2,3:2:0:0:
168,292,146492,2,0,L|168:196,1,95.9999970703126,2|8,3:2|3:2,0:0:0:0:
244,56,146915,1,8,1:2:0:0:
304,200,147126,1,2,3:2:0:0:
398,76,147337,6,0,P|456:114|469:183,1,143.999995605469,2|0,3:2|3:2,3:3:0:0:
464,208,147760,2,0,L|445:302,1,95.9999970703126,2|2,1:2|3:2,0:0:0:0:
272,236,148183,2,0,P|318:225|364:235,1,95.9999970703126,2|8,3:2|3:2,0:0:0:0:
320,372,148605,1,8,1:2:0:0:
444,302,148816,1,2,3:2:0:0:
344,136,149028,5,2,3:2:0:0:
272,236,149239,1,0,3:2:0:0:
272,236,149345,1,0,3:2:0:0:
272,236,149450,1,2,1:2:0:0:
224,92,149661,1,2,3:2:0:0:
96,200,149873,2,0,P|141:212|187:199,1,95.9999970703126,2|8,3:2|3:2,0:0:0:0:
300,72,150295,1,8,1:2:0:0:
344,188,150506,1,2,3:2:0:0:
408,28,150718,5,2,3:2:0:0:
300,72,150929,1,0,3:2:0:0:
300,72,151035,1,0,3:2:0:0:
300,72,151140,2,0,L|206:91,1,95.9999970703126,2|2,1:2|3:2,0:0:0:0:
48,148,151563,2,0,P|93:162|141:167,1,95.9999970703126,2|8,3:2|3:2,0:0:0:0:
44,24,151985,1,8,1:2:0:0:
206,91,152197,1,2,3:2:0:0:
66,197,152408,5,2,3:2:0:0:
120,80,152619,2,0,L|126:32,2,47.9999985351563,0|0|2,3:2|3:2|1:2,0:0:0:0:
144,244,153042,1,2,3:2:0:0:
206,91,153253,1,2,3:2:0:0:
66,197,153464,1,8,3:2:0:0:
232,232,153676,1,8,1:2:0:0:
292,64,153887,1,2,3:2:0:0:
352,232,154098,6,0,P|399:239|444:225,1,95.9999970703126,2|0,3:2|3:2,0:0:0:0:
444,225,154415,1,0,3:2:0:0:
444,225,154521,1,2,1:2:0:0:
388,128,154732,1,2,3:2:0:0:
232,232,154943,1,2,3:2:0:0:
292,64,155154,5,10,3:2:0:0:
307,297,155365,1,10,1:2:0:0:
305,297,155788,6,0,P|220:332|144:280,2,191.999994140625,2|0|0,3:2|1:2|3:2,3:3:0:0:
232,232,156845,1,0,3:2:0:0:
232,232,157056,2,0,L|243:136,1,95.9999970703126,0|0,1:2|3:2,3:3:0:0:
304,64,157478,5,2,1:2:0:0:
124,124,157690,1,2,1:2:0:0:
122,281,159168,6,0,L|123:121,1,160,6|0,3:2|3:2,3:3:0:0:
56,80,159802,1,0,3:3:0:0:
204,128,160014,2,0,P|281:123|332:63,1,160,0|0,1:2|3:2,3:3:0:0:
204,128,160859,5,0,3:2:0:0:
203,128,161281,2,0,P|195:166|201:206,1,80,2|0,3:2|3:2,3:3:0:0:
256,268,161704,1,2,1:2:0:0:
372,192,161915,1,0,3:2:0:0:
372,192,162021,1,0,3:2:0:0:
372,192,162126,1,6,1:2:0:0:
372,192,162549,6,0,P|391:268|368:343,1,160,2|0,3:2|3:2,3:3:0:0:
440,380,163183,1,0,3:2:0:0:
292,320,163394,2,0,L|132:331,1,160,0|2,1:2|3:2,3:3:0:0:
292,320,164239,5,0,3:2:0:0:
292,320,164661,1,0,3:2:0:0:
264,244,164873,1,0,3:2:0:0:
292,168,165084,1,0,1:2:0:0:
161,245,165295,1,0,3:2:0:0:
161,245,165401,1,0,3:2:0:0:
161,245,165506,2,0,L|81:240,1,80,2|2,1:2|3:2,0:0:0:0:
72,104,165929,6,0,L|231:114,1,160,6|0,3:2|3:2,3:3:0:0:
292,168,166563,1,0,3:2:0:0:
368,39,166774,2,0,P|444:48|487:113,1,160,0|2,1:2|3:2,3:3:0:0:
504,192,167408,1,2,3:2:0:0:
376,272,167619,6,0,P|374:192|401:117,1,160,2|0,3:2|3:2,3:3:0:0:
368,39,168253,1,0,3:2:0:0:
288,68,168464,1,2,1:2:0:0:
451,52,168676,1,0,3:2:0:0:
451,52,168781,1,0,3:2:0:0:
451,52,168887,1,6,1:2:0:0:
450,52,169309,6,0,P|406:117|335:153,1,160,2|0,3:2|3:2,3:3:0:0:
256,140,169943,1,0,3:2:0:0:
220,68,170154,1,2,1:2:0:0:
168,208,170366,1,0,3:2:0:0:
168,208,170471,1,0,3:2:0:0:
168,208,170577,1,6,1:2:0:0:
168,208,170999,6,0,L|246:193,1,80,2|0,3:2|3:2,3:3:0:0:
104,272,171422,2,0,L|25:257,1,80,6|0,3:2|3:2,3:3:0:0:
88,156,171845,1,2,3:2:0:0:
88,156,171950,1,0,1:2:0:0:
88,156,172056,1,0,3:2:0:0:
180,288,172267,2,0,L|258:273,1,80,6|0,3:2|3:2,3:3:0:0:
325,176,172690,5,6,3:2:0:0:
325,176,173112,2,0,P|330:216|352:249,1,80,2|0,1:2|3:2,3:3:0:0:
484,200,173535,2,0,P|447:185|408:188,1,80,2|0,3:2|3:2,3:3:0:0:
383,325,173957,2,0,P|414:300|432:265,1,80,2|0,1:2|3:2,3:3:0:0:
380,116,174380,5,2,3:2:0:0:
380,116,174802,2,0,P|341:112|303:99,1,80,2|0,1:2|3:2,3:3:0:0:
132,208,175225,2,0,P|171:203|209:190,1,80,2|0,3:2|3:2,3:3:0:0:
212,16,175647,2,0,L|215:95,1,80,2|0,1:2|3:2,3:3:0:0:
296,258,176070,6,0,L|302:98,1,160,2|0,3:2|1:2,3:3:0:0:
212,16,176704,1,2,3:2:0:0:
76,133,176915,2,0,P|131:188|209:189,1,160,2|0,3:2|1:2,3:3:0:0:
301,98,177549,1,0,3:2:0:0:
301,98,177654,1,0,3:2:0:0:
301,98,177760,6,0,L|298:177,1,80,2|0,3:2|3:2,3:3:0:0:
464,144,178183,2,0,B|428:132|428:132|387:141,1,80,4|0,1:2|3:2,3:3:0:0:
365,233,178605,6,0,P|376:257|394:276,2,53.3333333333333,8|8|8,3:3|3:3|3:3,3:3:0:0:
297,177,179028,1,8,3:3:0:0:
297,177,179168,2,0,P|281:198|274:224,1,53.3333333333333,8|8,3:3|3:3,0:0:0:0:
219,295,179450,6,0,P|171:234|95:211,1,160,6|0,3:2|3:2,3:3:0:0:
44,148,180084,1,0,3:2:0:0:
160,56,180295,2,0,L|152:136,1,80,0|0,1:2|3:2,3:3:0:0:
95,211,180718,1,2,3:2:0:0:
164,312,180929,1,0,3:2:0:0:
265,242,181140,6,0,P|343:247|397:303,1,160,2|0,3:2|3:2,3:3:0:0:
464,352,181774,1,0,3:2:0:0:
496,228,181985,1,0,1:2:0:0:
344,248,182197,1,0,3:2:0:0:
344,248,182302,1,0,3:2:0:0:
344,248,182408,1,6,1:2:0:0:
344,248,182830,6,0,L|184:241,1,160,2|0,3:2|3:2,3:3:0:0:
80,220,183464,1,0,3:2:0:0:
36,320,183676,2,0,P|75:327|114:323,1,80,2|0,1:2|3:2,3:3:0:0:
184,241,184098,1,2,3:2:0:0:
254,323,184309,1,0,3:2:0:0:
254,159,184521,5,2,3:2:0:0:
254,159,184943,1,2,1:2:0:0:
396,184,185154,1,0,1:2:0:0:
288,88,185366,1,2,1:2:0:0:
257,266,185577,1,0,1:2:0:0:
180,179,185788,1,2,1:2:0:0:
196,167,185894,1,0,1:2:0:0:
214,159,185999,1,0,1:2:0:0:
234,156,186105,1,0,1:2:0:0:
254,159,186211,6,0,P|331:208|415:170,2,191.999994140625,6|0|0,3:2|1:2|3:2,3:3:0:0:
232,64,187267,1,0,3:2:0:0:
128,124,187478,2,0,L|32:117,1,95.9999970703126,0|0,1:2|3:2,3:3:0:0:
24,164,187795,1,0,3:2:0:0:
24,164,187901,6,0,P|43:207|42:254,1,95.9999970703126,2|0,3:2|3:2,3:3:0:0:
36,352,188323,1,0,1:2:0:0:
144,268,188535,1,0,3:2:0:0:
252,352,188746,2,0,P|296:367|344:361,1,95.9999970703126,2|0,3:2|3:2,0:0:0:0:
344,184,189168,1,2,1:2:0:0:
304,272,189380,1,0,3:2:0:0:
432,224,189591,5,2,3:2:0:0:
250,181,189802,2,0,B|277:172|277:172|343:183,1,95.9999970703126,2|0,3:2|1:2,3:3:0:0:
388,296,190225,1,2,3:2:0:0:
280,368,190436,2,0,P|224:324|210:255,1,143.999995605469,2|0,3:2|3:2,3:3:0:0:
188,228,190859,2,0,P|161:267|119:289,1,95.9999970703126,2|0,1:2|3:2,3:3:0:0:
68,156,191281,6,0,B|104:136|104:136|206:143,1,143.999995605469,2|0,3:2|3:2,3:3:0:0:
272,120,191704,2,0,L|176:111,1,95.9999970703126,2|0,1:2|3:2,3:3:0:0:
256,20,192126,1,0,3:2:0:0:
256,20,192232,1,0,1:2:0:0:
256,20,192337,1,0,3:2:0:0:
352,124,192549,2,0,P|340:169|302:197,1,95.9999970703126,2|0,1:2|3:2,3:3:0:0:
176,111,192971,5,2,3:2:0:0:
164,264,193183,1,2,3:2:0:0:
92,180,193394,1,0,1:2:0:0:
92,180,193499,2,0,P|69:139|64:91,1,95.9999970703126,2|0,3:2|3:2,3:3:0:0:
56,44,193816,2,0,P|50:91|27:133,1,95.9999970703126,2|0,3:2|3:2,3:3:0:0:
12,180,194133,1,2,3:2:0:0:
12,180,194239,1,0,1:2:0:0:
20,296,194450,1,2,3:2:0:0:
136,301,194661,6,0,P|153:285|163:263,3,47.9999985351563,2|0|2|0,2:2|2:2|2:2|2:2,0:0:0:0:
208,284,195084,2,0,P|254:295|302:295,1,95.9999970703126,0|0,1:2|3:2,3:3:0:0:
462,232,195506,2,0,L|472:328,1,95.9999970703126,2|0,3:2|3:2,3:3:0:0:
360,128,195929,2,0,L|369:223,1,95.9999970703126,2|0,1:2|3:2,3:3:0:0:
460,140,196352,5,2,3:2:0:0:
369,223,196563,1,2,3:2:0:0:
416,64,196774,1,2,1:2:0:0:
271,156,196985,2,0,P|224:153|181:132,1,95.9999970703126,2|0,3:2|3:2,3:3:0:0:
92,92,197408,1,2,3:2:0:0:
92,92,197619,2,0,L|99:187,1,95.9999970703126,0|0,1:2|3:2,0:0:0:0:
104,236,197936,1,0,3:2:0:0:
104,236,198042,6,0,P|128:276|170:296,1,95.9999970703126,2|0,3:2|3:2,3:3:0:0:
277,173,198464,2,0,B|229:173|229:173|192:204,1,95.9999970703126,2|2,1:2|3:2,0:0:0:0:
304,332,198887,1,0,1:2:0:0:
304,332,198992,1,0,1:2:0:0:
304,332,199098,1,2,1:2:0:0:
384,196,199309,2,0,L|392:100,1,95.9999970703126,2|0,1:2|3:2,3:3:0:0:
464,280,199732,5,6,3:2:0:0:
368,276,199943,1,2,3:2:0:0:
344,266,200048,1,0,3:2:0:0:
323,251,200154,1,2,1:2:0:0:
284,164,200366,1,0,3:2:0:0:
212,312,200577,1,2,3:2:0:0:
100,204,200788,2,0,L|196:216,1,95.9999970703126,2|2,3:2|1:2,0:0:0:0:
304,344,201211,6,0,L|113:321,1,191.999994140625,2|2,3:2|3:2,3:3:0:0:
40,260,201845,2,0,P|72:225|87:180,1,95.9999970703126,2|0,1:2|3:2,3:3:0:0:
100,56,202267,1,2,3:2:0:0:
184,152,202478,1,2,3:2:0:0:
268,55,202690,2,0,P|314:47|360:59,1,95.9999970703126,2|2,1:2|3:2,0:0:0:0:
424,204,203112,6,0,B|392:132|392:132|421:22,1,191.999994140625,2|0,3:2|1:2,3:3:0:0:
495,276,203746,2,0,P|408:304|332:250,1,191.999994140625,2|2,3:2|3:2,3:3:0:0:
300,160,204380,1,2,1:2:0:0:
228,264,204591,1,2,3:2:0:0:
192,112,204802,5,2,3:2:0:0:
331,249,205014,1,2,3:2:0:0:
300,160,205225,1,2,1:2:0:0:
228,264,205436,1,2,3:2:0:0:
116,168,205647,5,0,3:2:0:0:
116,168,205753,1,0,1:2:0:0:
116,168,205859,1,0,3:2:0:0:
136,344,206070,1,0,1:2:0:0:
228,264,206281,1,0,3:2:0:0:
228,264,206387,1,0,3:2:0:0:
228,264,206492,6,0,L|220:216,2,47.9999985351563,2|0|2,3:2|0:0|3:2,3:3:0:0:
312,312,206915,2,0,P|357:327|404:323,1,95.9999970703126,2|2,1:2|3:2,3:3:0:0:
459,227,207337,2,0,P|413:211|366:215,1,95.9999970703126,2|2,3:2|3:2,3:3:0:0:
256,224,207760,1,2,1:2:0:0:
280,50,207971,1,2,3:2:0:0:
280,50,208077,1,0,0:0:0:0:
280,50,208183,5,2,3:2:0:0:
189,176,208394,1,2,3:2:0:0:
189,20,208605,1,2,1:2:0:0:
282,147,208816,1,2,3:2:0:0:
132,98,209028,2,0,P|84:99|42:122,1,95.9999970703126,2|2,3:2|3:2,3:3:0:0:
96,324,209450,2,0,P|97:276|119:234,1,95.9999970703126,2|2,1:2|3:2,3:3:0:0:
282,147,209873,5,2,3:2:0:0:
216,308,210084,1,2,3:2:0:0:
216,84,210295,5,2,1:2:0:0:
283,244,210506,1,2,3:2:0:0:
388,104,210718,6,0,P|455:119|486:182,1,143.999995605469,2|2,3:2|3:2,3:3:0:0:
488,232,211140,2,0,L|493:136,1,95.9999970703126,2|0,1:2|3:2,3:3:0:0:
424,20,211563,5,2,1:2:0:0:
424,20,211774,1,2,1:2:0:0:
424,20,212197,2,0,L|416:147,1,128,2|2,0:2|0:2,0:0:0:0:
488,232,212830,1,2,0:2:0:0:
480,359,213253,5,2,1:2:0:0:
480,359,213464,1,2,1:2:0:0:
480,359,213887,2,0,L|487:231,1,128,2|2,0:2|0:2,0:0:0:0:
416,147,214520,1,2,0:2:0:0:
416,147,214626,1,0,0:2:0:0:
416,147,214732,1,2,0:2:0:0:
348,304,214943,5,6,1:2:0:0:
347,304,215366,2,0,P|286:309|240:266,1,128,2|2,0:2|0:2,0:0:0:0:
239,265,216211,1,2,0:2:0:0:
152,288,216422,1,0,3:2:0:0:
152,288,216528,1,0,3:2:0:0:
152,288,216633,6,0,L|56:280,1,95.9999970703126,2|0,0:2|0:2,0:0:0:0:
20,212,217267,1,2,0:2:0:0:
136,128,217478,2,0,L|231:135,1,95.9999970703126,2|0,0:2|0:2,0:0:0:0:
268,204,218112,1,0,3:2:0:0:
268,204,218218,1,0,3:2:0:0:
268,203,218323,6,0,P|299:168|307:122,1,95.9999970703126,2|2,0:2|0:2,0:0:0:0:
352,60,218957,1,2,0:2:0:0:
396,122,219168,2,0,P|404:168|436:204,1,95.9999970703126,2|0,0:2|0:2,0:0:0:0:
488,260,219802,1,2,0:2:0:0:
428,308,220014,6,0,L|332:297,1,95.9999970703126,2|0,0:2|0:2,0:0:0:0:
268,256,220647,1,2,0:2:0:0:
108,289,220859,2,0,L|204:300,1,95.9999970703126,2|0,0:2|0:2,0:0:0:0:
268,256,221492,1,2,3:2:0:0:
268,256,221598,1,0,3:2:0:0:
268,255,221704,6,0,P|284:211|271:165,1,95.9999970703126,2|2,0:2|0:2,0:0:0:0:
232,100,222337,1,0,0:2:0:0:
160,128,222549,2,0,P|114:140|69:124,1,95.9999970703126,2|0,0:2|0:2,0:0:0:0:
40,196,223183,1,2,3:2:0:0:
40,196,223288,1,0,3:2:0:0:
40,196,223394,6,0,L|43:291,1,95.9999970703126,2|0,0:2|0:2,0:0:0:0:
92,352,224028,1,2,0:2:0:0:
148,208,224239,2,0,L|152:304,1,95.9999970703126,2|0,0:2|0:2,0:0:0:0:
200,364,224873,1,2,3:2:0:0:
200,364,224978,1,0,3:2:0:0:
200,364,225084,6,0,P|223:365|247:362,2,47.9999985351563,2|0|2,0:2|0:2|0:2,0:0:0:0:
256,220,225929,1,2,0:2:0:0:
324,188,226140,1,2,0:2:0:0:
317,262,226352,1,2,0:2:0:0:
263,146,226774,6,0,L|167:136,1,96,2|0,3:2|3:2,3:3:0:0:
124,124,227197,2,0,L|60:131,1,64,0|0,3:2|3:2,3:3:0:0:
8,204,227619,2,0,L|13:235,2,32,0|0|0,3:2|3:2|3:2,0:0:0:0:
8,72,228042,1,0,3:2:0:0:
108,216,228253,1,0,3:2:0:0:
108,216,228359,1,0,3:2:0:0:
108,216,228464,5,2,1:2:0:0:
108,216,228887,2,0,P|145:229|185:231,1,80,2|0,1:2|1:2,0:0:0:0:
272,128,229309,2,0,P|280:110|284:90,3,40,2|0|0|0,1:2|1:2|1:2|1:2,1:1:0:0:
300,52,229732,1,2,1:2:0:0:
339,44,229837,1,0,1:2:0:0:
377,54,229943,1,0,1:2:0:0:
408,79,230048,1,0,1:2:0:0:
425,115,230154,6,0,L|417:210,1,95.9999970703126,6|0,3:2|3:2,3:3:0:0:
417,210,230471,1,0,3:2:0:0:
417,210,230577,1,2,1:2:0:0:
272,128,230788,1,2,3:2:0:0:
212,304,230999,2,0,P|256:320|303:312,1,95.9999970703126,2|8,3:2|3:2,0:0:0:0:
356,140,231422,1,8,1:2:0:0:
384,292,231633,1,2,3:2:0:0:
271,127,231845,6,0,P|202:122|152:171,1,143.999995605469,2|0,3:2|3:2,3:3:0:0:
136,216,232267,2,0,P|119:171|86:137,1,95.9999970703126,2|2,1:2|3:2,0:0:0:0:
84,312,232690,2,0,P|128:327|175:319,1,95.9999970703126,2|8,3:2|3:2,0:0:0:0:
312,232,233112,1,8,1:2:0:0:
136,216,233323,1,2,3:2:0:0:
352,336,233535,5,2,3:2:0:0:
312,232,233746,1,0,3:2:0:0:
312,232,233852,1,0,3:2:0:0:
312,232,233957,1,2,1:2:0:0:
175,319,234168,1,2,3:2:0:0:
220,128,234380,2,0,P|232:174|224:221,1,95.9999970703126,2|8,3:2|3:2,0:0:0:0:
64,184,234802,1,8,1:2:0:0:
152,40,235014,1,2,3:2:0:0:
140,228,235225,5,2,3:2:0:0:
92,100,235436,1,0,3:2:0:0:
92,100,235542,1,0,3:2:0:0:
92,100,235647,2,0,P|134:121|182:121,1,95.9999970703126,2|2,1:2|3:2,0:0:0:0:
296,16,236070,2,0,L|293:111,1,95.9999970703126,2|8,3:2|3:2,0:0:0:0:
208,276,236492,1,8,1:2:0:0:
182,121,236704,1,2,3:2:0:0:
344,184,236915,5,2,3:2:0:0:
188,200,237126,2,0,L|141:213,2,47.9999985351563,0|0|2,3:2|3:2|1:2,0:0:0:0:
293,111,237549,1,2,3:2:0:0:
304,296,237760,1,2,3:2:0:0:
416,132,237971,1,8,3:2:0:0:
268,216,238183,1,8,1:2:0:0:
380,52,238394,1,2,3:2:0:0:
417,248,238605,6,0,P|403:293|372:330,1,95.9999970703126,2|0,3:2|3:2,0:0:0:0:
372,330,238922,1,0,3:2:0:0:
372,330,239028,1,2,1:2:0:0:
268,216,239239,1,2,3:2:0:0:
192,372,239450,1,2,3:2:0:0:
212,136,239661,5,10,3:2:0:0:
282,340,239872,1,10,1:2:0:0:
281,339,240295,6,0,P|208:284|118:308,2,191.999994140625,2|0|0,3:2|1:2|3:2,3:3:0:0:
372,304,241352,1,0,3:2:0:0:
372,304,241563,2,0,L|378:208,1,95.9999970703126,0|0,1:2|3:2,3:3:0:0:
392,111,241985,6,0,B|297:129|297:129|256:103,1,143.999995605469,2|0,1:2|3:2,3:3:0:0:
192,152,242408,2,0,L|274:201,1,95.9999970703126,6|0,1:2|3:2,3:3:0:0:
482,229,242830,2,0,B|464:133|464:133|490:93,1,143.999995605469,2|0,1:2|3:2,3:3:0:0:
441,29,243253,2,0,L|391:111,1,95.9999970703126,6|0,1:2|3:2,3:3:0:0:
364,152,243570,1,0,3:2:0:0:
364,152,243676,6,0,P|273:147|227:67,1,191.999994140625,6|0,3:2|1:2,3:3:0:0:
140,28,244309,1,2,3:2:0:0:
51,140,244521,2,0,P|38:185|48:232,2,95.9999970703126,2|8|8,3:2|3:2|1:2,0:0:0:0:
192,180,245154,1,0,3:2:0:0:
192,180,245260,1,0,3:2:0:0:
192,180,245366,6,0,P|131:221|153:151,1,191.999994140625,2|0,3:2|1:2,3:3:0:0:
124,340,246211,2,0,P|171:346|216:332,1,95.9999970703126,2|8,3:2|3:2,0:0:0:0:
388,200,246633,2,0,L|292:193,1,95.9999970703126,8|0,1:2|3:2,0:0:0:0:
84,172,247056,5,2,3:2:0:0:
200,240,247267,1,2,3:2:0:0:
88,80,247478,5,0,1:2:0:0:
112,256,247690,1,0,1:2:0:0:
176,64,247901,1,0,1:2:0:0:
200,240,248113,1,0,1:2:0:0:
264,47,248323,2,0,P|311:51|348:80,1,95.9999970703126,2|0,1:2|3:2,3:3:0:0:
488,328,248746,5,0,1:2:0:0:
488,328,250436,6,0,L|324:308,1,143.999995605469,6|0,3:2|3:2,3:3:0:0:
315,272,250859,2,0,P|272:290|224:287,1,95.9999970703126,0|0,1:2|3:2,3:3:0:0:
140,240,251281,1,0,1:2:0:0:
140,240,251387,2,0,B|128:276|128:276|137:333,1,95.9999970703126,0|0,1:2|3:2,3:3:0:0:
100,364,251704,2,0,P|54:349|6:351,1,95.9999970703126,0|0,1:2|3:2,3:3:0:0:
56,184,252126,6,0,P|121:209|186:182,1,143.999995605469,2|0,3:2|3:2,3:3:0:0:
220,148,252549,2,0,L|223:243,1,95.9999970703126,0|0,1:2|1:2,0:0:0:0:
272,328,252971,1,2,1:2:0:0:
272,328,253077,2,0,P|318:318|355:288,1,95.9999970703126,0|0,3:2|0:0,0:0:0:0:
404,288,253394,2,0,P|357:278|320:248,1,95.9999970703126,2|0,1:2|0:0,3:3:0:0:
336,76,253816,6,0,P|319:144|258:178,1,143.999995605469,2|0,3:2|3:2,3:3:0:0:
219,147,254239,2,0,P|173:139|125:146,1,95.9999970703126,0|0,1:2|3:2,3:3:0:0:
29,228,254661,1,0,1:2:0:0:
52,230,254766,1,0,1:2:0:0:
76,228,254872,1,0,1:2:0:0:
40,44,255084,2,0,L|40:140,1,95.9999970703126,0|0,1:2|3:2,3:3:0:0:
124,300,255506,5,0,1:2:0:0:
219,147,255718,1,0,1:2:0:0:
296,288,255929,5,0,1:2:0:0:
327,289,256034,1,0,1:2:0:0:
359,290,256140,1,0,1:2:0:0:
391,291,256245,1,0,1:2:0:0:
