osu file format v14

[General]
AudioFilename: KAZENOUTAH.mp3
AudioLeadIn: 0
PreviewTime: 53112
Countdown: 0
SampleSet: Soft
StackLeniency: 0.7
Mode: 0
LetterboxInBreaks: 0
WidescreenStoryboard: 1

[Editor]
DistanceSpacing: 1
BeatDivisor: 1
GridSize: 4
TimelineZoom: 1

[Metadata]
Title:Kaze no Uta
TitleUnicode:風ノ唄
Artist:FLOW
ArtistUnicode:FLOW
Creator:Gear
Version:Easy
Source:テイルズ オブ ゼスティリア ザ クロス
Tags:Tales of Zestiria the X Cross Saiyaku no Jidai Opening Ending Full
BeatmapID:1113572
BeatmapSetID:524659

[Difficulty]
HPDrainRate:2
CircleSize:2.5
OverallDifficulty:2
ApproachRate:2.5
SliderMultiplier:0.9
SliderTickRate:1

[Events]
//Background and Video events
0,0,"LOOKATTHEVIEWDANG.jpg",0,0
//Break Periods
//Storyboard Layer 0 (Background)
//Storyboard Layer 1 (Fail)
//Storyboard Layer 2 (Pass)
//Storyboard Layer 3 (Foreground)
//Storyboard Layer 4 (Overlay)
//Storyboard Sound Samples

[TimingPoints]
3676,422.535211267606,4,2,0,50,1,0
15506,-100,4,2,0,75,0,0
17197,-100,4,2,0,25,0,0
27337,-100,4,2,0,30,0,0
40859,-100,4,2,0,40,0,0
47619,-100,4,2,0,50,0,0
50577,-100,4,2,0,60,0,0
52690,-100,4,2,0,70,0,0
54380,-100,4,2,0,80,0,1
79732,-100,4,2,0,50,0,0
81422,-100,4,2,0,80,0,0
94943,-100,4,2,0,50,0,0
101704,-100,4,2,0,60,0,0
103394,-100,4,2,0,50,0,0
118605,-100,4,2,0,35,0,0
124943,-100,4,2,0,50,0,0
125366,-100,4,2,0,60,0,0
130436,-100,4,2,0,70,0,0
132126,-100,4,2,0,80,0,1
157478,-100,4,2,0,50,0,0
159168,-100,4,2,0,60,0,0
178605,-100,4,2,0,40,0,0
179450,-100,4,2,0,50,0,0
186210,-100,4,2,0,80,0,0
186211,-100,4,2,0,50,0,0
211563,-100,4,2,0,60,0,0
214943,-100,4,2,0,50,0,0
216633,-100,4,2,0,40,0,0
226774,-100,4,2,0,50,0,0
228464,-100,4,2,0,70,0,0
230154,-100,4,2,0,80,0,1
243676,-100,4,2,0,50,0,0
248746,-100,4,2,0,100,0,0
250436,-100,4,2,0,80,0,0

[Colours]
Combo1 : 255,191,0
Combo2 : 102,255,240
Combo3 : 242,125,255
Combo4 : 255,11,11

[HitObjects]
135,108,3676,6,0,P|121:184|199:177,1,180,2|2,3:2|3:2,3:3:0:0:
264,116,4943,1,0,3:2:0:0:
336,60,5366,2,0,P|379:137|375:226,1,180,2|2,3:2|3:2,3:3:0:0:
320,296,6633,1,2,3:2:0:0:
232,272,7056,6,0,B|192:256|144:272|144:272|96:288|56:273,1,180,2|2,3:2|3:2,3:3:0:0:
56,184,8324,1,0,3:2:0:0:
96,104,8746,2,0,P|72:67|33:46,2,90,2|2|2,3:2|3:2|3:2,3:3:0:0:
148,176,10014,1,0,3:2:0:0:
212,112,10436,6,0,P|282:144|232:203,1,180,2|2,3:2|3:2,3:3:0:0:
148,176,11704,1,0,3:2:0:0:
75,227,12126,2,0,P|118:306|180:372,1,180,2|2,3:2|3:2,3:3:0:0:
256,324,13394,1,2,3:2:0:0:
332,370,13817,6,0,B|416:320|504:368|504:368|448:280|487:197,1,360,2|2,3:2|0:2,0:0:0:0:
148,76,17197,6,0,L|144:210,2,135,2|2|0,3:2|3:2|3:2,3:3:0:0:
227,32,18887,2,0,P|290:52|323:109,1,135,2|2,3:2|3:2,3:3:0:0:
236,124,19943,2,0,L|236:169,1,45,0|0,3:2|3:2,0:0:0:0:
248,260,20577,6,0,B|292:244|292:244|380:244,2,135,2|2|0,3:2|3:2|3:2,3:3:0:0:
212,344,22267,2,0,P|177:316|158:275,1,90,2|0,3:2|3:2,3:3:0:0:
76,240,23112,2,0,P|103:205|144:186,1,90,0|0,3:2|3:2,3:3:0:0:
232,172,23957,5,2,3:2:0:0:
232,80,24380,2,0,L|188:92,2,45,2|2|2,3:2|3:2|3:2,0:0:0:0:
320,52,25225,1,0,0:0:0:0:
404,88,25648,6,0,P|410:66|412:44,2,45,2|2|2,3:2|3:2|3:2,0:0:0:0:
416,176,26493,2,0,P|437:171|457:161,2,45,2|2|2,3:2|3:2|3:2,0:0:0:0:
332,143,27338,6,0,P|267:157|232:212,1,135,2|2,3:2|3:2,3:3:0:0:
232,304,28394,2,0,L|188:293,1,45,0|0,3:2|1:2,0:0:0:0:
124,227,29028,2,0,P|95:287|115:350,2,135,2|2|0,3:2|3:2|3:2,0:0:0:0:
172,152,30718,6,0,P|237:167|304:162,1,135,2|2,3:2|3:2,3:3:0:0:
364,96,31774,2,0,L|369:51,1,45,0|0,3:2|1:2,0:0:0:0:
460,48,32408,2,0,L|448:137,1,90,0|0,3:2|3:2,3:3:0:0:
388,204,33253,2,0,L|376:293,1,90,0|0,3:2|3:2,0:0:0:0:
304,348,34098,6,0,P|252:306|185:300,1,135,2|2,3:2|3:2,3:3:0:0:
100,328,35155,2,0,L|96:283,1,45,0|0,3:2|1:2,0:0:0:0:
64,200,35788,2,0,P|43:209|27:225,2,45,2|2|2,3:2|3:2|3:2,3:3:0:0:
156,192,36633,2,0,L|245:195,1,90,2|2,3:2|3:2,0:0:0:0:
259,284,37479,6,0,P|328:231|319:145,1,180,2|0,3:2|3:2,3:3:0:0:
240,104,38746,1,2,1:2:0:0:
316,56,39169,1,2,3:2:0:0:
396,96,39591,2,0,P|415:136|427:179,2,90,2|2|2,3:2|3:2|3:2,3:3:0:0:
316,56,40859,6,0,B|228:64|228:64|181:52,1,135,6|2,3:2|3:2,3:3:0:0:
132,128,41915,2,0,L|175:139,1,45,0|0,3:2|1:2,0:0:0:0:
264,160,42549,2,0,P|244:199|206:222,1,90,2|0,3:2|3:2,0:0:0:0:
148,288,43394,2,0,P|186:310|230:306,1,90,0|2,3:2|3:2,0:0:0:0:
308,264,44239,6,0,B|328:307|304:352|304:352|328:340|345:342,1,135,2|2,3:2|3:2,3:3:0:0:
436,352,45295,2,0,P|435:329|430:307,1,45,0|0,3:2|1:2,0:0:0:0:
392,224,45929,2,0,P|435:215|477:229,2,90,2|0|0,3:2|3:2|3:2,0:0:0:0:
308,264,47197,1,0,3:2:0:0:
232,216,47619,6,0,L|228:171,2,45,2|2|2,3:2|3:2|1:2,0:0:0:0:
199,300,48464,2,0,P|159:318|114:322,1,90,2|2,3:2|1:2,0:0:0:0:
56,252,49309,2,0,L|12:244,2,45,2|2|2,3:2|3:2|1:2,0:0:0:0:
92,168,50155,2,0,L|136:160,2,45,2|0|2,3:2|0:0|1:2,0:0:0:0:
88,80,51000,6,0,B|152:68|152:68|210:106,1,135,0|0,1:2|1:2,0:0:0:0:
220,196,52056,2,0,L|264:190,1,45,0|0,1:2|1:2,0:0:0:0:
336,132,52690,6,0,L|380:137,1,45,0|0,1:2|1:2,0:0:0:0:
132,332,54380,6,0,P|87:335|45:320,2,90,6|2|2,3:2|1:2|3:2,0:0:0:0:
200,276,55648,1,0,1:2:0:0:
276,328,56070,2,0,L|365:320,1,90,2|2,3:2|1:2,0:0:0:0:
388,232,56915,2,0,L|298:224,1,90,2|0,3:2|1:2,0:0:0:0:
216,188,57760,6,0,P|242:152|284:136,1,90,2|2,3:2|1:2,0:0:0:0:
376,136,58605,1,2,3:2:0:0:
452,88,59028,1,0,1:2:0:0:
508,156,59450,2,0,L|504:245,2,90,2|2|2,3:2|1:2|3:2,0:0:0:0:
452,88,60718,1,4,1:2:0:0:
375,136,61140,6,0,P|333:147|289:137,2,90,6|2|2,3:2|1:2|3:2,0:0:0:0:
332,56,62408,1,0,1:2:0:0:
244,32,62831,2,0,L|155:47,1,90,2|2,3:2|1:2,0:0:0:0:
76,92,63676,2,0,P|67:71|64:48,2,45,2|2|2,3:2|3:2|1:2,0:0:0:0:
4,148,64521,6,0,P|83:182|155:135,1,180,2|0,3:2|3:2,3:3:0:0:
155,46,65788,2,0,L|243:63,1,90,0|0,1:2|3:3,0:0:0:0:
248,153,66633,1,6,1:2:0:0:
337,175,67056,1,2,1:2:0:0:
383,98,67479,1,6,1:2:0:0:
425,176,67901,6,0,P|458:145|470:102,2,90,6|2|2,3:2|1:2|3:2,0:0:0:0:
337,175,69169,1,0,1:2:0:0:
248,156,69591,2,0,L|160:178,1,90,2|2,3:2|1:2,0:0:0:0:
136,264,70436,2,0,L|223:286,1,90,2|0,3:2|1:2,0:0:0:0:
292,348,71281,6,0,P|311:307|309:263,1,90,2|2,3:2|1:2,0:0:0:0:
336,176,72126,1,2,3:2:0:0:
248,153,72549,1,0,1:2:0:0:
312,88,72971,2,0,L|399:66,2,90,2|2|2,3:2|1:2|3:2,0:0:0:0:
228,60,74239,1,0,1:2:0:0:
163,124,74662,6,0,P|160:168|178:209,2,90,2|2|2,3:2|1:2|3:2,0:0:0:0:
116,48,75929,1,0,1:2:0:0:
44,100,76352,2,0,L|37:189,1,90,2|2,3:2|1:2,0:0:0:0:
84,268,77197,2,0,P|64:278|41:281,2,45,2|2|2,3:2|3:2|1:2,0:0:0:0:
168,300,78042,6,0,L|347:288,1,180,2|0,3:2|3:2,3:3:0:0:
436,284,79309,1,0,1:2:0:0:
448,196,79732,6,0,L|450:151,1,45,2|2,1:2|1:2,0:0:0:0:
152,52,81422,6,0,B|192:68|240:52|240:52|288:36|328:51,1,180,6|2,3:2|3:2,3:3:0:0:
416,68,82690,1,0,1:2:0:0:
450,151,83112,2,0,L|446:240,1,90,2|0,3:2|1:2,3:3:0:0:
400,320,83957,1,2,3:2:0:0:
310,316,84380,1,2,1:2:0:0:
263,236,84802,6,0,P|179:256|110:203,1,180,2|2,3:2|3:2,3:3:0:0:
67,122,86070,1,0,1:2:0:0:
112,44,86493,1,2,3:2:0:0:
196,76,86915,2,0,L|202:31,2,45,2|0|2,1:2|3:2|3:2,0:0:0:0:
200,164,87760,1,0,1:2:0:0:
288,136,88183,6,0,B|328:152|376:136|376:136|424:120|464:135,1,180,2|2,3:2|3:2,3:3:0:0:
424,216,89450,1,0,1:2:0:0:
399,303,89873,2,0,P|444:307|482:285,2,90,2|0|2,3:2|1:2|3:2,3:3:0:0:
336,240,91140,1,2,1:2:0:0:
260,288,91563,6,0,B|176:256|176:256|86:269,1,180,2|0,3:2|3:2,3:3:0:0:
28,200,92831,1,0,1:2:0:0:
88,132,93253,2,0,L|95:42,1,90,2|4,3:2|3:2,0:0:0:0:
184,56,94098,2,0,L|180:100,2,45,0|0|4,3:2|3:2|3:2,0:0:0:0:
272,40,94943,6,0,P|335:60|400:44,2,135,2|2|0,3:2|3:2|3:2,3:3:0:0:
184,56,96633,2,0,L|173:190,2,135,2|2|0,3:2|3:2|3:2,3:3:0:0:
272,40,98324,6,0,P|336:24|400:44,1,135,2|2,3:2|3:2,3:3:0:0:
448,120,99380,2,0,L|444:176,1,45,0|0,0:0|3:2,0:0:0:0:
468,251,100014,2,0,P|402:247|358:198,2,135,2|0|0,3:2|0:0|3:2,3:3:0:0:
444,164,101704,5,2,1:2:0:0:
108,288,103394,6,0,L|105:332,2,45,2|2|2,3:2|3:2|3:2,0:0:0:0:
64,208,104239,2,0,L|30:236,2,45,2|2|2,3:2|3:2|1:2,0:0:0:0:
88,120,105084,6,0,P|152:100|215:120,1,135,6|2,1:2|1:2,0:0:0:0:
276,188,106140,2,0,L|321:188,1,45,0|0,3:2|1:2,0:0:0:0:
396,136,106774,2,0,P|409:201|374:257,1,135,2|2,3:2|1:2,0:0:0:0:
284,276,107831,2,0,L|239:276,1,45,0|0,3:2|1:2,0:0:0:0:
168,220,108464,6,0,B|88:260|88:260|48:237,1,135,2|2,3:2|1:2,0:0:0:0:
88,156,109521,2,0,L|88:111,1,45,0|0,3:2|1:2,0:0:0:0:
124,28,110155,2,0,P|160:53|178:94,1,90,0|0,3:2|3:2,3:3:0:0:
193,183,111000,2,0,L|167:219,2,45,0|0|0,3:2|3:2|1:2,0:0:0:0:
272,140,111845,6,0,B|360:124|360:124|402:141,1,135,2|2,3:2|1:2,0:0:0:0:
420,228,112901,2,0,L|416:272,1,45,0|0,3:2|1:2,0:0:0:0:
384,356,113535,2,0,B|364:348|364:348|296:360,1,90,2|0,3:2|3:2,3:3:0:0:
208,351,114380,2,0,P|221:309|255:281,1,90,2|0,3:2|1:2,3:3:0:0:
328,228,115225,6,0,L|331:138,1,90,2|0,3:2|3:2,3:3:0:0:
296,56,116070,2,0,P|317:48|339:48,2,45,0|0|0,3:2|3:2|1:2,0:0:0:0:
220,104,116915,1,6,3:2:0:0:
144,56,117338,2,0,P|100:45|55:49,2,90,6|0|0,3:2|1:2|3:2,0:0:0:0:
219,103,118605,6,0,B|208:148|172:180|172:180|272:196|298:291,1,270,6|2,3:2|0:2,0:0:0:0:
384,323,120295,2,0,P|388:279|375:236,2,90,2|0|0,0:2|0:2|0:0,0:0:0:0:
298,290,121563,1,2,0:2:0:0:
208,308,121986,6,0,B|168:312|124:332|124:332|168:244|105:161,1,270,2|2,0:2|0:2,0:0:0:0:
92,72,123676,2,0,P|136:74|172:100,1,90,2|0,0:2|0:2,0:0:0:0:
256,64,124521,2,0,L|256:19,2,45,0|0|4,3:3|3:3|1:2,0:0:0:0:
339,100,125366,6,0,P|355:84|375:76,2,45,2|0|2,3:2|3:2|3:2,0:0:0:0:
267,156,126211,2,0,P|259:200|267:244,1,90,2|0,3:2|3:2,0:0:0:0:
340,296,127056,2,0,P|349:316|350:338,2,45,2|2|2,3:2|3:2|3:2,0:0:0:0:
257,333,127901,2,0,P|236:342|214:343,2,45,2|2|2,3:2|3:2|1:2,0:0:0:0:
267,244,128746,6,0,B|202:231|202:231|140:262,1,135,0|0,1:2|1:2,0:0:0:0:
52,280,129802,2,0,L|49:235,1,45,0|0,1:2|1:2,0:0:0:0:
116,176,130436,6,0,L|118:131,2,45,0|0|6,1:2|1:2|3:2,0:0:0:0:
140,262,131281,1,6,3:2:0:0:
228,236,131704,1,2,1:2:0:0:
252,322,132126,6,0,P|285:350|329:357,2,90,6|2|2,3:2|1:2|3:2,0:0:0:0:
324,268,133394,1,0,1:2:0:0:
412,260,133817,2,0,L|415:170,1,90,2|2,3:2|1:2,0:0:0:0:
328,152,134662,2,0,L|324:62,1,90,2|0,3:2|1:2,0:0:0:0:
236,76,135507,6,0,P|199:101|155:107,1,90,2|2,3:2|1:2,0:0:0:0:
72,76,136352,1,2,3:2:0:0:
16,148,136774,1,0,1:2:0:0:
67,223,137197,2,0,B|68:268|68:268|56:312,2,90,2|2|2,3:2|1:2|3:2,0:0:0:0:
152,196,138464,1,4,1:2:0:0:
224,248,138887,6,0,P|266:260|308:246,2,90,6|2|2,3:2|1:2|3:2,0:0:0:0:
264,168,140155,1,0,1:2:0:0:
328,108,140577,2,0,L|417:118,1,90,2|2,3:2|1:2,0:0:0:0:
504,148,141422,2,0,P|509:126|509:103,2,45,2|2|2,3:2|3:2|1:2,0:0:0:0:
459,223,142267,6,0,P|373:211|307:267,1,180,2|0,3:2|3:2,3:3:0:0:
252,340,143535,2,0,L|162:329,1,90,0|0,1:2|3:3,0:0:0:0:
72,316,144380,1,6,1:2:0:0:
64,228,144802,1,2,1:2:0:0:
56,140,145225,1,4,1:2:0:0:
136,177,145648,6,0,P|180:177|219:199,2,90,6|2|2,3:2|1:2|3:2,0:0:0:0:
64,228,146915,1,0,1:2:0:0:
36,144,147338,2,0,L|28:54,1,90,2|2,3:2|1:2,0:0:0:0:
119,47,148183,2,0,P|164:55|209:56,1,90,2|0,3:2|1:2,0:0:0:0:
300,56,149028,6,0,L|308:146,1,90,2|2,3:2|1:2,0:0:0:0:
272,228,149873,1,2,3:2:0:0:
320,304,150295,1,0,1:2:0:0:
404,276,150718,2,0,P|446:287|489:276,2,90,2|2|2,3:2|1:2|3:2,0:0:0:0:
448,196,151986,1,0,1:2:0:0:
404,115,152408,6,0,P|446:103|489:114,2,90,2|2|2,3:2|1:2|3:2,0:0:0:0:
360,196,153676,1,0,1:2:0:0:
272,172,154098,2,0,L|182:183,1,90,2|2,3:2|1:2,0:0:0:0:
96,208,154943,2,0,P|91:185|93:163,2,45,2|2|2,3:2|3:2|1:2,0:0:0:0:
128,292,155788,6,0,L|306:269,1,180,2|0,3:2|3:2,3:3:0:0:
360,196,157056,1,0,1:2:0:0:
336,108,157479,6,0,L|332:63,1,45,2|2,1:2|1:2,0:0:0:0:
20,36,159169,6,0,P|30:125|28:215,1,180,6|0,3:2|1:2,3:3:0:0:
48,304,160436,2,0,L|137:290,1,90,0|0,3:2|3:2,0:0:0:0:
204,232,161281,1,2,3:2:0:0:
268,296,161704,2,0,P|310:311|354:310,1,90,2|6,1:2|1:2,0:0:0:0:
440,276,162549,6,0,B|471:192|471:192|440:108,1,180,2|0,3:2|1:2,3:3:0:0:
384,36,163817,1,2,3:2:0:0:
312,88,164239,1,0,3:2:0:0:
240,36,164662,2,0,L|195:36,2,45,0|0|0,3:2|3:2|1:2,0:0:0:0:
224,124,165507,1,2,1:2:0:0:
136,107,165929,6,0,P|63:156|61:242,1,180,6|0,3:2|1:2,3:3:0:0:
100,324,167197,2,0,L|189:316,1,90,2|2,3:2|3:2,0:0:0:0:
256,256,168042,1,0,3:2:0:0:
323,316,168464,2,0,P|365:328|410:321,1,90,2|6,1:2|1:2,0:0:0:0:
456,244,169309,6,0,B|476:108|476:108|463:67,1,180,2|2,3:2|1:2,0:0:0:0:
380,32,170577,1,6,1:2:0:0:
319,100,171000,2,0,P|276:111|231:110,1,90,2|6,3:2|3:2,0:0:0:0:
148,76,171845,2,0,L|148:31,2,45,2|0|6,3:2|3:2|3:2,0:0:0:0:
156,164,172690,5,6,3:2:0:0:
72,192,173112,1,2,1:2:0:0:
140,252,173535,2,0,L|229:258,1,90,2|2,3:2|1:2,3:3:0:0:
306,210,174380,1,2,3:2:0:0:
372,272,174802,2,0,P|376:316|362:358,2,90,2|2|2,1:2|3:2|1:2,0:0:0:0:
440,212,176070,6,0,B|383:159|389:90|389:90|370:102|348:105,1,180,2|2,3:2|3:2,3:3:0:0:
268,144,177338,1,0,1:2:0:0:
212,76,177760,2,0,L|122:72,1,90,2|4,3:2|1:2,3:3:0:0:
44,116,178605,2,0,B|48:148|48:148|40:176|40:176|45:204,1,90,8|0,3:3|3:3,0:0:0:0:
28,292,179450,6,0,P|110:267|130:184,1,180,6|0,3:2|1:2,3:3:0:0:
164,100,180718,1,2,3:2:0:0:
248,128,181140,2,0,B|288:144|336:128|336:128|384:112|424:127,1,180,2|0,3:2|1:2,3:3:0:0:
484,196,182408,1,6,1:2:0:0:
468,284,182831,6,0,P|390:324|311:287,1,180,2|2,3:2|1:2,3:3:0:0:
252,220,184098,1,2,3:2:0:0:
188,284,184521,2,0,P|143:280|102:262,1,90,2|2,3:2|1:2,0:0:0:0:
44,192,185366,1,2,1:2:0:0:
102,122,185788,1,2,1:2:0:0:
160,52,186211,6,0,B|204:60|204:60|289:37|289:37|336:44,1,180,6|0,3:2|3:2,3:3:0:0:
424,64,187479,1,0,1:2:0:0:
452,148,187901,2,0,L|444:237,1,90,2|0,3:2|1:2,3:3:0:0:
404,320,188746,1,2,3:2:0:0:
316,304,189169,1,2,1:2:0:0:
304,216,189591,6,0,L|307:170,2,45,2|2|0,3:2|3:2|1:2,3:3:0:0:
216,232,190436,2,0,B|176:228|152:208|152:208|131:208,1,90,2|0,3:2|1:0,3:3:0:0:
52,168,191281,2,0,P|45:189|43:211,2,45,2|0|2,3:2|0:0|1:2,3:3:0:0:
88,84,192126,2,0,B|132:96|132:96|174:83,1,90,0|2,3:2|1:2,0:0:0:0:
264,68,192971,6,0,B|272:88|272:88|249:152,1,90,2|0,3:2|1:2,0:0:0:0:
196,228,193817,2,0,P|237:244|281:237,1,90,2|0,3:2|0:0,3:3:0:0:
340,168,194662,2,0,L|371:83,2,90,2|0|2,2:2|1:2|3:2,0:0:0:0:
368,252,195929,1,2,1:2:0:0:
312,324,196352,6,0,P|225:328|169:261,1,180,2|0,3:2|0:0,0:0:0:0:
112,192,197619,1,0,1:2:0:0:
169,122,198042,2,0,L|258:113,1,90,2|2,3:2|1:2,0:0:0:0:
348,100,198887,2,0,L|363:57,2,45,0|2|2,1:2|1:2|1:2,0:0:0:0:
380,184,199732,6,0,B|380:204|372:228|372:228|376:248|376:248|370:272,1,90,6|2,3:2|1:2,0:0:0:0:
292,316,200577,2,0,P|303:335|320:349,2,45,2|2|2,3:2|3:2|1:2,0:0:0:0:
284,228,201422,2,0,B|240:216|240:216|197:227,1,90,0|2,0:0|1:2,0:0:0:0:
128,284,202267,1,2,3:2:0:0:
114,196,202690,1,2,1:2:0:0:
100,108,203112,6,0,B|152:112|184:80|184:80|224:104|224:104|248:92|264:95,1,180,2|0,3:2|0:0,3:3:0:0:
352,80,204380,1,2,1:2:0:0:
412,148,204802,2,0,L|440:112,2,45,2|2|2,3:2|3:2|1:2,0:0:0:0:
340,200,205648,2,0,B|296:188|296:188|253:199,1,90,0|0,0:0|1:2,0:0:0:0:
161,199,206493,6,0,P|163:176|170:155,2,45,2|2|2,3:2|3:2|1:2,3:3:0:0:
161,291,207338,2,0,P|138:288|117:281,2,45,2|2|2,3:2|3:2|1:2,0:0:0:0:
253,291,208183,2,0,P|250:313|243:334,2,45,2|2|2,3:2|3:2|1:2,0:0:0:0:
253,199,209028,2,0,P|275:201|296:208,2,45,2|2|2,3:2|3:2|1:2,3:3:0:0:
161,199,209873,6,0,L|137:160,2,45,2|2|2,3:2|3:2|1:2,0:0:0:0:
92,256,210718,2,0,P|125:284|169:288,1,90,2|2,3:2|1:2,3:3:0:0:
256,312,211563,6,0,L|308:304,1,45,2|2,1:2|1:2,0:0:0:0:
364,240,212197,2,0,B|376:148|376:148|357:110,1,135,2|2,0:2|0:2,0:0:0:0:
271,86,213253,6,0,L|219:94,1,45,2|2,1:2|1:2,0:0:0:0:
163,158,213887,2,0,B|151:250|151:250|169:287,1,135,2|2,0:2|0:2,0:0:0:0:
256,312,214943,5,6,1:2:0:0:
336,268,215366,2,0,P|347:310|337:354,2,90,2|2|2,0:2|0:2|0:2,0:0:0:0:
328,180,216633,6,0,P|277:129|272:200,1,180,2|2,0:2|0:2,0:0:0:0:
332,32,218324,2,0,B|292:17|244:33|244:33|196:49|156:33,1,180,2|2,0:2|0:2,0:0:0:0:
92,96,219591,1,0,0:2:0:0:
96,188,220014,6,0,P|146:238|151:167,1,180,2|2,0:2|0:2,0:0:0:0:
92,336,221704,2,0,B|132:351|180:335|180:335|228:319|268:335,1,180,2|2,0:2|0:2,0:0:0:0:
356,360,222971,1,0,0:2:0:0:
428,308,223394,6,0,P|478:258|407:253,1,180,2|2,0:2|0:2,0:0:0:0:
328,92,225084,2,0,P|281:166|197:191,1,180,2|2,0:2|0:2,0:0:0:0:
108,172,226352,1,2,0:2:0:0:
75,255,226774,6,0,P|179:333|298:283,1,270,2|0,3:2|3:2,3:3:0:0:
362,219,228464,1,2,1:2:0:0:
443,260,228887,1,2,1:2:0:0:
428,349,229309,1,2,1:2:0:0:
340,364,229732,1,2,1:2:0:0:
297,282,230155,6,0,P|273:245|272:201,2,90,6|2|2,3:2|1:2|3:2,0:0:0:0:
362,219,231422,1,0,1:2:0:0:
432,164,231845,2,0,L|428:74,1,90,2|2,3:2|1:2,0:0:0:0:
344,40,232690,2,0,L|340:129,1,90,2|0,3:2|1:2,0:0:0:0:
271,192,233535,6,0,P|227:198|183:190,1,90,2|2,3:2|1:2,0:0:0:0:
144,108,234380,1,2,3:2:0:0:
62,147,234802,1,0,1:2:0:0:
101,229,235225,2,0,L|70:313,2,90,2|2|2,3:2|1:2|3:2,0:0:0:0:
183,190,236493,1,0,1:2:0:0:
264,232,236915,6,0,P|307:240|350:228,2,90,2|2|2,3:2|1:2|3:2,0:0:0:0:
183,190,238183,1,0,1:2:0:0:
220,108,238605,2,0,L|303:142,1,90,2|2,3:2|1:2,0:0:0:0:
392,148,239450,2,0,P|393:125|387:104,2,45,2|2|2,3:2|3:2|1:2,0:0:0:0:
350,227,240295,6,0,L|170:239,1,180,2|0,3:2|3:2,3:3:0:0:
80,244,241563,1,0,1:2:0:0:
56,156,241986,2,0,B|60:124|60:124|52:96|52:96|55:67,1,90,2|6,1:2|1:2,3:3:0:0:
144,80,242831,2,0,B|176:84|176:84|204:76|204:76|232:79,1,90,2|6,1:2|1:2,3:3:0:0:
320,60,243676,6,0,P|297:143|215:168,1,180,6|2,3:2|3:2,0:0:0:0:
232,79,244943,1,0,1:2:0:0:
148,112,245366,2,0,P|128:152|131:196,1,90,2|0,3:2|1:2,3:3:0:0:
200,256,246211,1,2,3:2:0:0:
284,228,246633,1,0,1:2:0:0:
353,288,247056,6,0,L|346:332,2,45,2|2|0,3:2|3:2|1:2,0:0:0:0:
412,220,247901,2,0,L|438:256,2,45,0|0|2,1:2|1:2|1:2,3:3:0:0:
348,160,248746,5,0,1:2:0:0:
36,340,250436,6,0,L|28:160,1,180,6|0,3:2|1:2,3:3:0:0:
60,76,251704,1,0,1:2:0:0:
140,120,252126,2,0,P|184:123|228:113,1,90,2|0,3:2|1:2,0:0:0:0:
304,68,252971,1,2,1:2:0:0:
392,84,253394,1,2,1:2:0:0:
447,155,253817,6,0,P|452:200|436:241,1,90,2|0,3:2|1:2,3:3:0:0:
356,284,254662,2,0,P|311:288|270:272,1,90,0|0,1:2|1:2,0:0:0:0:
227,192,255507,1,0,1:2:0:0:
160,248,255929,2,0,B|156:272|156:272|160:292|160:292|156:314,1,67.5,0|0,1:2|1:2,0:0:0:0:
