osu file format v14

[General]
AudioFilename: audio.mp3
AudioLeadIn: 0
PreviewTime: 36648
Countdown: 0
SampleSet: None
StackLeniency: 0.7
Mode: 1
LetterboxInBreaks: 0
WidescreenStoryboard: 0

[Editor]
Bookmarks: 8112,21121,36730,47137,57543,70551,79657,90064,105673,121283,131690,142096,155104,165511,174616
DistanceSpacing: 1.2
BeatDivisor: 4
GridSize: 32
TimelineZoom: 2.699999

[Metadata]
Title:Gakuen Tengoku
TitleUnicode:学園天国
Artist:FLOW
ArtistUnicode:FLOW
Creator:k3v227
Version:Inner Oni
Source:
Tags:Gakuin ryu ryu* academy heaven school
BeatmapID:1129916
BeatmapSetID:533338

[Difficulty]
HPDrainRate:6
CircleSize:2
OverallDifficulty:5
ApproachRate:5
SliderMultiplier:1.4
SliderTickRate:1

[Events]
//Background and Video events
0,0,"Gakuen Tengoku (bg).jpg",0,50
//Break Periods
2,113677,114554
//Storyboard Layer 0 (Background)
//Storyboard Layer 1 (Fail)
//Storyboard Layer 2 (Pass)
//Storyboard Layer 3 (Foreground)
//Storyboard Sound Samples

[TimingPoints]
307,325.20325203252,4,1,0,100,1,0
307,-153.846153846153,4,1,0,20,0,0
8111,-105.263157894737,4,1,0,100,0,0
13315,-100,4,1,0,100,0,0
15916,-90.9090909090909,4,1,0,100,0,0
19819,-105.263157894737,4,1,0,100,0,0
20306,-106.382978723404,4,1,0,100,0,0
20469,-108.695652173913,4,1,0,100,0,0
20632,-112.359550561798,4,1,0,100,0,0
20794,-116.279069767442,4,1,0,100,0,0
20957,-120.481927710843,4,1,0,100,0,0
21120,-125,4,1,0,100,0,0
23721,-66.6666666666667,4,1,0,100,0,0
25835,-125,4,1,0,100,0,0
28924,-66.6666666666667,4,1,0,100,0,0
30876,-25,4,1,0,100,0,0
31526,-125,4,1,0,100,0,0
32176,-50,4,1,0,100,0,0
32827,-125,4,1,0,100,0,0
33477,-50,4,1,0,100,0,0
34128,-125,4,1,0,100,0,0
34453,-50,4,1,0,100,0,0
34778,-125,4,1,0,100,0,0
35103,-50,4,1,0,100,0,0
35428,-100,4,1,0,100,0,0
36729,-100,4,1,0,100,0,1
46648,-80,4,1,0,100,0,1
46973,-80,4,1,0,100,0,0
47136,-100,4,1,0,100,0,0
50063,-66.6666666666667,4,1,0,100,0,0
51038,-100,4,1,0,100,0,0
51851,-80,4,1,0,100,0,0
52339,-100,4,1,0,100,0,0
55266,-66.6666666666667,4,1,0,100,0,0
55591,-80,4,1,0,100,0,0
56241,-90.9090909090909,4,1,0,100,0,0
57867,-111.111111111111,4,1,0,100,0,0
59656,-80,4,1,0,100,0,0
60469,-111.111111111111,4,1,0,100,0,0
62258,-80,4,1,0,100,0,0
63071,-100,4,1,0,100,0,0
64046,-86.9565217391304,4,1,0,100,0,0
65347,-76.9230769230769,4,1,0,100,0,0
69250,-100,4,1,0,100,0,0
70550,-100,4,1,0,100,0,1
79493,-100,4,1,0,100,0,0
79656,-111.111111111111,4,1,0,100,0,0
88762,-100,4,1,0,100,0,0
90063,-125,4,1,0,100,0,0
92664,-66.6666666666667,4,1,0,100,0,0
94778,-125,4,1,0,100,0,0
97867,-66.6666666666667,4,1,0,100,0,0
99819,-25,4,1,0,100,0,0
100469,-125,4,1,0,100,0,0
101120,-50,4,1,0,100,0,0
101770,-125,4,1,0,100,0,0
102420,-50,4,1,0,100,0,0
103071,-125,4,1,0,100,0,0
103396,-50,4,1,0,100,0,0
103721,-125,4,1,0,100,0,0
104046,-50,4,1,0,100,0,0
104372,-100,4,1,0,100,0,0
105672,-100,4,1,0,100,0,1
108274,-83.3333333333333,4,1,0,100,0,0
110876,-100,4,1,0,100,0,1
113477,-100,4,1,0,70,0,0
113640,-133.333333333333,4,1,0,70,0,0
115754,-66.6666666666667,4,1,0,100,0,0
116079,-90.9090909090909,4,1,0,100,0,0
118680,-83.3333333333333,4,1,0,100,0,0
119981,-100,4,1,0,100,0,0
121282,-100,4,1,0,100,0,1
131201,-80,4,1,0,100,0,1
131526,-80,4,1,0,100,0,0
131689,-100,4,1,0,100,0,0
134615,-66.6666666666667,4,1,0,100,0,0
135591,-100,4,1,0,100,0,0
136404,-80,4,1,0,100,0,0
136892,-100,4,1,0,100,0,0
139819,-66.6666666666667,4,1,0,100,0,0
140144,-80,4,1,0,100,0,0
140794,-90.9090909090909,4,1,0,100,0,0
142420,-111.111111111111,4,1,0,100,0,0
144209,-80,4,1,0,100,0,0
145022,-111.111111111111,4,1,0,100,0,0
146811,-80,4,1,0,100,0,0
147624,-100,4,1,0,100,0,0
148599,-86.9565217391304,4,1,0,100,0,0
149900,-76.9230769230769,4,1,0,100,0,0
153802,-100,4,1,0,100,0,0
155103,-100,4,1,0,100,0,1
164046,-100,4,1,0,100,0,0
165510,-83.3333333333333,4,1,0,100,0,1
168111,-83.3333333333333,4,1,0,100,0,0
168762,-111.111111111111,4,1,0,100,0,0
169250,-90.9090909090909,4,1,0,100,0,1
172339,-83.3333333333333,4,1,0,100,0,1
173152,-83.3333333333333,4,1,0,80,0,0
173315,-83.3333333333333,4,1,0,80,0,0
174046,-111.111111111111,4,1,0,80,0,0

[HitObjects]
256,192,2746,8,0,7949,0:0:0:0:
256,192,8111,5,4,0:0:0:0:
256,192,8437,1,0,0:0:0:0:
256,192,8599,1,8,0:0:0:0:
256,192,8924,1,8,0:0:0:0:
256,192,9087,1,8,0:0:0:0:
256,192,9250,1,0,0:0:0:0:
256,192,9412,1,0,0:0:0:0:
256,192,9575,1,8,0:0:0:0:
256,192,9737,1,0,0:0:0:0:
256,192,9900,1,0,0:0:0:0:
256,192,9981,1,0,0:0:0:0:
256,192,10063,1,0,0:0:0:0:
256,192,10225,1,12,0:0:0:0:
256,192,10388,1,0,0:0:0:0:
256,192,10550,1,0,0:0:0:0:
256,192,10713,1,4,0:0:0:0:
256,192,11038,1,0,0:0:0:0:
256,192,11201,1,8,0:0:0:0:
256,192,11526,1,8,0:0:0:0:
256,192,11689,1,8,0:0:0:0:
256,192,11851,1,0,0:0:0:0:
256,192,12014,1,0,0:0:0:0:
256,192,12176,1,8,0:0:0:0:
256,192,12339,1,0,0:0:0:0:
256,192,12502,1,0,0:0:0:0:
256,192,12583,1,0,0:0:0:0:
256,192,12664,1,0,0:0:0:0:
256,192,12827,1,0,0:0:0:0:
256,192,12989,1,12,0:0:0:0:
256,192,13315,1,4,0:0:0:0:
256,192,13477,1,0,0:0:0:0:
256,192,13640,1,0,0:0:0:0:
256,192,13802,1,8,0:0:0:0:
256,192,13965,1,8,0:0:0:0:
256,192,14128,1,0,0:0:0:0:
256,192,14290,1,8,0:0:0:0:
256,192,14453,1,0,0:0:0:0:
256,192,14615,1,0,0:0:0:0:
256,192,14778,1,8,0:0:0:0:
256,192,14941,1,0,0:0:0:0:
256,192,15103,1,8,0:0:0:0:
256,192,15185,1,8,0:0:0:0:
256,192,15266,1,0,0:0:0:0:
256,192,15428,1,0,0:0:0:0:
256,192,15591,1,12,0:0:0:0:
256,192,15754,1,0,0:0:0:0:
256,192,15916,1,12,0:0:0:0:
256,192,16079,1,0,0:0:0:0:
256,192,16160,1,0,0:0:0:0:
256,192,16241,1,0,0:0:0:0:
256,192,16404,1,12,0:0:0:0:
256,192,16567,1,0,0:0:0:0:
256,192,16648,1,0,0:0:0:0:
256,192,16729,1,0,0:0:0:0:
256,192,16892,1,12,0:0:0:0:
256,192,17054,1,0,0:0:0:0:
256,192,17217,1,12,0:0:0:0:
256,192,17380,1,0,0:0:0:0:
256,192,17542,1,12,0:0:0:0:
256,192,17705,1,0,0:0:0:0:
256,192,17867,1,8,0:0:0:0:
256,192,17949,1,8,0:0:0:0:
256,192,18030,1,8,0:0:0:0:
256,192,18111,1,8,0:0:0:0:
256,192,18193,1,8,0:0:0:0:
256,192,18355,1,8,0:0:0:0:
256,192,18518,1,4,0:0:0:0:
256,192,18680,8,0,19656,0:0:0:0:
256,192,19819,5,0,0:0:0:0:
256,192,19900,1,8,0:0:0:0:
256,192,19981,1,8,0:0:0:0:
256,192,20063,1,8,0:0:0:0:
256,192,20144,1,8,0:0:0:0:
256,192,20306,1,0,0:0:0:0:
256,192,20469,1,8,0:0:0:0:
256,192,20632,1,8,0:0:0:0:
256,192,20794,1,8,0:0:0:0:
256,192,20957,1,8,0:0:0:0:
256,192,21120,1,4,0:0:0:0:
256,192,21282,1,0,0:0:0:0:
256,192,21445,1,8,0:0:0:0:
256,192,21607,1,0,0:0:0:0:
256,192,21689,1,0,0:0:0:0:
256,192,21770,1,0,0:0:0:0:
256,192,21933,1,0,0:0:0:0:
256,192,22095,1,8,0:0:0:0:
256,192,22258,1,0,0:0:0:0:
256,192,22420,1,0,0:0:0:0:
256,192,22583,1,0,0:0:0:0:
256,192,22746,1,8,0:0:0:0:
256,192,22908,1,0,0:0:0:0:
256,192,22989,1,0,0:0:0:0:
256,192,23071,1,0,0:0:0:0:
256,192,23233,1,0,0:0:0:0:
256,192,23396,1,8,0:0:0:0:
256,192,23559,1,0,0:0:0:0:
256,192,23721,1,12,0:0:0:0:
256,192,24372,1,4,0:0:0:0:
256,192,24697,1,4,0:0:0:0:
256,192,25022,1,12,0:0:0:0:
256,192,25510,1,12,0:0:0:0:
256,192,25835,1,0,0:0:0:0:
256,192,25998,1,8,0:0:0:0:
256,192,26160,1,8,0:0:0:0:
256,192,26241,1,8,0:0:0:0:
256,192,26323,1,0,0:0:0:0:
256,192,26485,1,0,0:0:0:0:
256,192,26648,1,8,0:0:0:0:
256,192,26811,1,0,0:0:0:0:
256,192,26892,1,0,0:0:0:0:
256,192,26973,1,0,0:0:0:0:
256,192,27136,1,0,0:0:0:0:
256,192,27298,1,8,0:0:0:0:
256,192,27461,1,0,0:0:0:0:
256,192,27624,1,0,0:0:0:0:
256,192,27786,1,0,0:0:0:0:
256,192,27949,1,8,0:0:0:0:
256,192,28111,1,0,0:0:0:0:
256,192,28193,1,0,0:0:0:0:
256,192,28274,1,0,0:0:0:0:
256,192,28437,1,0,0:0:0:0:
256,192,28599,1,8,0:0:0:0:
256,192,28762,1,0,0:0:0:0:
256,192,28924,1,12,0:0:0:0:
256,192,29575,1,4,0:0:0:0:
256,192,29900,1,4,0:0:0:0:
256,192,30225,1,12,0:0:0:0:
256,192,30713,1,12,0:0:0:0:
64,64,30876,2,4,B|448:288|288:64,2,315.000012016297
256,192,31526,1,4,0:0:0:0:
256,192,32176,1,12,0:0:0:0:
256,192,32827,1,4,0:0:0:0:
256,192,33477,1,12,0:0:0:0:
256,192,34128,1,4,0:0:0:0:
256,192,34453,1,12,0:0:0:0:
256,192,34778,1,4,0:0:0:0:
256,192,35103,1,12,0:0:0:0:
256,192,35428,1,0,0:0:0:0:
256,192,35510,1,8,0:0:0:0:
256,192,35591,1,8,0:0:0:0:
256,192,35672,1,8,0:0:0:0:
256,192,35754,1,8,0:0:0:0:
256,192,35916,1,0,0:0:0:0:
256,192,36079,1,8,0:0:0:0:
256,192,36241,1,8,0:0:0:0:
256,192,36404,1,8,0:0:0:0:
256,192,36567,1,8,0:0:0:0:
256,192,36729,1,4,0:0:0:0:
256,192,36892,1,8,0:0:0:0:
256,192,36973,1,8,0:0:0:0:
256,192,37054,1,0,0:0:0:0:
256,192,37217,1,8,0:0:0:0:
256,192,37380,1,0,0:0:0:0:
256,192,37542,1,8,0:0:0:0:
256,192,37624,1,8,0:0:0:0:
256,192,37705,1,0,0:0:0:0:
256,192,37867,1,0,0:0:0:0:
256,192,38030,1,8,0:0:0:0:
256,192,38111,1,0,0:0:0:0:
256,192,38193,1,8,0:0:0:0:
256,192,38274,1,8,0:0:0:0:
256,192,38355,1,0,0:0:0:0:
256,192,38518,1,8,0:0:0:0:
256,192,38680,1,0,0:0:0:0:
256,192,38843,1,0,0:0:0:0:
256,192,38924,1,0,0:0:0:0:
256,192,39006,1,8,0:0:0:0:
256,192,39087,1,8,0:0:0:0:
256,192,39168,1,8,0:0:0:0:
256,192,39331,1,0,0:0:0:0:
256,192,39493,1,8,0:0:0:0:
256,192,39575,1,8,0:0:0:0:
256,192,39656,1,0,0:0:0:0:
256,192,39819,1,8,0:0:0:0:
256,192,39981,1,0,0:0:0:0:
256,192,40144,1,8,0:0:0:0:
256,192,40225,1,8,0:0:0:0:
256,192,40306,1,0,0:0:0:0:
256,192,40469,1,0,0:0:0:0:
256,192,40632,1,8,0:0:0:0:
256,192,40713,1,8,0:0:0:0:
256,192,40876,1,8,0:0:0:0:
256,192,40957,1,0,0:0:0:0:
256,192,41120,1,8,0:0:0:0:
256,192,41282,1,0,0:0:0:0:
256,192,41445,1,0,0:0:0:0:
256,192,41526,1,0,0:0:0:0:
256,192,41607,1,8,0:0:0:0:
256,192,41689,1,0,0:0:0:0:
256,192,41770,1,8,0:0:0:0:
256,192,41851,1,8,0:0:0:0:
256,192,41933,1,0,0:0:0:0:
256,192,42095,1,8,0:0:0:0:
256,192,42176,1,8,0:0:0:0:
256,192,42258,1,0,0:0:0:0:
256,192,42420,1,8,0:0:0:0:
256,192,42583,1,0,0:0:0:0:
256,192,42746,1,8,0:0:0:0:
256,192,42827,1,8,0:0:0:0:
256,192,42908,1,0,0:0:0:0:
256,192,43071,1,0,0:0:0:0:
256,192,43233,1,8,0:0:0:0:
256,192,43315,1,0,0:0:0:0:
256,192,43396,1,8,0:0:0:0:
256,192,43477,1,8,0:0:0:0:
256,192,43559,1,0,0:0:0:0:
256,192,43640,1,0,0:0:0:0:
256,192,43721,1,8,0:0:0:0:
256,192,43802,1,8,0:0:0:0:
256,192,43884,1,0,0:0:0:0:
256,192,44046,1,0,0:0:0:0:
256,192,44128,1,0,0:0:0:0:
256,192,44209,1,8,0:0:0:0:
256,192,44372,1,0,0:0:0:0:
256,192,44534,1,0,0:0:0:0:
256,192,44615,1,0,0:0:0:0:
256,192,44697,1,8,0:0:0:0:
256,192,44778,1,8,0:0:0:0:
256,192,44859,1,0,0:0:0:0:
256,192,45022,1,8,0:0:0:0:
256,192,45185,1,0,0:0:0:0:
256,192,45347,1,0,0:0:0:0:
256,192,45428,1,0,0:0:0:0:
256,192,45510,1,8,0:0:0:0:
256,192,45672,1,4,0:0:0:0:
256,192,45998,1,0,0:0:0:0:
256,192,46160,1,8,0:0:0:0:
256,192,46241,1,8,0:0:0:0:
256,192,46323,1,0,0:0:0:0:
256,192,46404,1,0,0:0:0:0:
256,192,46485,1,0,0:0:0:0:
256,192,46648,1,12,0:0:0:0:
256,192,46973,1,4,0:0:0:0:
256,192,47298,1,0,0:0:0:0:
256,192,47461,1,8,0:0:0:0:
256,192,47624,1,0,0:0:0:0:
256,192,47705,1,0,0:0:0:0:
256,192,47786,1,0,0:0:0:0:
256,192,47949,1,0,0:0:0:0:
256,192,48111,1,8,0:0:0:0:
256,192,48274,1,0,0:0:0:0:
256,192,48355,1,0,0:0:0:0:
256,192,48437,1,0,0:0:0:0:
256,192,48599,1,0,0:0:0:0:
256,192,48762,1,8,0:0:0:0:
256,192,48843,1,0,0:0:0:0:
256,192,48924,1,0,0:0:0:0:
256,192,49006,1,0,0:0:0:0:
256,192,49087,1,0,0:0:0:0:
256,192,49250,1,0,0:0:0:0:
256,192,49412,1,8,0:0:0:0:
256,192,49575,1,8,0:0:0:0:
256,192,49656,1,8,0:0:0:0:
256,192,49737,1,0,0:0:0:0:
256,192,49900,1,0,0:0:0:0:
256,192,50063,1,12,0:0:0:0:
256,192,50225,1,12,0:0:0:0:
256,192,50713,1,12,0:0:0:0:
256,192,50876,1,12,0:0:0:0:
256,192,51201,1,0,0:0:0:0:
256,192,51363,1,8,0:0:0:0:
256,192,51526,1,8,0:0:0:0:
256,192,51607,1,8,0:0:0:0:
256,192,51689,1,0,0:0:0:0:
256,192,51851,1,12,0:0:0:0:
256,192,52176,1,4,0:0:0:0:
256,192,52502,1,0,0:0:0:0:
256,192,52664,1,8,0:0:0:0:
256,192,52827,1,0,0:0:0:0:
256,192,52908,1,0,0:0:0:0:
256,192,52989,1,0,0:0:0:0:
256,192,53152,1,0,0:0:0:0:
256,192,53315,1,8,0:0:0:0:
256,192,53477,1,0,0:0:0:0:
256,192,53559,1,0,0:0:0:0:
256,192,53640,1,0,0:0:0:0:
256,192,53802,1,0,0:0:0:0:
256,192,53965,1,8,0:0:0:0:
256,192,54046,1,0,0:0:0:0:
256,192,54128,1,0,0:0:0:0:
256,192,54209,1,8,0:0:0:0:
256,192,54290,1,0,0:0:0:0:
256,192,54453,1,0,0:0:0:0:
256,192,54615,1,8,0:0:0:0:
256,192,54778,1,8,0:0:0:0:
256,192,54859,1,8,0:0:0:0:
256,192,54941,1,0,0:0:0:0:
256,192,55103,1,0,0:0:0:0:
256,192,55266,1,12,0:0:0:0:
256,192,55591,1,4,0:0:0:0:
256,192,55835,1,4,0:0:0:0:
256,192,56079,1,12,0:0:0:0:
256,192,56404,1,0,0:0:0:0:
256,192,56485,1,0,0:0:0:0:
256,192,56567,1,8,0:0:0:0:
256,192,56729,1,0,0:0:0:0:
256,192,56892,1,0,0:0:0:0:
256,192,57054,1,8,0:0:0:0:
256,192,57217,1,8,0:0:0:0:
256,192,57298,1,8,0:0:0:0:
256,192,57380,1,0,0:0:0:0:
256,192,57542,1,4,0:0:0:0:
256,192,57867,1,0,0:0:0:0:
256,192,58193,1,0,0:0:0:0:
256,192,58518,1,0,0:0:0:0:
256,192,58843,1,0,0:0:0:0:
256,192,59168,1,0,0:0:0:0:
256,192,59493,1,0,0:0:0:0:
256,192,59656,1,12,0:0:0:0:
256,192,60144,1,4,0:0:0:0:
256,192,60469,1,0,0:0:0:0:
256,192,60794,1,0,0:0:0:0:
256,192,61120,1,0,0:0:0:0:
256,192,61445,1,0,0:0:0:0:
256,192,61607,1,8,0:0:0:0:
256,192,61689,1,0,0:0:0:0:
256,192,61770,1,0,0:0:0:0:
256,192,61933,1,0,0:0:0:0:
256,192,62014,1,0,0:0:0:0:
256,192,62095,1,0,0:0:0:0:
256,192,62258,1,12,0:0:0:0:
256,192,62583,1,8,0:0:0:0:
256,192,62746,1,4,0:0:0:0:
256,192,63071,1,8,0:0:0:0:
256,192,63233,1,0,0:0:0:0:
256,192,63396,1,8,0:0:0:0:
256,192,63559,1,8,0:0:0:0:
256,192,63721,1,0,0:0:0:0:
256,192,64046,1,4,0:0:0:0:
256,192,64372,1,0,0:0:0:0:
256,192,64534,1,8,0:0:0:0:
256,192,64697,1,8,0:0:0:0:
256,192,64859,1,8,0:0:0:0:
256,192,65022,1,0,0:0:0:0:
256,192,65347,1,12,0:0:0:0:
256,192,65564,1,12,0:0:0:0:
256,192,65781,1,12,0:0:0:0:
256,192,65998,1,4,0:0:0:0:
256,192,66214,1,4,0:0:0:0:
256,192,66431,1,12,0:0:0:0:
256,192,66648,1,12,0:0:0:0:
256,192,66865,1,12,0:0:0:0:
256,192,67082,1,4,0:0:0:0:
256,192,67298,1,12,0:0:0:0:
256,192,67515,1,12,0:0:0:0:
256,192,67732,1,4,0:0:0:0:
256,192,67949,1,12,0:0:0:0:
256,192,68111,8,4,69087,0:0:0:0:
256,192,69250,5,0,0:0:0:0:
256,192,69331,1,8,0:0:0:0:
256,192,69412,1,8,0:0:0:0:
256,192,69493,1,8,0:0:0:0:
256,192,69575,1,8,0:0:0:0:
256,192,69737,1,0,0:0:0:0:
256,192,69900,1,8,0:0:0:0:
256,192,70063,1,8,0:0:0:0:
256,192,70225,1,8,0:0:0:0:
256,192,70388,1,8,0:0:0:0:
256,192,70550,1,4,0:0:0:0:
256,192,70713,1,8,0:0:0:0:
256,192,70794,1,8,0:0:0:0:
256,192,70876,1,0,0:0:0:0:
256,192,71038,1,8,0:0:0:0:
256,192,71201,1,0,0:0:0:0:
256,192,71363,1,8,0:0:0:0:
256,192,71445,1,8,0:0:0:0:
256,192,71526,1,0,0:0:0:0:
256,192,71689,1,8,0:0:0:0:
256,192,71851,1,0,0:0:0:0:
256,192,72014,1,8,0:0:0:0:
256,192,72095,1,8,0:0:0:0:
256,192,72176,1,0,0:0:0:0:
256,192,72258,1,8,0:0:0:0:
256,192,72420,1,8,0:0:0:0:
256,192,72502,1,0,0:0:0:0:
256,192,72664,1,8,0:0:0:0:
256,192,72746,1,8,0:0:0:0:
256,192,72827,1,8,0:0:0:0:
256,192,72989,1,0,0:0:0:0:
256,192,73152,1,8,0:0:0:0:
256,192,73315,1,0,0:0:0:0:
256,192,73396,1,0,0:0:0:0:
256,192,73477,1,8,0:0:0:0:
256,192,73640,1,0,0:0:0:0:
256,192,73802,1,8,0:0:0:0:
256,192,73884,1,0,0:0:0:0:
256,192,73965,1,8,0:0:0:0:
256,192,74046,1,0,0:0:0:0:
256,192,74128,1,8,0:0:0:0:
256,192,74290,1,0,0:0:0:0:
256,192,74453,1,8,0:0:0:0:
256,192,74615,1,8,0:0:0:0:
256,192,74778,1,0,0:0:0:0:
256,192,74941,1,8,0:0:0:0:
256,192,75103,1,0,0:0:0:0:
256,192,75185,1,0,0:0:0:0:
256,192,75266,1,8,0:0:0:0:
256,192,75347,1,8,0:0:0:0:
256,192,75428,1,0,0:0:0:0:
256,192,75510,1,8,0:0:0:0:
256,192,75591,1,8,0:0:0:0:
256,192,75672,1,8,0:0:0:0:
256,192,75754,1,0,0:0:0:0:
256,192,75916,1,8,0:0:0:0:
256,192,75998,1,8,0:0:0:0:
256,192,76079,1,0,0:0:0:0:
256,192,76241,1,8,0:0:0:0:
256,192,76404,1,0,0:0:0:0:
256,192,76567,1,8,0:0:0:0:
256,192,76648,1,8,0:0:0:0:
256,192,76729,1,0,0:0:0:0:
256,192,76811,1,0,0:0:0:0:
256,192,76892,1,0,0:0:0:0:
256,192,77054,1,8,0:0:0:0:
256,192,77217,1,0,0:0:0:0:
256,192,77298,1,0,0:0:0:0:
256,192,77380,1,0,0:0:0:0:
256,192,77542,1,8,0:0:0:0:
256,192,77705,1,0,0:0:0:0:
256,192,77867,1,0,0:0:0:0:
256,192,77949,1,0,0:0:0:0:
256,192,78030,1,8,0:0:0:0:
256,192,78193,1,0,0:0:0:0:
256,192,78355,1,8,0:0:0:0:
256,192,78518,1,0,0:0:0:0:
256,192,78599,1,0,0:0:0:0:
256,192,78680,1,8,0:0:0:0:
256,192,78762,1,8,0:0:0:0:
256,192,78843,1,0,0:0:0:0:
256,192,79006,1,8,0:0:0:0:
256,192,79168,1,0,0:0:0:0:
256,192,79250,1,0,0:0:0:0:
256,192,79331,1,8,0:0:0:0:
256,192,79493,1,4,0:0:0:0:
256,192,79819,1,0,0:0:0:0:
256,192,79981,1,8,0:0:0:0:
256,192,80632,1,8,0:0:0:0:
256,192,81120,1,0,0:0:0:0:
256,192,81282,1,8,0:0:0:0:
256,192,81445,1,0,0:0:0:0:
256,192,81607,1,0,0:0:0:0:
256,192,81770,1,0,0:0:0:0:
256,192,81933,1,8,0:0:0:0:
256,192,82095,1,4,0:0:0:0:
256,192,82420,1,4,0:0:0:0:
256,192,82583,1,8,0:0:0:0:
256,192,83233,1,8,0:0:0:0:
256,192,83721,1,0,0:0:0:0:
256,192,83884,1,8,0:0:0:0:
256,192,84046,1,0,0:0:0:0:
256,192,84128,1,0,0:0:0:0:
256,192,84209,1,0,0:0:0:0:
256,192,84372,1,0,0:0:0:0:
256,192,84534,1,8,0:0:0:0:
256,192,84697,1,4,0:0:0:0:
256,192,85022,1,4,0:0:0:0:
256,192,85185,1,8,0:0:0:0:
256,192,85835,1,8,0:0:0:0:
256,192,86323,1,0,0:0:0:0:
256,192,86485,1,8,0:0:0:0:
256,192,86648,1,0,0:0:0:0:
256,192,86811,1,0,0:0:0:0:
256,192,86973,1,0,0:0:0:0:
256,192,87136,1,8,0:0:0:0:
256,192,87298,1,4,0:0:0:0:
256,192,87624,1,4,0:0:0:0:
256,192,87786,1,8,0:0:0:0:
256,192,88274,1,0,0:0:0:0:
256,192,88355,1,0,0:0:0:0:
256,192,88437,1,8,0:0:0:0:
256,192,88599,1,4,0:0:0:0:
256,192,88924,1,0,0:0:0:0:
256,192,89087,1,8,0:0:0:0:
256,192,89250,1,0,0:0:0:0:
256,192,89412,1,12,0:0:0:0:
256,192,89575,1,0,0:0:0:0:
256,192,89737,1,12,0:0:0:0:
256,192,90063,1,4,0:0:0:0:
256,192,90225,1,0,0:0:0:0:
256,192,90388,1,8,0:0:0:0:
256,192,90550,1,0,0:0:0:0:
256,192,90632,1,0,0:0:0:0:
256,192,90713,1,0,0:0:0:0:
256,192,90876,1,0,0:0:0:0:
256,192,91038,1,8,0:0:0:0:
256,192,91201,1,0,0:0:0:0:
256,192,91363,1,0,0:0:0:0:
256,192,91526,1,0,0:0:0:0:
256,192,91689,1,8,0:0:0:0:
256,192,91851,1,0,0:0:0:0:
256,192,91933,1,0,0:0:0:0:
256,192,92014,1,0,0:0:0:0:
256,192,92176,1,0,0:0:0:0:
256,192,92339,1,8,0:0:0:0:
256,192,92502,1,0,0:0:0:0:
256,192,92664,1,12,0:0:0:0:
256,192,93315,1,4,0:0:0:0:
256,192,93640,1,4,0:0:0:0:
256,192,93965,1,12,0:0:0:0:
256,192,94453,1,12,0:0:0:0:
256,192,94778,1,0,0:0:0:0:
256,192,94941,1,8,0:0:0:0:
256,192,95103,1,8,0:0:0:0:
256,192,95185,1,8,0:0:0:0:
256,192,95266,1,0,0:0:0:0:
256,192,95428,1,0,0:0:0:0:
256,192,95591,1,8,0:0:0:0:
256,192,95754,1,0,0:0:0:0:
256,192,95835,1,0,0:0:0:0:
256,192,95916,1,0,0:0:0:0:
256,192,96079,1,0,0:0:0:0:
256,192,96241,1,8,0:0:0:0:
256,192,96404,1,0,0:0:0:0:
256,192,96567,1,0,0:0:0:0:
256,192,96729,1,0,0:0:0:0:
256,192,96892,1,8,0:0:0:0:
256,192,97054,1,0,0:0:0:0:
256,192,97136,1,0,0:0:0:0:
256,192,97217,1,0,0:0:0:0:
256,192,97380,1,0,0:0:0:0:
256,192,97542,1,8,0:0:0:0:
256,192,97705,1,0,0:0:0:0:
256,192,97867,1,12,0:0:0:0:
256,192,98518,1,4,0:0:0:0:
256,192,98843,1,4,0:0:0:0:
256,192,99168,1,12,0:0:0:0:
256,192,99656,1,12,0:0:0:0:
96,64,99819,2,4,B|416:256|384:224,3,280
256,192,100469,1,4,0:0:0:0:
256,192,101120,1,12,0:0:0:0:
256,192,101770,1,4,0:0:0:0:
256,192,102420,1,12,0:0:0:0:
256,192,103071,1,4,0:0:0:0:
256,192,103396,1,12,0:0:0:0:
256,192,103721,1,4,0:0:0:0:
256,192,104046,1,12,0:0:0:0:
256,192,104372,1,0,0:0:0:0:
256,192,104453,1,8,0:0:0:0:
256,192,104534,1,8,0:0:0:0:
256,192,104615,1,8,0:0:0:0:
256,192,104697,1,8,0:0:0:0:
256,192,104859,1,0,0:0:0:0:
256,192,105022,1,8,0:0:0:0:
256,192,105185,1,8,0:0:0:0:
256,192,105347,1,8,0:0:0:0:
256,192,105510,1,8,0:0:0:0:
256,192,105672,1,4,0:0:0:0:
256,192,105835,1,8,0:0:0:0:
256,192,105916,1,8,0:0:0:0:
256,192,105998,1,0,0:0:0:0:
256,192,106160,1,8,0:0:0:0:
256,192,106323,1,0,0:0:0:0:
256,192,106485,1,8,0:0:0:0:
256,192,106567,1,8,0:0:0:0:
256,192,106648,1,0,0:0:0:0:
256,192,106811,1,8,0:0:0:0:
256,192,106973,1,0,0:0:0:0:
256,192,107054,1,0,0:0:0:0:
256,192,107136,1,8,0:0:0:0:
256,192,107217,1,8,0:0:0:0:
256,192,107298,1,0,0:0:0:0:
256,192,107461,1,8,0:0:0:0:
256,192,107624,1,0,0:0:0:0:
256,192,107786,1,8,0:0:0:0:
256,192,107867,1,8,0:0:0:0:
256,192,107949,1,8,0:0:0:0:
256,192,108111,1,8,0:0:0:0:
256,192,108274,1,4,0:0:0:0:
256,192,108599,1,8,0:0:0:0:
256,192,108924,1,0,0:0:0:0:
256,192,109087,1,8,0:0:0:0:
256,192,109412,1,8,0:0:0:0:
256,192,109575,1,0,0:0:0:0:
256,192,109656,1,0,0:0:0:0:
256,192,109737,1,8,0:0:0:0:
256,192,109819,1,8,0:0:0:0:
256,192,109900,1,0,0:0:0:0:
256,192,110063,1,0,0:0:0:0:
256,192,110225,1,8,0:0:0:0:
256,192,110388,1,0,0:0:0:0:
256,192,110550,1,12,0:0:0:0:
256,192,110876,1,4,0:0:0:0:
256,192,111038,1,8,0:0:0:0:
256,192,111120,1,8,0:0:0:0:
256,192,111201,1,0,0:0:0:0:
256,192,111363,1,8,0:0:0:0:
256,192,111526,1,0,0:0:0:0:
256,192,111689,1,8,0:0:0:0:
256,192,111770,1,8,0:0:0:0:
256,192,111851,1,0,0:0:0:0:
256,192,112014,1,8,0:0:0:0:
256,192,112176,1,0,0:0:0:0:
256,192,112339,1,8,0:0:0:0:
256,192,112420,1,8,0:0:0:0:
256,192,112502,1,0,0:0:0:0:
256,192,112583,1,0,0:0:0:0:
256,192,112664,1,8,0:0:0:0:
256,192,112827,1,0,0:0:0:0:
256,192,112989,1,8,0:0:0:0:
256,192,113071,1,0,0:0:0:0:
256,192,113152,1,8,0:0:0:0:
256,192,113315,1,0,0:0:0:0:
256,192,113477,1,12,0:0:0:0:
256,192,115754,5,12,0:0:0:0:
256,192,116079,1,4,0:0:0:0:
256,192,116404,1,8,0:0:0:0:
256,192,116567,1,8,0:0:0:0:
256,192,116648,1,8,0:0:0:0:
256,192,116729,1,8,0:0:0:0:
256,192,116892,1,4,0:0:0:0:
256,192,117380,1,4,0:0:0:0:
256,192,117542,1,8,0:0:0:0:
256,192,117624,1,0,0:0:0:0:
256,192,117705,1,8,0:0:0:0:
256,192,117786,1,8,0:0:0:0:
256,192,117867,1,0,0:0:0:0:
256,192,117949,1,0,0:0:0:0:
256,192,118030,1,8,0:0:0:0:
256,192,118193,1,4,0:0:0:0:
256,192,118518,1,8,0:0:0:0:
256,192,118680,1,4,0:0:0:0:
256,192,119006,1,12,0:0:0:0:
256,192,119331,1,4,0:0:0:0:
256,192,119493,1,4,0:0:0:0:
256,192,119656,1,8,0:0:0:0:
256,192,119819,1,4,0:0:0:0:
256,192,120144,1,0,0:0:0:0:
256,192,120306,1,8,0:0:0:0:
256,192,120469,1,8,0:0:0:0:
256,192,120550,1,8,0:0:0:0:
256,192,120632,1,8,0:0:0:0:
256,192,120794,1,8,0:0:0:0:
256,192,120957,1,8,0:0:0:0:
256,192,121120,1,8,0:0:0:0:
256,192,121282,1,4,0:0:0:0:
256,192,121445,1,8,0:0:0:0:
256,192,121526,1,8,0:0:0:0:
256,192,121607,1,0,0:0:0:0:
256,192,121770,1,8,0:0:0:0:
256,192,121933,1,0,0:0:0:0:
256,192,122095,1,8,0:0:0:0:
256,192,122176,1,8,0:0:0:0:
256,192,122258,1,0,0:0:0:0:
256,192,122420,1,8,0:0:0:0:
256,192,122583,1,0,0:0:0:0:
256,192,122664,1,0,0:0:0:0:
256,192,122746,1,8,0:0:0:0:
256,192,122827,1,8,0:0:0:0:
256,192,122908,1,0,0:0:0:0:
256,192,123071,1,8,0:0:0:0:
256,192,123233,1,0,0:0:0:0:
256,192,123396,1,8,0:0:0:0:
256,192,123559,1,0,0:0:0:0:
256,192,123640,1,0,0:0:0:0:
256,192,123721,1,0,0:0:0:0:
256,192,123802,1,0,0:0:0:0:
256,192,123884,1,8,0:0:0:0:
256,192,124046,1,0,0:0:0:0:
256,192,124128,1,0,0:0:0:0:
256,192,124209,1,8,0:0:0:0:
256,192,124372,1,8,0:0:0:0:
256,192,124534,1,8,0:0:0:0:
256,192,124697,1,0,0:0:0:0:
256,192,124778,1,0,0:0:0:0:
256,192,124859,1,8,0:0:0:0:
256,192,124941,1,8,0:0:0:0:
256,192,125022,1,0,0:0:0:0:
256,192,125103,1,0,0:0:0:0:
256,192,125185,1,8,0:0:0:0:
256,192,125347,1,8,0:0:0:0:
256,192,125428,1,8,0:0:0:0:
256,192,125510,1,0,0:0:0:0:
256,192,125672,1,0,0:0:0:0:
256,192,125835,1,8,0:0:0:0:
256,192,125916,1,0,0:0:0:0:
256,192,125998,1,8,0:0:0:0:
256,192,126079,1,8,0:0:0:0:
256,192,126160,1,0,0:0:0:0:
256,192,126241,1,0,0:0:0:0:
256,192,126323,1,8,0:0:0:0:
256,192,126404,1,8,0:0:0:0:
256,192,126485,1,0,0:0:0:0:
256,192,126648,1,0,0:0:0:0:
256,192,126729,1,0,0:0:0:0:
256,192,126811,1,8,0:0:0:0:
256,192,126973,1,0,0:0:0:0:
256,192,127136,1,8,0:0:0:0:
256,192,127298,1,8,0:0:0:0:
256,192,127380,1,8,0:0:0:0:
256,192,127461,1,0,0:0:0:0:
256,192,127542,1,0,0:0:0:0:
256,192,127624,1,8,0:0:0:0:
256,192,127705,1,0,0:0:0:0:
256,192,127786,1,8,0:0:0:0:
256,192,127949,1,8,0:0:0:0:
256,192,128030,1,8,0:0:0:0:
256,192,128111,1,0,0:0:0:0:
256,192,128274,1,8,0:0:0:0:
256,192,128437,1,0,0:0:0:0:
256,192,128599,1,0,0:0:0:0:
256,192,128680,1,0,0:0:0:0:
256,192,128762,1,8,0:0:0:0:
256,192,128843,1,0,0:0:0:0:
256,192,128924,1,8,0:0:0:0:
256,192,129006,1,8,0:0:0:0:
256,192,129087,1,0,0:0:0:0:
256,192,129250,1,0,0:0:0:0:
256,192,129331,1,0,0:0:0:0:
256,192,129412,1,8,0:0:0:0:
256,192,129575,1,8,0:0:0:0:
256,192,129737,1,0,0:0:0:0:
256,192,129819,1,8,0:0:0:0:
256,192,129900,1,0,0:0:0:0:
256,192,129981,1,0,0:0:0:0:
256,192,130063,1,8,0:0:0:0:
256,192,130225,1,4,0:0:0:0:
256,192,130550,1,0,0:0:0:0:
256,192,130713,1,8,0:0:0:0:
256,192,130794,1,8,0:0:0:0:
256,192,130876,1,0,0:0:0:0:
256,192,130957,1,0,0:0:0:0:
256,192,131038,1,0,0:0:0:0:
256,192,131201,1,12,0:0:0:0:
256,192,131526,1,4,0:0:0:0:
256,192,131851,1,0,0:0:0:0:
256,192,132014,1,8,0:0:0:0:
256,192,132176,1,0,0:0:0:0:
256,192,132258,1,0,0:0:0:0:
256,192,132339,1,0,0:0:0:0:
256,192,132502,1,0,0:0:0:0:
256,192,132664,1,8,0:0:0:0:
256,192,132827,1,0,0:0:0:0:
256,192,132908,1,0,0:0:0:0:
256,192,132989,1,0,0:0:0:0:
256,192,133152,1,0,0:0:0:0:
256,192,133315,1,8,0:0:0:0:
256,192,133396,1,0,0:0:0:0:
256,192,133477,1,0,0:0:0:0:
256,192,133559,1,0,0:0:0:0:
256,192,133640,1,0,0:0:0:0:
256,192,133802,1,0,0:0:0:0:
256,192,133965,1,8,0:0:0:0:
256,192,134128,1,8,0:0:0:0:
256,192,134209,1,8,0:0:0:0:
256,192,134290,1,0,0:0:0:0:
256,192,134453,1,0,0:0:0:0:
256,192,134615,1,12,0:0:0:0:
256,192,134778,1,12,0:0:0:0:
256,192,135266,1,12,0:0:0:0:
256,192,135428,1,12,0:0:0:0:
256,192,135754,1,0,0:0:0:0:
256,192,135916,1,8,0:0:0:0:
256,192,136079,1,8,0:0:0:0:
256,192,136160,1,8,0:0:0:0:
256,192,136241,1,0,0:0:0:0:
256,192,136404,1,12,0:0:0:0:
256,192,136729,1,4,0:0:0:0:
256,192,137054,1,0,0:0:0:0:
256,192,137217,1,8,0:0:0:0:
256,192,137380,1,0,0:0:0:0:
256,192,137461,1,0,0:0:0:0:
256,192,137542,1,0,0:0:0:0:
256,192,137705,1,0,0:0:0:0:
256,192,137867,1,8,0:0:0:0:
256,192,138030,1,0,0:0:0:0:
256,192,138111,1,0,0:0:0:0:
256,192,138193,1,0,0:0:0:0:
256,192,138355,1,0,0:0:0:0:
256,192,138518,1,8,0:0:0:0:
256,192,138599,1,0,0:0:0:0:
256,192,138680,1,0,0:0:0:0:
256,192,138762,1,8,0:0:0:0:
256,192,138843,1,0,0:0:0:0:
256,192,139006,1,0,0:0:0:0:
256,192,139168,1,8,0:0:0:0:
256,192,139331,1,8,0:0:0:0:
256,192,139412,1,8,0:0:0:0:
256,192,139493,1,0,0:0:0:0:
256,192,139656,1,0,0:0:0:0:
256,192,139819,1,12,0:0:0:0:
256,192,140144,1,4,0:0:0:0:
256,192,140306,1,4,0:0:0:0:
256,192,140632,1,12,0:0:0:0:
256,192,140957,1,0,0:0:0:0:
256,192,141038,1,0,0:0:0:0:
256,192,141120,1,8,0:0:0:0:
256,192,141282,1,0,0:0:0:0:
256,192,141445,1,0,0:0:0:0:
256,192,141607,1,8,0:0:0:0:
256,192,141770,1,8,0:0:0:0:
256,192,141851,1,8,0:0:0:0:
256,192,141933,1,0,0:0:0:0:
256,192,142095,1,4,0:0:0:0:
256,192,142420,1,0,0:0:0:0:
256,192,142746,1,0,0:0:0:0:
256,192,143071,1,0,0:0:0:0:
256,192,143396,1,0,0:0:0:0:
256,192,143721,1,0,0:0:0:0:
256,192,144046,1,0,0:0:0:0:
256,192,144209,1,12,0:0:0:0:
256,192,144697,1,4,0:0:0:0:
256,192,145022,1,0,0:0:0:0:
256,192,145347,1,0,0:0:0:0:
256,192,145672,1,0,0:0:0:0:
256,192,145998,1,0,0:0:0:0:
256,192,146160,1,8,0:0:0:0:
256,192,146241,1,0,0:0:0:0:
256,192,146323,1,0,0:0:0:0:
256,192,146485,1,0,0:0:0:0:
256,192,146567,1,0,0:0:0:0:
256,192,146648,1,0,0:0:0:0:
256,192,146811,1,12,0:0:0:0:
256,192,147136,1,8,0:0:0:0:
256,192,147298,1,4,0:0:0:0:
256,192,147624,1,8,0:0:0:0:
256,192,147786,1,0,0:0:0:0:
256,192,147949,1,8,0:0:0:0:
256,192,148111,1,8,0:0:0:0:
256,192,148274,1,0,0:0:0:0:
256,192,148599,1,4,0:0:0:0:
256,192,148924,1,0,0:0:0:0:
256,192,149087,1,8,0:0:0:0:
256,192,149250,1,8,0:0:0:0:
256,192,149412,1,0,0:0:0:0:
256,192,149575,1,8,0:0:0:0:
256,192,149900,1,12,0:0:0:0:
256,192,150117,1,12,0:0:0:0:
256,192,150334,1,12,0:0:0:0:
256,192,150550,1,12,0:0:0:0:
256,192,150767,1,4,0:0:0:0:
256,192,150984,1,4,0:0:0:0:
256,192,151201,1,4,0:0:0:0:
256,192,151418,1,12,0:0:0:0:
256,192,151634,1,12,0:0:0:0:
256,192,151851,1,4,0:0:0:0:
256,192,152068,1,12,0:0:0:0:
256,192,152285,1,12,0:0:0:0:
256,192,152502,1,4,0:0:0:0:
256,192,152664,8,4,153640,0:0:0:0:
256,192,153802,5,0,0:0:0:0:
256,192,153884,1,8,0:0:0:0:
256,192,153965,1,8,0:0:0:0:
256,192,154046,1,8,0:0:0:0:
256,192,154128,1,8,0:0:0:0:
256,192,154290,1,0,0:0:0:0:
256,192,154453,1,8,0:0:0:0:
256,192,154615,1,8,0:0:0:0:
256,192,154778,1,8,0:0:0:0:
256,192,154941,1,8,0:0:0:0:
256,192,155103,1,4,0:0:0:0:
256,192,155266,1,8,0:0:0:0:
256,192,155347,1,8,0:0:0:0:
256,192,155428,1,0,0:0:0:0:
256,192,155591,1,8,0:0:0:0:
256,192,155754,1,0,0:0:0:0:
256,192,155916,1,8,0:0:0:0:
256,192,155998,1,8,0:0:0:0:
256,192,156079,1,0,0:0:0:0:
256,192,156241,1,8,0:0:0:0:
256,192,156404,1,0,0:0:0:0:
256,192,156567,1,8,0:0:0:0:
256,192,156648,1,0,0:0:0:0:
256,192,156729,1,0,0:0:0:0:
256,192,156811,1,8,0:0:0:0:
256,192,156973,1,8,0:0:0:0:
256,192,157054,1,0,0:0:0:0:
256,192,157217,1,0,0:0:0:0:
256,192,157380,1,8,0:0:0:0:
256,192,157542,1,8,0:0:0:0:
256,192,157624,1,8,0:0:0:0:
256,192,157705,1,0,0:0:0:0:
256,192,157867,1,0,0:0:0:0:
256,192,158030,1,8,0:0:0:0:
256,192,158111,1,8,0:0:0:0:
256,192,158193,1,0,0:0:0:0:
256,192,158274,1,0,0:0:0:0:
256,192,158355,1,8,0:0:0:0:
256,192,158518,1,8,0:0:0:0:
256,192,158680,1,8,0:0:0:0:
256,192,158843,1,0,0:0:0:0:
256,192,159006,1,8,0:0:0:0:
256,192,159087,1,8,0:0:0:0:
256,192,159168,1,8,0:0:0:0:
256,192,159250,1,8,0:0:0:0:
256,192,159331,1,0,0:0:0:0:
256,192,159493,1,8,0:0:0:0:
256,192,159656,1,0,0:0:0:0:
256,192,159819,1,0,0:0:0:0:
256,192,159900,1,0,0:0:0:0:
256,192,159981,1,8,0:0:0:0:
256,192,160063,1,0,0:0:0:0:
256,192,160144,1,8,0:0:0:0:
256,192,160225,1,8,0:0:0:0:
256,192,160306,1,0,0:0:0:0:
256,192,160469,1,0,0:0:0:0:
256,192,160632,1,8,0:0:0:0:
256,192,160794,1,0,0:0:0:0:
256,192,160876,1,0,0:0:0:0:
256,192,160957,1,8,0:0:0:0:
256,192,161120,1,8,0:0:0:0:
256,192,161282,1,0,0:0:0:0:
256,192,161445,1,8,0:0:0:0:
256,192,161607,1,0,0:0:0:0:
256,192,161689,1,0,0:0:0:0:
256,192,161770,1,0,0:0:0:0:
256,192,161851,1,0,0:0:0:0:
256,192,161933,1,8,0:0:0:0:
256,192,162095,1,8,0:0:0:0:
256,192,162258,1,0,0:0:0:0:
256,192,162420,1,8,0:0:0:0:
256,192,162502,1,8,0:0:0:0:
256,192,162583,1,0,0:0:0:0:
256,192,162746,1,0,0:0:0:0:
256,192,162908,1,8,0:0:0:0:
256,192,163071,1,0,0:0:0:0:
256,192,163152,1,0,0:0:0:0:
256,192,163233,1,8,0:0:0:0:
256,192,163315,1,8,0:0:0:0:
256,192,163396,1,0,0:0:0:0:
256,192,163559,1,8,0:0:0:0:
256,192,163721,1,0,0:0:0:0:
256,192,163802,1,0,0:0:0:0:
256,192,163884,1,8,0:0:0:0:
256,192,164046,1,4,0:0:0:0:
256,192,164372,1,0,0:0:0:0:
256,192,164534,1,8,0:0:0:0:
256,192,164697,1,0,0:0:0:0:
256,192,164859,1,8,0:0:0:0:
256,192,164941,1,8,0:0:0:0:
256,192,165022,1,0,0:0:0:0:
256,192,165103,1,0,0:0:0:0:
256,192,165185,1,8,0:0:0:0:
256,192,165347,1,0,0:0:0:0:
256,192,165510,1,12,0:0:0:0:
256,192,165835,1,8,0:0:0:0:
256,192,165998,1,0,0:0:0:0:
256,192,166160,1,8,0:0:0:0:
256,192,166323,1,0,0:0:0:0:
256,192,166404,1,0,0:0:0:0:
256,192,166485,1,8,0:0:0:0:
256,192,166648,1,0,0:0:0:0:
256,192,166811,1,12,0:0:0:0:
256,192,167136,1,8,0:0:0:0:
256,192,167298,1,0,0:0:0:0:
256,192,167380,1,0,0:0:0:0:
256,192,167461,1,8,0:0:0:0:
256,192,167624,1,0,0:0:0:0:
256,192,167705,1,0,0:0:0:0:
256,192,167786,1,8,0:0:0:0:
256,192,167867,1,8,0:0:0:0:
256,192,167949,1,0,0:0:0:0:
256,192,168111,1,4,0:0:0:0:
256,192,168762,1,8,0:0:0:0:
256,192,168924,1,0,0:0:0:0:
256,192,169087,1,8,0:0:0:0:
256,192,169250,1,4,0:0:0:0:
256,192,169575,1,0,0:0:0:0:
256,192,169737,1,8,0:0:0:0:
256,192,169900,1,4,0:0:0:0:
256,192,170225,1,0,0:0:0:0:
256,192,170388,1,8,0:0:0:0:
256,192,170550,1,4,0:0:0:0:
256,192,170876,1,0,0:0:0:0:
256,192,171038,1,8,0:0:0:0:
256,192,171201,1,4,0:0:0:0:
256,192,171363,1,8,0:0:0:0:
256,192,171445,1,8,0:0:0:0:
256,192,171526,1,8,0:0:0:0:
256,192,171607,1,8,0:0:0:0:
256,192,171689,1,8,0:0:0:0:
256,192,171851,1,8,0:0:0:0:
256,192,172014,1,0,0:0:0:0:
256,192,172339,1,12,0:0:0:0:
256,192,172664,1,4,0:0:0:0:
256,192,172827,1,4,0:0:0:0:
256,192,173152,1,12,0:0:0:0:
256,192,173315,8,0,173965,0:0:0:0:
256,192,174046,5,0,0:0:0:0:
256,192,174155,1,0,0:0:0:0:
256,192,174263,1,0,0:0:0:0:
