osu file format v14

[General]
AudioFilename: fightindreamer.mp3
AudioLeadIn: 0
PreviewTime: 6960
Countdown: 0
SampleSet: None
StackLeniency: 0.7
Mode: 0
LetterboxInBreaks: 0
WidescreenStoryboard: 0

[Editor]
DistanceSpacing: 1.2
BeatDivisor: 8
GridSize: 8
TimelineZoom: 3.299999

[Metadata]
Title:GO!!! ~NARUTO OPENING MIX~
TitleUnicode:GO!!! ~NARUTO OPENING MIX~
Artist:FLOW
ArtistUnicode:FLOW
Creator:Monstrata
Version:Fighting Dreamers
Source:NARUTO -ナルト-
Tags:byby byby13 byby_chan gero ipas haruto haruto_aizawa haruto- alacat sasuke sakura kakashi itachi tsunade yamato alternator style
BeatmapID:968220
BeatmapSetID:451316

[Difficulty]
HPDrainRate:5
CircleSize:4
OverallDifficulty:8
ApproachRate:9.3
SliderMultiplier:1.7
SliderTickRate:1

[Events]
//Background and Video events
0,0,"Narutouzumakidesu.jpg",0,0
//Break Periods
//Storyboard Layer 0 (Background)
//Storyboard Layer 1 (Fail)
//Storyboard Layer 2 (Pass)
//Storyboard Layer 3 (Foreground)
//Storyboard Sound Samples

[TimingPoints]
804,223.880597014925,4,2,0,50,1,0
804,-133.333333333333,4,2,0,50,0,0
2595,-133.333333333333,4,3,1,50,0,0
3042,-133.333333333333,4,2,0,50,0,0
4386,-133.333333333333,4,3,1,50,0,0
4833,-133.333333333333,4,2,0,50,0,0
6401,-123.456790123457,4,3,1,60,0,0
6624,-114.942528735632,4,3,1,70,0,0
6848,-107.52688172043,4,3,1,80,0,0
7072,-166.666666666667,4,3,1,60,0,0
7184,-166.666666666667,4,2,1,5,0,0
7520,-125,4,3,1,80,0,0
7632,-125,4,2,0,5,0,0
7968,-100,4,3,1,80,0,1
21401,-100,4,3,0,80,0,1
21848,-100,4,3,1,80,0,1
22296,-100,4,3,1,80,0,0
27221,-100,4,3,2,80,0,0
27669,-128.700128700129,4,3,1,40,0,0
28005,-128.700128700129,4,3,1,5,0,0
28117,-128.700128700129,4,3,1,40,0,0
29012,-128.700128700129,4,3,1,80,0,0
29460,-133.333333333333,4,3,1,80,0,0
42893,-133.333333333333,4,3,1,40,0,0
43117,-114.285714285714,4,3,1,60,0,0
43341,-100,4,3,1,80,0,0
56326,-100,4,3,1,80,0,0
57221,-166.666666666667,4,3,1,80,0,0
57333,-166.666666666667,4,2,1,5,0,0
57669,-111.111111111111,4,3,1,80,0,0
57781,-111.111111111111,4,2,1,5,0,0
58117,-100,4,3,1,80,0,1
71998,-90.9090909090909,4,3,1,80,0,1
72445,-100,4,3,1,80,0,0
86773,228.136882129278,4,3,1,80,1,0
88598,-100,4,3,1,100,0,0
88712,-100,4,3,1,60,0,0
89054,-100,4,3,1,40,0,0
89510,-100,4,3,1,30,0,0
89966,-100,4,3,1,5,0,0

[Colours]
Combo1 : 128,255,255
Combo2 : 255,174,136
Combo3 : 255,255,128
Combo4 : 255,128,255

[HitObjects]
332,260,356,5,4,0:2:0:0:
398,104,580,1,0,0:0:0:0:
248,271,804,6,0,P|275:323|366:340,1,127.500004863739,4|0,0:2|0:0,0:0:0:0:
230,126,1251,1,8,0:3:0:0:
164,281,1475,1,0,0:0:0:0:
148,283,1586,1,0,0:0:0:0:
132,286,1698,1,0,3:0:0:0:
116,288,1810,1,0,3:0:0:0:
101,291,1923,1,0,3:0:0:0:
281,193,2147,1,8,0:3:0:0:
209,347,2371,1,2,0:0:0:0:
230,126,2595,6,0,P|293:108|354:152,1,127.500004863739,2|0,0:3|0:0,0:0:0:0:
164,281,3042,1,8,0:3:0:0:
175,59,3266,1,0,0:0:0:0:
190,44,3377,1,0,0:0:0:0:
206,30,3490,1,0,3:0:0:0:
221,17,3601,1,0,3:0:0:0:
236,3,3714,1,0,3:0:0:0:
281,193,3938,1,8,0:3:0:0:
361,73,4162,1,2,0:0:0:0:
146,136,4386,6,0,B|122:179|122:179|142:277,1,127.500004863739,2|0,0:0|0:0,0:0:0:0:
424,202,4833,1,8,0:3:0:0:
217,63,5057,1,0,0:0:0:0:
191,43,5168,1,0,0:0:0:0:
161,34,5280,1,0,3:0:0:0:
129,34,5392,1,0,3:0:0:0:
99,44,5504,1,0,3:0:0:0:
319,293,5729,1,8,0:3:0:0:
295,63,5953,1,2,0:0:0:0:
193,293,6177,6,0,L|205:355,1,63.7500024318696,4|0,0:3|0:0,0:0:0:0:
332,225,6401,6,0,L|316:300,1,68.8500016809083,8|0,0:0|0:2,0:0:0:0:
162,144,6624,6,0,L|176:216,1,73.9500006206131,8|0,0:0|0:2,0:0:0:0:
364,71,6848,6,0,L|348:148,1,79.050002472725,8|0,0:0|0:2,0:0:0:0:
145,66,7072,6,0,P|94:101|127:211,1,152.999995330811,8|0,0:0|0:0,0:0:0:0:
207,237,7520,6,0,P|180:150|96:185,1,204,2|0,0:2|0:0,0:0:0:0:
260,304,7968,6,0,L|387:285,1,85,2|0,0:0|0:0,0:0:0:0:
380,206,8192,2,0,L|295:218,1,85,12|0,0:0|0:0,0:0:0:0:
175,316,8415,2,0,P|196:361|242:389,1,85,2|0,0:0|0:0,0:0:0:0:
308,371,8639,1,8,0:0:0:0:
308,371,8751,6,0,L|435:352,1,85,2|0,0:0|0:0,0:0:0:0:
380,206,8975,1,2,0:0:0:0:
380,206,9087,2,0,P|354:239|347:281,1,85,12|0,0:0|0:0,0:0:0:0:
477,346,9311,2,0,P|461:307|433:276,1,85,2|0,0:0|0:0,0:0:0:0:
328,155,9535,2,0,B|369:160|369:160|408:146,1,85,8|0,0:0|0:0,0:0:0:0:
247,59,9759,6,0,L|240:144,1,85,2|0,0:0|0:0,0:0:0:0:
119,229,9983,2,0,P|127:188|153:155,1,85,12|0,0:0|0:0,0:0:0:0:
168,302,10206,2,0,L|280:315,1,85,2|0,0:0|0:0,0:0:0:0:
323,263,10430,1,8,0:0:0:0:
393,214,10542,6,0,L|505:227,1,85,2|0,0:0|0:0,0:0:0:0:
373,44,10766,1,2,0:0:0:0:
373,44,10878,2,0,L|386:156,1,85,12|0,0:0|0:0,0:0:0:0:
313,179,11102,1,2,0:0:0:0:
235,143,11214,1,0,0:0:0:0:
227,57,11326,2,0,P|277:68|312:107,1,85,8|0,0:0|0:0,0:0:0:0:
243,229,11550,6,0,P|193:218|158:179,1,85,2|0,0:0|0:0,0:0:0:0:
73,120,11774,2,0,L|83:205,1,85,12|0,0:0|0:0,0:0:0:0:
61,326,11998,2,0,P|87:293|127:278,1,85
205,310,12221,1,8,0:0:0:0:
283,342,12333,6,0,P|322:326|349:294,1,85,2|0,0:0|0:0,0:0:0:0:
260,173,12557,1,2,0:0:0:0:
260,173,12669,2,0,L|272:258,1,85,12|0,0:0|0:0,0:0:0:0:
416,242,12893,2,0,P|382:216|341:209,1,85
428,324,13117,2,0,L|512:312,1,85,8|0,0:0|0:0,0:0:0:0:
508,143,13341,6,0,L|497:228,1,85,2|0,0:0|0:0,0:0:0:0:
414,62,13565,2,0,L|426:147,1,85,12|0,0:0|0:0,0:0:0:0:
303,7,13789,2,0,L|335:85,1,85,2|0,0:0|0:0,0:0:0:0:
251,102,14012,1,8,0:0:0:0:
220,181,14124,6,0,P|239:219|274:244,1,85,2|0,0:0|0:0,0:0:0:0:
359,231,14348,1,2,0:0:0:0:
443,217,14460,2,0,L|540:201,1,85,12|0,0:0|0:0,0:0:0:0:
419,73,14684,1,2,0:0:0:0:
389,152,14796,1,2,0:0:0:0:
359,231,14908,2,0,P|382:275|441:304,1,85,8|0,0:0|0:0,0:0:0:0:
473,139,15132,6,0,L|389:152,1,85,2|0,0:0|0:0,0:0:0:0:
276,230,15356,2,0,B|317:240|317:240|358:230,1,85,12|0,0:0|0:0,0:0:0:0:
250,62,15580,2,0,L|263:146,1,85,2|2,0:0|0:0,0:0:0:0:
334,49,15804,1,8,0:0:0:0:
334,49,15915,6,0,P|375:40|416:55,1,85,2|0,0:0|0:0,0:0:0:0:
436,171,16139,1,2,0:0:0:0:
436,171,16251,2,0,P|409:139|369:126,1,85,12|0,0:0|0:0,0:0:0:0:
313,280,16475,2,0,L|364:212,1,85,2|0,0:0|0:0,0:0:0:0:
236,217,16699,2,0,L|228:302,1,85,8|0,0:0|0:0,0:0:0:0:
164,363,16923,6,0,L|129:285,1,85,2|0,0:0|0:0,0:0:0:0:
48,278,17147,2,0,P|87:293|129:285,1,85,12|0,0:0|0:0,0:0:0:0:
141,140,17371,2,0,P|108:166|94:206,1,85,2|2,0:0|0:0,0:0:0:0:
231,148,17595,1,8,0:0:0:0:
231,148,17706,6,0,B|274:142|274:142|334:165,1,85,2|0,0:0|0:0,0:0:0:0:
256,307,17930,1,2,0:0:0:0:
256,307,18042,2,0,B|270:268|270:268|264:225,1,85,12|0,0:0|0:0,0:0:0:0:
105,270,18266,2,0,L|189:258,1,85,2|0,0:0|0:0,0:0:0:0:
231,148,18490,2,0,L|146:136,1,85,8|0,0:0|0:0,0:0:0:0:
0,203,18714,6,0,L|84:191,1,85,2|0,0:0|0:0,0:0:0:0:
131,53,18938,2,0,P|93:71|70:106,1,85,12|0,0:0|0:0,0:0:0:0:
161,218,19162,2,0,P|199:200|222:165,1,85,2|0,0:0|0:0,0:0:0:0:
299,80,19386,2,0,L|215:92,1,85,8|0,0:0|0:0,0:0:0:0:
249,262,19609,6,0,L|333:274,1,85,2|0,0:0|0:0,0:0:0:0:
420,160,19833,2,0,B|376:163|376:163|346:192,1,85,12|0,0:0|0:0,0:0:0:0:
404,324,20057,2,0,B|422:284|422:284|412:244,1,85,2|0,0:0|0:0,0:0:0:0:
428,80,20281,2,0,B|409:119|409:119|419:159,1,85,8|0,0:0|0:0,0:0:0:0:
505,294,20505,6,0,L|487:212,1,85,2|0,0:0|0:0,0:0:0:0:
327,109,20729,2,0,L|345:191,1,85,12|0,0:0|0:0,0:0:0:0:
216,282,20953,2,0,L|298:263,1,85,8|0,0:0|0:0,0:0:0:0:
156,221,21177,2,0,P|134:257|133:300,1,85,8|0,0:0|0:0,0:0:0:0:
272,340,21401,6,0,P|251:303|215:281,1,85,8|0,0:0|0:0,0:0:0:0:
252,116,21624,2,0,L|234:199,1,85,8|0,0:0|0:0,0:0:0:0:
52,322,21848,2,0,P|109:379|189:361,1,170,6|0,0:0|0:0,0:0:0:0:
49,165,22184,1,0,0:0:0:0:
49,165,22296,6,0,P|69:202|64:257,1,85,4|0,0:2|0:0,0:0:0:0:
171,287,22520,2,0,P|150:249|155:194,1,85,2|0,0:0|0:0,0:0:0:0:
252,145,22744,2,0,L|234:228,1,85,8|0,0:0|0:0,0:0:0:0:
336,297,22968,2,0,L|318:214,1,85
417,142,23192,6,0,B|386:151|386:151|335:137,1,85,2|0,0:0|0:0,0:0:0:0:
407,234,23415,2,0,B|437:224|437:224|488:238,1,85,2|0,0:0|0:0,0:0:0:0:
426,59,23639,2,0,P|414:100|417:142,1,85,8|0,0:0|0:0,0:0:0:0:
318,214,23863,1,0,0:0:0:0:
233,228,23975,1,0,0:0:0:0:
207,309,24087,6,0,P|225:347|260:370,1,85,2|0,0:0|0:0,0:0:0:0:
368,304,24311,2,0,B|329:288|329:288|287:294,1,85,2|0,0:0|0:0,0:0:0:0:
387,159,24535,1,8,0:0:0:0:
387,159,24647,2,0,B|392:201|392:201|419:235,1,85
302,150,24871,1,0,0:0:0:0:
302,150,24983,6,0,B|286:190|286:190|253:216,1,85,2|0,0:0|0:0,0:0:0:0:
185,59,25206,2,0,L|218:138,1,85,2|0,0:0|0:0,0:0:0:0:
105,258,25430,2,0,P|131:225|170:209,1,85,8|0,0:0|0:0,0:0:0:0:
285,293,25654,2,0,L|399:301,1,85
443,253,25878,6,0,P|456:293|449:334,1,85,4|0,0:2|0:0,0:0:0:0:
363,217,26102,2,0,P|356:258|369:298,1,85,2|0,0:0|0:0,0:0:0:0:
479,179,26326,2,0,P|470:220|443:252,1,85,8|0,0:0|0:0,0:0:0:0:
317,150,26550,2,0,P|331:189|363:217,1,85
443,64,26774,6,0,L|403:139,1,85,2|0,0:0|0:0,0:0:0:0:
232,152,26998,2,0,L|316:149,1,85,2|0,0:0|0:0,0:0:0:0:
192,5,27221,1,8,0:0:0:0:
114,56,27333,1,8,0:0:0:0:
138,147,27445,1,8,0:0:0:0:
232,152,27557,1,8,0:0:0:0:
263,64,27669,6,0,P|347:27|447:69,1,198.134991413828,6|0,0:2|0:0,0:0:0:0:
508,115,28117,2,0,P|468:164|481:274,1,132.089994275885,2|0,0:2|0:0,0:0:0:0:
199,147,28565,6,0,B|262:131|262:131|326:145,1,132.089994275885,2|0,0:2|0:0,0:0:0:0:
314,232,28901,1,0,0:0:0:0:
314,232,29012,2,0,P|346:232|376:217,1,66.0449971379426,8|0,0:0|0:0,0:0:0:0:
415,137,29236,1,8,0:0:0:0:
415,137,29348,1,8,0:0:0:0:
415,137,29460,6,0,B|483:184|455:257|455:257|405:293|405:293|407:330|365:380,1,255.000009727478,2|8,0:0|0:0,0:0:0:0:
200,286,30132,2,0,P|260:269|317:296,2,127.500004863739,0|2|0,0:0|0:0|0:0,0:0:0:0:
312,194,30804,1,8,0:0:0:0:
253,357,31027,1,0,0:0:0:0:
220,185,31251,6,0,P|261:115|327:102,1,127.500004863739,2|0,0:0|0:0,0:0:0:0:
194,60,31699,2,0,L|219:184,1,127.500004863739,8|0,0:0|0:0,0:0:0:0:
173,262,32035,1,2,0:2:0:0:
173,262,32147,2,0,L|357:296,1,127.500004863739,2|0,0:0|0:0,0:0:0:0:
405,97,32595,1,8,0:0:0:0:
219,184,32818,1,0,0:0:0:0:
388,303,33042,5,2,0:0:0:0:
311,77,33266,2,0,B|305:119|305:119|319:161|319:161|310:217,1,127.500004863739,0|8,0:0|0:0,0:0:0:0:
219,184,33714,1,0,0:0:0:0:
405,97,33938,2,0,P|486:112|520:177,1,127.500004863739,2|0,0:0|0:0,0:0:0:0:
388,303,34386,1,8,0:0:0:0:
431,185,34609,1,0,0:0:0:0:
453,349,34833,6,0,L|325:352,1,127.500004863739,2|0,0:0|0:0,0:0:0:0:
273,246,35281,2,0,P|319:289|325:352,1,127.500004863739,8|0,0:0|0:0,0:0:0:0:
238,330,35617,1,2,0:2:0:0:
238,330,35729,2,0,L|110:333,1,127.500004863739,2|0,0:0|0:0,0:0:0:0:
169,160,36177,2,0,L|173:288,1,127.500004863739,8|0,0:0|0:0,0:0:0:0:
84,129,36624,6,0,P|126:82|188:74,1,127.500004863739,2|0,0:0|0:0,0:0:0:0:
427,129,37072,2,0,P|385:82|323:74,1,127.500004863739,10|0,0:0|0:0,0:0:0:0:
339,288,37520,1,2,0:0:0:0:
342,160,37743,1,0,0:0:0:0:
173,288,37968,1,8,0:0:0:0:
170,160,38191,1,2,0:0:0:0:
255,351,38415,6,0,L|384:391,1,127.500004863739,2|2,0:0|0:0,0:0:0:0:
446,216,38863,2,0,B|418:257|418:257|434:359,1,127.500004863739,8|0,0:0|0:0,0:0:0:0:
497,280,39199,1,2,0:2:0:0:
497,280,39311,2,0,B|525:239|525:239|509:137,1,127.500004863739,2|0,0:0|0:0,0:0:0:0:
338,227,39759,2,0,B|359:365,1,127.500004863739,8|0,0:0|0:0,0:0:0:0:
154,352,40206,6,0,B|174:227,1,127.500004863739,2|0,0:0|0:0,0:0:0:0:
0,162,40654,2,0,B|-13:239|-13:239|15:280,1,127.500004863739,8|0,0:0|0:0,0:0:0:0:
69,216,40990,1,0,0:0:0:0:
69,216,41102,2,0,P|94:159|161:123,1,127.500004863739,2|0,0:0|0:0,0:0:0:0:
338,227,41550,1,8,0:0:0:0:
174,227,41774,1,0,0:0:0:0:
364,125,41998,6,0,P|417:158|443:216,1,127.500004863739,2|0,0:0|0:0,0:0:0:0:
256,309,42445,1,8,0:0:0:0:
256,145,42669,1,0,0:0:0:0:
256,145,42781,1,0,0:0:0:0:
256,145,42893,6,0,L|227:231,1,63.7500024318696,4|0,0:0|0:0,0:0:0:0:
178,72,43117,6,0,L|172:162,1,74.3750007092953,4|0,0:0|0:0,0:0:0:0:
79,20,43341,6,0,L|96:103,1,85,4|0,0:0|0:0,0:0:0:0:
264,57,43565,1,0,0:0:0:0:
264,57,43677,1,0,0:0:0:0:
264,57,43789,6,0,P|303:70|345:64,1,85,2|0,0:0|0:0,0:0:0:0:
429,75,44012,2,0,P|410:112|376:138,1,85,8|0,0:0|0:0,0:0:0:0:
293,155,44236,2,0,P|311:192|345:218,1,85
429,205,44460,2,0,P|427:243|401:283,1,85,8|0,0:0|0:0,0:0:0:0:
232,286,44684,6,0,L|317:297,1,85
452,352,44908,2,0,P|413:367|372:362,1,85,8|0,0:0|0:0,0:0:0:0:
230,369,45132,2,0,P|270:359|301:330,1,85
237,205,45356,2,0,B|223:245|223:245|232:286,1,85,8|0,0:0|0:0,0:0:0:0:
148,363,45580,6,0,B|188:378|188:378|230:368,1,85,2|0,0:0|0:0,0:0:0:0:
370,293,45804,2,0,P|342:262|302:251,1,85,8|0,0:0|0:0,0:0:0:0:
165,242,46027,2,0,P|206:233|236:204,1,85
303,85,46251,2,0,L|315:170,1,85,8|0,0:0|0:0,0:0:0:0:
486,172,46475,6,0,L|401:183,1,85
327,255,46699,2,0,L|411:266,1,85,8|0,0:0|0:0,0:0:0:0:
431,107,46923,2,0,P|406:141|401:183,1,85
469,330,47147,2,0,P|493:283|484:225,1,85,8|0,0:0|0:0,0:0:0:0:
315,170,47371,6,0,L|326:254,1,85,2|0,0:0|0:0,0:0:0:0:
203,137,47595,2,0,L|214:221,1,85,8|0,0:0|0:0,0:0:0:0:
327,85,47818,2,0,L|315:169,1,85
214,52,48042,2,0,L|202:136,1,85,8|0,0:0|0:0,0:0:0:0:
399,165,48266,6,0,P|454:162|489:135,1,85
432,0,48490,2,0,L|420:83,1,85,8|0,0:0|0:0,0:0:0:0:
383,252,48714,2,0,L|467:240,1,85
338,105,48938,2,0,P|313:154|318:197,1,85,8|0,0:0|0:0,0:0:0:0:
365,327,49162,6,0,P|345:290|310:268,1,85,2|0,0:0|0:0,0:0:0:0:
158,239,49386,2,0,P|200:240|237:220,1,85,8|0,0:0|0:0,0:0:0:0:
97,178,49609,1,0,0:0:0:0:
73,260,49721,1,0,0:0:0:0:
132,321,49833,2,0,P|167:343|209:344,1,85,8|0,0:0|0:0,0:0:0:0:
312,282,50057,6,0,L|293:365,1,85
208,177,50281,2,0,L|228:260,1,85,12|0,0:0|0:0,0:0:0:0:
369,224,50505,2,0,P|333:202|292:203,1,85
129,156,50729,2,0,P|165:177|206:177,1,85,8|0,0:0|0:0,0:0:0:0:
354,99,50953,6,0,L|272:119,1,85,2|0,0:0|0:0,0:0:0:0:
167,20,51177,2,0,P|188:57|188:99,1,85,8|0,0:0|0:0,0:0:0:0:
68,214,51401,2,0,P|46:177|47:135,1,85
111,303,51624,2,0,L|28:283,1,85,8|0,0:0|0:0,0:0:0:0:
189,212,51848,6,0,L|196:342,1,85
323,212,52072,2,0,L|316:342,1,85,8|0,0:0|0:0,0:0:0:0:
483,283,52296,2,0,L|401:303,1,85
384,148,52520,2,0,P|404:185|440:209,1,85,8|0,0:0|0:0,0:0:0:0:
488,44,52744,6,0,L|467:127,1,85,2|0,0:0|0:0,0:0:0:0:
278,45,52968,2,0,L|299:127,1,85,8|0,0:0|0:0,0:0:0:0:
383,4,53192,2,0,L|383:88,1,85
238,186,53415,2,0,P|275:208|317:209,1,85,8|0,0:0|0:0,0:0:0:0:
176,32,53639,6,0,P|196:69|196:112,1,85
29,96,53863,2,0,B|69:85|69:85|112:92,1,85,8|0,0:0|0:0,0:0:0:0:
59,253,54087,2,0,L|77:170,1,85
189,341,54311,2,0,L|106:324,1,85,8|0,0:0|0:0,0:0:0:0:
249,279,54535,6,0,P|270:316|272:358,1,85,2|0,0:0|0:0,0:0:0:0:
369,220,54759,2,0,P|348:256|345:298,1,85,8|0,0:0|0:0,0:0:0:0:
223,149,54983,2,0,P|259:170|282:205,1,85,2|0,0:0|0:0,0:0:0:0:
398,84,55206,2,0,P|361:105|338:140,1,85,8|0,0:0|0:0,0:0:0:0:
160,91,55430,6,0,P|140:128|140:170,1,85,2|0,0:0|0:0,0:0:0:0:
379,4,55654,2,0,P|398:41|398:83,1,85,8|0,0:0|0:0,0:0:0:0:
179,5,55878,2,0,P|136:7|100:28,1,85,2|0,0:0|0:0,0:0:0:0:
379,168,56102,2,0,P|421:165|457:144,1,85,8|0,0:0|0:0,0:0:0:0:
160,91,56326,5,2,0:0:0:0:
98,165,56438,1,0,0:0:0:0:
131,254,56550,1,2,0:0:0:0:
225,269,56662,1,0,0:0:0:0:
286,196,56774,5,2,0:0:0:0:
388,205,56886,1,0,0:0:0:0:
410,303,56998,1,2,0:0:0:0:
323,356,57109,1,2,0:0:0:0:
246,289,57221,6,0,B|166:256|166:319|83:290,1,152.999995330811,8|0,0:0|0:0,0:0:0:0:
45,200,57669,6,0,P|142:208|96:294,1,229.499992996216,2|0,0:2|0:0,0:0:0:0:
5,366,58117,6,0,L|17:282,1,85,2|0,0:0|0:0,0:0:0:0:
50,118,58341,2,0,P|37:158|45:200,1,85,12|0,0:0|0:0,0:0:0:0:
209,263,58565,2,0,P|196:223|165:195,1,85,2|0,0:0|0:0,0:0:0:0:
286,225,58789,1,8,0:0:0:0:
370,217,58901,6,0,L|454:209,1,85,2|0,0:0|0:0,0:0:0:0:
367,316,59124,1,2,0:0:0:0:
367,316,59236,2,0,L|283:309,1,85,12|0,0:0|0:0,0:0:0:0:
308,136,59460,2,0,L|327:219,1,85,2|0,0:0|0:0,0:0:0:0:
185,219,59684,2,0,L|203:136,1,85,8|0,0:0|0:0,0:0:0:0:
368,81,59908,6,0,P|346:117|308:136,1,85,2|0,0:0|0:0,0:0:0:0:
212,29,60132,2,0,P|253:30|289:53,1,85,12|0,0:0|0:0,0:0:0:0:
243,190,60356,2,0,P|224:152|226:110,1,85,2|0,0:0|0:0,0:0:0:0:
173,239,60580,1,8,0:0:0:0:
173,239,60692,6,0,P|137:216|118:179,1,85,2|0,0:0|0:0,0:0:0:0:
136,316,60915,1,2,0:0:0:0:
136,316,61027,2,0,P|94:314|58:291,1,85,12|0,0:0|0:0,0:0:0:0:
204,367,61251,2,0,P|226:331|263:312,1,85,2|0,0:0|0:0,0:0:0:0:
204,159,61475,2,0,L|211:244,1,85,8|0,0:0|0:0,0:0:0:0:
346,296,61699,6,0,P|327:258|295:232,1,85,2|0,0:0|0:0,0:0:0:0:
120,166,61923,2,0,L|204:159,1,85,12|0,0:0|0:0,0:0:0:0:
72,95,62147,1,2,0:0:0:0:
34,172,62259,1,2,0:0:0:0:
81,243,62371,1,8,0:0:0:0:
43,320,62483,6,0,P|55:360|86:388,1,85,2|0,0:0|0:0,0:0:0:0:
212,308,62706,1,2,0:0:0:0:
212,308,62818,2,0,L|128:314,1,85,12|0,0:0|0:0,0:0:0:0:
139,190,63042,2,0,P|169:218|210:227,1,85,2|0,0:0|0:0,0:0:0:0:
373,190,63266,2,0,P|342:218|301:227,1,85,8|0,0:0|0:0,0:0:0:0:
215,147,63490,6,0,B|256:157|256:157|310:144,1,85,2|0,0:0|0:0,0:0:0:0:
297,5,63714,2,0,B|256:-5|256:-5|202:8,1,85,12|0,0:0|0:0,0:0:0:0:
256,76,63938,1,2,0:0:0:0:
341,76,64050,1,2,0:0:0:0:
383,2,64162,1,8,0:0:0:0:
468,2,64274,6,0,P|503:43|504:96,1,85,2|0,0:0|0:0,0:0:0:0:
384,144,64498,1,2,0:0:0:0:
383,144,64609,2,0,P|394:103|424:74,1,85,12|0,0:0|0:0,0:0:0:0:
275,116,64833,2,0,L|313:193,1,85,2|0,0:0|0:0,0:0:0:0:
473,236,65057,2,0,L|389:231,1,85,8|0,0:0|0:0,0:0:0:0:
269,347,65281,6,0,L|316:276,1,85,2|0,0:0|0:0,0:0:0:0:
162,210,65505,2,0,P|197:234|239:237,1,85,12|0,0:0|0:0,0:0:0:0:
143,124,65729,1,2,0:0:0:0:
76,182,65841,1,2,0:0:0:0:
92,269,65953,1,8,0:0:0:0:
108,356,66065,6,0,P|151:334|178:283,1,85,2|0,0:0|0:0,0:0:0:0:
226,156,66289,1,2,0:0:0:0:
226,156,66401,2,0,P|222:198|239:237,1,85,12|0,0:0|0:0,0:0:0:0:
371,313,66624,2,0,L|287:306,1,85,2|0,0:0|0:0,0:0:0:0:
154,229,66848,2,0,L|238:236,1,85,8|0,0:0|0:0,0:0:0:0:
217,71,67072,6,0,P|180:85|144:136,1,85,2|0,0:0|0:0,0:0:0:0:
25,98,67296,2,0,L|60:174,1,85,12|0,0:0|0:0,0:0:0:0:
86,281,67520,1,2,0:0:0:0:
154,229,67632,1,2,0:0:0:0:
230,266,67744,1,8,0:0:0:0:
295,213,67856,1,2,0:0:0:0:
374,251,67968,6,0,P|415:259|457:246,1,85,2|0,0:0|0:0,0:0:0:0:
407,93,68192,2,0,P|398:134|412:175,1,85,12|0,0:0|0:0,0:0:0:0:
313,29,68415,2,0,P|321:70|307:111,1,85,2|0,0:0|0:0,0:0:0:0:
153,170,68639,2,0,P|184:142|226:133,1,85,8|0,0:0|0:0,0:0:0:0:
318,268,68863,6,0,L|333:185,1,85,2|0,0:0|0:0,0:0:0:0:
222,218,69087,2,0,L|236:301,1,85,12|0,0:0|0:0,0:0:0:0:
392,316,69311,2,0,L|407:233,1,85,2|0,0:0|0:0,0:0:0:0:
348,98,69535,1,8,0:0:0:0:
268,128,69648,1,0,0:0:0:0:
256,210,69759,6,0,P|298:207|333:184,1,85,2|0,0:0|0:0,0:0:0:0:
283,44,69983,2,0,P|240:48|191:92,1,85,12|0,0:0|0:0,0:0:0:0:
78,183,70206,2,0,P|113:207|155:210,1,85,2|0,0:0|0:0,0:0:0:0:
205,70,70430,2,0,P|169:47|128:44,1,85,8|0,0:0|0:0,0:0:0:0:
151,301,70654,6,0,L|235:301,1,85,2|0,0:0|0:0,0:0:0:0:
213,196,70878,1,8,0:0:0:0:
122,149,70990,1,0,0:0:0:0:
29,190,71102,1,2,0:0:0:0:
3,288,71214,1,2,0:0:0:0:
63,371,71326,1,8,0:0:0:0:
166,377,71438,1,0,0:0:0:0:
236,301,71550,5,8,0:0:0:0:
233,183,71662,1,0,0:0:0:0:
344,144,71774,1,8,0:0:0:0:
416,237,71886,1,0,0:0:0:0:
348,335,71998,6,0,L|135:384,1,187.000005706787,8|0,0:0|0:0,0:0:0:0:
69,232,72333,1,0,0:0:0:0:
69,232,72445,6,0,P|85:274|79:320,1,85,2|0,0:0|0:0,0:0:0:0:
180,152,72669,2,0,P|162:193|168:239,1,85,12|0,0:0|0:0,0:0:0:0:
39,86,72893,2,0,P|73:114|91:157,1,85
228,82,73117,6,0,P|188:68|147:75,1,85,8|0,0:0|0:0,0:0:0:0:
248,205,73341,2,0,L|365:198,1,85,2|0,0:0|0:0,0:0:0:0:
316,31,73565,2,0,L|311:115,1,85,8|0,0:0|0:0,0:0:0:0:
353,283,73789,5,4,0:0:0:0:
438,278,73900,1,0,0:0:0:0:
476,201,74012,1,8,0:0:0:0:
428,129,74124,1,8,0:0:0:0:
466,51,74236,6,0,P|503:87|514:136,1,85,2|0,0:0|0:0,0:0:0:0:
390,207,74460,2,0,P|353:171|342:122,1,85,8|0,0:0|0:0,0:0:0:0:
180,196,74684,1,2,0:0:0:0:
180,196,74796,2,0,P|220:182|262:189,1,85,2|8,0:0|0:0,0:0:0:0:
277,338,75020,1,2,0:0:0:0:
277,338,75132,6,0,P|261:299|230:272,1,85,2|0,0:0|0:0,0:0:0:0:
61,282,75356,2,0,P|102:288|142:274,1,85,8|0,0:0|0:0,0:0:0:0:
89,115,75580,2,0,L|93:200,1,85,2|0,0:0|0:0,0:0:0:0:
207,127,75804,2,0,B|182:110|182:110|89:114,1,85,8|0,0:0|0:0,0:0:0:0:
262,189,76027,6,0,P|303:195|343:182,1,85,2|0,0:0|0:0,0:0:0:0:
332,35,76251,2,0,P|305:67|296:108,1,85,12|0,0:0|0:0,0:0:0:0:
430,172,76475,2,0,P|415:132|383:104,1,85
394,256,76699,6,0,L|478:262,1,85,8|0,0:0|0:0,0:0:0:0:
278,280,76923,2,0,L|349:329,1,85,2|0,0:0|0:0,0:0:0:0:
165,243,77147,2,0,L|201:319,1,85,8|0,0:0|0:0,0:0:0:0:
80,236,77371,5,4,0:0:0:0:
128,165,77483,1,0,0:0:0:0:
213,171,77595,1,8,0:0:0:0:
261,100,77706,1,8,0:0:0:0:
346,106,77818,6,0,P|382:74|394:27,1,85,2|0,0:0|0:0,0:0:0:0:
308,27,78042,1,8,0:0:0:0:
299,178,78154,2,0,P|344:193|391:180,1,85,2|0,0:0|0:0,0:0:0:0:
505,155,78378,1,0,0:0:0:0:
505,155,78490,2,0,P|473:181|458:221,1,85,8|0,0:0|0:0,0:0:0:0:
390,359,78714,6,0,L|390:274,1,85,2|0,0:0|0:0,0:0:0:0:
242,188,78938,2,0,L|315:230,1,85,8|0,0:0|0:0,0:0:0:0:
265,384,79162,2,0,L|265:299,1,85,2|0,0:0|0:0,0:0:0:0:
117,213,79386,2,0,L|190:255,1,85,8|0,0:0|0:0,0:0:0:0:
43,339,79609,6,0,L|43:255,1,85,2|0,0:0|0:0,0:0:0:0:
116,128,79833,2,0,L|116:212,1,85,12|0,0:0|0:0,0:0:0:0:
116,296,80057,1,2,0:0:0:0:
189,338,80169,1,2,0:0:0:0:
265,299,80281,6,0,P|306:314|344:373,1,85,8|0,0:0|0:0,0:0:0:0:
423,381,80505,2,0,P|415:340|428:300,1,85,2|0,0:0|0:0,0:0:0:0:
349,162,80729,2,0,L|360:247,1,85,8|0,0:0|0:0,0:0:0:0:
190,255,80953,5,4,0:0:0:0:
264,215,81064,1,0,0:0:0:0:
324,273,81177,1,8,0:0:0:0:
287,348,81289,1,8,0:0:0:0:
205,337,81401,6,0,L|74:319,1,85,2|0,0:0|0:0,0:0:0:0:
178,170,81624,2,0,L|196:301,1,85,8|0,0:0|0:0,0:0:0:0:
35,313,81848,1,2,0:0:0:0:
35,313,81960,2,0,P|51:273|104:241,1,85,2|8,0:0|0:0,0:0:0:0:
69,90,82184,1,2,0:0:0:0:
69,90,82296,6,0,P|96:122|103:164,1,85,2|0,0:0|0:0,0:0:0:0:
183,10,82520,2,0,L|201:141,1,85,8|0,0:0|0:0,0:0:0:0:
329,10,82744,2,0,L|311:141,1,85,2|0,0:0|0:0,0:0:0:0:
442,90,82968,2,0,P|415:122|409:164,1,85,8|0,0:0|0:0,0:0:0:0:
269,234,83192,6,0,P|311:241|350:226,1,85,2|0,0:0|0:0,0:0:0:0:
195,177,83415,2,0,L|177:308,1,85,12|0,0:0|0:0,0:0:0:0:
281,318,83639,2,0,L|269:233,1,85,2|0,0:0|0:0,0:0:0:0:
206,92,83863,6,0,P|162:98|115:160,1,85,8|0,0:0|0:0,0:0:0:0:
269,234,84087,2,0,P|311:241|350:226,1,85,2|0,0:0|0:0,0:0:0:0:
289,70,84311,2,0,L|301:155,1,85,8|0,0:0|0:0,0:0:0:0:
183,261,84535,5,4,0:0:0:0:
252,324,84646,1,0,0:0:0:0:
335,276,84759,1,8,0:0:0:0:
314,183,84871,1,8,0:0:0:0:
220,174,84983,6,0,L|109:163,1,85,2|0,0:0|0:0,0:0:0:0:
98,268,85206,1,8,0:0:0:0:
98,268,85318,2,0,L|182:260,1,85,2|0,0:0|0:0,0:0:0:0:
220,362,85542,1,2,0:0:0:0:
220,362,85654,2,0,L|135:354,1,85,8|0,0:0|0:0,0:0:0:0:
314,183,85878,6,0,P|341:214|347:256,1,85,6|0,0:0|0:0,0:0:0:0:
198,183,86102,2,0,P|170:214|164:256,1,85,12|0,0:0|0:0,0:0:0:0:
396,92,86326,2,0,P|392:133|367:167,1,85,4|0,0:0|0:0,0:0:0:0:
116,92,86550,2,0,P|119:133|144:167,1,85,12|0,0:0|0:0,0:0:0:0:
397,2,86773,6,0,P|469:39|480:122,1,170,4|0,0:0|0:0,0:0:0:0:
114,2,87229,2,0,P|42:39|32:122,1,170,2|0,0:2|0:0,0:0:0:0:
256,384,87685,2,0,B|288:297|224:298|256:219,1,170,2|0,0:2|0:0,0:0:0:0:
329,176,88027,1,0,0:0:0:0:
339,260,88141,2,0,L|463:287,1,85,8|0,0:0|0:0,0:0:0:0:
495,138,88369,2,0,L|412:157,1,84.9999999999999,8|0,0:0|0:0,0:0:0:0:
349,384,88598,5,4,0:0:0:0:
256,192,88712,12,0,89966,2:0:0:0:
