osu file format v14

[General]
AudioFilename: audio.mp3
AudioLeadIn: 0
PreviewTime: -1
Countdown: 1
SampleSet: None
StackLeniency: 0.7
Mode: 0
LetterboxInBreaks: 0
WidescreenStoryboard: 0

[Editor]
DistanceSpacing: 1.1
BeatDivisor: 4
GridSize: 16
TimelineZoom: 1

[Metadata]
Title:Colors
TitleUnicode:Colors
Artist:FLOW
ArtistUnicode:FLOW
Creator:dieene
Version:get trolled joob
Source:
Tags:
BeatmapID:1769358
BeatmapSetID:845982

[Difficulty]
HPDrainRate:5
CircleSize:5
OverallDifficulty:5
ApproachRate:5
SliderMultiplier:1.4
SliderTickRate:1

[Events]
//Background and Video events
//Break Periods
2,81637,128656
2,136783,174539
//Storyboard Layer 0 (Background)
//Storyboard Layer 1 (Fail)
//Storyboard Layer 2 (Pass)
//Storyboard Layer 3 (Foreground)
//Storyboard Sound Samples

[TimingPoints]
1033.26954849736,441.176470588235,4,1,0,100,1,0

[HitObjects]
256,192,4672,12,0,5885,0:0:0:0:
100,250,6327,6,0,P|448:249|98:168,2,1015
133,196,9746,6,0,L|364:164,1,210
226,112,10077,6,0,L|277:289,1,175
177,267,10187,6,0,L|308:104,1,210
256,192,10518,12,0,11400,0:0:0:0:
224,117,11180,6,0,B|289:129|238:134|252:153,8,35
194,195,11621,6,0,L|382:197,1,175
240,204,12172,2,0,L|88:202,1,140
256,192,13165,12,0,14378,0:0:0:0:
46,152,13386,5,0,0:0:0:0:
138,161,13496,1,0,0:0:0:0:
156,159,13606,1,0,0:0:0:0:
171,157,13717,1,0,0:0:0:0:
186,156,13827,1,0,0:0:0:0:
218,146,13937,1,0,0:0:0:0:
269,149,14047,1,0,0:0:0:0:
330,65,14268,1,0,0:0:0:0:
344,242,14378,1,0,0:0:0:0:
426,126,14489,1,0,0:0:0:0:
454,180,14599,1,0,0:0:0:0:
467,280,14709,1,0,0:0:0:0:
257,271,14820,1,0,0:0:0:0:
289,150,14930,1,0,0:0:0:0:
256,192,15261,12,0,21437,0:0:0:0:
56,40,15371,6,0,L|501:311,4,490
466,40,15592,2,0,B|26:311|36:305,4,490
198,195,22650,1,0,0:0:0:0:
297,184,22761,1,0,0:0:0:0:
318,170,22871,1,0,0:0:0:0:
375,167,22981,1,0,0:0:0:0:
401,188,23092,1,0,0:0:0:0:
410,235,23202,1,0,0:0:0:0:
365,254,23312,1,0,0:0:0:0:
311,239,23422,1,0,0:0:0:0:
309,205,23533,1,0,0:0:0:0:
326,181,23643,1,0,0:0:0:0:
436,95,24415,2,0,B|555:118|435:177|457:183,14,105
423,100,24525,2,0,L|419:309,7,210
236,112,24636,2,0,P|273:122|270:194,13,105
226,204,24746,2,0,B|279:203|245:211|306:176,17,70
62,125,24856,6,0,L|63:327,6,175
64,294,24967,2,0,B|-35:298|-30:298,15,70
209,114,25077,2,0,P|213:211|265:189,6,175
305,197,29599,2,0,B|464:193|453:190,11,140
158,103,29709,2,0,B|154:333|155:303,7,175
151,283,29820,2,0,B|43:283|69:284,17,70
295,93,29930,2,0,P|295:300|295:310,7,210
302,94,30040,2,0,B|480:90|467:88,9,140
299,293,30150,2,0,L|472:294,10,140
127,72,35224,1,0,0:0:0:0:
127,92,35334,1,0,0:0:0:0:
123,114,35445,1,0,0:0:0:0:
128,135,35555,1,0,0:0:0:0:
127,162,35665,1,0,0:0:0:0:
125,185,35775,1,0,0:0:0:0:
129,218,35886,1,0,0:0:0:0:
128,255,35996,1,0,0:0:0:0:
127,288,36106,1,0,0:0:0:0:
123,314,36217,1,0,0:0:0:0:
158,67,36327,1,0,0:0:0:0:
192,83,36437,1,0,0:0:0:0:
220,121,36547,1,0,0:0:0:0:
196,154,36658,1,0,0:0:0:0:
168,179,36768,1,0,0:0:0:0:
194,193,36878,1,0,0:0:0:0:
225,221,36989,1,0,0:0:0:0:
217,256,37099,1,0,0:0:0:0:
189,281,37209,1,0,0:0:0:0:
142,296,37320,1,0,0:0:0:0:
299,153,37430,1,0,0:0:0:0:
332,142,37540,1,0,0:0:0:0:
366,120,37650,1,0,0:0:0:0:
378,90,37761,1,0,0:0:0:0:
318,77,37871,1,0,0:0:0:0:
288,117,37981,1,0,0:0:0:0:
301,176,38092,1,0,0:0:0:0:
323,203,38202,1,0,0:0:0:0:
363,207,38312,1,0,0:0:0:0:
406,201,38422,1,0,0:0:0:0:
43,110,38533,1,0,0:0:0:0:
37,132,38643,1,0,0:0:0:0:
41,158,38753,1,0,0:0:0:0:
36,189,38864,1,0,0:0:0:0:
40,219,38974,1,0,0:0:0:0:
40,259,39084,1,0,0:0:0:0:
66,113,39195,1,0,0:0:0:0:
86,145,39305,1,0,0:0:0:0:
102,169,39415,1,0,0:0:0:0:
117,195,39525,1,0,0:0:0:0:
138,232,39636,1,0,0:0:0:0:
159,255,39746,1,0,0:0:0:0:
172,212,39856,1,0,0:0:0:0:
176,174,39967,1,0,0:0:0:0:
176,137,40077,1,0,0:0:0:0:
177,102,40187,1,0,0:0:0:0:
271,103,40408,1,0,0:0:0:0:
301,102,40518,1,0,0:0:0:0:
320,104,40628,1,0,0:0:0:0:
351,103,40739,1,0,0:0:0:0:
383,102,40849,1,0,0:0:0:0:
416,102,40959,1,0,0:0:0:0:
447,104,41070,1,0,0:0:0:0:
356,129,41180,1,0,0:0:0:0:
362,156,41290,1,0,0:0:0:0:
357,192,41400,1,0,0:0:0:0:
366,225,41511,1,0,0:0:0:0:
361,252,41621,1,0,0:0:0:0:
363,286,41731,1,0,0:0:0:0:
254,229,42172,2,0,L|307:228,43,35
83,206,42283,2,0,B|185:204|150:201,16,70
71,130,42393,2,0,L|71:221,15,70
176,121,42503,2,0,L|61:123,9,105
178,139,42614,2,0,L|176:334,7,175
170,306,42724,2,0,L|56:310,12,105
270,154,42834,2,0,B|209:297|223:275,11,105
362,132,43055,2,0,L|435:231,12,105
477,135,43386,2,0,L|396:345,6,210
282,162,43717,2,0,L|344:277,11,105
14,26,47797,1,0,0:0:0:0:
458,328,48239,1,0,0:0:0:0:
470,31,48680,1,0,0:0:0:0:
42,322,49121,1,0,0:0:0:0:
256,192,49562,12,0,54856,0:0:0:0:
35,32,55187,6,0,P|279:241|341:210,1,420
434,62,56621,6,0,P|261:237|60:70,15,525
276,61,129856,6,0,P|272:292|239:274,1,490
138,109,131511,2,0,L|125:286,1,175
259,103,132283,2,0,L|278:305,1,175
375,137,132393,2,0,L|108:264,1,280
104,98,132614,2,0,L|401:272,1,315
341,66,133055,2,0,L|196:329,1,280
213,58,133496,2,0,L|112:297,1,245
64,165,134047,2,0,L|433:204,1,350
103,70,134489,2,0,L|316:300,1,280
325,93,134930,2,0,L|96:307,1,280
35,184,135481,2,0,L|405:142,1,350
202,182,175739,5,0,0:0:0:0:
289,237,175849,1,0,0:0:0:0:
326,144,175959,1,0,0:0:0:0:
303,62,176070,1,0,0:0:0:0:
261,45,176180,1,0,0:0:0:0:
149,69,176290,1,0,0:0:0:0:
136,111,176400,1,0,0:0:0:0:
124,142,176511,1,0,0:0:0:0:
122,173,176621,1,0,0:0:0:0:
174,252,176731,1,0,0:0:0:0:
214,264,176842,1,0,0:0:0:0:
270,257,176952,1,0,0:0:0:0:
319,230,177062,1,0,0:0:0:0:
341,184,177172,1,0,0:0:0:0:
332,123,177283,1,0,0:0:0:0:
285,97,177393,1,0,0:0:0:0:
227,73,177503,1,0,0:0:0:0:
154,138,177614,1,0,0:0:0:0:
158,216,177724,1,0,0:0:0:0:
153,264,177834,1,0,0:0:0:0:
126,309,177945,1,0,0:0:0:0:
43,262,178055,1,0,0:0:0:0:
45,174,178165,1,0,0:0:0:0:
90,123,178275,1,0,0:0:0:0:
192,119,178386,1,0,0:0:0:0:
275,146,178496,1,0,0:0:0:0:
330,263,178606,1,0,0:0:0:0:
104,64,181253,2,0,L|420:261,1,350
408,50,181915,2,0,L|122:274,1,350
259,42,182136,2,0,L|257:290,1,245
104,168,182577,2,0,L|484:163,1,350
178,87,183018,2,0,L|418:266,1,280
445,102,183349,2,0,L|135:260,1,315
297,60,183680,2,0,L|276:273,1,210
120,123,184121,2,0,L|429:171,1,280
217,46,184342,2,0,L|353:253,1,245
410,72,184783,2,0,L|164:258,1,280
84,157,185114,2,0,L|383:74,1,280
189,56,185334,2,0,L|279:267,1,210
256,192,187540,12,0,206180,0:0:0:0:
216,97,206621,6,0,L|307:290,6,210
357,115,206731,6,0,P|163:288|135:255,4,385
256,192,211253,12,0,213018,0:0:0:0:
91,74,214231,6,0,L|365:230,1,315
337,79,214893,6,0,L|116:253,1,280
59,184,215334,2,0,L|388:139,1,315
195,56,215775,2,0,L|272:298,1,245
81,104,216217,2,0,L|385:255,1,315
356,63,216878,2,0,L|134:281,1,280
52,194,217320,2,0,L|256:79,1,210
130,253,218092,1,0,0:0:0:0:
194,221,218202,1,0,0:0:0:0:
175,288,218312,1,0,0:0:0:0:
235,285,218422,1,0,0:0:0:0:
275,219,218533,1,0,0:0:0:0:
346,259,218643,1,0,0:0:0:0:
309,191,218753,1,0,0:0:0:0:
345,155,218864,1,0,0:0:0:0:
346,259,218974,1,0,0:0:0:0:
358,122,219084,1,0,0:0:0:0:
356,219,219195,1,0,0:0:0:0:
354,108,219305,1,0,0:0:0:0:
306,94,219415,1,0,0:0:0:0:
370,145,219525,1,0,0:0:0:0:
230,90,219636,1,0,0:0:0:0:
167,98,219746,1,0,0:0:0:0:
288,181,219856,1,0,0:0:0:0:
129,133,219967,1,0,0:0:0:0:
52,274,220077,1,0,0:0:0:0:
101,187,220187,1,0,0:0:0:0:
41,63,220297,1,0,0:0:0:0:
41,63,220408,1,0,0:0:0:0:
156,270,220518,1,0,0:0:0:0:
93,54,220628,1,0,0:0:0:0:
225,289,220739,1,0,0:0:0:0:
74,124,220849,1,0,0:0:0:0:
296,233,220959,1,0,0:0:0:0:
172,156,221070,1,0,0:0:0:0:
56,225,221180,1,0,0:0:0:0:
56,225,221290,1,0,0:0:0:0:
46,214,221400,1,0,0:0:0:0:
159,99,221511,1,0,0:0:0:0:
124,150,221621,1,0,0:0:0:0:
208,160,221731,1,0,0:0:0:0:
261,263,221842,1,0,0:0:0:0:
