osu file format v14

[General]
AudioFilename: audio.mp3
AudioLeadIn: 0
PreviewTime: 49589
Countdown: 0
SampleSet: None
StackLeniency: 0.7
Mode: 0
LetterboxInBreaks: 0
WidescreenStoryboard: 1

[Editor]
Bookmarks: 62007,70903,73870
DistanceSpacing: 2.79
BeatDivisor: 6
GridSize: 4
TimelineZoom: 4.099998

[Metadata]
Title:COLORS -CODE GEASS OPENING MIX- (Speed Up ver.)
TitleUnicode:COLORS -CODE GEASS OPENING MIX- (Speed Up ver.)
Artist:FLOW
ArtistUnicode:FLOW
Creator:Frakturehawkens
Version:ZERO REQUIEM
Source:コードギアス 反逆のルルーシュ
Tags:code geass lelouch of the rebellion r1 opening op tv size britannia lelouch lamperouge zero sunrise
BeatmapID:1368357
BeatmapSetID:629085

[Difficulty]
HPDrainRate:6.7
CircleSize:4.2
OverallDifficulty:8.7
ApproachRate:9.2
SliderMultiplier:2.2
SliderTickRate:1

[Events]
//Background and Video events
0,0,"bg.jpg",0,0
//Break Periods
//Storyboard Layer 0 (Background)
//Storyboard Layer 1 (Fail)
//Storyboard Layer 2 (Pass)
//Storyboard Layer 3 (Foreground)
//Storyboard Sound Samples

[TimingPoints]
1202,370.919881305638,4,1,0,100,1,0
2685,-200,4,1,0,100,0,0
5653,-188.679245283019,4,1,0,100,0,0
8620,-100,4,1,0,60,0,1
16780,-100,4,1,0,90,0,1
17707,-100,4,1,0,60,0,1
20489,-133.333333333333,4,2,0,70,0,0
31431,-133.333333333333,4,1,0,60,0,0
32359,-100,4,1,0,60,0,0
43579,-100,4,1,0,100,0,0
44228,-133.333333333333,4,3,0,60,0,0
49421,-133.333333333333,4,1,0,50,0,0
49792,-133.333333333333,4,1,0,85,0,0
50163,-100,4,1,0,60,0,1
61291,-100,4,1,0,85,0,1
62032,-100,4,1,0,60,0,1
62836,-100,4,2,0,5,0,1
62898,-100,4,1,0,60,0,1
64876,-100,4,2,0,5,0,1
64938,-100,4,1,0,60,0,1
70193,-100,4,1,0,85,0,1
70934,-100,4,3,0,100,0,1
72789,-100,4,1,0,100,0,1
73902,-100,4,1,0,100,0,0

[Colours]
Combo1 : 230,230,230
Combo2 : 207,149,236
Combo3 : 130,5,160
Combo4 : 247,236,138
Combo5 : 226,71,5
Combo6 : 210,0,0

[HitObjects]
28,60,2685,70,0,B|96:152|204:192|204:192|168:228|104:260,1,330
484,60,4169,2,0,B|416:152|308:192|308:192|344:228|408:260,1,330
117,253,5653,2,0,B|257:361|257:361|412:240,1,349.800000533753
256,76,7136,5,0,0:0:0:0:
256,103,7229,1,0,0:0:0:0:
256,131,7322,1,0,0:0:0:0:
256,158,7414,1,0,0:0:0:0:
256,186,7507,1,0,0:0:0:0:
256,213,7600,1,0,0:0:0:0:
256,241,7693,1,0,0:0:0:0:
36,96,8620,6,0,L|144:80,1,110
280,176,8991,2,0,L|172:192,1,110
404,44,9362,1,0,0:0:0:0:
445,316,9547,1,0,0:0:0:0:
280,176,9733,1,0,0:0:0:0:
480,147,9918,1,0,0:0:0:0:
320,296,10104,6,0,P|266:296|212:282,1,110
84,176,10474,2,0,P|138:176|192:190,1,110
16,320,10845,1,0,0:0:0:0:
212,282,11031,1,0,0:0:0:0:
24,217,11216,1,0,0:0:0:0:
212,282,11402,1,0,0:0:0:0:
452,148,11587,6,0,B|455:90|455:90|435:42,1,110
370,226,11958,2,0,P|416:261|475:259,1,110
244,84,12329,2,0,L|136:100,1,110
332,292,12700,1,0,0:0:0:0:
184,60,12885,2,0,L|75:47,1,110
112,264,13256,1,0,0:0:0:0:
332,292,13442,1,0,0:0:0:0:
216,44,13627,2,0,L|108:60,1,110
220,248,13998,2,0,L|274:240,1,55
426,217,14184,2,0,L|392:174,1,55
296,76,14369,1,0,0:0:0:0:
296,76,14462,1,0,0:0:0:0:
296,76,14555,6,0,L|188:92,1,110
108,236,14926,1,0,0:0:0:0:
252,156,15111,2,0,B|306:148|306:148|368:168,1,110
214,244,15482,2,0,B|159:252|159:252|107:235,1,110
404,88,15853,1,0,0:0:0:0:
376,304,16038,37,0,0:0:0:0:
296,76,16224,1,0,0:0:0:0:
214,244,16409,1,0,0:0:0:0:
109,88,16595,1,0,0:0:0:0:
404,88,16780,1,0,0:0:0:0:
406,101,16873,1,0,0:0:0:0:
408,115,16966,1,0,0:0:0:0:
410,128,17058,1,0,0:0:0:0:
412,142,17151,1,0,0:0:0:0:
414,155,17244,1,0,0:0:0:0:
416,169,17337,1,0,0:0:0:0:
418,182,17429,1,0,0:0:0:0:
420,196,17522,37,0,0:0:0:0:
444,360,17707,1,0,0:0:0:0:
184,252,17893,1,0,0:0:0:0:
184,252,17986,1,0,0:0:0:0:
184,252,18078,1,0,0:0:0:0:
184,252,18171,1,0,0:0:0:0:
184,252,18264,1,0,0:0:0:0:
412,142,18449,1,0,0:0:0:0:
184,252,18635,2,0,L|175:197,1,55
78,116,18820,2,0,L|86:170,1,55
184,252,19006,1,0,0:0:0:0:
412,142,19191,5,0,0:0:0:0:
184,252,19377,1,0,0:0:0:0:
184,252,19469,1,0,0:0:0:0:
184,252,19562,1,0,0:0:0:0:
184,252,19655,1,0,0:0:0:0:
324,86,19840,1,0,0:0:0:0:
85,185,19995,1,0,0:0:0:0:
85,185,20118,2,0,L|93:121,1,55
96,196,20304,1,0,0:0:0:0:
96,196,20397,1,0,0:0:0:0:
96,196,20489,6,0,L|176:207,1,82.5000031471254
216,328,20860,2,0,L|266:264,1,82.5000031471254
390,290,21231,2,0,L|360:214,1,82.5000031471254
444,120,21602,2,0,L|363:108,1,82.5000031471254
116,72,21973,38,0,L|196:83,1,82.5000031471254
288,168,22344,2,0,L|207:156,1,82.5000031471254
320,104,22715,2,0,P|352:135|357:180,1,82.5000031471254
244,222,23086,2,0,P|212:191|207:146,1,82.5000031471254
452,136,23457,2,0,B|477:229|388:268|388:268|333:257|333:257|272:292|272:292|216:304|178:266|178:266|64:276,1,495.000018882752
244,222,24755,1,0,0:0:0:0:
68,116,24940,54,0,L|79:35,1,82.5000031471254
148,184,25311,1,0,0:0:0:0:
308,56,25497,2,0,L|388:67,1,82.5000031471254
312,176,25868,1,0,0:0:0:0:
80,34,26053,1,0,0:0:0:0:
148,184,26239,1,0,0:0:0:0:
148,184,26331,1,0,0:0:0:0:
148,184,26424,6,0,L|228:172,1,82.5000031471254
304,272,26795,2,0,L|223:260,1,82.5000031471254
312,176,27166,2,0,L|392:164,1,82.5000031471254
468,264,27537,1,0,0:0:0:0:
344,268,27722,1,0,0:0:0:0:
420,8,27908,22,0,L|408:89,1,82.5000031471254
312,176,28279,2,0,L|300:95,1,82.5000031471254
203,181,28650,2,0,L|191:262,1,82.5000031471254
136,144,29020,1,0,0:0:0:0:
312,176,29206,1,0,0:0:0:0:
72,336,29391,22,0,B|60:296|60:296|60:255,1,82.5000031471254
190,262,29762,2,0,B|153:242|153:242|124:213,1,82.5000031471254
221,126,30133,2,0,B|180:138|180:138|140:138,1,82.5000031471254
146,7,30504,1,0,0:0:0:0:
112,295,30690,70,0,L|124:214,1,82.5000031471254
212,76,31061,2,0,L|224:157,1,82.5000031471254
276,316,31431,1,0,0:0:0:0:
118,99,31617,1,0,0:0:0:0:
372,181,31802,1,0,0:0:0:0:
118,265,31988,1,0,0:0:0:0:
276,48,32173,5,0,0:0:0:0:
276,316,32359,1,0,0:0:0:0:
118,265,32544,2,0,L|101:156,1,110
296,48,32915,1,0,0:0:0:0:
296,316,33101,1,0,0:0:0:0:
104,268,33286,2,0,L|87:159,1,110
316,48,33657,37,0,0:0:0:0:
316,316,33842,1,0,0:0:0:0:
164,156,34028,2,0,B|156:100|156:100|176:48,1,110
364,220,34399,1,0,0:0:0:0:
96,220,34584,1,0,0:0:0:0:
256,68,34770,2,0,B|312:60|312:60|363:80,1,110
176,284,35141,5,0,0:0:0:0:
444,284,35326,1,0,0:0:0:0:
284,88,35512,2,0,L|175:105,1,110
160,304,35883,1,0,0:0:0:0:
468,304,36068,1,0,0:0:0:0:
280,72,36253,2,0,L|171:89,1,110
144,324,36624,5,0,0:0:0:0:
492,324,36810,1,0,0:0:0:0:
256,184,36995,1,0,0:0:0:0:
256,379,37181,1,0,0:0:0:0:
346,61,37366,2,0,L|237:78,1,110
48,188,37737,1,0,0:0:0:0:
265,221,37923,1,0,0:0:0:0:
76,332,38108,5,0,0:0:0:0:
237,77,38293,1,0,0:0:0:0:
368,224,38479,2,0,L|351:333,1,110
60,344,38850,1,0,0:0:0:0:
238,63,39035,1,0,0:0:0:0:
382,225,39221,2,0,L|395:345,1,110
44,357,39592,5,0,0:0:0:0:
239,48,39777,1,0,0:0:0:0:
397,226,39963,2,0,L|445:351,1,110
200,188,40334,1,0,0:0:0:0:
492,28,40519,1,0,0:0:0:0:
424,292,40704,2,0,L|315:275,1,110
91,171,41075,5,0,0:0:0:0:
456,48,41261,2,0,L|439:157,1,110
127,158,41632,1,0,0:0:0:0:
419,60,41817,2,0,L|402:168,1,110
127,158,42188,1,0,0:0:0:0:
419,60,42374,1,0,0:0:0:0:
196,304,42559,54,0,P|140:300|88:287,1,110
352,208,42930,1,0,0:0:0:0:
127,158,43115,1,0,0:0:0:0:
395,324,43301,2,0,P|441:294|467:246,1,110
456,180,43579,1,0,0:0:0:0:
457,156,43672,1,0,0:0:0:0:
459,132,43765,1,0,0:0:0:0:
460,109,43857,1,0,0:0:0:0:
462,85,43950,1,0,0:0:0:0:
464,62,44043,1,0,0:0:0:0:
465,38,44135,1,0,0:0:0:0:
467,15,44228,5,0,0:0:0:0:
304,52,44414,1,0,0:0:0:0:
460,109,44599,1,0,0:0:0:0:
268,188,44785,2,0,L|92:212,1,165.000006294251
172,108,45341,1,0,0:0:0:0:
194,272,45526,6,0,B|312:255|312:255|348:212,1,165.000006294251
219,194,46083,1,0,0:0:0:0:
400,296,46268,2,0,B|445:227|445:227|408:148,1,165.000006294251
284,260,46825,1,0,0:0:0:0:
212,112,47010,1,0,0:0:0:0:
194,309,47196,21,0,0:0:0:0:
302,87,47381,1,0,0:0:0:0:
368,324,47566,1,0,0:0:0:0:
236,22,47752,2,0,L|147:34,1,82.5000031471254
124,196,48123,1,0,0:0:0:0:
320,256,48308,1,0,0:0:0:0:
236,22,48494,6,0,B|70:46|70:46|96:88|68:128,1,247.500009441376
72,121,49421,5,0,0:0:0:0:
91,126,49514,1,0,0:0:0:0:
111,132,49607,1,0,0:0:0:0:
131,138,49699,1,0,0:0:0:0:
144,176,49792,5,0,0:0:0:0:
182,186,49885,1,0,0:0:0:0:
222,198,49977,1,0,0:0:0:0:
262,210,50070,1,0,0:0:0:0:
275,248,50163,6,0,L|384:233,1,110
224,84,50534,1,0,0:0:0:0:
194,302,50719,1,0,0:0:0:0:
484,48,50905,2,0,L|429:55,1,55
268,164,51090,2,0,L|322:156,1,55
484,48,51276,1,0,0:0:0:0:
284,236,51461,6,0,B|228:243|228:243|184:208,1,110
408,220,51832,2,0,B|442:263|442:263|433:320,1,110
333,121,52203,2,0,B|354:69|354:69|407:48,1,110
251,260,52574,1,0,0:0:0:0:
328,80,52759,1,0,0:0:0:0:
445,235,52945,1,0,0:0:0:0:
136,124,53130,6,0,P|162:76|202:38,1,110
144,252,53501,1,0,0:0:0:0:
0,88,53687,1,0,0:0:0:0:
328,80,53872,2,0,P|382:79|435:95,1,110
202,38,54243,1,0,0:0:0:0:
445,235,54429,6,0,P|473:282|485:335,1,110
328,80,54799,1,0,0:0:0:0:
288,296,54985,1,0,0:0:0:0:
20,104,55170,2,0,P|67:75|120:63,1,110
288,296,55541,2,0,P|264:310|237:316,1,55
277,100,55727,2,0,P|300:85|327:79,1,55
396,279,55912,1,0,0:0:0:0:
396,279,56005,1,0,0:0:0:0:
396,279,56098,6,0,L|287:296,1,110
68,324,56469,1,0,0:0:0:0:
230,112,56654,2,0,L|135:236,1,110
396,279,57025,2,0,L|287:296,1,110
114,178,57396,1,0,0:0:0:0:
492,28,57581,6,0,L|475:137,1,110
256,304,57952,1,0,0:0:0:0:
20,28,58138,2,0,L|37:137,1,110
256,304,58509,1,0,0:0:0:0:
398,178,58694,1,0,0:0:0:0:
37,136,58880,1,0,0:0:0:0:
37,136,58972,1,0,0:0:0:0:
37,136,59065,6,0,B|44:168|44:168|100:232,1,110
360,260,59436,1,0,0:0:0:0:
94,226,59621,1,0,0:0:0:0:
367,90,59807,1,0,0:0:0:0:
37,136,59992,1,0,0:0:0:0:
256,304,60178,1,0,0:0:0:0:
496,28,60363,6,0,L|387:45,1,110
37,136,60734,1,0,0:0:0:0:
475,248,60920,1,0,0:0:0:0:
387,44,61105,1,0,0:0:0:0:
125,340,61291,5,0,0:0:0:0:
125,340,61383,1,0,0:0:0:0:
125,340,61476,1,0,0:0:0:0:
125,340,61569,1,0,0:0:0:0:
125,340,61661,2,0,L|133:285,1,55
260,104,61847,2,0,L|251:158,1,55
387,340,62032,6,0,L|369:231,1,110
125,340,62403,2,0,P|179:347|229:316,1,110
128,48,62774,2,0,L|137:102,1,55
324,320,62960,2,0,P|312:266|265:230,1,110
8,292,63331,2,0,L|116:274,1,110
360,141,63702,5,0,0:0:0:0:
70,107,63887,1,0,0:0:0:0:
116,275,64072,1,0,0:0:0:0:
251,157,64258,1,0,0:0:0:0:
70,107,64443,2,0,P|72:164|88:216,1,110
297,325,64814,2,0,L|288:270,1,55
140,36,65000,6,0,P|140:92|157:144,1,110
428,188,65371,2,0,P|428:132|410:79,1,110
189,341,65742,2,0,P|245:341|297:323,1,110
411,80,66112,1,0,0:0:0:0:
36,168,66298,6,0,P|84:196|138:207,1,110
411,80,66669,2,0,P|384:86|360:99,1,55
112,324,66854,2,0,P|132:305|145:281,1,55
100,8,67040,2,0,P|83:60|83:115,1,110
248,336,67411,1,0,0:0:0:0:
411,80,67596,1,0,0:0:0:0:
36,168,67782,1,0,0:0:0:0:
36,168,67874,1,0,0:0:0:0:
36,168,67967,6,0,P|47:221|74:269,1,110
100,8,68338,1,0,0:0:0:0:
248,336,68523,2,0,P|300:353|355:353,1,110
142,150,68894,2,0,P|87:150|35:167,1,110
472,220,69265,5,0,0:0:0:0:
40,304,69451,1,0,0:0:0:0:
396,48,69636,1,0,0:0:0:0:
354,353,69822,1,0,0:0:0:0:
142,150,70007,1,0,0:0:0:0:
472,220,70193,6,0,L|464:274,1,55
268,80,70378,2,0,L|276:26,1,55
92,236,70564,1,0,0:0:0:0:
92,236,70656,1,0,0:0:0:0:
92,236,70749,1,0,0:0:0:0:
92,236,70842,1,0,0:0:0:0:
92,236,70934,5,0,0:0:0:0:
463,274,71120,1,0,0:0:0:0:
276,25,71305,1,0,0:0:0:0:
276,25,71398,1,0,0:0:0:0:
276,25,71491,1,0,0:0:0:0:
276,25,71584,1,0,0:0:0:0:
276,25,71676,1,0,0:0:0:0:
463,274,71862,1,0,0:0:0:0:
92,236,72047,2,0,L|100:182,1,55
276,25,72233,2,0,L|268:79,1,55
199,219,72418,70,0,P|147:235|91:235,1,110
444,80,72789,1,0,0:0:0:0:
444,80,72882,1,0,0:0:0:0:
444,80,72974,1,0,0:0:0:0:
444,80,73067,1,0,0:0:0:0:
444,80,73160,2,0,P|425:99|401:113,1,55
91,235,73345,2,0,P|110:216|134:202,1,55
432,260,73531,2,0,P|406:253|381:239,1,55
102,54,73716,2,0,P|127:60|152:74,1,55
