osu file format v14

[General]
AudioFilename: FLOW - COLORS TV Size.mp3
AudioLeadIn: 0
PreviewTime: 9071
Countdown: 0
SampleSet: Soft
StackLeniency: 0.7
Mode: 0
LetterboxInBreaks: 0
WidescreenStoryboard: 0

[Editor]
Bookmarks: 4970
DistanceSpacing: 0.9
BeatDivisor: 4
GridSize: 4
TimelineZoom: 1

[Metadata]
Title:COLORS -CODE GEASS OPENING MIX-
TitleUnicode:COLORS -CODE GEASS OPENING MIX-
Artist:FLOW
ArtistUnicode:FLOW
Creator:Mythiax
Version:Normal
Source:コードギアス 反逆のルルーシュ
Tags:opening Zero Lelouch Lamperouge Nunnally Kallen Statfield Kururugi Suzaku The Black Knights コードギアス 反逆のルルーシュ vi Britannia -_R_u_m_i_a_- ReySHeL Gero SUBSTAC9 mancuso_JM_ mancusojuanmattos Zeroarg
BeatmapID:285215
BeatmapSetID:109245

[Difficulty]
HPDrainRate:4
CircleSize:3
OverallDifficulty:4
ApproachRate:5
SliderMultiplier:1.1
SliderTickRate:1

[Events]
//Background and Video events
0,0,"code_geass_lelouch_of_the_363_1024.jpg",0,0
Video,0,"Video.avi"
//Break Periods
//Storyboard Layer 0 (Background)
//Storyboard Layer 1 (Fail)
//Storyboard Layer 2 (Pass)
//Storyboard Layer 3 (Foreground)
//Storyboard Sound Samples

[TimingPoints]
2765,441.176470588235,4,2,1,75,1,0
9823,-100,4,2,1,75,0,1
23941,-100,4,2,1,75,0,0
59235,-100,4,2,1,75,0,1
87470,-100,4,2,1,75,0,0

[Colours]
Combo1 : 255,128,0
Combo2 : 128,0,64
Combo3 : 128,0,0
Combo4 : 255,255,255

[HitObjects]
71,195,2764,6,0,P|78:138|126:104,1,110
204,60,3647,1,0,0:0:0:0:
292,100,4088,2,0,L|360:124,2,55
224,172,4970,6,0,P|188:208|188:268,1,110
256,336,5853,2,0,L|324:340,2,55
284,244,6735,6,0,P|320:208|320:148,1,110
248,84,7618,2,0,L|180:80,1,55
148,100,8059,6,0,L|107:137,1,55
112,188,8500,2,0,L|71:225,1,55
88,324,9162,2,0,L|32:360,2,55
136,324,9823,6,0,P|220:324|276:256,1,165
292,220,10706,2,0,P|320:176|376:152,1,110
420,160,11367,1,0,0:0:0:0:
448,64,11809,2,0,B|324:40,2,110
420,160,13132,1,0,0:0:0:0:
420,160,13353,6,0,P|368:212|276:212,1,165
232,208,14235,1,0,0:0:0:0:
172,128,14676,2,0,P|119:139|86:182,1,110
76,232,15338,2,0,L|44:276,2,55
168,272,16220,1,0,0:0:0:0:
256,320,16662,5,0,0:0:0:0:
299,296,16882,2,0,P|346:267|365:217,1,110
368,168,17544,2,0,P|387:117|433:89,1,110
364,20,18426,6,0,P|313:39|285:85,1,110
272,132,19088,2,0,L|252:184,1,55
236,232,19529,2,0,L|188:284,2,55
256,192,20412,12,0,23941,0:0:0:0:
300,248,24823,5,0,0:0:0:0:
188,252,25264,2,0,L|120:292,2,55
248,175,26147,2,0,P|286:138|291:85,1,110
380,40,27029,1,0,0:0:0:0:
400,136,27470,6,0,P|448:160|384:280,1,220
288,332,28794,2,0,L|224:332,2,55
256,240,29676,1,0,0:0:0:0:
256,140,30117,1,0,0:0:0:0:
304,52,30559,6,0,B|192:52,1,110
96,60,31441,2,0,P|68:108|68:164,1,110
160,132,32323,2,0,P|188:180|188:236,1,110
92,208,33206,2,0,P|92:264|120:309,1,110
216,324,34088,1,0,0:0:0:0:
312,352,34529,6,0,P|312:296|284:251,1,110
188,232,35412,1,0,0:0:0:0:
176,132,35853,1,0,0:0:0:0:
268,88,36294,1,0,0:0:0:0:
372,128,36735,6,0,L|449:50,2,110
268,88,38059,2,0,P|220:60|164:60,1,110
92,140,38941,2,0,P|140:168|196:168,1,110
303,174,39823,2,0,P|331:221|332:276,1,110
224,247,40706,2,0,P|224:302|252:349,1,110
332,276,41588,5,0,0:0:0:0:
436,304,42029,2,0,P|435:250|407:202,1,110
396,92,42912,1,0,0:0:0:0:
364,56,43132,6,0,L|424:20,2,55
328,92,43794,1,0,0:0:0:0:
288,120,44014,2,0,P|232:120|192:152,1,110
204,200,44676,2,0,L|228:256,1,55
268,280,45117,6,0,P|321:279|369:251,1,110
436,180,46000,2,0,L|448:120,2,55
352,128,46882,2,0,L|352:56,2,55
256,144,47764,6,0,P|204:152|160:192,1,110
172,236,48426,1,0,0:0:0:0:
204,272,48647,6,0,P|280:296|360:272,1,165,0|0,0:0|0:0,0:0:0:0:
432,204,49750,1,0,0:0:0:0:
388,108,50191,2,0,P|347:71|294:56,1,110
256,88,50853,2,0,L|204:136,2,55
320,160,51735,1,0,0:0:0:0:
368,244,52176,6,0,P|345:293|298:321,1,110,0|0,0:0|0:0,0:0:0:0:
256,300,52838,2,0,P|203:286|152:305,1,110
120,268,53500,2,0,L|72:232,2,55
144,224,54162,2,0,L|180:172,1,55
216,148,54603,2,0,P|266:166|319:153,1,110
360,176,55264,2,0,L|392:222,1,55
420,264,55706,6,0,P|399:314|355:345,1,110
320,312,56367,2,0,L|272:272,1,55
236,304,56809,2,0,L|180:280,2,55
56,136,58353,6,0,L|168:136,1,110
212,152,59014,5,0,0:0:0:0:
212,152,59235,2,0,P|260:180|316:180,1,110
388,116,60117,6,0,L|412:176,1,55
392,264,60779,2,0,P|359:307|308:324,1,110
208,324,61662,2,0,P|156:306|124:263,1,110
80,168,62544,1,0,0:0:0:0:
80,168,62764,6,0,P|128:108|216:108,1,165
240,148,63647,2,0,P|290:166|343:153,1,110
392,144,64309,2,0,P|405:196|387:247,1,110
372,292,64970,2,0,L|372:352,1,55
420,348,65412,2,0,L|244:348,1,165
224,308,66294,6,0,P|171:293|132:255,1,110
108,212,66956,2,0,L|92:152,1,55
132,128,67397,2,0,P|171:90|224:75,1,110
272,92,68059,2,0,P|273:146|300:193,1,110,0|0,0:3|0:3,0:3:0:0:
348,188,68720,2,0,L|388:236,1,55
356,272,69162,2,0,L|320:320,2,55
404,272,69823,6,0,P|444:268|448:156,1,165
396,84,70926,2,0,L|352:44,1,55
324,88,71367,2,0,P|256:183|191:86,1,275
92,108,72912,2,0,L|60:160,1,55
40,200,73353,6,0,P|79:237|131:252,1,110
232,256,74235,1,0,0:0:0:0:
232,256,74456,2,0,P|280:276|308:332,1,110
408,320,75338,2,0,P|433:272|483:251,2,110
336,252,76662,1,0,0:0:0:0:
312,208,76882,6,0,P|380:168|388:88,1,165
360,48,77764,2,0,P|305:43|255:65,1,110
228,108,78426,2,0,P|214:160|174:197,1,110
128,212,79088,1,0,0:0:0:0:
80,228,79309,2,0,P|40:264|26:317,1,110
124,328,80191,1,0,0:0:0:0:
172,312,80412,6,0,P|209:272|262:261,1,110
308,280,81073,2,0,P|361:268|398:229,1,110
364,136,81956,2,0,P|326:175|273:186,1,110
228,164,82617,2,0,L|196:120,1,55
164,80,83059,1,0,0:0:0:0:
116,64,83279,2,0,L|64:24,2,55
256,192,83941,12,0,87470,0:0:0:0:
