osu file format v14

[General]
AudioFilename: audio.mp3
AudioLeadIn: 0
PreviewTime: 9358
Countdown: 0
SampleSet: Soft
StackLeniency: 0.7
Mode: 2
LetterboxInBreaks: 0
WidescreenStoryboard: 1

[Editor]
DistanceSpacing: 0.7
BeatDivisor: 4
GridSize: 32
TimelineZoom: 1

[Metadata]
Title:COLORS (TV Size)
TitleUnicode:COLORS (TV Size)
Artist:FLOW
ArtistUnicode:FLOW
Creator:Secre
Version:Rain
Source:コードギアス 反逆のルルーシュ
Tags:chickenbible -joni- bastian jorkseljund code geass lelouch of the rebellion hangyaku no jibun wo aeril anime japanese rock j-rock op opening 1 one jrock male vocals KOHSHI Asakawa Koshi TAKE Takeshi 浅川岳史 浅川甲史 KEIGO Hayashi 林圭吾 GOT'S Gotou Koutarou 後藤康太郎 IWASAKI Hiroshi 岩崎博詞 KOICHI TSUTAYA 蔦谷好位置 Koudo Giasu: Ruruushu
BeatmapID:4356763
BeatmapSetID:1985133

[Difficulty]
HPDrainRate:5
CircleSize:3.7
OverallDifficulty:8.8
ApproachRate:8.8
SliderMultiplier:2.25
SliderTickRate:2

[Events]
//Background and Video events
0,0,"omg fauna.jpg",0,0
//Break Periods
//Storyboard Layer 0 (Background)
//Storyboard Layer 1 (Fail)
//Storyboard Layer 2 (Pass)
//Storyboard Layer 3 (Foreground)
//Storyboard Layer 4 (Overlay)
//Storyboard Sound Samples

[TimingPoints]
3072,441.176470588235,4,2,0,60,1,0
3292,-100,4,2,0,50,0,0
9689,-100,4,2,0,40,0,0
10130,-100,4,2,0,70,0,1
11674,-100,4,2,0,70,0,1
13660,-100,4,2,0,70,0,1
18954,-100,4,2,0,70,0,1
24248,-100,4,2,0,50,0,0
36380,-100,4,2,0,50,0,0
38145,-100,4,2,0,60,0,0
52483,-100,4,2,0,50,0,0
58219,-100,4,2,0,50,0,0
58660,-100,4,2,0,60,0,0
59542,-100,4,2,0,70,0,1
61086,-100,4,2,0,70,0,1
63071,-100,4,2,0,70,0,1
66601,-100,4,2,0,70,0,1
71233,-100,4,2,0,70,0,1
73660,-100,4,2,0,60,0,0
74101,-100,4,2,0,70,0,1
75204,-100,4,2,0,70,0,1
77189,-100,4,2,0,70,0,1
87557,-100,4,2,0,70,0,0

[Colours]
Combo1 : 224,220,58
Combo2 : 43,249,95
Combo3 : 234,49,49

[HitObjects]
256,192,1307,12,0,2851,0:0:0:0:
237,177,3071,5,4,3:2:0:0:
383,91,3292,1,2,0:0:0:0:
191,86,3513,2,0,L|187:24,1,56.25,2|2,0:0|0:0,0:0:0:0:
296,36,3844,6,0,L|165:52,1,112.5,2|2,0:0|0:0,0:0:0:0:
184,49,4285,1,2,0:0:0:0:
296,36,4395,2,0,L|297:157,1,112.5,2|2,0:0|0:0,0:0:0:0:
118,211,4836,5,4,3:2:0:0:
286,215,5057,1,2,0:0:0:0:
118,211,5277,2,0,L|176:212,1,56.25,2|2,0:0|0:0,0:0:0:0:
347,123,5608,6,0,L|232:118,1,112.5,2|2,0:0|0:0,0:0:0:0:
234,118,6049,1,2,0:0:0:0:
347,123,6160,2,0,L|350:257,1,112.5,2|2,0:0|0:0,0:0:0:0:
151,212,6601,6,0,L|282:212,1,112.5,4|2,3:2|0:0,0:0:0:0:
444,128,7042,2,0,L|373:122,1,56.25,2|2,0:0|0:0,0:0:0:0:
200,77,7373,6,0,L|327:78,1,112.5,2|2,0:0|0:0,0:0:0:0:
312,77,7814,1,2,0:0:0:0:
200,77,7924,2,0,L|200:214,1,112.5,2|2,0:0|0:0,0:0:0:0:
489,211,8366,6,0,L|497:122,1,56.25,10|8,0:0|0:0,0:0:0:0:
430,119,8586,1,8,0:0:0:0:
245,57,8696,2,0,L|158:51,2,56.25,10|10|8,0:0|0:0|0:0,0:0:0:0:
421,68,9027,1,10,0:0:0:0:
421,68,9469,5,0,0:0:0:0:
263,157,9689,2,0,L|384:157,1,112.5
81,225,10130,6,0,P|18:199|98:104,1,225,6|2,3:2|3:0,0:0:0:0:
248,103,10792,1,0,0:0:0:0:
93,85,11013,1,2,3:0:0:0:
387,134,11233,2,0,L|391:269,1,112.5,2|0,0:0|3:0,0:0:0:0:
103,207,11674,6,0,L|218:208,1,112.5,2|0,0:0|3:0,0:0:0:0:
406,172,12116,2,0,L|262:164,1,112.5,2|0,0:0|3:0,0:0:0:0:
93,176,12557,2,0,P|151:159|78:59,1,225,2|2,0:0|0:0,0:0:0:0:
261,58,13219,1,0,3:0:0:0:
92,53,13439,1,2,0:0:0:0:
375,107,13660,6,0,P|443:108|501:244,1,225,2|0,3:0|3:0,0:0:0:0:
336,237,14321,1,2,0:0:0:0:
169,176,14542,2,0,P|102:177|51:314,1,225,2|2,3:0|3:0,0:0:0:0:
229,308,15204,6,0,L|230:155,1,112.5,2|0,0:0|3:0,0:0:0:0:
46,141,15645,2,0,L|180:144,1,112.5,2|2,0:0|3:0,0:0:0:0:
457,89,16086,2,0,L|202:83,1,225,2|2,0:0|0:0,0:0:0:0:
410,200,16748,1,0,3:0:0:0:
232,83,16969,2,0,L|295:82,1,56.25,2|0,3:2|3:2,0:0:0:0:
487,98,17189,6,0,P|483:179|350:232,1,225,6|2,3:2|3:0,0:0:0:0:
188,166,17851,2,0,L|181:37,1,112.5,2|0,0:0|3:0,0:0:0:0:
345,32,18292,2,0,L|498:28,1,112.5,2|0,0:0|3:0,0:0:0:0:
154,212,18733,6,0,P|73:218|39:357,1,225,2|2,0:0|0:0,0:0:0:0:
207,334,19395,2,0,L|331:325,1,112.5,2|2,3:0|0:0,0:0:0:0:
129,195,19836,5,10,3:0:0:0:
185,194,19946,1,8,3:0:0:0:
241,193,20056,1,10,3:0:0:0:
413,119,20277,2,0,L|351:113,1,56.25,10|8,3:0|3:0,0:0:0:0:
171,68,20498,2,0,L|88:61,1,56.25,10|8,3:0|3:0,0:0:0:0:
302,92,20719,6,0,L|427:96,1,112.5,4|2,3:2|0:0,0:0:0:0:
228,161,21160,2,0,L|223:249,1,56.25,2|2,0:0|0:0,0:0:0:0:
406,285,21491,6,0,L|275:278,1,112.5,2|2,0:0|0:0,0:0:0:0:
475,194,21932,1,2,0:0:0:0:
356,162,22042,2,0,L|351:25,1,112.5,2|2,0:0|0:0,0:0:0:0:
64,112,22483,5,4,3:2:0:0:
238,111,22704,1,2,0:0:0:0:
64,112,22924,2,0,L|131:112,1,56.25,6|2,0:0|0:0,0:0:0:0:
290,113,23255,5,2,0:0:0:0:
120,112,23476,1,2,0:0:0:0:
290,113,23586,2,0,L|292:197,1,56.25,8|2,0:0|0:0,0:0:0:0:
114,220,23807,2,0,L|0:221,1,112.5,2|10,0:0|0:0,0:0:0:0:
328,167,24248,6,0,L|471:167,1,112.5,0|0,3:0|0:0,0:0:0:0:
246,249,24689,2,0,L|242:108,1,112.5,2|0,3:2|0:0,0:0:0:0:
437,95,25130,2,0,L|303:90,1,112.5,2|0,3:2|0:0,0:0:0:0:
151,85,25571,1,2,3:2:0:0:
324,90,25792,1,2,0:0:0:0:
135,80,26013,6,0,P|78:77|32:216,1,225,2|2,3:2|3:2,0:0:0:0:
192,243,26674,1,0,0:0:0:0:
351,142,26895,2,0,P|412:167|324:266,1,225,2|2,3:2|3:2,0:0:0:0:
192,243,27557,1,0,0:0:0:0:
481,167,27777,6,0,L|227:158,1,225,2|0,3:2|3:0,0:0:0:0:
418,91,28439,2,0,L|148:79,1,225,0|2,0:0|0:0,0:0:0:0:
368,185,29101,2,0,L|505:190,1,112.5,2|2,3:2|0:0,0:0:0:0:
310,253,29542,6,0,L|308:118,1,112.5,2|0,3:2|0:0,0:0:0:0:
143,129,29983,1,0,3:0:0:0:
308,140,30204,2,0,P|376:142|435:271,1,225,2|0,0:0|0:0,0:0:0:0:
251,266,30866,1,8,0:0:0:0:
435,269,31086,2,0,L|345:271,1,56.25,2|2,0:0|0:0,0:0:0:0:
147,151,31307,6,0,L|31:156,1,112.5,4|0,3:2|0:0,0:0:0:0:
220,232,31748,2,0,L|231:365,1,112.5,2|0,3:2|0:0,0:0:0:0:
414,348,32189,2,0,L|259:346,1,112.5,2|0,3:2|0:0,0:0:0:0:
128,206,32630,1,2,3:2:0:0:
301,346,32851,1,2,0:0:0:0:
8,234,33071,6,0,P|1:171|148:99,1,225,2|2,3:2|3:2,0:0:0:0:
290,92,33733,1,0,0:0:0:0:
118,98,33954,2,0,L|356:97,1,225,2|2,3:2|3:2,0:0:0:0:
166,185,34616,1,2,0:0:0:0:
471,196,34836,6,0,L|477:54,1,112.5,0|0,3:0|0:0,0:0:0:0:
354,42,35277,1,0,3:0:0:0:
187,105,35498,2,0,L|183:243,1,112.5,0|0,0:0|3:0,0:0:0:0:
308,292,35939,1,0,0:0:0:0:
136,243,36160,1,0,3:0:0:0:
442,168,36380,5,2,0:0:0:0:
385,168,36490,1,0,0:0:0:0:
329,168,36600,1,0,3:0:0:0:
154,163,36821,1,2,3:2:0:0:
461,75,37042,2,0,L|327:77,1,112.5,2|2,3:2|3:2,0:0:0:0:
348,76,37483,2,0,L|485:75,1,112.5,0|0,3:0|3:0,0:0:0:0:
156,163,37924,1,8,0:0:0:0:
317,103,38145,1,2,0:0:0:0:
16,78,38366,5,4,3:0:0:0:
173,88,38586,2,0,L|181:233,1,112.5,2|8,0:0|0:0,0:0:0:0:
339,282,39027,1,2,0:0:0:0:
179,200,39248,1,2,0:0:0:0:
339,282,39469,2,0,L|339:150,1,112.5,2|8,3:0|0:0,0:0:0:0:
499,118,39910,1,2,0:0:0:0:
204,128,40130,5,2,3:0:0:0:
367,132,40351,2,0,L|366:250,1,112.5,2|8,0:0|0:0,0:0:0:0:
206,254,40792,1,2,0:0:0:0:
367,132,41013,1,2,0:0:0:0:
206,254,41233,2,0,L|204:135,1,112.5,2|8,3:0|0:0,0:0:0:0:
32,95,41674,1,2,0:0:0:0:
318,128,41895,5,2,3:0:0:0:
155,132,42116,2,0,L|156:250,1,112.5,2|8,0:0|0:0,0:0:0:0:
316,254,42557,1,2,0:0:0:0:
155,132,42778,1,2,0:0:0:0:
316,254,42998,2,0,L|318:135,1,112.5,2|8,3:0|0:0,0:0:0:0:
480,93,43439,1,2,0:0:0:0:
193,164,43660,6,0,L|306:165,2,112.5,2|2|10,3:0|0:0|0:0,0:0:0:0:
475,100,44321,2,0,L|250:98,1,225,2|0,0:0|3:0,0:0:0:0:
429,184,44983,2,0,L|305:183,1,112.5,10|2,0:0|0:0,0:0:0:0:
19,115,45424,5,4,3:0:0:0:
191,126,45645,2,0,L|193:267,1,112.5,2|8,0:0|0:0,0:0:0:0:
19,115,46086,1,2,0:0:0:0:
191,126,46307,1,2,0:0:0:0:
19,137,46528,2,0,L|17:278,1,112.5,2|8,3:0|0:0,0:0:0:0:
191,126,46969,1,2,0:0:0:0:
477,114,47189,5,2,3:0:0:0:
305,125,47410,2,0,L|303:266,1,112.5,2|8,0:0|0:0,0:0:0:0:
477,114,47851,1,2,0:0:0:0:
305,125,48072,1,2,0:0:0:0:
477,136,48293,2,0,L|479:277,1,112.5,2|8,3:0|0:0,0:0:0:0:
305,125,48734,1,2,0:0:0:0:
18,71,48954,6,0,L|141:70,2,112.5,2|0|10,3:0|0:0|0:0,0:0:0:0:
305,125,49616,2,0,L|438:119,1,112.5,2|0,0:0|0:0,0:0:0:0:
224,216,50057,2,0,L|76:218,1,112.5,2|8,3:0|0:0,0:0:0:0:
415,249,50498,6,0,L|155:248,1,225,2|0,0:0|0:0,0:0:0:0:
364,166,51160,1,10,0:0:0:0:
84,184,51380,1,2,0:0:0:0:
252,133,51601,2,0,L|258:-17,1,112.5,8|8,3:0|3:0,0:0:0:0:
424,60,52042,2,0,L|432:-63,1,112.5,8|8,3:0|3:0,0:0:0:0:
127,205,52483,6,0,L|293:203,2,112.5,6|2|2,3:0|0:0|0:0,0:0:0:0:
286,134,53145,2,0,L|46:127,1,225,2|2,0:0|0:0,0:0:0:0:
221,228,53807,1,2,0:0:0:0:
54,142,54027,6,0,L|306:140,1,225,2|2,3:0|0:0,0:0:0:0:
110,214,54689,1,2,0:0:0:0:
284,219,54910,2,0,P|348:225|420:373,1,225,2|2,3:0|3:0,0:0:0:0:
254,324,55571,2,0,L|379:326,1,112.5,2|2,0:0|3:0,0:0:0:0:
186,205,56013,6,0,L|48:203,2,112.5,2|2|2,3:0|0:0|0:0,0:0:0:0:
354,139,56674,1,2,3:0:0:0:
186,205,56895,1,10,0:0:0:0:
354,139,57116,1,8,3:0:0:0:
186,205,57336,1,8,3:0:0:0:
474,201,57557,6,0,P|382:195|490:373,1,450,4|0,0:0|0:0,0:0:0:0:
171,146,58660,2,0,L|102:146,1,56.25,8|8,0:0|0:0,0:0:0:0:
227,95,58880,2,0,L|299:94,1,56.25,8|8,3:0|3:0,0:0:0:0:
79,104,59101,6,0,L|15:106,1,56.25,8|8,3:0|3:0,0:0:0:0:
244,175,59321,2,0,L|327:176,1,56.25,8|8,3:0|3:0,0:0:0:0:
77,283,59542,6,0,P|21:254|116:164,1,225,6|2,0:0|3:2,0:0:0:0:
259,150,60204,1,2,0:0:0:0:
91,152,60424,1,2,3:2:0:0:
417,147,60645,2,0,L|417:271,1,112.5,2|2,0:0|3:2,0:0:0:0:
137,291,61086,6,0,L|-3:285,1,112.5,2|2,0:0|3:2,0:0:0:0:
203,197,61527,2,0,L|76:193,1,112.5,2|2,0:0|3:2,0:0:0:0:
380,278,61969,6,0,L|520:272,1,112.5,2|2,0:0|3:2,0:0:0:0:
314,184,62410,2,0,P|415:192|438:326,1,225,2|2,0:0|0:0,0:0:0:0:
118,278,63071,6,0,L|352:272,1,225,2|2,3:2|3:2,0:0:0:0:
173,189,63733,1,2,0:0:0:0:
351,112,63954,2,0,L|80:108,1,225,2|2,3:2|3:2,0:0:0:0:
435,103,64616,6,0,L|435:235,1,112.5,2|2,0:0|3:2,0:0:0:0:
146,200,65057,1,2,0:0:0:0:
324,211,65277,1,2,3:2:0:0:
23,247,65498,2,0,P|87:235|12:152,1,225,2|2,0:0|0:0,0:0:0:0:
196,140,66160,1,2,3:2:0:0:
22,145,66380,2,0,L|92:149,1,56.25,8|8,3:0|3:0,0:0:0:0:
322,176,66601,6,0,P|393:180|441:316,1,225,6|2,0:0|3:2,0:0:0:0:
268,303,67263,2,0,L|398:304,1,112.5,2|2,0:0|3:2,0:0:0:0:
25,226,67704,2,0,P|16:162|150:93,1,225,2|2,0:0|0:0,0:0:0:0:
445,114,68366,6,0,L|300:109,1,112.5,2|2,3:2|0:0,0:0:0:0:
156,111,68807,1,2,3:2:0:0:
332,110,69027,2,0,L|332:240,1,112.5,2|2,0:0|3:2,0:0:0:0:
157,288,69469,2,0,L|397:281,1,225,2|2,0:0|0:0,0:0:0:0:
326,218,70020,1,8,0:0:0:0:
124,214,70130,6,0,P|65:191|138:90,1,225,6|2,3:2|3:2,0:0:0:0:
299,87,70792,2,0,L|297:223,1,112.5,2|2,0:0|3:2,0:0:0:0:
126,216,71233,1,2,0:0:0:0:
298,199,71454,1,2,3:2:0:0:
15,127,71674,1,2,0:0:0:0:
298,199,71895,5,6,3:2:0:0:
126,216,72116,1,14,0:2:0:0:
470,196,72336,2,0,L|475:54,1,112.5,6|2,3:2|0:0,0:0:0:0:
303,85,72777,6,0,L|221:84,1,56.25,10|0,3:2|3:2,0:0:0:0:
437,152,72998,2,0,L|502:155,1,56.25,10|0,3:2|3:2,0:0:0:0:
235,225,73219,2,0,L|160:227,1,56.25,10|0,3:2|3:2,0:0:0:0:
357,128,73439,2,0,L|444:124,1,56.25,10|0,3:2|3:2,0:0:0:0:
153,111,73660,5,6,0:0:0:0:
102,167,73880,2,0,L|172:162,1,56.25,10|10,3:2|3:2,0:0:0:0:
384,147,74101,2,0,L|501:136,1,112.5,6|2,0:0|0:0,0:0:0:0:
181,196,74542,1,2,3:2:0:0:
357,147,74763,2,0,L|361:22,1,112.5,2|2,0:0|3:2,0:0:0:0:
55,67,75204,6,0,L|206:64,1,112.5,2|2,0:0|3:2,0:0:0:0:
347,139,75645,2,0,L|196:136,1,112.5,2|2,0:0|3:2,0:0:0:0:
416,80,76086,2,0,L|289:78,1,112.5,2|2,0:0|3:2,0:0:0:0:
126,209,76527,2,0,L|255:190,1,112.5,2|2,0:0|3:2,0:0:0:0:
418,140,76969,2,0,L|314:139,1,56.25,2|8,0:0|0:0,0:0:0:0:
132,143,77189,6,0,P|64:143|33:297,1,225,6|2,3:2|3:2,0:0:0:0:
172,316,77851,1,2,0:0:0:0:
474,209,78071,2,0,L|233:210,1,225,2|2,3:2|3:2,0:0:0:0:
59,165,78733,6,0,L|201:157,1,112.5,2|2,0:0|3:2,0:0:0:0:
466,136,79174,1,2,0:0:0:0:
169,86,79395,1,2,3:2:0:0:
466,136,79616,2,0,L|215:139,1,225,2|2,0:0|0:0,0:0:0:0:
411,224,80277,1,2,3:2:0:0:
234,147,80498,2,0,L|311:148,1,56.25,10|8,3:2|3:2,0:0:0:0:
495,152,80719,6,0,P|493:237|368:279,1,225,6|6,3:2|0:0,0:0:0:0:
202,211,81380,2,0,L|199:83,1,112.5,2|2,0:0|3:2,0:0:0:0:
363,54,81821,2,0,L|484:46,1,112.5,2|2,0:0|3:2,0:0:0:0:
169,103,82263,6,0,P|88:102|49:240,1,225,2|2,0:0|0:0,0:0:0:0:
333,261,82924,1,2,3:2:0:0:
158,193,83145,1,2,0:0:0:0:
444,133,83366,6,0,L|356:133,1,56.25,14|8,0:0|0:0,0:0:0:0:
214,86,83586,2,0,L|119:84,1,56.25,2|2,3:2|3:2,0:0:0:0:
350,64,83807,2,0,L|438:62,1,56.25,10|8,3:2|3:2,0:0:0:0:
189,171,84027,2,0,L|101:168,1,56.25,10|8,0:0|0:0,0:0:0:0:
362,121,84248,6,0,L|481:114,1,112.5,14|2,0:0|3:2,0:0:0:0:
170,171,84689,2,0,L|166:89,1,56.25,14|2,0:0|0:0,0:0:0:0:
342,58,85020,1,2,0:0:0:0:
170,171,85241,1,2,0:0:0:0:
342,58,85461,1,2,0:0:0:0:
87,258,85571,2,0,L|84:129,1,112.5,2|10,3:2|0:0,0:0:0:0:
396,92,86233,5,2,3:2:0:0:
206,77,86454,2,0,L|288:79,1,56.25,10|2,3:2|3:2,0:0:0:0:
439,203,86785,1,2,0:0:0:0:
262,78,87005,1,2,0:0:0:0:
439,203,87226,1,2,0:0:0:0:
371,180,87336,1,10,3:2:0:0:
58,125,87557,5,14,3:2:0:0:
