osu file format v14

[General]
AudioFilename: audio.mp3
AudioLeadIn: 0
PreviewTime: 9358
Countdown: 0
SampleSet: Soft
StackLeniency: 0.7
Mode: 2
LetterboxInBreaks: 0
WidescreenStoryboard: 1

[Editor]
DistanceSpacing: 0.7
BeatDivisor: 4
GridSize: 32
TimelineZoom: 1

[Metadata]
Title:COLORS (TV Size)
TitleUnicode:COLORS (TV Size)
Artist:FLOW
ArtistUnicode:FLOW
Creator:Secre
Version:Cup
Source:コードギアス 反逆のルルーシュ
Tags:chickenbible -joni- bastian jorkseljund code geass lelouch of the rebellion hangyaku no jibun wo aeril anime japanese rock j-rock op opening 1 one jrock male vocals KOHSHI Asakawa Koshi TAKE Takeshi 浅川岳史 浅川甲史 KEIGO Hayashi 林圭吾 GOT'S Gotou Koutarou 後藤康太郎 IWASAKI Hiroshi 岩崎博詞 KOICHI TSUTAYA 蔦谷好位置 Koudo Giasu: Ruruushu
BeatmapID:4331785
BeatmapSetID:1985133

[Difficulty]
HPDrainRate:2
CircleSize:2.5
OverallDifficulty:6
ApproachRate:6
SliderMultiplier:1.69
SliderTickRate:1

[Events]
//Background and Video events
0,0,"omg fauna.jpg",0,0
//Break Periods
//Storyboard Layer 0 (Background)
//Storyboard Layer 1 (Fail)
//Storyboard Layer 2 (Pass)
//Storyboard Layer 3 (Foreground)
//Storyboard Layer 4 (Overlay)
//Storyboard Sound Samples

[TimingPoints]
3072,441.176470588235,4,2,0,60,1,0
3292,-100,4,2,0,50,0,0
9689,-100,4,2,0,40,0,0
10130,-100,4,2,0,70,0,1
11674,-100,4,2,0,70,0,1
13660,-100,4,2,0,70,0,1
18954,-100,4,2,0,70,0,1
24248,-100,4,2,0,50,0,0
36380,-100,4,2,0,50,0,0
38145,-100,4,2,0,60,0,0
52483,-100,4,2,0,50,0,0
58219,-100,4,2,0,50,0,0
58660,-100,4,2,0,60,0,0
59542,-100,4,2,0,70,0,1
61086,-100,4,2,0,70,0,1
63071,-100,4,2,0,70,0,1
66601,-100,4,2,0,70,0,1
71233,-100,4,2,0,70,0,1
73660,-100,4,2,0,60,0,0
74101,-100,4,2,0,70,0,1
75204,-100,4,2,0,70,0,1
77189,-100,4,2,0,70,0,1
87557,-100,4,2,0,70,0,0

[Colours]
Combo1 : 224,220,58
Combo2 : 43,249,95
Combo3 : 234,49,49

[HitObjects]
256,192,1307,12,0,2630,0:0:0:0:
220,121,3071,6,0,P|282:126|318:238,1,169,4|2,3:2|0:0,0:0:0:0:
190,256,3844,2,0,L|186:160,1,84.5,2|2,0:0|0:0,0:0:0:0:
295,117,4395,2,0,L|386:113,1,84.5,2|2,0:0|0:0,0:0:0:0:
291,121,4836,6,0,P|230:126|194:238,1,169,4|2,3:2|0:0,0:0:0:0:
322,256,5609,2,0,L|326:160,1,84.5,2|2,0:0|0:0,0:0:0:0:
217,117,6160,2,0,L|126:113,1,84.5,2|2,0:0|0:0,0:0:0:0:
220,121,6601,6,0,P|282:126|318:238,1,169,4|2,3:2|0:0,0:0:0:0:
190,256,7374,2,0,L|83:259,1,84.5,2|2,0:0|0:0,0:0:0:0:
190,256,7925,2,0,L|189:144,1,84.5,2|2,0:0|0:0,0:0:0:0:
279,125,8366,6,0,L|379:123,2,84.5,10|8|10,0:0|0:0|0:0,0:0:0:0:
193,129,9027,1,10,0:0:0:0:
193,129,9469,2,0,L|282:119,1,84.5
440,105,10130,6,0,L|443:293,1,169,6|2,3:2|3:0,0:0:0:0:
269,273,11013,2,0,L|169:271,1,84.5,2|2,3:0|0:0,0:0:0:0:
347,172,11674,6,0,P|422:179|457:266,1,169,2|2,0:0|0:0,0:0:0:0:
287,241,12557,2,0,P|239:237|195:348,1,169,2|2,0:0|0:0,0:0:0:0:
341,320,13439,1,2,0:0:0:0:
258,235,13660,6,0,L|257:50,1,169,2|0,3:0|3:0,0:0:0:0:
96,88,14542,2,0,L|279:76,1,169,2|2,3:0|3:0,0:0:0:0:
264,76,15204,1,2,0:0:0:0:
101,174,15645,6,0,L|101:86,1,84.5,2|2,0:0|3:0,0:0:0:0:
187,52,16086,1,2,0:0:0:0:
335,57,16527,1,2,0:0:0:0:
335,57,16969,1,2,3:2:0:0:
254,57,17189,6,0,L|255:231,1,169,6|2,3:2|3:0,0:0:0:0:
340,260,17851,1,2,0:0:0:0:
505,195,18292,1,2,0:0:0:0:
340,260,18733,6,0,L|151:261,1,169,2|2,0:0|0:0,0:0:0:0:
261,197,19395,2,0,L|263:108,1,84.5,2|2,3:0|0:0,0:0:0:0:
175,97,19836,2,0,L|175:-5,1,84.5,10|10,3:0|3:0,0:0:0:0:
261,12,20277,1,10,3:0:0:0:
443,40,20719,6,0,P|449:117|351:149,1,169,4|2,3:2|0:0,0:0:0:0:
250,165,21491,2,0,L|251:278,1,84.5,2|2,0:0|0:0,0:0:0:0:
365,295,22042,2,0,L|474:292,1,84.5,2|2,0:0|0:0,0:0:0:0:
365,295,22483,6,0,L|364:191,1,84.5,4|2,3:2|0:0,0:0:0:0:
279,177,22924,1,6,0:0:0:0:
156,122,23255,2,0,L|155:222,1,84.5,2|2,0:0|0:0,0:0:0:0:
279,247,23807,2,0,L|370:240,1,84.5,2|10,0:0|0:0,0:0:0:0:
279,247,24248,5,0,3:0:0:0:
129,183,24689,2,0,L|128:2,1,169,2|2,3:2|3:2,0:0:0:0:
280,43,25571,2,0,L|370:33,1,84.5,2|2,3:2|0:0,0:0:0:0:
280,43,26013,6,0,P|236:43|201:154,1,169,2|2,3:2|3:2,0:0:0:0:
368,142,26895,2,0,L|367:321,1,169,2|2,3:2|3:2,0:0:0:0:
205,304,27777,6,0,P|295:301|393:84,1,338,2|0,3:2|3:0,0:0:0:0:
233,100,29101,2,0,L|233:205,1,84.5,2|2,3:2|0:0,0:0:0:0:
318,227,29542,6,0,L|490:230,2,169,2|0|0,3:2|3:0|3:0,0:0:0:0:
145,158,30866,1,8,0:0:0:0:
319,131,31307,5,4,3:2:0:0:
319,131,31748,2,0,L|136:131,1,169,2|2,3:2|3:2,0:0:0:0:
317,170,32630,2,0,L|316:274,1,84.5,2|2,3:2|0:0,0:0:0:0:
233,286,33071,6,0,P|155:283|116:370,1,169,2|2,3:2|3:2,0:0:0:0:
287,187,33954,2,0,P|345:189|368:292,1,169,2|2,3:2|3:2,0:0:0:0:
206,239,34836,6,0,P|156:221|222:17,1,338,0|0,3:0|3:0,0:0:0:0:
391,63,36160,1,0,3:0:0:0:
308,70,36380,6,0,L|308:253,1,169,2|2,0:0|3:2,0:0:0:0:
223,258,37042,1,2,3:2:0:0:
54,171,37483,1,0,3:0:0:0:
223,258,37924,1,8,0:0:0:0:
138,205,38145,1,2,0:0:0:0:
61,164,38366,6,0,L|63:57,1,84.5,4|2,3:0|0:0,0:0:0:0:
214,66,39027,2,0,L|311:60,2,84.5,2|2|2,0:0|0:0|3:0,0:0:0:0:
62,116,39910,6,0,L|62:224,2,84.5,2|2|2,0:0|3:0|0:0,0:0:0:0:
231,204,40792,1,2,0:0:0:0:
315,203,41012,1,2,0:0:0:0:
399,202,41233,1,2,3:0:0:0:
231,204,41674,6,0,L|227:103,2,84.5,2|2|2,0:0|3:0|0:0,0:0:0:0:
394,82,42557,2,0,L|489:79,2,84.5,2|2|2,0:0|0:0|3:0,0:0:0:0:
231,160,43439,1,2,0:0:0:0:
309,113,43660,6,0,L|310:20,1,84.5,2|2,3:0|0:0,0:0:0:0:
231,160,44101,1,10,0:0:0:0:
151,160,44321,2,0,P|105:139|162:60,1,169,2|0,0:0|3:0,0:0:0:0:
235,49,44983,1,10,0:0:0:0:
390,47,45424,6,0,L|392:149,1,84.5,4|2,3:0|0:0,0:0:0:0:
231,201,46086,2,0,L|145:198,2,84.5,2|2|2,0:0|0:0|3:0,0:0:0:0:
390,115,46969,1,2,0:0:0:0:
305,111,47189,5,2,3:0:0:0:
221,108,47410,1,2,0:0:0:0:
390,115,47851,2,0,L|390:204,2,84.5,2|2|2,0:0|0:0|3:0,0:0:0:0:
225,232,48733,1,2,0:0:0:0:
307,177,48954,6,0,L|314:0,1,169,2|10,3:0|0:0,0:0:0:0:
230,29,49616,2,0,L|55:34,1,169,2|2,0:0|3:0,0:0:0:0:
231,98,50498,6,0,P|293:103|325:214,1,169,2|0,0:0|0:0,0:0:0:0:
248,214,51160,1,10,0:0:0:0:
160,152,51380,2,0,L|157:44,1,84.5,2|8,0:0|3:0,0:0:0:0:
320,43,52042,1,8,3:0:0:0:
158,70,52483,5,6,3:0:0:0:
86,107,52703,1,2,0:0:0:0:
83,187,52924,1,2,0:0:0:0:
152,229,53144,1,2,0:0:0:0:
319,179,53586,2,0,L|323:74,1,84.5,2|2,0:0|0:0,0:0:0:0:
239,75,54027,1,2,3:0:0:0:
81,148,54469,5,2,0:0:0:0:
165,147,54689,1,2,0:0:0:0:
249,147,54910,1,2,3:0:0:0:
418,148,55351,1,2,3:0:0:0:
333,147,55571,1,2,0:0:0:0:
249,147,55792,1,2,3:0:0:0:
333,147,56013,6,0,L|334:248,1,84.5,2|2,3:0|0:0,0:0:0:0:
247,249,56454,1,2,0:0:0:0:
161,241,56674,1,2,3:0:0:0:
318,127,57116,2,0,L|319:218,1,84.5,8|8,3:0|3:0,0:0:0:0:
227,259,57557,6,0,P|119:248|86:398,1,253.5,4|0,0:0|0:0,0:0:0:0:
234,307,58660,1,8,0:0:0:0:
154,246,58880,1,8,3:0:0:0:
234,307,59101,2,0,L|236:191,1,84.5,8|8,3:0|3:0,0:0:0:0:
149,186,59542,6,0,P|96:162|168:105,1,169,6|2,0:0|3:2,0:0:0:0:
308,91,60424,2,0,L|395:88,1,84.5,2|2,3:2|0:0,0:0:0:0:
232,181,61086,6,0,L|57:174,1,169,2|2,0:0|0:0,0:0:0:0:
246,132,61969,2,0,L|421:125,2,169,2|2|2,0:0|0:0|0:0,0:0:0:0:
158,123,63071,6,0,L|157:323,1,169,2|2,3:2|3:2,0:0:0:0:
316,304,63954,2,0,L|502:292,1,169,2|2,3:2|3:2,0:0:0:0:
396,225,64616,1,2,0:0:0:0:
231,161,65057,6,0,L|231:66,1,84.5,2|2,0:0|3:2,0:0:0:0:
318,63,65498,2,0,P|381:66|401:162,1,169,2|2,0:0|0:0,0:0:0:0:
321,165,66160,2,0,L|317:270,1,84.5,2|8,3:2|3:0,0:0:0:0:
404,288,66601,6,0,P|451:269|392:192,1,169,6|2,0:0|3:2,0:0:0:0:
322,172,67263,1,2,0:0:0:0:
160,109,67704,1,2,0:0:0:0:
160,109,68145,1,2,0:0:0:0:
247,120,68366,6,0,L|246:293,1,169,2|2,3:2|3:2,0:0:0:0:
161,308,69027,1,2,0:0:0:0:
7,185,69469,1,2,0:0:0:0:
7,185,69910,1,2,0:0:0:0:
95,194,70130,6,0,L|96:381,1,169,6|2,3:2|3:2,0:0:0:0:
259,275,71013,1,2,3:2:0:0:
346,206,71233,2,0,L|350:111,1,84.5,2|2,0:0|3:2,0:0:0:0:
258,120,71674,6,0,L|151:119,2,84.5,2|6|14,0:0|3:2|0:2,0:0:0:0:
341,118,72336,1,6,3:2:0:0:
491,113,72777,1,10,3:2:0:0:
416,116,72998,1,10,3:2:0:0:
341,118,73219,2,0,L|339:212,1,84.5,10|10,3:2|3:2,0:0:0:0:
254,242,73660,6,0,L|60:234,1,169,6|6,0:0|0:0,0:0:0:0:
254,162,74542,2,0,L|346:160,1,84.5,2|2,3:2|0:0,0:0:0:0:
171,148,75204,6,0,P|126:123|193:44,1,169,2|2,0:0|0:0,0:0:0:0:
326,71,76086,2,0,L|499:67,2,169,2|2|2,0:0|0:0|0:0,0:0:0:0:
240,153,77189,6,0,L|445:149,1,169,6|2,3:2|3:2,0:0:0:0:
235,150,78071,2,0,L|53:147,1,169,2|2,3:2|3:2,0:0:0:0:
151,87,78733,1,2,0:0:0:0:
316,86,79174,5,2,0:0:0:0:
234,61,79395,1,2,3:2:0:0:
151,87,79616,2,0,L|152:264,1,169,2|2,0:0|0:0,0:0:0:0:
236,279,80277,2,0,L|329:274,1,84.5,2|10,3:2|3:2,0:0:0:0:
236,279,80719,6,0,P|179:253|237:198,1,169,6|6,3:2|0:0,0:0:0:0:
323,192,81380,1,2,0:0:0:0:
480,153,81821,1,2,0:0:0:0:
308,148,82263,6,0,L|103:143,1,169,2|2,0:0|0:0,0:0:0:0:
226,201,82924,2,0,L|221:311,1,84.5,2|2,3:2|0:0,0:0:0:0:
138,306,83366,2,0,L|140:210,1,84.5,14|2,0:0|3:2,0:0:0:0:
222,162,83807,1,10,3:2:0:0:
306,139,84027,1,10,0:0:0:0:
222,162,84248,5,14,0:0:0:0:
62,109,84689,1,14,0:0:0:0:
179,106,85020,2,0,L|181:208,1,84.5,2|2,0:0|0:0,0:0:0:0:
296,220,85571,2,0,L|411:216,1,84.5,2|10,3:2|0:0,0:0:0:0:
219,134,86233,6,0,L|222:38,1,84.5,2|10,3:2|3:2,0:0:0:0:
340,41,86785,2,0,L|445:39,1,84.5,2|2,0:0|0:0,0:0:0:0:
301,86,87336,6,0,L|197:87,1,84.5,10|14,3:2|3:2,0:0:0:0:
