osu file format v14

[General]
AudioFilename: audio.mp3
AudioLeadIn: 0
PreviewTime: 52364
Countdown: 0
SampleSet: None
StackLeniency: 0.3
Mode: 0
LetterboxInBreaks: 0
WidescreenStoryboard: 0

[Editor]
Bookmarks: 10121,24239,38356,52474,59533,66592,73651,84239,85673
DistanceSpacing: 1
BeatDivisor: 4
GridSize: 16
TimelineZoom: 2.799999

[Metadata]
Title:COLORS
TitleUnicode:COLORS
Artist:FLOW
ArtistUnicode:FLOW
Creator:RugMunch
Version:Rebellion
Source:
Tags:tv size
BeatmapID:1566881
BeatmapSetID:742910

[Difficulty]
HPDrainRate:6
CircleSize:4
OverallDifficulty:9
ApproachRate:9.5
SliderMultiplier:3.5
SliderTickRate:1

[Events]
//Background and Video events
0,0,"86652a5aea0369013b24f6c314df9bdf4e7471e1.jpg",0,0
Video,0,"I LOVE ANIME!!!!!!!!!!!.avi"
//Break Periods
//Storyboard Layer 0 (Background)
//Storyboard Layer 1 (Fail)
//Storyboard Layer 2 (Pass)
//Storyboard Layer 3 (Foreground)
//Storyboard Sound Samples

[TimingPoints]
3062.84702694119,441.176470588235,4,2,1,40,1,0
9459,-200,4,2,1,30,0,0
9570,-200,4,2,1,5,0,0
9680,-166.666666666667,4,2,1,30,0,0
9790,-166.666666666667,4,2,1,5,0,0
9901,-125,4,2,1,30,0,0
10011,-200,4,2,1,5,0,0
10121,-95.2380952380952,4,2,1,80,0,0
10231,-95.2380952380952,4,2,1,60,0,0
16959,-95.2380952380952,4,2,1,80,0,0
17180,-95.2380952380952,4,2,1,60,0,0
19606,-95.2380952380952,4,2,1,50,0,0
19717,-95.2380952380952,4,2,1,30,0,0
19827,-95.2380952380952,4,2,1,40,0,0
20709,-100,4,2,1,80,0,0
20930,-100,4,2,1,50,0,0
24239,-200,4,2,1,50,0,0
24459,-200,4,2,1,30,0,0
36371,-200,4,2,1,40,0,0
36592,-200,4,2,1,40,0,0
37474,-200,4,2,1,35,0,0
37915,-90.9090909090909,4,2,1,50,0,0
38136,-111.111111111111,4,2,1,40,0,0
38356,-111.111111111111,4,2,1,45,0,0
43651,-100,4,2,1,50,0,0
45415,-111.111111111111,4,2,1,50,0,0
48945,-99.9999999999999,4,2,1,50,0,0
51592,-99.9999999999999,4,2,1,70,0,0
51812,-99.9999999999999,4,2,1,50,0,0
52033,-99.9999999999999,4,2,1,35,0,0
52254,-99.9999999999999,4,2,1,20,0,0
52474,-166.666666666667,4,2,1,30,0,0
52695,-166.666666666667,4,2,1,20,0,0
53467,-166.666666666667,4,2,1,5,0,0
53577,-166.666666666667,4,2,1,20,0,0
54018,-166.666666666667,4,2,1,30,0,0
54459,-166.666666666667,4,2,1,20,0,0
54901,-166.666666666667,4,2,1,30,0,0
55121,-166.666666666667,4,2,1,20,0,0
55342,-166.666666666667,4,2,1,30,0,0
55562,-166.666666666667,4,2,1,20,0,0
55783,-166.666666666667,4,2,1,30,0,0
56004,-166.666666666667,4,2,1,30,0,0
56224,-166.666666666667,4,2,1,20,0,0
56665,-166.666666666667,4,2,1,30,0,0
56886,-166.666666666667,4,2,1,35,0,0
58651,-166.666666666667,4,2,1,50,0,0
58871,-166.666666666667,4,2,1,35,0,0
59533,-86.9565217391304,4,2,1,40,0,0
66592,-100,4,2,1,40,0,0
70121,-86.9565217391304,4,2,1,40,0,0
72327,-80,4,2,1,40,0,0
74092,-83.3333333333333,4,2,1,50,0,0
74533,-90.9090909090909,4,2,1,50,0,0
84239,-76.9230769230769,4,2,1,50,0,0
85783,-50,4,2,1,50,0,0
86555,-45.4545454545455,4,2,1,50,0,0
86776,-40,4,2,1,50,0,0
86996,-10.3092783505155,4,2,1,50,0,0
87327,-18.8323917137476,4,2,1,50,0,0

[Colours]
Combo1 : 219,203,4
Combo2 : 243,33,238

[HitObjects]
85,30,3062,5,4,3:1:0:0:
172,182,3283,6,0,L|156:96,1,87.5,2|0,0:0|0:0,0:0:0:0:
68,192,3504,1,2,0:0:0:0:
68,192,3614,2,0,L|52:278,1,87.5,2|0,0:0|0:0,0:0:0:0:
115,355,3834,2,0,L|131:269,1,87.5,2|0,0:0|0:0,0:0:0:0:
214,259,4055,2,0,L|198:345,1,87.5,2|0,0:0|0:0,0:0:0:0:
176,186,4276,1,2,0:0:0:0:
176,186,4386,2,0,L|160:100,1,87.5,2|0,0:0|0:0,0:0:0:0:
206,29,4606,2,0,P|248:19|289:33,1,87.5,2|0,0:0|0:0,0:0:0:0:
327,107,4827,1,4,3:1:0:0:
455,42,5048,6,0,P|414:28|372:38,1,87.5,2|0,0:0|0:0,0:0:0:0:
414,194,5268,1,2,0:0:0:0:
414,194,5379,2,0,P|423:151|410:111,1,87.5,2|0,0:0|0:0,0:0:0:0:
418,277,5599,2,0,P|459:264|487:231,1,87.5,2|0,0:0|0:0,0:0:0:0:
348,321,5820,2,0,P|379:350|422:358,1,87.5,2|0,0:0|0:0,0:0:0:0:
274,282,6040,1,2,0:0:0:0:
274,282,6151,2,0,P|264:324|278:365,1,87.5,2|0,0:0|0:0,0:0:0:0:
343,236,6371,2,0,P|312:207|270:197,1,87.5,2|0,0:0|0:0,0:0:0:0:
199,241,6592,1,4,3:1:0:0:
214,72,6812,6,0,L|197:158,1,87.5,2|0,0:0|0:0,0:0:0:0:
106,32,7033,1,2,0:0:0:0:
106,32,7143,2,0,L|123:118,1,87.5,2|0,0:0|0:0,0:0:0:0:
34,248,7364,2,0,L|51:162,1,87.5,2|0,0:0|0:0,0:0:0:0:
109,288,7584,2,0,L|126:202,1,87.5,2|0,0:0|0:0,0:0:0:0:
36,332,7805,1,2,0:0:0:0:
111,374,7915,2,0,L|197:359,1,87.5,2|0,0:0|0:0,0:0:0:0:
196,274,8136,2,0,L|109:288,1,87.5,2|0,0:0|0:0,0:0:0:0:
197,359,8356,5,4,1:3:0:0:
270,314,8467,1,0,1:0:0:0:
267,228,8577,1,0,1:0:0:0:
191,187,8687,1,0,1:0:0:0:
188,100,8798,1,0,1:0:0:0:
261,53,8908,1,0,1:0:0:0:
338,92,9018,1,0,1:0:0:0:
265,139,9129,5,0,1:0:0:0:
265,139,9459,6,0,L|325:134,1,43.75,2|0,0:0|0:0,0:0:0:0:
360,23,9680,2,0,L|394:73,1,52.4999983978272,2|0,0:0|0:0,0:0:0:0:
502,190,9901,6,0,L|508:121,1,70,2|0,0:0|0:0,0:0:0:0:
508,121,10121,6,0,B|524:161|524:161|519:210,1,91.8749971961976,4|0,3:1|0:0,0:0:0:0:
382,259,10342,2,0,B|366:219|366:219|371:170,1,91.8749971961976,2|0,0:0|0:0,0:0:0:0:
495,336,10562,2,0,L|276:352,1,183.749994392395,0|2,1:0|0:0,0:0:0:0:
204,278,10893,1,0,0:0:0:0:
204,278,11004,2,0,L|299:270,1,91.8749971961976,4|0,0:3|0:0,0:0:0:0:
146,364,11224,2,0,L|54:356,1,91.8749971961976,2|0,0:0|0:0,0:0:0:0:
14,272,11445,1,0,1:0:0:0:
66,194,11555,1,0,0:0:0:0:
159,200,11665,6,0,L|342:184,1,183.749994392395,2|4,0:0|0:3,0:0:0:0:
420,144,11996,2,0,P|384:106|341:96,1,91.8749971961976,0|2,0:0|0:0,0:0:0:0:
415,230,12217,1,0,0:0:0:0:
415,230,12327,2,0,L|506:222,1,91.8749971961976,0|0,1:0|0:0,0:0:0:0:
346,96,12548,6,0,L|149:112,2,183.749994392395,2|4|2,0:0|0:3|0:0,0:0:0:0:
424,148,13099,1,0,0:0:0:0:
424,148,13209,2,0,L|522:140,1,91.8749971961976,0|0,1:0|0:0,0:0:0:0:
397,14,13430,2,0,L|298:22,1,91.8749971961976,2|0,0:0|0:0,0:0:0:0:
177,197,13651,6,0,P|242:146|224:48,1,183.749994392395,4|2,0:3|0:0,0:0:0:0:
126,22,13981,1,0,0:0:0:0:
71,118,14092,2,0,L|162:110,1,91.8749971961976,0|0,1:0|0:0,0:0:0:0:
268,189,14312,2,0,L|177:197,1,91.8749971961976,2|0,0:0|0:0,0:0:0:0:
85,204,14533,5,4,0:3:0:0:
46,288,14643,1,0,0:0:0:0:
98,363,14754,2,0,L|189:355,1,91.8749971961976,2|0,0:0|0:0,0:0:0:0:
335,248,14974,2,0,P|355:204|344:145,1,91.8749971961976,0|0,1:0|0:0,0:0:0:0:
301,16,15195,2,0,P|281:57|285:103,1,91.8749971961976,2|0,0:0|0:0,0:0:0:0:
484,0,15415,6,0,L|301:16,2,183.749994392395,4|2|4,0:3|0:0|0:3,0:0:0:0:
451,81,15967,1,0,0:0:0:0:
451,81,16077,2,0,L|360:90,1,91.8749971961976,2|0,0:0|0:0,0:0:0:0:
260,170,16298,2,0,L|351:161,1,91.8749971961976,4|0,0:3|0:0,0:0:0:0:
403,236,16518,5,2,0:0:0:0:
365,318,16629,1,2,0:0:0:0:
274,325,16739,2,0,P|283:277|327:232,1,91.8749971961976,4|0,0:3|0:0,0:0:0:0:
456,311,16959,1,8,0:3:0:0:
455,322,17069,1,8,0:3:0:0:
452,333,17180,6,0,L|269:351,1,183.749994392395,4|2,3:1|0:0,0:0:0:0:
215,276,17511,1,0,0:0:0:0:
123,285,17621,2,0,L|31:294,1,91.8749971961976,0|0,1:0|0:0,0:0:0:0:
253,191,17842,2,0,P|289:220|308:273,1,91.8749971961976,2|0,0:0|0:0,0:0:0:0:
269,351,18062,1,4,0:3:0:0:
215,276,18173,1,0,0:0:0:0:
161,201,18283,2,0,L|178:18,1,183.749994392395,2|0,0:0|1:0,0:0:0:0:
270,9,18614,1,0,0:0:0:0:
270,9,18724,6,0,L|261:100,1,91.8749971961976,2|0,0:0|0:0,0:0:0:0:
69,209,18945,2,0,L|78:118,1,91.8749971961976,4|0,0:3|0:0,0:0:0:0:
253,191,19165,2,0,L|244:282,1,91.8749971961976,2|0,0:0|0:0,0:0:0:0:
86,26,19386,1,0,1:0:0:0:
335,151,19606,1,0,1:0:0:0:
332,173,19717,1,0,1:0:0:0:
330,196,19827,5,4,1:3:0:0:
321,287,19937,1,0,1:0:0:0:
394,340,20048,1,8,1:3:0:0:
476,303,20158,1,8,1:3:0:0:
484,213,20268,1,4,1:3:0:0:
410,161,20379,1,4,1:3:0:0:
418,70,20489,1,0,1:0:0:0:
500,31,20599,1,0,1:0:0:0:
492,122,20709,5,4,3:1:0:0:
348,21,20930,6,0,P|303:27|266:55,1,87.5,2|0,0:0|0:0,0:0:0:0:
232,137,21151,1,4,0:3:0:0:
232,137,21261,2,0,L|244:247,1,87.5,2|0,0:0|0:0,0:0:0:0:
147,87,21481,2,0,L|159:197,1,87.5,2|4,0:0|0:3,0:0:0:0:
61,36,21702,2,0,L|71:123,1,87.5,2|0,0:0|0:0,0:0:0:0:
81,212,21923,1,2,0:0:0:0:
81,212,22033,2,0,P|36:206|-1:178,1,87.5,0|0,1:0|0:0,0:0:0:0:
152,258,22254,2,0,P|169:299|163:346,1,87.5,2|0,0:0|1:0,0:0:0:0:
82,311,22474,1,4,0:3:0:0:
147,87,22695,6,0,L|159:197,1,87.5,0|0,1:0|0:0,0:0:0:0:
222,50,22915,1,4,0:3:0:0:
232,137,23026,2,0,L|244:247,1,87.5,2|0,0:0|0:0,0:0:0:0:
303,86,23246,2,0,P|308:34|288:-13,1,87.5,0|4,1:0|0:3,0:0:0:0:
232,137,23467,1,2,0:0:0:0:
311,176,23577,2,0,P|358:154|389:113,1,87.5,0|0,1:0|0:0,0:0:0:0:
386,43,23798,1,4,0:3:0:0:
489,264,24019,5,0,1:0:0:0:
474,177,24129,1,0,1:0:0:0:
458,91,24239,6,0,L|476:-13,1,87.5,4|0,0:1|0:0,0:0:0:0:
407,234,24680,2,0,L|421:320,1,87.5,4|0,0:3|0:0,0:0:0:0:
351,373,25121,2,0,P|296:374|254:352,1,87.5,4|0,0:3|0:0,0:0:0:0:
206,297,25452,1,2,0:0:0:0:
206,297,25562,2,0,P|151:295|109:317,1,87.5,4|0,0:3|0:0,0:0:0:0:
26,384,26004,6,0,B|1:332|1:332|17:201,1,175,4|4,0:3|0:3,0:0:0:0:
66,140,26555,1,0,0:0:0:0:
66,140,26665,2,0,L|111:132,1,43.75
195,118,26886,2,0,L|109:132,1,87.5,4|0,0:3|0:0,0:0:0:0:
176,41,27217,1,0,0:0:0:0:
176,41,27327,2,0,L|219:33,1,43.75,4|0,0:3|0:0,0:0:0:0:
214,195,27548,2,0,L|170:202,1,43.75
297,17,27768,6,0,B|324:75|324:75|304:187,1,175,4|4,0:3|0:3,0:0:0:0:
345,254,28320,1,0,0:0:0:0:
345,254,28430,2,0,B|352:210,1,43.75
415,133,28651,2,0,P|377:112|333:110,1,87.5,4|0,0:3|0:0,0:0:0:0:
451,227,28981,1,0,0:0:0:0:
451,227,29092,2,0,P|488:204|510:167,1,87.5,4|0,0:3|0:0,0:0:0:0:
356,214,29423,1,0,0:0:0:0:
356,214,29533,6,0,B|349:258,1,43.75,4|0,0:3|0:0,0:0:0:0:
404,352,29754,2,0,B|411:308,1,43.75
274,285,29974,1,4,0:3:0:0:
274,285,30084,2,0,B|267:329,1,43.75
211,384,30305,1,0,0:0:0:0:
211,384,30415,2,0,B|224:297,1,87.5,4|0,0:3|0:0,0:0:0:0:
160,118,30856,5,0,1:0:0:0:
122,384,31077,1,0,0:0:0:0:
128,340,31187,1,0,0:0:0:0:
133,296,31298,6,0,P|78:264|8:280,1,131.25,4|0,0:3|0:0,0:0:0:0:
15,275,31739,2,0,B|28:188,1,87.5,4|0,0:3|0:0,0:0:0:0:
151,114,32180,2,0,B|138:201,1,87.5,4|0,0:3|0:0,0:0:0:0:
89,58,32511,1,0,0:0:0:0:
89,58,32621,2,0,P|124:34|167:29,1,87.5,4|0,0:3|0:0,0:0:0:0:
213,263,33062,6,0,B|239:90,1,175,4|4,0:3|0:3,0:0:0:0:
155,118,33614,1,0,0:0:0:0:
155,118,33724,2,0,B|147:170,1,43.75
297,234,33945,2,0,B|310:148,1,87.5,4|0,0:3|0:0,0:0:0:0:
394,119,34276,1,0,0:0:0:0:
394,119,34386,2,0,B|387:162,1,43.75,4|0,0:3|0:0,0:0:0:0:
421,311,34606,1,0,0:0:0:0:
421,311,34717,1,0,0:0:0:0:
421,311,34827,6,0,B|379:287|339:311|339:311|297:335|254:311,2,175,4|4|4,0:3|0:3|0:3,0:0:0:0:
507,348,35820,1,0,0:0:0:0:
507,348,35931,2,0,P|493:370|457:398,1,43.75
404,270,36151,2,0,P|414:290|421:311,1,43.75,4|0,0:3|0:0,0:0:0:0:
297,234,36371,5,0,0:0:0:0:
303,190,36481,1,0,0:0:0:0:
310,147,36591,1,4,0:3:0:0:
277,364,36812,5,4,0:3:0:0:
139,11,37033,1,4,0:3:0:0:
512,67,37254,1,4,0:3:0:0:
310,147,37474,5,8,0:3:0:0:
310,147,37695,1,8,0:3:0:0:
107,227,37915,2,0,L|97:331,1,96.250002937317,0|0,1:0|0:0,0:0:0:0:
200,108,38136,2,0,L|208:187,1,78.7499975967408,2|0,0:0|0:0,0:0:0:0:
88,42,38356,6,0,B|128:63|161:41|161:41|196:20|244:42,1,157.499995193482,4|2,0:3|0:0,0:0:0:0:
309,71,38687,1,0,0:0:0:0:
317,149,38798,2,0,L|309:228,1,78.7499975967408,0|0,1:0|0:0,0:0:0:0:
381,104,39018,2,0,L|389:25,1,78.7499975967408,2|0,0:0|0:0,0:0:0:0:
454,291,39239,2,0,B|458:243|458:243|445:210|445:210|452:137,2,157.499995193482,2|4|0,0:0|0:3|1:0,0:0:0:0:
394,344,39790,1,0,0:0:0:0:
394,343,39901,6,0,P|356:356|318:351,1,78.7499975967408,2|0,0:0|0:0,0:0:0:0:
227,209,40121,2,0,P|256:235|271:271,1,78.7499975967408,4|0,0:3|0:0,0:0:0:0:
140,211,40342,2,0,P|171:141|245:123,1,157.499995193482,2|0,0:0|1:0,0:0:0:0:
314,186,40673,1,0,0:0:0:0:
271,271,40783,2,0,L|192:279,1,78.7499975967408,2|0,0:0|0:0,0:0:0:0:
61,219,41004,2,0,L|140:211,1,78.7499975967408,2|0,0:0|0:0,0:0:0:0:
318,351,41224,6,0,L|161:366,1,157.499995193482,4|0,0:3|1:0,0:0:0:0:
73,369,41555,1,0,0:0:0:0:
73,369,41665,2,0,P|80:329|104:299,1,78.7499975967408,2|0,0:0|0:0,0:0:0:0:
271,271,41886,2,0,P|234:283|195:279,1,78.7499975967408,4|0,0:3|0:0,0:0:0:0:
154,54,42106,6,0,L|136:238,1,157.499995193482,2|0,0:0|1:0,0:0:0:0:
64,77,42437,1,0,0:0:0:0:
64,77,42548,2,0,P|61:38|76:2,1,78.7499975967408,2|0,0:0|0:0,0:0:0:0:
230,0,42768,2,0,P|246:36|244:75,1,78.7499975967408,2|0,0:0|0:0,0:0:0:0:
138,210,42989,6,0,L|146:132,1,78.7499975967408,4|0,0:3|0:0,0:0:0:0:
244,74,43209,2,0,L|236:152,1,78.7499975967408,0|0,1:0|0:0,0:0:0:0:
307,202,43430,1,2,0:0:0:0:
386,165,43540,1,0,0:0:0:0:
392,77,43651,6,0,P|345:87|311:120,1,87.5,4|0,0:3|0:0,0:0:0:0:
380,253,43871,2,0,P|427:243|461:210,1,87.5,2|0,0:0|0:0,0:0:0:0:
307,202,44092,2,0,L|297:288,1,87.5,0|0,1:0|0:0,0:0:0:0:
465,128,44312,2,0,L|473:40,1,87.5,2|0,0:0|0:0,0:0:0:0:
380,253,44533,2,0,L|371:340,1,87.5,2|0,0:0|0:0,0:0:0:0:
291,379,44754,1,4,0:3:0:0:
218,330,44864,1,0,0:0:0:0:
223,242,44974,2,0,L|232:155,1,87.5,0|0,1:0|0:0,0:0:0:0:
298,289,45195,1,2,0:0:0:0:
218,330,45305,1,0,0:0:0:0:
142,281,45415,6,0,L|158:124,2,157.499995193482,4|2|0,0:3|0:0|1:0,0:0:0:0:
61,320,45967,1,0,0:0:0:0:
61,320,46077,2,0,L|69:241,1,78.7499975967408,2|0,0:0|0:0,0:0:0:0:
231,163,46298,2,0,L|223:242,1,78.7499975967408,2|0,0:0|0:0,0:0:0:0:
70,109,46518,6,0,P|114:46|190:41,1,157.499995193482,4|0,0:3|1:0,0:0:0:0:
253,87,46849,1,0,0:0:0:0:
310,171,46959,2,0,L|231:163,1,78.7499975967408,2|0,0:0|0:0,0:0:0:0:
231,11,47180,2,0,L|310:3,1,78.7499975967408,4|0,0:3|0:0,0:0:0:0:
494,95,47401,6,0,B|453:69|411:88|411:88|377:103|338:83,1,157.499995193482,2|0,0:0|1:0,0:0:0:0:
415,238,47731,1,0,0:0:0:0:
415,238,47842,2,0,P|436:205|443:167,1,78.7499975967408,2|0,0:0|0:0,0:0:0:0:
331,257,48062,2,0,P|347:292|377:317,1,78.7499975967408,2|0,0:0|0:0,0:0:0:0:
415,238,48283,5,4,0:3:0:0:
355,175,48393,1,0,0:0:0:0:
270,194,48504,2,0,P|247:227|241:265,1,78.7499975967408,0|0,1:0|0:0,0:0:0:0:
475,302,48724,2,0,P|497:269|504:230,1,78.7499975967408,2|0,0:0|0:0,0:0:0:0:
214,341,48945,6,0,B|258:360|302:322|302:322|340:298|377:318,1,175,4|2,3:1|0:0,0:0:0:0:
245,269,49276,1,0,0:0:0:0:
245,269,49386,2,0,P|201:265|163:286,1,87.5,0|0,1:0|0:0,0:0:0:0:
54,384,49606,6,0,B|60:320|60:320|48:286|48:286|55:212,1,175,2|2,0:0|0:0,0:0:0:0:
67,125,49937,1,0,0:0:0:0:
148,92,50048,2,0,P|84:37|4:63,1,175,4|0,0:3|1:0,0:0:0:0:
67,125,50379,1,0,0:0:0:0:
136,178,50489,6,0,B|223:168,1,87.5,2|0,0:0|0:0,0:0:0:0:
316,68,50709,2,0,B|228:58,1,87.5,4|0,0:3|0:0,0:0:0:0:
383,153,50930,2,0,P|415:117|423:78,1,87.5,2|0,0:0|0:0,0:0:0:0:
234,267,51151,2,0,P|249:312|278:339,1,87.5,0|0,1:0|0:0,0:0:0:0:
342,253,51371,2,0,P|389:262|426:250,1,87.5,2|0,0:0|0:0,0:0:0:0:
316,68,51592,5,8,0:3:0:0:
277,338,51812,1,8,0:3:0:0:
383,153,52033,5,8,0:3:0:0:
222,168,52254,1,8,0:3:0:0:
457,334,52474,6,0,P|497:302|513:253,1,104.999996795654,4|0,3:1|0:0,0:0:0:0:
426,251,52915,1,0,0:0:0:0:
366,383,53136,2,0,B|357:307|357:307|329:274|341:224,1,157.499995193482
352,208,53577,2,0,P|368:160|348:103,1,104.999996795654
284,41,54018,1,4,0:3:0:0:
280,158,54239,6,0,L|275:53,1,104.999996795654,4|0,0:3|0:0,0:0:0:0:
183,215,54681,1,0,0:0:0:0:
187,110,54901,1,12,0:3:0:0:
284,263,55121,1,0,0:0:0:0:
280,158,55342,5,4,0:3:0:0:
187,110,55562,1,0,0:0:0:0:
98,166,55783,1,4,0:3:0:0:
194,320,56004,6,0,B|184:331|184:331|174:232,1,104.999996795654,4|0,0:3|0:0,0:0:0:0:
79,245,56445,2,0,B|89:256|89:256|98:166,1,104.999996795654,0|4,0:0|0:3,0:0:0:0:
256,0,56886,5,0,1:0:0:0:
256,0,57106,1,8,0:3:0:0:
256,192,57326,1,8,0:3:0:0:
256,384,57547,1,4,3:1:0:0:
256,192,57575,12,0,58430,0:0:0:0:
148,315,58651,5,0,1:0:0:0:
77,251,58761,1,8,1:3:0:0:
96,159,58871,1,8,0:3:0:0:
185,130,58981,1,8,0:3:0:0:
256,192,59092,1,12,0:3:0:0:
236,283,59202,1,12,0:3:0:0:
317,330,59312,1,12,0:3:0:0:
385,269,59423,1,12,0:3:0:0:
348,186,59533,6,0,B|327:158|327:158|344:336,1,201.250003838539,4|0,3:1|0:0,0:0:0:0:
414,382,59864,1,0,0:0:0:0:
486,310,59974,2,0,B|477:209,1,100.62500191927,0|0,1:0|0:0,0:0:0:0:
339,85,60195,1,2,0:0:0:0:
348,186,60305,1,0,0:0:0:0:
430,128,60415,6,0,P|439:78|424:31,1,100.62500191927,4|0,0:3|0:0,0:0:0:0:
248,42,60636,2,0,P|239:92|254:139,1,100.62500191927,2|0,0:0|0:0,0:0:0:0:
339,85,60856,1,0,1:0:0:0:
248,42,60967,1,0,0:0:0:0:
159,98,61077,6,0,B|141:298,1,201.250003838539,2|4,0:0|0:3,0:0:0:0:
51,365,61408,1,0,0:0:0:0:
51,365,61518,2,0,B|59:264,1,100.62500191927,2|0,0:0|0:0,0:0:0:0:
232,216,61739,2,0,B|223:316,1,100.62500191927,0|0,1:0|0:0,0:0:0:0:
305,373,61959,1,2,0:0:0:0:
395,330,62070,1,0,0:0:0:0:
402,230,62180,2,0,B|353:237|353:237|314:270,1,100.62500191927,4|0,0:3|0:0,0:0:0:0:
475,389,62401,6,0,B|516:331|516:331|494:188,1,201.250003838539,2|0,0:0|1:0,0:0:0:0:
453,113,62731,1,0,0:0:0:0:
355,106,62842,2,0,B|346:206,1,100.62500191927,2|0,0:0|0:0,0:0:0:0:
218,66,63062,6,0,B|276:71|311:28|311:28|360:5|403:32,2,201.250003838539,4|2|0,0:3|0:0|1:0,0:0:0:0:
137,9,63614,1,0,0:0:0:0:
137,9,63724,2,0,P|118:56|126:105,1,100.62500191927,2|0,0:0|0:0,0:0:0:0:
268,185,63945,2,0,B|216:153|169:183|169:183|124:209|76:179,1,201.250003838539,4|2,0:3|0:0,0:0:0:0:
207,354,64276,1,0,0:0:0:0:
207,354,64386,2,0,P|225:307|217:258,1,100.62500191927,0|0,1:0|0:0,0:0:0:0:
116,295,64606,1,2,0:0:0:0:
207,354,64717,1,0,0:0:0:0:
303,304,64827,6,0,B|294:204,1,100.62500191927,4|0,0:3|0:0,0:0:0:0:
468,81,65048,2,0,B|459:181,1,100.62500191927,2|0,0:0|0:0,0:0:0:0:
387,368,65268,1,0,1:0:0:0:
387,368,65379,1,0,0:0:0:0:
387,368,65489,6,0,B|369:168,1,201.250003838539,2|4,0:0|0:3,0:0:0:0:
300,121,65820,1,0,0:0:0:0:
225,158,65930,1,2,0:0:0:0:
219,241,66040,1,0,0:0:0:0:
144,276,66151,2,0,P|86:264|54:231,1,100.62500191927,0|0,1:0|0:0,0:0:0:0:
209,64,66371,5,8,0:3:0:0:
221,66,66481,1,8,0:3:0:0:
230,74,66592,2,0,B|164:100|164:100|60:91,1,175,4|2,3:1|0:0,0:0:0:0:
17,1,66923,1,0,0:0:0:0:
17,1,67033,2,0,L|104:7,1,87.5,0|0,1:0|0:0,0:0:0:0:
205,192,67254,2,0,L|30:178,1,175,2|4,0:0|0:3,0:0:0:0:
271,133,67584,1,0,0:0:0:0:
271,133,67695,2,0,P|286:227|219:280,1,175,2|0,0:0|1:0,0:0:0:0:
183,362,68026,1,0,0:0:0:0:
183,362,68136,2,0,P|150:332|136:291,1,87.5,2|0,0:0|0:0,0:0:0:0:
408,263,68356,6,0,L|233:276,1,175,4|2,0:3|0:0,0:0:0:0:
432,348,68687,1,0,0:0:0:0:
432,348,68798,2,0,P|479:314|497:264,1,87.5,0|0,1:0|0:0,0:0:0:0:
386,181,69018,2,0,P|387:224|408:263,1,87.5,2|0,0:0|0:0,0:0:0:0:
446,122,69239,1,4,0:3:0:0:
364,99,69349,1,0,0:0:0:0:
303,158,69459,6,0,L|290:333,1,175,2|0,0:0|1:0,0:0:0:0:
211,370,69790,1,0,0:0:0:0:
140,321,69901,1,2,0:0:0:0:
146,235,70011,1,0,1:0:0:0:
152,149,70121,6,0,B|111:122|111:122|58:125,1,100.62500191927,4|0,0:3|0:0,0:0:0:0:
229,111,70342,1,2,0:0:0:0:
229,111,70452,2,0,B|232:63|232:63|203:18,1,100.62500191927,2|0,0:0|1:0,0:0:0:0:
223,197,70673,1,2,0:0:0:0:
303,158,70783,2,0,L|311:44,1,100.62500191927,2|0,0:0|0:0,0:0:0:0:
401,13,71004,1,4,0:3:0:0:
486,68,71114,1,0,0:0:0:0:
394,109,71224,6,0,P|385:60|401:13,1,100.62500191927,2|0,0:0|0:0,0:0:0:0:
383,211,71445,2,0,P|349:174|303:157,1,100.62500191927,0|0,1:0|0:0,0:0:0:0:
213,310,71665,2,0,P|246:274|293:258,1,100.62500191927,2|0,0:0|0:0,0:0:0:0:
507,370,71886,5,4,3:1:0:0:
395,110,72106,1,2,1:2:0:0:
304,359,72327,5,4,0:3:0:0:
213,310,72437,2,0,B|165:291|165:291|109:303,1,109.375,2|2,0:0|0:0,0:0:0:0:
38,361,72658,1,8,0:3:0:0:
36,348,72768,1,4,1:3:0:0:
56,247,72879,1,0,1:0:0:0:
153,213,72989,1,8,1:3:0:0:
172,111,73099,1,8,0:3:0:0:
93,43,73209,2,0,L|76:151,1,109.375,12|8,1:3|0:3,0:0:0:0:
188,2,73430,2,0,L|172:111,1,109.375,4|8,1:3|1:3,0:0:0:0:
158,376,73651,5,4,3:1:0:0:
267,70,73871,5,8,0:3:0:0:
250,178,73981,1,8,0:3:0:0:
233,286,74092,2,0,B|301:330|301:330|429:315,1,209.999993591309,4|2,1:0|0:0,0:0:0:0:
508,219,74423,1,0,0:0:0:0:
508,219,74533,2,0,B|403:230,1,96.250002937317,4|0,0:3|0:0,0:0:0:0:
250,178,74754,2,0,B|345:166,1,96.250002937317,2|0,0:0|0:0,0:0:0:0:
382,77,74974,1,0,1:0:0:0:
323,1,75084,1,0,0:0:0:0:
227,14,75195,6,0,B|26:38,1,192.500005874634,2|4,0:0|0:3,0:0:0:0:
9,125,75526,2,0,P|36:81|26:14,1,96.250002937317,0|2,0:0|0:0,0:0:0:0:
150,221,75746,1,0,0:0:0:0:
150,221,75856,2,0,B|138:125,1,96.250002937317,0|0,1:0|0:0,0:0:0:0:
0,272,76077,2,0,B|44:248|109:276|74:300|138:327|197:297,2,192.500005874634,2|4|0,0:0|0:3|0:0,0:0:0:0:
25,358,76629,1,0,0:0:0:0:
25,358,76739,2,0,P|0:318|0:271,1,96.250002937317,0|0,1:0|0:0,0:0:0:0:
150,221,76959,2,0,B|246:233,1,96.250002937317,2|0,0:0|1:0,0:0:0:0:
396,183,77180,6,0,P|326:242|347:332,1,192.500005874634,4|2,3:1|0:0,0:0:0:0:
431,357,77511,1,0,0:0:0:0:
506,284,77621,2,0,B|410:272,1,96.250002937317,0|0,1:0|0:0,0:0:0:0:
300,172,77842,2,0,B|396:184,1,96.250002937317,2|0,0:0|0:0,0:0:0:0:
454,107,78062,1,4,0:3:0:0:
417,19,78173,1,0,0:0:0:0:
322,7,78283,1,2,0:0:0:0:
264,83,78393,1,0,0:0:0:0:
168,70,78504,6,0,P|183:24|219:-6,1,96.250002937317,0|0,1:0|0:0,0:0:0:0:
322,7,78724,1,2,0:0:0:0:
358,95,78834,1,0,0:0:0:0:
300,172,78945,6,0,B|231:202|231:202|115:183,2,192.500005874634,4|2|4,0:3|0:0|0:3,0:0:0:0:
243,288,79496,1,0,0:0:0:0:
243,288,79606,2,0,L|149:273,1,96.250002937317,2|0,0:0|0:0,0:0:0:0:
81,93,79827,2,0,L|175:108,1,96.250002937317,4|0,0:3|0:0,0:0:0:0:
115,183,80048,1,2,0:0:0:0:
81,93,80158,1,0,0:0:0:0:
141,18,80268,2,0,P|186:12|232:29,1,96.250002937317,0|0,1:0|0:0,0:0:0:0:
24,201,80489,1,8,0:3:0:0:
22,184,80599,1,8,0:3:0:0:
21,167,80709,6,0,L|233:200,1,192.500005874634,4|2,3:1|0:0,0:0:0:0:
243,288,81040,1,0,0:0:0:0:
339,308,81151,2,0,L|434:293,1,96.250002937317,0|0,1:0|0:0,0:0:0:0:
146,268,81371,2,0,P|145:315|169:356,1,96.250002937317,2|0,0:0|0:0,0:0:0:0:
273,382,81592,1,4,0:3:0:0:
243,288,81702,1,0,0:0:0:0:
211,196,81812,2,0,L|240:5,1,192.500005874634,2|0,0:0|1:0,0:0:0:0:
342,0,82143,1,0,0:0:0:0:
342,0,82254,6,0,L|327:95,1,96.250002937317,2|0,0:0|0:0,0:0:0:0:
109,201,82475,2,0,L|124:106,1,96.250002937317,4|0,0:3|0:0,0:0:0:0:
305,209,82695,2,0,L|290:304,1,96.250002937317,2|0,0:0|0:0,0:0:0:0:
143,19,82915,1,0,1:0:0:0:
443,171,83136,1,2,0:0:0:0:
429,170,83246,1,0,0:0:0:0:
416,169,83356,5,0,1:0:0:0:
327,95,83467,1,0,1:0:0:0:
218,135,83577,1,8,0:3:0:0:
198,249,83687,1,8,0:3:0:0:
286,323,83798,1,12,1:3:0:0:
394,284,83908,1,12,0:3:0:0:
306,210,84018,1,8,0:3:0:0:
198,249,84129,1,12,0:3:0:0:
177,362,84239,5,4,3:1:0:0:
4,190,84459,6,0,P|54:164|110:174,1,113.749994792938,4|0,0:3|0:0,0:0:0:0:
71,365,84680,1,0,1:0:0:0:
69,252,84790,2,0,L|247:272,1,113.749994792938,2|8,0:0|0:3,0:0:0:0:
218,135,85011,2,0,L|396:155,1,113.749994792938,2|8,0:0|0:3,0:0:0:0:
336,281,85231,2,0,L|513:301,1,113.749994792938,2|8,0:0|0:3,0:0:0:0:
444,106,85452,1,2,0:0:0:0:
410,195,85562,2,0,P|413:250|448:293,1,113.749994792938,4|0,0:3|0:0,0:0:0:0:
365,65,85783,6,0,B|229:50|229:50|236:59|236:59|190:38|190:38|197:47|197:47|30:29,1,350,0|0,1:0|0:0,0:0:0:0:
2,122,86224,6,0,L|175:141,1,175,4|0,0:3|0:0,0:0:0:0:
256,349,86445,1,0,1:0:0:0:
172,328,86555,2,0,B|193:285|193:285|175:141,1,192.500005874634,2|0,0:0|1:0,0:0:0:0:
282,384,86776,2,0,L|253:147,1,218.75,8|8,0:3|0:3,0:0:0:0:
164,5,86996,6,0,B|176:176|176:176|144:256|176:320|176:320|224:336|256:384|256:384|288:336|336:320|336:320|368:256|336:176|336:176|356:5,1,848.749988667965,2|0,0:0|1:0,0:0:0:0:
256,252,87217,1,0,0:0:0:0:
0,96,87327,6,0,B|16:144|64:176|112:192|176:176|176:176|144:256|176:320|176:320|224:336|256:384|256:384|288:336|336:320|336:320|368:256|336:176|336:176|400:192|448:176|496:144|512:96,1,929.249998759317,0|0,1:0|1:0,0:0:0:0:
