osu file format v14

[General]
AudioFilename: audio.mp3
AudioLeadIn: 0
PreviewTime: -1
Countdown: 0
SampleSet: Soft
StackLeniency: 0.4
Mode: 0
LetterboxInBreaks: 0
WidescreenStoryboard: 0

[Editor]
Bookmarks: 22702
DistanceSpacing: 0.7
BeatDivisor: 4
GridSize: 8
TimelineZoom: 1.7

[Metadata]
Title:COLORS
TitleUnicode:COLORS
Artist:FLOW
ArtistUnicode:FLOW
Creator:Artemis99
Version:Insane
Source:コードギアス 反逆のルルーシュ
Tags:code geass opening tv size
BeatmapID:1979303
BeatmapSetID:947698

[Difficulty]
HPDrainRate:6
CircleSize:4.2
OverallDifficulty:8
ApproachRate:8.8
SliderMultiplier:1.7
SliderTickRate:1

[Events]
//Background and Video events
0,0,"codegeassbg.jpg",0,0
//Break Periods
//Storyboard Layer 0 (Background)
//Storyboard Layer 1 (Fail)
//Storyboard Layer 2 (Pass)
//Storyboard Layer 3 (Foreground)
//Storyboard Sound Samples

[TimingPoints]
3070,441.176470588235,4,2,0,40,1,0
10128,-90.9090909090909,4,2,0,40,0,1
24246,-105.263157894737,4,2,0,40,0,0
38364,-95.2380952380954,4,2,0,40,0,0
52481,-117.647058823529,4,2,0,40,0,0
57555,-222.222222222222,4,2,0,40,0,0
58658,-86.9565217391304,4,2,0,40,0,1
87555,-86.9565217391304,4,2,0,40,0,0

[HitObjects]
256,192,1305,12,0,2959,0:0:0:0:
171,264,3069,6,0,L|180:152,1,85
254,323,3511,1,0,0:0:0:0:
235,340,3621,2,0,P|198:360|156:362,1,85
46,236,3952,2,0,P|66:273|68:315,1,85
68,315,4283,1,0,0:0:0:0:
68,315,4393,1,0,0:0:0:0:
178,179,4614,1,0,0:0:0:0:
350,206,4834,6,0,P|404:209|458:204,1,85
497,60,5275,1,0,0:0:0:0:
512,75,5386,2,0,L|504:159,1,85
355,110,5717,2,0,L|362:25,1,85
380,13,6047,1,0,0:0:0:0:
397,0,6158,1,0,0:0:0:0:
504,159,6378,1,0,0:0:0:0:
243,64,6599,6,0,P|263:101|265:143,1,85
108,99,7040,1,0,0:0:0:0:
86,106,7150,2,0,P|123:125|166:127,1,85
201,220,7481,2,0,L|192:315,1,85
193,304,7812,1,0,0:0:0:0:
193,304,7922,1,0,0:0:0:0:
31,265,8143,1,0,0:0:0:0:
223,200,8364,5,0,0:0:0:0:
262,218,8474,1,0,0:0:0:0:
304,225,8584,1,0,0:0:0:0:
346,222,8694,1,0,0:0:0:0:
386,207,8805,1,0,0:0:0:0:
382,235,8915,1,0,0:0:0:0:
378,263,9025,1,0,0:0:0:0:
374,291,9135,1,0,0:0:0:0:
502,329,9467,1,0,0:0:0:0:
486,222,9687,2,0,P|492:159|503:113,1,85,0|0,0:3|0:3,0:3:0:0:
195,34,10128,6,0,L|306:24,1,93.5000028533936
496,137,10569,2,0,L|384:127,1,93.5000028533936
473,16,11011,1,0,0:0:0:0:
308,119,11231,2,0,P|306:172|298:219,1,93.5000028533936
227,298,11672,1,0,0:0:0:0:
114,139,11893,6,0,P|157:167|194:197,1,93.5000028533936
33,317,12334,2,0,P|79:293|124:276,1,93.5000028533936
227,298,12775,1,0,0:0:0:0:
156,384,12996,1,0,0:0:0:0:
189,193,13217,1,0,0:0:0:0:
338,318,13437,1,0,0:3:0:0:
370,126,13658,6,0,P|417:130|463:124,1,93.5000028533936
279,37,14099,2,0,P|232:40|186:34,1,93.5000028533936
44,0,14540,2,0,P|94:33|120:77,1,93.5000028533936
137,195,14981,1,0,0:0:0:0:
16,338,15202,6,0,B|22:267|22:267|9:233|9:233|16:154,1,187.000005706787
140,220,15864,1,0,0:0:0:0:
16,154,16084,1,0,0:0:0:0:
259,146,16305,2,0,P|252:192|259:238,1,93.5000028533936
327,372,16746,1,0,0:0:0:0:
378,130,16967,1,0,0:0:0:0:
378,130,17077,1,0,0:0:0:0:
378,130,17187,6,0,P|331:136|285:129,1,93.5000028533936
411,286,17628,1,0,0:0:0:0:
259,238,17849,1,0,0:0:0:0:
468,173,18069,2,0,P|478:127|465:82,1,93.5000028533936
378,130,18511,1,0,0:0:0:0:
223,5,18731,6,0,P|131:21|38:10,1,187.000005706787
106,255,19393,1,0,0:0:0:0:
15,131,19614,1,0,0:3:0:0:
259,238,19834,1,0,0:0:0:0:
238,278,19944,1,0,0:0:0:0:
253,321,20054,1,0,0:0:0:0:
295,338,20164,1,0,0:0:0:0:
336,319,20275,1,0,0:0:0:0:
359,312,20385,1,0,0:0:0:0:
382,308,20495,1,0,0:0:0:0:
405,308,20605,1,0,0:0:0:0:
428,312,20717,6,0,P|420:265|452:222,1,93.5000028533936
394,66,21158,1,0,0:0:0:0:
404,82,21268,6,0,P|412:129|380:172,1,93.5000028533936
216,192,21599,2,0,L|319:201,1,93.5000028533936,0|0,0:3|0:3,0:3:0:0:
309,200,21930,1,0,0:0:0:0:
309,200,22040,1,0,0:0:0:0:
162,268,22261,1,0,0:0:0:0:
176,107,22481,5,0,0:0:0:0:
296,362,22702,1,0,0:0:0:0:
15,336,22922,1,0,0:0:0:0:
28,322,23033,2,0,B|53:295|53:295|59:225,1,93.5000028533936
35,0,23364,2,0,B|9:26|9:26|3:96,1,93.5000028533936
28,322,23805,1,0,0:0:0:0:
189,134,24025,2,0,P|228:146|253:148,1,46.7500014266968
318,87,24246,6,0,P|308:125|321:163,1,80.7499978437424
420,208,24687,2,0,P|436:289|416:367,2,161.499995687485
321,163,25790,1,0,0:0:0:0:
232,226,26011,2,0,L|144:233,1,80.7499978437424,0|0,0:3|0:3,0:3:0:0:
145,344,26452,2,0,L|137:256,1,80.7499978437424,0|0,0:3|0:3,0:3:0:0:
27,257,26893,2,0,L|114:249,1,80.7499978437424,0|0,0:3|0:3,0:3:0:0:
114,139,27334,2,0,L|121:226,1,80.7499978437424,0|0,0:3|0:3,0:3:0:0:
34,80,27775,6,0,P|100:39|176:60,2,161.499995687485
114,139,28878,1,0,0:0:0:0:
23,178,29099,1,0,0:0:0:0:
23,178,29319,1,0,0:0:0:0:
103,237,29540,6,0,P|142:231|182:235,2,80.7499978437424
179,314,30202,2,0,P|182:235|242:184,1,161.499995687485
297,112,30864,2,0,P|311:161|353:186,1,80.7499978437424
414,208,31194,1,0,0:0:0:0:
414,208,31305,6,0,P|442:236|449:275,1,80.7499978437424
347,306,31746,2,0,B|397:374|397:374|473:381,2,161.499995687485
262,358,32849,1,0,0:0:0:0:
173,309,33069,6,0,P|134:301|95:309,1,80.7499978437424
225,233,33511,2,0,P|264:241|303:233,1,80.7499978437424
158,291,33952,2,0,P|118:282|79:290,1,80.7499978437424
209,214,34394,2,0,P|248:222|287:214,1,80.7499978437424
372,135,34834,6,0,P|361:214|388:289,2,161.499995687485
290,86,35937,1,0,0:0:0:0:
374,39,36158,1,0,0:0:0:0:
208,37,36378,1,0,0:3:0:0:
208,37,36489,1,0,0:3:0:0:
208,37,36599,5,0,0:3:0:0:
374,39,36819,1,0,0:0:0:0:
206,133,37040,1,0,0:0:0:0:
372,135,37261,1,0,0:0:0:0:
208,36,37481,1,0,0:0:0:0:
206,229,37702,1,0,0:0:0:0:
374,39,37922,2,0,P|421:47|468:37,1,80.7499978437424
206,229,38364,5,0,0:0:0:0:
122,181,38584,1,0,0:0:0:0:
39,230,38805,2,0,P|44:277|39:323,1,89.2499972763062
294,122,39246,5,0,0:0:0:0:
378,74,39466,1,0,0:0:0:0:
461,123,39687,2,0,P|456:170|461:216,1,89.2499972763062
290,277,40128,5,0,0:0:0:0:
206,229,40348,1,0,0:0:0:0:
123,278,40569,2,0,P|128:325|123:371,1,89.2499972763062
211,73,41011,5,0,0:0:0:0:
295,25,41231,1,0,0:0:0:0:
378,74,41452,2,0,P|373:121|378:167,1,89.2499972763062
128,25,41893,5,0,0:0:0:0:
211,73,42114,1,0,0:0:0:0:
126,120,42334,2,0,P|120:163|130:206,1,89.2499972763062
377,162,42775,5,0,0:0:0:0:
294,210,42996,1,0,0:0:0:0:
378,257,43216,2,0,P|384:300|374:343,1,89.2499972763062
130,206,43658,5,0,0:0:0:0:
378,257,43878,1,0,0:0:0:0:
114,218,44099,1,0,0:0:0:0:
362,269,44319,1,0,0:0:0:0:
212,367,44540,2,0,L|221:263,1,89.2499972763062,0|0,0:3|0:3,0:3:0:0:
234,100,44981,1,0,0:0:0:0:
114,218,45202,1,0,0:0:0:0:
325,142,45422,6,0,P|334:99|324:56,1,89.2499972763062
115,98,45864,1,0,0:0:0:0:
233,219,46085,1,0,0:0:0:0:
128,80,46305,2,0,L|32:88,1,89.2499972763062,0|0,0:3|0:3,0:3:0:0:
157,230,46746,5,0,0:0:0:0:
39,350,46967,1,0,0:0:0:0:
144,211,47187,2,0,L|239:219,1,89.2499972763062,0|0,0:3|0:3,0:3:0:0:
325,142,47628,5,0,0:0:0:0:
443,262,47849,1,0,0:0:0:0:
338,123,48069,2,0,L|242:131,1,89.2499972763062,0|0,0:3|0:3,0:3:0:0:
144,211,48511,1,0,0:0:0:0:
265,261,48731,2,0,P|293:278|315:299,1,44.6249986381531
251,367,48952,6,0,P|287:323|328:297,1,89.2499972763062
499,283,49393,1,0,0:0:0:0:
416,386,49614,1,0,0:0:0:0:
395,200,49834,2,0,L|382:94,1,89.2499972763062,0|0,0:3|0:3,0:3:0:0:
222,18,50275,2,0,L|234:124,1,89.2499972763062,0|0,0:3|0:3,0:3:0:0:
138,205,50717,6,0,P|95:215|51:216,1,89.2499972763062
0,87,51158,2,0,P|43:76|87:75,1,89.2499972763062
138,205,51599,1,0,0:0:0:0:
50,312,51819,1,0,0:0:0:0:
187,335,52040,1,0,0:0:0:0:
227,245,52261,1,0,0:0:0:0:
364,268,52481,6,0,P|357:313|361:353,1,72.2500013780594
469,245,52922,1,0,0:0:0:0:
397,166,53143,2,0,P|326:157|281:103,1,144.500002756119
373,66,53805,1,0,0:0:0:0:
294,4,54025,1,0,0:0:0:0:
201,84,54246,6,0,P|246:80|297:84,1,72.2500013780594
157,171,54687,1,0,0:0:0:0:
102,89,54908,2,0,P|60:145|68:215,1,144.500002756119
151,270,55569,1,0,0:0:0:0:
151,270,55790,1,0,0:0:0:0:
61,313,56011,6,0,P|90:336|110:365,2,72.2500013780594
68,215,56672,1,0,0:0:0:0:
244,125,56893,1,0,0:0:0:0:
156,170,57114,1,0,0:0:0:0:
239,224,57334,1,0,0:0:0:0:
327,179,57555,6,0,P|369:176|313:213,1,191.249994163513
283,218,58768,1,0,0:0:0:0:
306,259,58878,1,0,0:0:0:0:
351,275,58988,1,0,0:0:0:0:
396,258,59098,1,0,0:0:0:0:
419,216,59209,1,0,0:0:0:0:
409,169,59319,1,0,0:0:0:0:
371,140,59429,1,0,0:0:0:0:
323,143,59540,6,0,P|275:151|227:147,1,97.7500018644333
49,38,59981,2,0,P|96:29|145:34,1,97.7500018644333
145,34,60312,1,0,0:0:0:0:
145,34,60422,1,0,0:0:0:0:
26,151,60643,1,0,0:0:0:0:
143,270,60864,2,0,P|151:317|146:366,1,97.7500018644333
396,258,61305,6,0,P|348:266|299:261,1,97.7500018644333,0|0,0:0|0:0,0:3:0:0:
473,88,61746,2,0,L|463:191,1,97.7500018644333
311,66,62187,1,0,0:0:0:0:
478,53,62408,1,0,0:0:0:0:
297,172,62628,1,0,0:0:0:0:
464,185,62849,1,0,0:0:0:0:
289,48,63069,6,0,P|242:58|194:53,1,97.7500018644333
68,66,63511,2,0,P|115:56|163:61,1,97.7500018644333
172,83,63842,1,0,0:0:0:0:
181,106,63952,1,0,0:0:0:0:
219,207,64172,1,0,0:0:0:0:
289,48,64393,1,0,0:0:0:0:
74,165,64614,1,0,0:0:0:0:
283,293,64834,6,0,L|394:302,1,97.7500018644333
146,378,65275,2,0,L|34:368,1,97.7500018644333
162,256,65717,2,0,P|156:304|163:352,1,97.7500018644333
283,293,66158,1,0,0:0:0:0:
57,151,66378,1,0,0:0:0:0:
57,151,66489,1,0,0:0:0:0:
57,151,66599,6,0,P|62:199|55:247,1,97.7500018644333
181,106,67040,1,0,0:0:0:0:
281,190,67261,1,0,0:0:0:0:
403,145,67481,2,0,P|397:193|404:241,1,97.7500018644333
501,384,67922,2,0,P|506:335|499:287,1,97.7500018644333
420,124,68364,6,0,L|300:113,1,97.7500018644333
499,287,68805,1,0,0:0:0:0:
432,106,69025,2,0,L|312:95,1,97.7500018644333
511,269,69466,1,0,0:0:0:0:
444,88,69687,2,0,L|324:77,1,97.7500018644333
170,163,70018,1,0,0:0:0:0:
170,163,70128,6,0,L|289:173,1,97.7500018644333
89,105,70569,2,0,P|70:149|76:197,1,97.7500018644333
271,269,71011,2,0,L|151:279,1,97.7500018644333
351,211,71452,2,0,P|369:255|363:303,1,97.7500018644333
84,83,71893,5,0,0:0:0:0:
356,188,72114,1,0,0:0:0:0:
129,371,72334,1,0,0:3:0:0:
84,83,72555,1,0,0:0:0:0:
84,83,72665,1,0,0:0:0:0:
84,83,72775,2,0,P|100:121|104:151,1,48.8750009322167
64,248,72996,2,0,P|70:271|81:293,1,48.8750009322167
217,322,73217,2,0,L|320:331,1,97.7500018644333
489,127,73658,5,0,0:0:0:0:
470,334,73878,2,0,P|456:307|442:292,2,32.5833339548111
452,356,74099,2,0,P|422:318|403:274,1,97.7500018644333
439,43,74540,2,0,P|469:81|488:125,1,97.7500018644333
402,272,74981,1,0,0:0:0:0:
430,64,75202,1,0,0:0:0:0:
236,144,75422,6,0,P|171:148|123:144,1,97.7500018644333
0,262,75864,2,0,P|65:258|113:262,1,97.7500018644333
236,144,76305,1,0,0:0:0:0:
267,321,76525,1,0,0:0:0:0:
340,217,76746,1,0,0:0:0:0:
97,260,76966,1,0,0:0:0:0:
97,260,77077,1,0,0:0:0:0:
97,260,77187,6,0,L|106:371,1,97.7500018644333
236,144,77628,2,0,L|226:32,1,97.7500018644333
227,46,77959,1,0,0:0:0:0:
227,46,78069,1,0,0:0:0:0:
340,217,78290,1,0,0:0:0:0:
106,155,78511,1,0,0:0:0:0:
365,132,78731,1,0,0:0:0:0:
130,70,78952,6,0,P|82:73|33:70,1,97.7500018644333
340,217,79393,2,0,P|388:213|437:216,1,97.7500018644333
293,355,79834,2,0,P|244:358|195:355,1,97.7500018644333
340,217,80275,1,0,0:0:0:0:
436,326,80496,1,0,0:0:0:0:
436,326,80606,1,0,0:0:0:0:
436,326,80717,6,0,P|432:277|435:228,1,97.7500018644333
485,85,81158,1,0,0:0:0:0:
340,217,81378,1,0,0:0:0:0:
297,25,81599,2,0,P|250:34|202:28,1,97.7500018644333
41,122,82040,1,0,0:0:0:0:
197,218,82261,6,0,L|187:330,1,97.7500018644333
54,108,82702,1,0,0:0:0:0:
210,204,82923,2,0,L|200:315,1,97.7500018644333
2,380,83364,1,0,0:0:0:0:
48,364,83474,1,0,0:0:0:0:
96,362,83584,1,0,0:0:0:0:
144,373,83694,1,0,0:0:0:0:
192,384,83805,1,0,0:0:0:0:
240,382,83915,1,0,0:0:0:0:
287,367,84025,2,0,L|227:355,1,48.8750009322167
494,179,84246,5,0,0:0:0:0:
494,179,84467,1,0,0:0:0:0:
456,378,84687,2,0,P|451:322|429:280,1,97.7500018644333
334,81,85128,1,0,0:0:0:0:
296,280,85348,1,0,0:0:0:0:
296,280,85569,1,0,0:0:0:0:
141,146,85790,6,0,P|211:168|281:150,1,146.62500279665
302,158,86231,2,0,P|297:181|300:215,1,48.8750009322167
432,285,86452,5,0,0:0:0:0:
334,81,86672,1,0,0:0:0:0:
300,366,86893,5,0,0:0:0:0:
249,98,87113,1,0,0:0:0:0:
140,379,87334,5,0,0:0:0:0:
163,78,87554,1,0,0:0:0:0:
