osu file format v14

[General]
AudioFilename: audio.mp3
AudioLeadIn: 0
PreviewTime: -1
Countdown: 0
SampleSet: None
StackLeniency: 0.4
Mode: 0
LetterboxInBreaks: 0
WidescreenStoryboard: 1

[Editor]
Bookmarks: 22702
DistanceSpacing: 1.3
BeatDivisor: 4
GridSize: 8
TimelineZoom: 1.7

[Metadata]
Title:COLORS
TitleUnicode:COLORS
Artist:FLOW
ArtistUnicode:FLOW
Creator:Artemis99
Version:Hard
Source:コードギアス 反逆のルルーシュ
Tags:code geass opening tv size
BeatmapID:1979857
BeatmapSetID:947698

[Difficulty]
HPDrainRate:5
CircleSize:4
OverallDifficulty:6
ApproachRate:7.5
SliderMultiplier:1.4
SliderTickRate:1

[Events]
//Background and Video events
0,0,"codegeassbg.jpg",0,0
//Break Periods
//Storyboard Layer 0 (Background)
//Storyboard Layer 1 (Fail)
//Storyboard Layer 2 (Pass)
//Storyboard Layer 3 (Foreground)
//Storyboard Sound Samples

[TimingPoints]
3070,441.176470588235,4,2,0,40,1,0
10128,-90.9090909090909,4,2,0,40,0,1
24246,-105.263157894737,4,2,0,40,0,0
38364,-95.2380952380954,4,2,0,40,0,0
52481,-105.263157894737,4,2,0,40,0,0
57555,-222.222222222222,4,2,0,40,0,0
58658,-86.9565217391304,4,2,0,40,0,1
87555,-86.9565217391304,4,2,0,40,0,0

[HitObjects]
455,50,3069,6,0,P|431:97|433:138,1,70
486,155,3511,2,0,P|447:149|420:151,1,35
396,222,3842,2,0,P|440:233|469:259,2,70
361,228,4393,2,0,L|284:246,1,70
227,368,4834,6,0,P|233:315|217:277,1,70
161,279,5275,2,0,P|199:271|224:260,1,35
223,186,5607,2,0,P|177:190|141:176,2,70
249,162,6158,2,0,L|267:85,1,70
82,97,6599,6,0,P|134:103|172:87,1,70
171,31,7040,2,0,P|178:69|189:94,1,35
264,93,7372,2,0,P|259:47|273:11,2,70
293,111,7922,2,0,L|370:129,1,70
408,32,8364,6,0,L|412:87,1,35
480,104,8584,2,0,L|475:159,1,35
376,152,8805,6,0,L|380:207,1,35
448,224,9025,2,0,L|443:279,1,35
440,368,9467,1,0,0:0:0:0:
364,317,9687,2,0,P|318:332|277:325,1,70
212,276,10128,6,0,P|206:329|187:366,1,77.0000023498536
99,375,10569,2,0,P|105:322|124:285,1,77.0000023498536
41,252,11011,1,0,0:0:0:0:
59,232,11231,2,0,P|72:196|75:158,1,77.0000023498536
36,66,11672,6,0,P|72:79|110:81,1,77.0000023498536
163,11,12114,2,0,P|187:40|219:61,1,77.0000023498536
300,26,12555,2,0,P|306:63|324:98,1,77.0000023498536
411,107,12996,2,0,P|397:143|395:181,1,77.0000023498536
441,262,13437,1,0,0:0:0:0:
393,340,13658,6,0,L|305:347,1,77.0000023498536
219,354,14099,2,0,L|306:361,1,77.0000023498536
219,262,14540,2,0,L|131:269,1,77.0000023498536
45,276,14981,2,0,L|132:283,1,77.0000023498536
76,184,15422,6,0,L|0:177,1,77.0000023498536
133,110,15864,1,0,0:0:0:0:
225,122,16084,1,0,0:0:0:0:
260,207,16305,2,0,P|299:224|352:230,1,77.0000023498536
425,233,16746,1,0,0:0:0:0:
381,151,16967,1,0,0:0:0:0:
381,151,17077,1,0,0:0:0:0:
380,150,17187,6,0,P|387:113|403:78,1,77.0000023498536
496,80,17628,2,0,P|488:117|473:152,1,77.0000023498536
425,233,18069,1,0,0:0:0:0:
470,313,18290,1,0,0:0:0:0:
378,311,18511,1,0,0:0:0:0:
298,355,18731,6,0,P|259:361|221:358,1,77.0000023498536
141,312,19172,1,0,0:0:0:0:
50,290,19393,6,0,P|88:284|126:287,1,77.0000023498536
189,220,19834,2,0,L|184:172,3,38.5000011749268
278,240,20275,2,0,L|282:192,3,38.5000011749268
296,266,20717,2,0,P|334:276|372:274,1,77.0000023498536
403,217,21158,2,0,P|393:233|387:251,1,38.5000011749268
449,342,21489,2,0,P|471:295|474:257,2,77.0000023498536
415,360,22040,2,0,L|319:368,1,77.0000023498536
250,318,22481,5,0,0:0:0:0:
150,326,22702,1,0,0:0:0:0:
93,243,22922,2,0,P|97:208|95:176,1,38.5000011749268
24,133,23253,2,0,P|63:133|100:124,2,77.0000023498536
3,166,23805,1,0,0:0:0:0:
100,124,24025,1,0,0:0:0:0:
100,124,24136,1,0,0:0:0:0:
100,124,24246,6,0,L|171:130,1,66.4999982242585
234,136,24687,2,0,L|163:142,1,66.4999982242585
119,212,25128,6,0,P|113:277|151:330,1,132.999996448517
234,354,25790,1,0,0:0:0:0:
304,303,26011,2,0,P|376:314|450:291,1,132.999996448517
474,223,26672,1,0,0:0:0:0:
457,201,26893,2,0,P|442:137|454:72,1,132.999996448517
335,11,27775,2,0,L|191:23,2,132.999996448517
453,72,29099,1,0,0:0:0:0:
341,143,29540,6,0,P|332:177|338:217,1,66.4999982242585
311,286,29981,2,0,P|320:252|314:212,1,66.4999982242585
225,246,30422,1,0,0:0:0:0:
136,345,30864,2,0,P|110:309|85:294,1,66.4999982242585
12,261,31305,6,0,P|51:225|44:146,1,132.999996448517
4,125,32187,2,0,L|136:114,1,132.999996448517
223,106,32849,1,0,0:0:0:0:
186,184,33069,6,0,P|251:188|300:145,1,132.999996448517
374,34,33952,2,0,P|370:98|413:147,1,132.999996448517,0|0,0:3|0:3,0:3:0:0:
442,271,34834,2,0,P|484:319|481:384,2,132.999996448517,0|0|0,0:3|0:3|0:3,0:3:0:0:
400,349,36158,1,0,0:0:0:0:
325,305,36378,1,0,0:0:0:0:
325,305,36489,1,0,0:0:0:0:
325,305,36599,6,0,L|229:313,1,66.4999982242585
172,337,37040,2,0,L|267:345,1,66.4999982242585
149,256,37481,1,0,0:0:0:0:
90,316,37702,1,0,0:0:0:0:
68,235,37922,2,0,P|75:191|70:159,1,66.4999982242585
21,87,38364,6,0,L|116:79,1,66.4999982242585
278,21,39025,1,0,0:0:0:0:
225,92,39246,2,0,L|233:187,1,66.4999982242585
415,156,39908,1,0,0:0:0:0:
468,227,40129,6,0,L|460:322,1,66.4999982242585
299,206,40790,1,0,0:0:0:0:
246,277,41011,2,0,L|254:372,1,66.4999982242585
66,339,41672,1,0,0:0:0:0:
106,259,41893,6,0,P|112:223|111:187,1,73.4999977569581
238,64,42555,1,0,0:0:0:0:
198,143,42776,2,0,P|191:179|192:215,1,73.4999977569581
342,124,43437,1,0,0:0:0:0:
382,45,43658,5,0,0:0:0:0:
431,120,43878,1,0,0:0:0:0:
342,124,44099,1,0,0:0:0:0:
390,198,44319,2,0,P|411:268|389:337,1,146.999995513916
301,360,44981,2,0,P|355:357|399:361,1,73.4999977569581
252,285,45422,6,0,P|198:288|154:284,1,73.4999977569581
21,368,46084,1,0,0:0:0:0:
78,291,46305,2,0,P|75:237|79:193,1,73.4999977569581
133,34,46967,1,0,0:0:0:0:
190,111,47187,6,0,P|187:165|191:209,1,73.4999977569581
245,368,47849,1,0,0:0:0:0:
302,291,48069,2,0,P|299:237|303:193,1,73.4999977569581
357,34,48731,1,0,0:0:0:0:
414,111,48951,6,0,P|411:165|415:209,1,73.4999977569581
469,261,49393,1,0,0:0:0:0:
432,349,49614,2,0,B|382:330|382:330|277:339,1,146.999995513916
223,269,50275,2,0,P|252:308|262:352,1,73.4999977569581
134,296,50717,6,0,P|168:282|196:259,1,73.4999977569581
192,163,51158,2,0,P|157:176|129:199,1,73.4999977569581
134,296,51599,1,0,0:0:0:0:
47,251,51819,1,0,0:0:0:0:
129,199,52040,1,0,0:0:0:0:
42,154,52260,1,0,0:0:0:0:
124,101,52481,6,0,P|143:74|150:41,2,66.4999982242585
192,153,53143,2,0,P|240:172|322:157,1,132.999996448517
318,158,53805,1,0,0:0:0:0:
381,100,54025,1,0,0:0:0:0:
400,182,54246,6,0,P|395:228|402:260,2,66.4999982242585
485,171,54908,2,0,L|497:22,1,132.999996448517
416,6,55569,2,0,P|376:12|343:7,1,66.4999982242585
268,39,56011,6,0,P|308:33|341:38,2,66.4999982242585
203,95,56672,2,0,L|196:174,1,66.4999982242585
125,210,57114,1,0,0:0:0:0:
162,287,57334,1,0,0:0:0:0:
113,357,57555,1,0,0:0:0:0:
113,357,58658,2,0,L|176:362,3,40.2500007677078
222,327,59099,2,0,L|285:332,3,40.2500007677078
295,258,59540,6,0,P|303:332|377:340,1,161.000003070831
442,268,60202,1,0,0:0:0:0:
383,191,60422,2,0,P|379:147|385:108,1,80.5000015354157
410,17,60864,2,0,P|414:61|408:100,1,80.5000015354157
327,43,61305,6,0,P|270:50|227:46,1,80.5000015354157
158,9,61746,2,0,L|164:88,1,80.5000015354157
144,183,62187,6,0,P|201:190|244:186,1,80.5000015354157
313,149,62628,2,0,L|306:228,1,80.5000015354157
256,312,63069,6,0,P|177:320|99:302,1,161.000003070831
34,230,63731,1,0,0:0:0:0:
64,137,63952,2,0,P|48:86|150:45,1,161.000003070831
203,90,64614,6,0,P|280:109|358:93,1,161.000003070831
430,28,65275,1,0,0:0:0:0:
451,122,65496,2,0,B|414:167|414:167|405:278,1,161.000003070831
454,362,66158,1,0,0:0:0:0:
350,358,66378,1,0,0:0:0:0:
350,358,66489,1,0,0:0:0:0:
349,358,66599,6,0,P|273:340|233:273,1,161.000003070831
244,169,67261,6,0,P|226:245|159:285,2,161.000003070831
139,170,68364,6,0,P|157:94|224:54,1,161.000003070831
328,41,69025,2,0,L|152:25,1,161.000003070831
63,15,69687,1,0,0:0:0:0:
104,111,69908,1,0,0:0:0:0:
104,111,70018,1,0,0:0:0:0:
104,111,70128,6,0,P|110:164|100:208,1,80.5000015354157
84,293,70569,2,0,P|78:240|88:196,1,80.5000015354157
211,182,71011,2,0,P|217:235|207:279,1,80.5000015354157
191,364,71452,2,0,P|185:311|195:267,1,80.5000015354157
285,327,71893,5,0,0:0:0:0:
369,266,72114,1,0,0:0:0:0:
463,308,72334,1,0,0:0:0:0:
453,206,72555,1,0,0:0:0:0:
453,206,72665,1,0,0:0:0:0:
453,206,72775,2,0,L|457:150,1,40.2500007677078
401,107,72996,2,0,L|405:51,1,40.2500007677078
354,6,73217,2,0,P|315:13|275:9,1,80.5000015354157
190,55,73658,5,0,0:0:0:0:
271,106,73878,1,0,0:0:0:0:
271,106,73989,1,0,0:0:0:0:
271,106,74099,2,0,P|278:160|270:197,1,80.5000015354157
180,211,74540,2,0,P|234:204|271:212,1,80.5000015354157
216,303,74981,2,0,P|162:310|125:302,1,80.5000015354157
45,357,75422,6,0,L|51:277,1,80.5000015354157
30,173,75864,2,0,L|36:252,1,80.5000015354157
123,194,76305,2,0,L|129:114,1,80.5000015354157
108,19,76746,1,0,0:0:0:0:
201,46,76967,1,0,0:0:0:0:
201,46,77077,1,0,0:0:0:0:
201,46,77187,6,0,P|280:57|360:46,1,161.000003070831
443,109,77849,1,0,0:0:0:0:
430,212,78069,2,0,P|424:276|478:370,1,161.000003070831
431,301,78731,2,0,P|363:261|288:285,1,161.000003070831
352,355,79393,1,0,0:0:0:0:
231,344,79614,2,0,P|203:299|218:186,1,161.000003070831
278,114,80275,1,0,0:0:0:0:
174,97,80496,1,0,0:0:0:0:
174,97,80606,1,0,0:0:0:0:
174,97,80717,6,0,L|13:111,1,161.000003070831
70,35,81378,2,0,P|107:103|80:176,1,161.000003070831
1,246,82040,1,0,0:0:0:0:
100,280,82261,6,0,B|149:252|149:252|253:261,1,161.000003070831
290,359,82922,2,0,P|276:321|275:281,1,80.5000015354157
319,185,83364,1,0,0:0:0:0:
319,185,83474,1,0,0:0:0:0:
319,185,83584,2,0,L|374:189,1,40.2500007677078
446,249,83805,2,0,L|390:253,3,40.2500007677078
471,272,84246,6,0,P|485:309|487:349,1,80.5000015354157
386,380,84687,1,0,0:0:0:0:
300,318,84908,1,0,0:0:0:0:
203,361,85128,2,0,P|157:368|111:360,1,80.5000015354157
41,298,85569,1,0,0:0:0:0:
138,259,85790,6,0,P|113:184|138:109,1,161.000003070831
230,59,86452,1,0,0:0:0:0:
319,112,86672,1,0,0:0:0:0:
317,215,86893,1,0,0:3:0:0:
226,264,87114,1,0,0:3:0:0:
138,209,87334,1,0,0:3:0:0:
138,109,87555,1,0,0:3:0:0:
