osu file format v14

[General]
AudioFilename: audio.mp3
AudioLeadIn: 0
PreviewTime: 9358
Countdown: 0
SampleSet: Soft
StackLeniency: 0.4
Mode: 0
LetterboxInBreaks: 0
WidescreenStoryboard: 1

[Editor]
DistanceSpacing: 1.2
BeatDivisor: 4
GridSize: 16
TimelineZoom: 1

[Metadata]
Title:COLORS
TitleUnicode:COLORS
Artist:FLOW
ArtistUnicode:FLOW
Creator:Aeril
Version:Normal
Source:コードギアス 反逆のルルーシュ
Tags:code geass lelouch of the rebellion hangyaku no jibun wo
BeatmapID:1544033
BeatmapSetID:730452

[Difficulty]
HPDrainRate:4
CircleSize:4
OverallDifficulty:5
ApproachRate:6
SliderMultiplier:1.2
SliderTickRate:2

[Events]
//Background and Video events
0,0,"887422.png",0,0
Video,0,"video.mp4"
//Break Periods
//Storyboard Layer 0 (Background)
//Storyboard Layer 1 (Fail)
//Storyboard Layer 2 (Pass)
//Storyboard Layer 3 (Foreground)
//Storyboard Sound Samples

[TimingPoints]
3072,441.176470588235,4,2,1,60,1,0
3292,-100,4,2,1,50,0,0
9689,-83.3333333333333,4,2,1,40,0,0
10130,-83.3333333333333,4,2,1,70,0,1
24248,-133.333333333333,4,2,2,50,0,0
36380,-100,4,2,2,50,0,0
38145,-100,4,2,2,60,0,0
52483,-100,4,2,2,50,0,0
58660,-100,4,2,2,60,0,0
59542,-83.3333333333333,4,2,1,70,0,1
73660,-83.3333333333333,4,2,1,60,0,0
74101,-83.3333333333333,4,2,1,70,0,1
87557,-83.3333333333333,4,2,1,70,0,0

[Colours]
Combo1 : 182,182,182
Combo2 : 208,135,248
Combo3 : 167,207,248
Combo4 : 254,193,133

[HitObjects]
196,43,3071,5,4,3:1:0:0:
107,252,4836,1,4,3:2:0:0:
316,341,6601,1,4,3:2:0:0:
405,132,8366,2,0,P|443:127|478:141,2,60,0|0|0,1:0|1:0|1:0,0:0:0:0:
344,170,9027,2,0,L|299:171,1,30,2|0,1:0|1:0,0:0:0:0:
191,112,9469,5,0,0:0:0:0:
110,141,9689,2,0,B|40:149|24:94|24:94|47:76|71:74,1,143.999995605469,0|4,0:0|3:1,0:0:0:0:
166,209,10571,1,0,1:0:0:0:
37,324,11013,1,0,3:0:0:0:
37,324,11233,2,0,P|77:310|119:320,1,71.9999978027344,0|0,0:0|1:0,0:0:0:0:
182,354,11674,2,0,P|229:370|311:308,2,143.999995605469,2|2|2,0:2|0:2|0:2,0:0:0:0:
310,237,12998,2,0,P|360:232|436:295,1,143.999995605469,2|2,0:2|0:3,0:0:0:0:
431,372,13660,5,0,3:0:0:0:
488,208,14101,1,0,1:0:0:0:
388,67,14542,2,0,P|366:104|398:195,1,143.999995605469,0|0,3:0|1:0,0:0:0:0:
328,140,15204,2,0,P|267:119|189:156,1,143.999995605469,2|0,0:0|0:0,0:0:0:0:
136,210,15866,1,0,1:0:0:0:
136,210,16086,2,0,P|71:199|33:119,2,143.999995605469,2|2|8,0:3|0:3|0:3,0:0:0:0:
196,147,17189,6,0,P|219:188|180:286,1,143.999995605469,0|0,3:0|1:0,0:0:0:0:
115,315,17851,1,0,0:3:0:0:
285,289,18292,1,2,0:0:0:0:
443,356,18733,2,0,P|413:308|441:221,1,143.999995605469,2|2,0:2|0:3,0:0:0:0:
496,167,19395,2,0,P|510:127|503:88,1,71.9999978027344,0|2,1:0|0:3,0:0:0:0:
422,79,19836,2,0,P|394:46|357:33,1,71.9999978027344,0|8,3:0|0:3,0:0:0:0:
291,76,20277,1,12,3:0:0:0:
212,39,20498,1,4,3:0:0:0:
127,58,20719,5,4,3:1:0:0:
256,192,20829,12,4,24248,3:1:0:0:
127,326,26013,6,0,P|175:307|223:317,1,90.0000034332277,0|0,3:0|3:0,0:0:0:0:
262,332,26674,2,0,P|299:339|314:336,1,45.0000017166138,2|0,0:0|3:0,0:0:0:0:
405,295,27336,1,0,3:0:0:0:
358,197,27777,1,0,3:0:0:0:
494,0,29542,6,0,P|491:49|464:87,1,90.0000034332277,0|0,3:0|3:0,0:0:0:0:
431,121,30204,2,0,P|379:132|341:118,1,90.0000034332277,2|0,0:0|0:0,0:0:0:0:
295,100,30866,2,0,P|268:95|241:98,1,45.0000017166138,0|2,1:0|0:0,0:0:0:0:
202,119,31307,5,4,3:0:0:0:
46,2,33071,2,0,P|27:46|44:98,1,90.0000034332277,0|0,3:0|3:0,0:0:0:0:
72,125,33733,2,0,P|86:154|84:183,1,45.0000017166138,2|0,0:0|3:0,0:0:0:0:
41,264,34395,1,0,3:0:0:0:
126,330,34836,2,0,P|167:336|212:314,3,90.0000034332277,0|0|0|0,3:0|3:0|3:0|3:0,0:0:0:0:
269,275,36380,6,0,P|333:269|384:326,1,120,2|2,3:1|3:1,0:0:0:0:
411,363,37042,2,0,P|421:323|416:293,1,60,0|0,3:0|3:0,0:0:0:0:
384,241,37483,2,0,P|374:201|379:171,1,60,0|0,3:0|3:0,0:0:0:0:
420,126,37924,1,0,1:0:0:0:
322,19,38366,5,4,3:0:0:0:
322,19,38586,2,0,P|292:48|302:139,1,120,2|2,0:0|0:3,0:0:0:0:
273,192,39248,2,0,P|258:237|236:259,1,60,0|0,0:0|3:0,0:0:0:0:
122,313,39910,6,0,P|105:287|99:258,1,60,2|0,0:3|3:0,0:0:0:0:
27,267,40351,2,0,P|59:214|52:137,1,120,2|2,0:0|0:3,0:0:0:0:
18,97,41013,1,0,0:0:0:0:
18,97,41233,1,0,3:0:0:0:
141,23,41674,6,0,P|177:18|215:30,1,60,2|0,0:3|3:0,0:0:0:0:
257,67,42116,2,0,P|307:79|369:30,1,120,2|2,0:0|0:3,0:0:0:0:
348,114,42777,2,0,P|336:151|342:188,1,60,0|0,0:0|3:0,0:0:0:0:
414,293,43439,6,0,P|459:299|494:285,2,60,0|0|0,0:0|3:0|0:0,0:0:0:0:
345,316,44101,1,0,1:0:0:0:
345,316,44321,2,0,P|288:301|239:348,1,120,2|0,0:0|3:0,0:0:0:0:
179,369,44983,2,0,P|127:368|102:356,1,60,0|0,1:0|0:0,0:0:0:0:
67,316,45424,5,4,3:0:0:0:
67,316,45645,2,0,P|53:276|87:190,1,120,2|2,0:0|0:3,0:0:0:0:
106,139,46307,2,0,P|138:128|182:136,1,60,0|0,0:0|3:0,0:0:0:0:
306,148,46969,6,0,P|350:146|381:123,1,60,2|0,0:3|3:0,0:0:0:0:
435,132,47410,2,0,P|458:96|418:20,1,120,2|2,0:0|0:3,0:0:0:0:
365,2,48071,1,0,0:0:0:0:
365,2,48292,1,0,3:0:0:0:
232,57,48733,6,0,P|221:24|227:-11,2,60,0|0|2,0:0|3:0|0:3,0:0:0:0:
223,128,49395,1,0,1:0:0:0:
223,128,49616,2,0,P|242:183|206:250,1,120,2|0,0:0|3:0,0:0:0:0:
96,311,50498,2,0,P|151:299|219:343,1,120,2|0,0:3|0:0,0:0:0:0:
272,298,51160,1,0,1:0:0:0:
272,298,51380,2,0,P|327:310|395:266,1,120,0|8,0:3|3:0,0:0:0:0:
453,271,52042,2,0,P|467:232|460:194,1,60,4|4,0:3|3:0,0:0:0:0:
425,154,52483,6,0,P|453:118|436:34,1,120,4|0,3:0|0:0,0:0:0:0:
380,17,53145,1,2,0:0:0:0:
245,67,53586,2,0,P|213:65|180:45,2,60,0|0|2,0:3|0:0|3:0,0:0:0:0:
333,181,54469,2,0,P|306:194|276:195,1,60,0|0,0:3|0:0,0:0:0:0:
206,176,54910,1,2,3:0:0:0:
99,272,55351,2,0,P|67:270|34:250,2,60,0|0|0,3:0|0:0|3:0,0:0:0:0:
157,313,56013,6,0,P|212:291|275:317,1,120,0|0,3:0|0:0,0:0:0:0:
325,351,56674,1,2,3:0:0:0:
389,317,56895,2,0,P|430:325|462:316,2,60,0|8|4,1:0|3:0|3:0,0:0:0:0:
360,250,57557,1,4,3:1:0:0:
486,45,58660,6,0,P|432:38|403:50,1,60,0|0,1:0|1:0,0:0:0:0:
361,67,59101,1,8,3:0:0:0:
341,136,59321,1,4,0:3:0:0:
290,84,59542,6,0,B|221:75|221:127|137:101,1,143.999995605469,4|0,3:1|1:0,0:0:0:0:
50,251,60424,1,0,3:0:0:0:
50,251,60645,2,0,P|96:246|123:256,1,71.9999978027344,0|0,0:0|1:0,0:0:0:0:
172,322,61086,2,0,P|157:264|213:199,2,143.999995605469,2|2|2,0:2|0:2|0:2,0:0:0:0:
320,232,62410,2,0,P|325:192|310:143,2,71.9999978027344,2|0|2,0:2|1:0|0:3,0:0:0:0:
248,280,63071,5,0,3:0:0:0:
413,331,63513,1,0,1:0:0:0:
490,176,63954,2,0,P|466:132|361:112,1,143.999995605469,0|0,3:0|1:0,0:0:0:0:
307,152,64616,2,0,P|264:119|277:29,1,143.999995605469,2|0,0:0|0:0,0:0:0:0:
208,96,65277,1,0,1:0:0:0:
208,96,65498,2,0,P|157:116|86:60,2,143.999995605469,2|2|8,0:3|0:3|0:3,0:0:0:0:
214,182,66601,6,0,P|208:230|113:251,1,143.999995605469,0|0,3:0|1:0,0:0:0:0:
45,227,67263,1,2,0:0:0:0:
168,347,67704,1,2,0:0:0:0:
321,268,68145,5,2,0:3:0:0:
321,268,68366,2,0,P|364:215|431:230,1,143.999995605469,0|0,3:0|1:0,0:0:0:0:
399,309,69027,1,2,0:0:0:0:
483,157,69469,1,2,0:0:0:0:
367,28,69910,5,0,1:0:0:0:
300,82,70130,2,0,P|231:87|177:32,2,143.999995605469,0|0|0,3:0|1:0|3:0,0:0:0:0:
221,118,71233,2,0,P|165:124|142:145,1,71.9999978027344,2|0,0:3|1:0,0:0:0:0:
105,203,71674,2,0,P|95:270|156:336,1,143.999995605469,2|4,0:0|1:2,0:0:0:0:
179,251,72336,1,4,1:2:0:0:
417,352,72998,5,0,3:0:0:0:
469,282,73219,2,0,P|477:240|464:202,1,71.9999978027344,8|4,0:3|0:3,0:0:0:0:
421,140,73660,1,4,3:1:0:0:
459,63,73880,2,0,P|418:53|364:75,1,71.9999978027344,8|4,0:3|1:2,0:0:0:0:
221,15,74542,1,0,3:0:0:0:
221,15,74763,2,0,P|208:70|222:108,1,71.9999978027344,2|0,0:3|0:0,0:0:0:0:
259,155,75204,2,0,P|210:110|113:128,2,143.999995605469,2|2|2,0:0|0:0|0:0,0:0:0:0:
162,298,76527,2,0,P|113:343|16:325,1,143.999995605469,2|0,0:0|0:0,0:0:0:0:
82,265,77189,5,0,3:0:0:0:
251,300,77630,1,0,1:0:0:0:
384,190,78071,2,0,P|342:171|263:221,1,143.999995605469,0|0,3:0|1:0,0:0:0:0:
316,148,78733,2,0,P|328:105|268:21,1,143.999995605469,2|0,0:0|0:0,0:0:0:0:
355,65,79395,1,0,1:0:0:0:
355,65,79616,2,0,P|398:77|482:17,2,143.999995605469,2|2|8,0:3|0:3|0:3,0:0:0:0:
269,77,80719,6,0,P|215:31|146:39,1,143.999995605469,0|0,3:0|1:0,0:0:0:0:
83,99,81380,1,0,0:0:0:0:
172,246,81821,1,2,0:0:0:0:
35,352,82263,2,0,P|83:320|179:339,1,143.999995605469,2|0,0:3|0:0,0:0:0:0:
245,361,82924,2,0,P|277:340|315:336,1,71.9999978027344,0|2,1:0|0:3,0:0:0:0:
394,315,83366,2,0,P|442:319|482:295,2,71.9999978027344,0|8|4,3:0|0:3|3:0,0:0:0:0:
404,142,84248,6,0,P|357:145|325:168,1,71.9999978027344,4|2,3:1|0:3,0:0:0:0:
267,106,84689,2,0,P|208:114|133:56,1,143.999995605469,2|0,1:0|0:0,0:0:0:0:
65,25,85351,2,0,P|54:77|63:112,1,71.9999978027344,0|2,0:0|1:3,0:0:0:0:
95,172,85792,1,0,1:0:0:0:
261,219,86233,1,0,1:0:0:0:
328,164,86454,6,0,P|364:169|408:195,1,71.9999978027344,2|0,1:0|1:0,1:0:0:0:
477,213,86895,2,0,P|488:256|470:307,1,71.9999978027344,0|0,1:0|1:0,0:0:0:0:
424,345,87336,1,0,1:0:0:0:
340,320,87557,1,4,1:0:0:0:
