osu file format v14

[General]
AudioFilename: audio.mp3
AudioLeadIn: 0
PreviewTime: 9358
Countdown: 0
SampleSet: Soft
StackLeniency: 0.4
Mode: 0
LetterboxInBreaks: 0
WidescreenStoryboard: 1

[Editor]
DistanceSpacing: 1.2
BeatDivisor: 2
GridSize: 16
TimelineZoom: 1

[Metadata]
Title:COLORS
TitleUnicode:COLORS
Artist:FLOW
ArtistUnicode:FLOW
Creator:Aeril
Version:Easy
Source:コードギアス 反逆のルルーシュ
Tags:code geass lelouch of the rebellion hangyaku no jibun wo
BeatmapID:1543208
BeatmapSetID:730452

[Difficulty]
HPDrainRate:3
CircleSize:3
OverallDifficulty:4
ApproachRate:4
SliderMultiplier:1
SliderTickRate:2

[Events]
//Background and Video events
0,0,"887422.png",0,0
Video,0,"video.mp4"
//Break Periods
//Storyboard Layer 0 (Background)
//Storyboard Layer 1 (Fail)
//Storyboard Layer 2 (Pass)
//Storyboard Layer 3 (Foreground)
//Storyboard Sound Samples

[TimingPoints]
3072,441.176470588235,4,2,1,60,1,0
3292,-100,4,2,1,50,0,0
9689,-100,4,2,1,40,0,0
10130,-100,4,2,1,70,0,1
24248,-100,4,2,2,50,0,0
36380,-100,4,2,2,50,0,0
38145,-100,4,2,2,60,0,0
52483,-100,4,2,2,50,0,0
58660,-100,4,2,2,60,0,0
59542,-100,4,2,1,70,0,1
73660,-100,4,2,1,60,0,0
74101,-100,4,2,1,70,0,1
87557,-100,4,2,1,70,0,0

[Colours]
Combo1 : 182,182,182
Combo2 : 208,135,248
Combo3 : 167,207,248
Combo4 : 254,193,133

[HitObjects]
80,48,3071,5,4,3:1:0:0:
432,128,4836,1,4,3:2:0:0:
80,208,6601,1,4,3:2:0:0:
432,288,8366,2,0,P|361:328|289:292,1,150,0|2,1:0|1:0,0:0:0:0:
132,242,9689,6,0,B|82:232|53:261|53:261|66:272,1,100,0|4,0:0|3:1,0:0:0:0:
169,328,10571,1,0,1:0:0:0:
233,226,11013,2,0,P|244:177|182:98,1,150,0|2,3:0|0:2,0:0:0:0:
71,77,12116,2,0,P|119:56|140:9,2,100,2|2|2,0:2|0:2|0:2,0:0:0:0:
242,21,13660,5,0,3:0:0:0:
347,77,14101,1,0,1:0:0:0:
464,51,14542,2,0,P|422:75|403:179,1,150,0|2,3:0|0:0,0:0:0:0:
413,348,15866,2,0,P|462:342|502:314,2,100,0|0|0,1:0|0:0|1:0,0:0:0:0:
321,272,17189,6,0,P|282:257|184:306,1,150,0|0,3:0|0:3,0:0:0:0:
74,336,18292,1,2,0:0:0:0:
19,229,18733,2,0,P|6:168|65:83,1,150,2|0,0:2|1:0,0:0:0:0:
135,13,19836,2,0,P|174:12|233:58,1,100,0|4,3:0|3:0,0:0:0:0:
263,157,20719,1,4,3:1:0:0:
256,192,20829,12,4,24248,3:1:0:0:
411,342,26013,6,0,P|425:301|364:215,2,150,0|2|0,3:0|0:0|3:0,0:0:0:0:
301,293,27777,1,0,3:0:0:0:
13,37,29542,2,0,P|55:28|147:80,1,150,0|2,3:0|0:0,0:0:0:0:
82,246,30866,1,0,1:0:0:0:
58,128,31307,5,4,3:0:0:0:
427,158,33071,2,0,P|472:129|470:37,2,150,0|2|0,3:0|0:0|3:0,0:0:0:0:
353,253,34836,2,0,B|292:270|251:230|251:230|201:189|149:222,1,200,0|0,3:0|3:0,0:0:0:0:
33,333,36380,6,0,B|103:311|105:370|189:335,1,150,2|0,3:1|3:0,0:0:0:0:
281,276,37483,2,0,P|325:271|390:306,1,100,0|0,3:0|1:0,0:0:0:0:
478,353,38366,6,0,P|493:309|487:254,1,100,4|0,3:0|1:0,0:0:0:0:
511,77,39469,2,0,P|472:84|457:96,1,50,0|0,3:0|1:0,0:0:0:0:
382,177,40130,1,0,3:0:0:0:
270,133,40571,1,0,1:0:0:0:
190,294,41233,2,0,P|156:303|129:299,1,50,0|0,3:0|1:0,0:0:0:0:
31,254,41895,2,0,P|85:222|120:164,1,100,0|0,3:0|1:0,0:0:0:0:
55,20,42998,2,0,P|73:36|96:46,1,50,0|0,3:0|1:0,0:0:0:0:
210,82,43660,2,0,P|283:83|333:8,2,150,0|0|0,3:0|0:0|1:0,0:0:0:0:
217,201,45424,6,0,P|272:208|329:191,1,100,4|0,3:0|1:0,0:0:0:0:
495,213,46527,2,0,P|508:179|505:158,1,50,0|0,3:0|1:0,0:0:0:0:
425,78,47189,1,0,3:0:0:0:
321,138,47630,1,0,1:0:0:0:
219,286,48292,2,0,P|182:281|142:256,1,50,0|0,3:0|1:0,0:0:0:0:
139,161,48954,6,0,P|66:136|34:54,1,150,0|0,3:0|0:0,0:0:0:0:
150,44,50057,1,0,3:0:0:0:
250,109,50498,2,0,B|322:94|322:155|420:127,1,150,0|0,0:0|1:0,0:0:0:0:
506,177,51601,2,0,P|509:238|473:274,1,100,8|4,0:3|0:3,0:0:0:0:
376,315,52483,5,4,3:0:0:0:
96,216,54027,2,0,P|130:212|155:219,1,50,2|0,3:0|0:0,0:0:0:0:
269,345,54910,2,0,P|262:282|290:245,1,100,2|0,3:0|3:0,0:0:0:0:
354,159,55792,2,0,P|361:119|355:91,1,50,0|0,3:0|3:0,0:0:0:0:
201,24,56674,2,0,P|187:83|218:140,2,100,2|8|4,3:0|3:0|3:1,0:0:0:0:
58,329,58660,5,0,1:0:0:0:
174,300,59101,1,8,3:0:0:0:
286,342,59542,2,0,P|351:348|404:302,1,100,4|0,3:1|1:0,0:0:0:0:
498,313,60424,2,0,P|512:256|467:171,1,150,0|2,3:0|0:2,0:0:0:0:
400,81,61527,2,0,P|444:71|499:87,2,100,2|2|2,0:2|0:2|0:2,0:0:0:0:
224,123,63071,5,0,3:0:0:0:
111,80,63513,1,0,1:0:0:0:
51,184,63954,2,0,P|62:266|130:313,1,150,0|2,3:0|0:0,0:0:0:0:
217,251,65057,2,0,P|282:245|328:262,2,100,0|2|2,0:0|0:3|0:3,0:0:0:0:
374,336,66601,6,0,P|416:281|403:198,1,150,0|2,3:0|0:0,0:0:0:0:
324,117,67704,1,2,0:0:0:0:
149,159,68366,2,0,P|107:214|120:297,1,150,0|2,3:0|0:0,0:0:0:0:
199,378,69469,2,0,P|140:343|44:369,1,150,2|0,0:0|3:0,0:0:0:0:
9,247,70571,2,0,P|13:191|36:145,2,100,0|0|0,1:0|3:0|1:0,0:0:0:0:
155,142,72116,2,0,P|163:111|163:85,1,50,4|4,1:2|1:2,0:0:0:0:
393,21,73219,6,0,P|388:70|410:114,1,100,8|4,0:3|3:1,0:0:0:0:
489,204,74101,2,0,P|419:166|340:223,1,150,4|2,1:2|0:3,0:0:0:0:
287,287,75204,2,0,P|346:297|389:276,2,100,2|2|2,0:0|0:0|0:0,0:0:0:0:
179,233,76527,1,2,0:0:0:0:
24,325,77189,6,0,P|4:261|30:201,1,100,0|0,3:0|1:0,0:0:0:0:
13,110,78071,2,0,P|25:61|120:28,1,150,0|2,3:0|0:0,0:0:0:0:
192,112,79174,2,0,P|238:124|305:114,1,100,0|2,0:0|0:3,0:0:0:0:
386,47,80057,1,2,0:3:0:0:
494,190,80719,6,0,P|418:222|332:182,1,150,0|0,3:0|0:0,0:0:0:0:
236,197,81821,1,2,0:0:0:0:
126,246,82263,2,0,P|180:239|258:318,1,150,2|0,0:3|1:0,0:0:0:0:
339,376,83366,2,0,P|408:369|432:343,1,100,0|4,3:0|3:0,0:0:0:0:
430,229,84248,5,4,3:1:0:0:
468,115,84689,2,0,B|393:92|396:151|311:122,1,150,2|0,1:0|0:0,0:0:0:0:
219,62,85792,1,0,1:0:0:0:
64,154,86454,2,0,P|110:137|158:147,1,100,2|0,1:0|1:0,0:0:0:0:
221,249,87336,2,0,L|228:315,1,50,0|4,1:0|1:0,0:0:0:0:
