osu file format v14

[General]
AudioFilename: audio.mp3
AudioLeadIn: 0
PreviewTime: 9358
Countdown: 0
SampleSet: Soft
StackLeniency: 0.4
Mode: 0
LetterboxInBreaks: 0
WidescreenStoryboard: 1

[Editor]
DistanceSpacing: 1.2
BeatDivisor: 4
GridSize: 16
TimelineZoom: 1

[Metadata]
Title:COLORS
TitleUnicode:COLORS
Artist:FLOW
ArtistUnicode:FLOW
Creator:Aeril
Version:Hard
Source:コードギアス 反逆のルルーシュ
Tags:code geass lelouch of the rebellion hangyaku no jibun wo
BeatmapID:1542529
BeatmapSetID:730452

[Difficulty]
HPDrainRate:5
CircleSize:4
OverallDifficulty:6
ApproachRate:7
SliderMultiplier:1.4
SliderTickRate:2

[Events]
//Background and Video events
0,0,"887422.png",0,0
Video,0,"video.mp4"
//Break Periods
//Storyboard Layer 0 (Background)
//Storyboard Layer 1 (Fail)
//Storyboard Layer 2 (Pass)
//Storyboard Layer 3 (Foreground)
//Storyboard Sound Samples

[TimingPoints]
3072,441.176470588235,4,2,1,60,1,0
3292,-100,4,2,1,50,0,0
9689,-83.3333333333333,4,2,1,40,0,0
10130,-83.3333333333333,4,2,1,70,0,1
11674,-100,4,2,1,70,0,1
13660,-83.3333333333333,4,2,1,70,0,1
18954,-100,4,2,1,70,0,1
24248,-133.333333333333,4,2,2,50,0,0
36380,-83.3333333333333,4,2,2,50,0,0
38145,-100,4,2,2,60,0,0
52483,-100,4,2,2,50,0,0
58660,-100,4,2,2,60,0,0
59542,-83.3333333333333,4,2,1,70,0,1
61086,-100,4,2,1,70,0,1
63071,-83.3333333333333,4,2,1,70,0,1
66601,-100,4,2,1,70,0,1
71233,-83.3333333333333,4,2,1,70,0,1
73660,-83.3333333333333,4,2,1,60,0,0
74101,-83.3333333333333,4,2,1,70,0,1
75204,-100,4,2,1,70,0,1
77189,-83.3333333333333,4,2,1,70,0,1
87557,-83.3333333333333,4,2,1,70,0,0

[Colours]
Combo1 : 182,182,182
Combo2 : 208,135,248
Combo3 : 167,207,248
Combo4 : 254,193,133

[HitObjects]
32,89,3071,6,0,P|79:86|111:102,1,70,4|4,3:1|3:1,0:0:0:0:
166,146,3513,1,2,0:0:0:0:
166,146,3623,1,2,0:0:0:0:
247,124,3844,2,0,P|257:90|252:56,2,70,0|0|2,0:0|0:0|0:3,0:0:0:0:
246,165,4395,2,0,P|241:199|251:232,1,70,2|0,0:0|0:0,0:0:0:0:
400,340,4836,6,0,P|357:323|312:328,1,70,4|2,3:2|0:3,0:0:0:0:
254,352,5277,1,2,0:0:0:0:
254,352,5388,1,2,0:0:0:0:
183,307,5608,2,0,P|140:324|95:319,2,70,0|0|2,0:0|0:0|0:3,0:0:0:0:
211,276,6160,2,0,P|254:259|299:264,1,70,2|0,0:0|0:0,0:0:0:0:
400,340,6601,6,0,P|407:293|387:254,1,70,4|2,3:2|0:3,0:0:0:0:
364,196,7042,1,2,0:0:0:0:
364,196,7152,1,2,0:0:0:0:
414,128,7373,2,0,P|407:81|427:42,2,70,0|0|2,0:0|0:0|0:3,0:0:0:0:
375,111,7924,2,0,P|341:118|307:110,1,70,2|0,0:0|0:0,0:0:0:0:
210,36,8366,6,0,L|208:1,3,35,0|0|0|0,1:0|1:0|1:0|1:0,0:0:0:0:
144,86,8807,1,0,1:0:0:0:
145,103,8917,1,0,1:0:0:0:
147,120,9027,2,0,L|151:172,1,35,2|0,1:0|1:0,0:0:0:0:
161,280,9469,5,0,0:0:0:0:
16,311,9689,2,0,B|96:288|96:354|162:323|162:323|188:292,1,167.999994873047,0|4,0:0|3:1,0:0:0:0:
264,132,10571,1,0,1:0:0:0:
440,230,11013,1,0,3:0:0:0:
440,230,11233,2,0,P|368:248|343:234,1,83.9999974365235,0|0,0:0|1:0,0:0:0:0:
294,196,11674,2,0,P|277:240|285:286,1,70,2|0,0:2|3:0,0:0:0:0:
174,178,12116,2,0,P|181:224|211:260,1,70,2|0,0:2|1:0,0:0:0:0:
61,222,12557,2,0,P|75:270|178:312,2,140,2|2|2,0:2|0:2|0:3,0:0:0:0:
92,127,13660,6,0,P|155:76|236:89,1,167.999994873047,0|0,3:0|1:0,0:0:0:0:
312,156,14321,1,0,0:0:0:0:
391,95,14542,2,0,P|449:105|496:90,1,83.9999974365235,0|0,3:0|0:0,0:0:0:0:
443,251,14983,1,0,1:0:0:0:
443,251,15204,2,0,P|423:181|499:129,1,167.999994873047,2|0,0:0|0:0,0:0:0:0:
329,186,15866,1,0,1:0:0:0:
329,186,16087,2,0,P|258:168|251:76,2,167.999994873047,2|2|8,0:3|0:3|0:3,0:0:0:0:
309,201,17079,5,4,0:3:0:0:
287,211,17189,2,0,P|207:228|141:165,1,167.999994873047,0|0,3:0|1:0,0:0:0:0:
46,197,17851,2,0,P|123:217|137:321,2,167.999994873047,0|2|2,0:3|0:0|0:2,0:0:0:0:
63,279,18954,1,0,3:0:0:0:
96,355,19174,2,0,P|137:376|188:361,1,70,2|0,0:3|1:0,0:0:0:0:
231,330,19616,2,0,P|284:314|323:324,2,70,2|0|8,0:3|3:0|0:3,0:0:0:0:
235,196,20277,1,4,3:0:0:0:
255,190,20388,1,4,3:0:0:0:
275,192,20498,1,4,3:0:0:0:
294,199,20608,1,4,3:0:0:0:
313,208,20719,6,0,P|356:208|388:189,1,70,4|2,3:1|0:3,0:0:0:0:
412,118,21160,1,2,1:2:0:0:
412,118,21270,1,2,0:2:0:0:
346,65,21491,2,0,P|337:25|347:-12,2,70,0|0|2,0:0|0:0|0:0,0:0:0:0:
309,84,22042,2,0,P|314:118|305:151,1,70,2|4,1:3|0:0,0:0:0:0:
231,193,22483,1,0,0:0:0:0:
8,180,22704,5,0,1:0:0:0:
171,126,22924,1,2,1:0:0:0:
171,126,23035,1,2,0:0:0:0:
78,115,23255,2,0,P|80:70|101:34,2,70,0|2|2,1:0|0:3|0:0,0:0:0:0:
88,156,23807,2,0,P|100:188|100:223,1,70,2|0,1:2|1:0,0:0:0:0:
91,243,24138,1,0,1:0:0:0:
80,261,24248,5,4,3:1:0:0:
80,261,24689,2,0,P|117:230|189:234,2,105.000004005432,0|0|0,3:0|3:0|3:0,0:0:0:0:
160,319,25792,1,0,0:0:0:0:
160,319,26013,2,0,P|214:326|272:308,1,105.000004005432,0|0,3:0|3:0,0:0:0:0:
312,190,26674,1,2,0:0:0:0:
353,315,26895,2,0,P|407:308|465:326,1,105.000004005432,0|0,3:0|3:0,0:0:0:0:
455,320,27777,6,0,P|466:258|514:232,3,105.000004005432,0|0|0|0,3:0|3:0|3:0|3:0,0:0:0:0:
497,235,29542,2,0,P|451:228|409:186,1,105.000004005432,0|0,3:0|3:0,0:0:0:0:
290,256,30204,2,0,P|325:253|355:236,1,52.5000020027161,2|0,0:0|3:0,0:0:0:0:
403,21,30866,1,0,1:0:0:0:
366,109,31086,6,0,L|413:106,2,26.2500010013581,2|2|4,0:0|0:3|3:0,0:0:0:0:
366,109,31748,2,0,P|307:101|268:125,2,105.000004005432,0|0|0,3:0|3:0|3:0,0:0:0:0:
331,186,32851,1,0,0:0:0:0:
331,186,33071,2,0,P|275:202|217:186,1,105.000004005432,0|0,3:0|3:0,0:0:0:0:
150,107,33733,1,2,0:0:0:0:
167,254,33954,2,0,P|111:238|53:254,1,105.000004005432,0|0,3:0|3:0,0:0:0:0:
66,247,34836,6,0,P|55:198|84:136,3,105.000004005432,0|0|0|0,3:0|3:0|3:0|3:0,0:0:0:0:
0,28,36380,6,0,B|80:13|80:67|142:40|142:40|167:16,1,167.999994873047,2|2,3:1|3:1,0:0:0:0:
224,83,37042,1,0,3:0:0:0:
225,108,37263,1,0,3:0:0:0:
226,133,37483,1,0,3:0:0:0:
227,158,37704,1,0,3:0:0:0:
232,326,37924,1,0,1:0:0:0:
256,240,38145,5,0,0:0:0:0:
172,228,38366,1,4,3:0:0:0:
256,240,38586,2,0,P|313:239|339:225,1,70,0|0,0:0|1:0,0:0:0:0:
454,143,39027,2,0,P|502:162|517:185,2,70,0|0|0,0:0|0:0|3:0,0:0:0:0:
372,162,39689,1,0,1:0:0:0:
256,336,39910,5,0,0:0:0:0:
335,310,40130,1,0,3:0:0:0:
256,336,40351,2,0,P|199:335|173:321,1,70,0|0,0:0|1:0,0:0:0:0:
81,174,40792,2,0,P|24:175|-2:189,2,70,0|0|0,0:0|0:0|3:0,0:0:0:0:
143,230,41454,1,0,1:0:0:0:
256,128,41674,5,0,0:0:0:0:
337,108,41895,1,0,3:0:0:0:
256,128,42116,2,0,P|211:120|183:103,1,70,0|0,0:0|1:0,0:0:0:0:
422,124,42557,2,0,P|413:60|392:38,2,70,0|0|0,0:0|0:0|3:0,0:0:0:0:
368,189,43219,1,0,1:0:0:0:
269,302,43439,5,0,0:0:0:0:
202,250,43660,2,0,P|150:242|116:258,2,70,0|0|0,3:0|0:0|1:0,0:0:0:0:
269,302,44321,2,0,P|337:325|395:263,1,140,0|0,0:0|3:0,0:0:0:0:
403,204,44983,1,0,1:0:0:0:
330,12,45204,5,0,0:0:0:0:
369,85,45424,1,4,3:0:0:0:
441,128,45645,2,0,P|489:143|530:135,1,70,0|0,0:0|1:0,0:0:0:0:
298,139,46086,1,0,0:0:0:0:
217,113,46307,1,0,0:0:0:0:
145,155,46527,2,0,P|99:161|69:150,1,70,0|0,3:0|1:0,0:0:0:0:
226,45,46969,6,0,P|256:32|306:43,2,70,0|0|0,0:0|3:0|0:0,0:0:0:0:
150,8,47630,1,0,1:0:0:0:
145,155,47851,1,0,0:0:0:0:
205,213,48071,1,0,0:0:0:0:
289,213,48292,2,0,P|334:208|378:227,1,70,0|0,3:0|1:0,0:0:0:0:
339,359,48733,6,0,P|370:373|405:373,2,70,0|0|0,0:0|3:0|0:0,0:0:0:0:
205,259,49395,1,0,1:0:0:0:
158,328,49616,2,0,P|229:340|280:292,2,140,0|0|0,0:0|3:0|0:0,0:0:0:0:
111,257,50719,2,0,P|107:221|125:175,1,70,0|0,3:0|0:0,0:0:0:0:
225,61,51160,1,0,1:0:0:0:
111,0,51380,2,0,P|115:55|183:129,1,140,0|8,0:3|3:0,0:0:0:0:
248,152,52042,1,4,0:3:0:0:
248,152,52263,1,4,3:0:0:0:
378,107,52483,6,0,P|440:100|511:174,1,140,4|0,3:0|0:0,0:0:0:0:
501,228,53145,2,0,P|447:270|379:265,1,140,2|0,0:0|0:3,0:0:0:0:
298,289,53807,2,0,P|346:287|382:310,1,70,0|2,0:0|3:0,0:0:0:0:
218,374,54469,2,0,P|185:385|150:380,1,70,0|0,0:3|0:0,0:0:0:0:
84,329,54910,1,2,3:0:0:0:
140,171,55351,2,0,P|156:140|158:105,2,70,0|0|0,3:0|0:0|3:0,0:0:0:0:
67,213,56013,6,0,P|125:208|186:259,1,140,0|0,3:0|0:0,0:0:0:0:
206,338,56674,1,2,3:0:0:0:
290,332,56895,2,0,P|323:344|367:337,2,70,0|8|4,1:0|3:0|3:0,0:0:0:0:
418,278,57557,1,4,3:1:0:0:
418,278,58660,6,0,L|415:229,3,35,0|0|0|0,1:0|1:0|1:0|3:0,0:0:0:0:
384,170,59101,2,0,L|387:121,1,35,8|8,3:0|3:0,0:0:0:0:
451,85,59321,2,0,L|448:36,1,35,4|4,0:3|0:3,0:0:0:0:
375,18,59542,6,0,B|307:11|307:57|235:38|235:38|210:17,1,167.999994873047,4|0,3:1|1:0,0:0:0:0:
50,136,60424,1,0,3:0:0:0:
50,136,60645,2,0,P|121:134|146:112,1,83.9999974365235,0|0,0:0|1:0,0:0:0:0:
154,210,61086,2,0,P|171:254|163:300,1,70,2|0,0:2|3:0,0:0:0:0:
271,157,61528,2,0,P|263:203|233:239,1,70,2|0,0:2|1:0,0:0:0:0:
398,169,61969,2,0,P|369:205|253:200,1,140,2|2,0:2|0:2,0:0:0:0:
356,253,62630,2,0,P|396:256|446:286,1,70,0|2,1:0|0:3,0:0:0:0:
493,194,63071,6,0,P|494:141|412:69,2,167.999994873047,0|0|0,3:0|1:0|3:0,0:0:0:0:
423,267,64174,2,0,P|413:301|430:357,1,83.9999974365235,0|0,0:0|1:0,0:0:0:0:
398,169,64616,2,0,P|333:177|315:281,1,167.999994873047,2|0,0:0|0:0,0:0:0:0:
298,93,65277,1,0,1:0:0:0:
298,93,65498,2,0,P|258:40|159:77,2,167.999994873047,2|2|8,0:3|0:3|0:3,0:0:0:0:
287,116,66491,5,4,0:3:0:0:
275,133,66601,2,0,P|218:157|131:129,1,140,0|0,3:0|1:0,0:0:0:0:
146,223,67263,2,0,P|153:275|139:312,1,70,2|0,0:0|3:0,0:0:0:0:
282,230,67704,2,0,P|262:278|231:303,1,70,2|0,0:0|1:0,0:0:0:0:
357,109,68145,5,2,0:3:0:0:
357,109,68366,2,0,P|415:73|484:90,1,140,0|0,3:0|1:0,0:0:0:0:
473,172,69027,2,0,P|496:141|503:92,1,70,2|0,0:0|3:0,0:0:0:0:
388,263,69469,2,0,P|392:224|373:178,1,70,2|0,0:0|1:0,0:0:0:0:
357,109,69910,6,0,P|321:92|299:89,1,35,0|0,1:0|1:0,0:0:0:0:
284,97,70130,2,0,P|223:115|150:55,2,140,0|0|0,3:0|1:0|3:0,0:0:0:0:
326,4,71233,2,0,P|279:-6|235:10,1,83.9999974365235,2|0,0:3|1:0,0:0:0:0:
160,77,71674,2,0,P|113:87|69:71,1,83.9999974365235,2|0,0:0|3:0,0:0:0:0:
12,0,72116,5,4,1:2:0:0:
77,185,72336,2,0,P|96:245|54:313,1,125.999996154785,4|0,1:2|1:0,0:0:0:0:
30,330,72777,2,0,P|76:326|97:334,1,41.9999987182618,4|0,1:3|1:0,0:0:0:0:
145,362,72998,2,0,P|191:366|212:358,1,41.9999987182618,0|0,3:0|3:0,0:0:0:0:
260,312,73219,1,8,0:3:0:0:
293,317,73329,1,8,0:3:0:0:
325,322,73439,1,4,0:3:0:0:
357,328,73549,1,4,0:3:0:0:
390,334,73660,5,4,3:1:0:0:
485,186,73880,2,0,L|521:181,2,27.9999991455078,8|8|4,3:0|3:0|3:0,0:0:0:0:
457,205,74101,2,0,P|378:180|356:93,1,167.999994873047,4|0,1:2|3:0,0:0:0:0:
272,165,74763,2,0,P|215:171|182:158,1,83.9999974365235,2|0,0:3|0:0,0:0:0:0:
126,218,75204,2,0,P|143:262|135:308,1,70,2|0,0:0|3:0,0:0:0:0:
272,165,75646,2,0,P|265:211|235:247,1,70,2|0,0:0|1:0,0:0:0:0:
424,191,76086,2,0,P|399:251|313:279,2,140,2|2|0,0:0|0:0|0:0,0:0:0:0:
409,176,77079,5,0,1:0:0:0:
390,159,77189,2,0,P|473:133|504:49,1,167.999994873047,0|0,3:0|1:0,0:0:0:0:
404,69,77851,1,0,0:0:0:0:
321,12,78071,2,0,P|260:8|219:35,1,83.9999974365235,0|0,3:0|0:0,0:0:0:0:
157,161,78513,1,0,1:0:0:0:
157,161,78733,2,0,P|139:106|16:127,1,167.999994873047,2|0,0:0|0:0,0:0:0:0:
152,249,79395,1,0,1:0:0:0:
152,249,79615,2,0,P|170:194|293:215,2,167.999994873047,2|2|8,0:3|0:3|0:3,0:0:0:0:
170,266,80608,5,4,0:3:0:0:
187,284,80719,2,0,P|257:266|340:316,1,167.999994873047,0|0,3:0|1:0,0:0:0:0:
436,303,81380,2,0,P|441:355|421:394,1,83.9999974365235,0|0,0:0|0:0,0:0:0:0:
322,231,81821,2,0,P|340:279|331:322,1,83.9999974365235,2|0,0:0|0:0,0:0:0:0:
191,140,82263,6,0,P|172:69|243:-6,1,167.999994873047,2|0,0:3|0:0,0:0:0:0:
316,44,82924,1,0,1:0:0:0:
414,20,83145,2,0,P|457:26|500:10,2,83.9999974365235,2|0|8,0:3|3:0|0:3,0:0:0:0:
313,136,83807,1,4,3:0:0:0:
296,164,83917,1,4,3:0:0:0:
287,196,84027,1,4,3:0:0:0:
286,229,84138,1,4,3:0:0:0:
298,260,84248,5,4,3:1:0:0:
464,287,84469,1,2,0:3:0:0:
365,358,84689,1,2,1:0:0:0:
365,358,84799,1,2,0:0:0:0:
413,176,85020,2,0,P|424:130|407:86,2,83.9999974365235,0|0|2,0:0|0:0|0:0,0:0:0:0:
375,209,85571,1,2,1:3:0:0:
248,90,85792,2,0,P|237:44|254:0,1,83.9999974365235,0|0,1:0|0:0,0:0:0:0:
329,135,86233,5,0,1:0:0:0:
146,164,86454,1,2,1:0:0:0:
146,164,86564,1,2,0:0:0:0:
265,231,86785,2,0,P|276:277|259:321,2,83.9999974365235,2|2|2,0:3|0:3|0:0,0:0:0:0:
229,195,87336,1,0,1:0:0:0:
199,373,87557,1,4,1:0:0:0:
