osu file format v14

[General]
AudioFilename: audio.mp3
AudioLeadIn: 0
PreviewTime: 107966
Countdown: 0
SampleSet: Normal
StackLeniency: 0.7
Mode: 1
LetterboxInBreaks: 0
WidescreenStoryboard: 1

[Editor]
Bookmarks: 57694,58551,65837,94771,94909,95738,96153,96430,97259,111030,112055,115132,115901,127440,128465,131542,132055,135645,136671,137696,138209,138722,140517,140773,142312
DistanceSpacing: 0.9
BeatDivisor: 4
GridSize: 32
TimelineZoom: 2.699999

[Metadata]
Title:KAC 2013 ULTIMATE MEDLEY -HISTORIA SOUND VOLTEX-
TitleUnicode:KAC 2013 ULTIMATE MEDLEY -HISTORIA SOUND VOLTEX-
Artist:FLOOR LEGENDS -KAC 2013-
ArtistUnicode:FLOOR LEGENDS -KAC 2013-
Creator:Arrival
Version:Muzukashii
Source:SOUND VOLTEX III GRAVITY WARS
Tags:sdvx gravity wars infinite infection kac aldwych jppt last battalion choux à la crème LittleGameStar EOS -INFINITE EDIT- Black Emperor Erlung odds and ends BLACK or WHITE? Hellfire Bangin' Burst kac2013オリジナル楽曲コンテスト kamome sano an ginkiha chroma sakuzyo yozaquar blacky yooh siromaru hommarju Kin Aldwych
BeatmapID:1020217
BeatmapSetID:477566

[Difficulty]
HPDrainRate:6
CircleSize:2
OverallDifficulty:5
ApproachRate:5
SliderMultiplier:1.39999991989136
SliderTickRate:1

[Events]
//Background and Video events
0,0,"bg sdvx.jpg",0,0
//Break Periods
//Storyboard Layer 0 (Background)
//Storyboard Layer 1 (Fail)
//Storyboard Layer 2 (Pass)
//Storyboard Layer 3 (Foreground)
//Storyboard Sound Samples

[TimingPoints]
1676,315.789473684211,4,1,0,80,1,0
44702,-100,4,1,0,60,0,0
50623,-125,4,1,0,60,0,0
52123,428.571428571429,4,1,0,70,1,0
52123,-100,4,1,0,70,0,0
79551,315.789473684211,4,1,0,70,1,0
89656,-100,4,1,0,70,0,1
99761,256.410256410256,4,1,0,70,1,0
107709,-100,4,1,0,90,0,0
107966,-100,4,1,0,90,0,1
123478,-100,4,1,0,90,0,0
124376,-100,4,1,0,90,0,1
142837,-100,4,1,0,90,0,0

[HitObjects]
96,160,1676,5,4,0:0:0:0:
96,160,2307,1,8,0:0:0:0:
96,160,2781,1,0,0:0:0:0:
96,160,3254,1,0,0:0:0:0:
96,160,3570,1,8,0:0:0:0:
96,160,3886,1,0,0:0:0:0:
96,160,4202,1,4,0:0:0:0:
96,160,4360,1,0,0:0:0:0:
96,160,4518,1,8,0:0:0:0:
96,160,4676,1,0,0:0:0:0:
96,160,4991,1,0,0:0:0:0:
96,160,5149,1,8,0:0:0:0:
96,160,5307,1,4,0:0:0:0:
128,160,6728,1,4,0:0:0:0:
128,160,7044,1,0,0:0:0:0:
128,160,7360,1,8,0:0:0:0:
128,160,7676,1,8,0:0:0:0:
128,160,7833,1,0,0:0:0:0:
128,160,8149,1,0,0:0:0:0:
128,160,8307,1,0,0:0:0:0:
128,160,8623,1,8,0:0:0:0:
128,160,8939,1,8,0:0:0:0:
128,160,9254,1,4,0:0:0:0:
128,160,9412,1,0,0:0:0:0:
128,160,9570,1,8,0:0:0:0:
128,160,9728,1,0,0:0:0:0:
128,160,10044,1,8,0:0:0:0:
128,160,10202,1,0,0:0:0:0:
128,160,10360,1,8,0:0:0:0:
128,160,10676,1,0,0:0:0:0:
128,160,10833,1,8,0:0:0:0:
128,160,10991,1,0,0:0:0:0:
128,160,11307,1,8,0:0:0:0:
128,160,11465,1,0,0:0:0:0:
128,160,11781,1,12,0:0:0:0:
128,160,11939,1,0,0:0:0:0:
128,160,12097,1,0,0:0:0:0:
128,160,12254,1,8,0:0:0:0:
128,160,12570,1,8,0:0:0:0:
128,160,12728,1,0,0:0:0:0:
128,160,12886,1,8,0:0:0:0:
128,160,13518,1,4,0:0:0:0:
128,160,13833,1,0,0:0:0:0:
128,160,13991,1,12,0:0:0:0:
128,160,14307,1,8,0:0:0:0:
128,160,14465,1,8,0:0:0:0:
128,160,14781,1,0,0:0:0:0:
128,160,14939,1,0,0:0:0:0:
128,160,15097,1,0,0:0:0:0:
128,160,15254,1,8,0:0:0:0:
128,160,15412,1,8,0:0:0:0:
128,160,15728,1,8,0:0:0:0:
128,160,16044,1,8,0:0:0:0:
128,160,16360,1,8,0:0:0:0:
128,160,16518,1,0,0:0:0:0:
128,160,16676,1,0,0:0:0:0:
128,160,16833,1,8,0:0:0:0:
128,160,17149,1,0,0:0:0:0:
128,160,17307,1,0,0:0:0:0:
128,160,17465,1,8,0:0:0:0:
128,160,17623,1,0,0:0:0:0:
128,160,17781,1,8,0:0:0:0:
128,160,17939,1,0,0:0:0:0:
128,160,18254,1,8,0:0:0:0:
128,160,18412,1,0,0:0:0:0:
128,160,18570,1,8,0:0:0:0:
128,160,18886,1,0,0:0:0:0:
128,160,19044,1,0,0:0:0:0:
128,160,19202,1,8,0:0:0:0:
128,160,19360,1,8,0:0:0:0:
128,160,19676,1,0,0:0:0:0:
128,160,19833,1,0,0:0:0:0:
128,160,19991,1,8,0:0:0:0:
128,160,20307,1,8,0:0:0:0:
128,160,20465,1,8,0:0:0:0:
128,160,20781,1,8,0:0:0:0:
128,160,21097,1,8,0:0:0:0:
128,160,21412,1,8,0:0:0:0:
128,160,21570,1,0,0:0:0:0:
128,160,21728,1,8,0:0:0:0:
128,160,21886,1,0,0:0:0:0:
128,160,22202,1,8,0:0:0:0:
128,160,22360,1,0,0:0:0:0:
128,160,22518,1,0,0:0:0:0:
128,160,22676,1,8,0:0:0:0:
128,160,22833,1,8,0:0:0:0:
128,160,22991,1,0,0:0:0:0:
256,192,23149,12,0,24097,0:0:0:0:
128,160,24412,5,8,0:0:0:0:
128,160,24570,1,0,0:0:0:0:
128,160,24728,1,8,0:0:0:0:
128,160,24886,1,8,0:0:0:0:
128,160,25202,1,0,0:0:0:0:
128,160,25360,1,8,0:0:0:0:
128,160,25518,1,0,0:0:0:0:
128,160,25833,1,0,0:0:0:0:
128,160,26149,1,0,0:0:0:0:
128,160,26465,1,8,0:0:0:0:
128,160,26623,1,8,0:0:0:0:
128,160,26781,1,0,0:0:0:0:
128,160,26939,1,8,0:0:0:0:
128,160,27254,1,8,0:0:0:0:
128,160,27412,1,0,0:0:0:0:
128,160,27570,1,8,0:0:0:0:
128,160,27728,1,0,0:0:0:0:
128,160,28044,1,8,0:0:0:0:
128,160,28360,1,0,0:0:0:0:
128,160,28518,1,8,0:0:0:0:
128,160,28676,1,0,0:0:0:0:
128,160,28833,1,8,0:0:0:0:
128,160,29149,1,8,0:0:0:0:
128,160,29307,1,0,0:0:0:0:
128,160,29465,1,0,0:0:0:0:
128,160,29781,1,8,0:0:0:0:
128,160,29939,1,0,0:0:0:0:
128,160,30097,1,0,0:0:0:0:
128,160,30254,1,0,0:0:0:0:
128,160,30412,1,8,0:0:0:0:
128,160,30570,1,8,0:0:0:0:
128,160,30886,1,0,0:0:0:0:
128,160,31044,1,8,0:0:0:0:
128,160,31202,1,0,0:0:0:0:
128,160,31360,1,0,0:0:0:0:
128,160,31676,1,8,0:0:0:0:
128,160,31991,1,0,0:0:0:0:
128,160,32149,1,0,0:0:0:0:
128,160,32307,1,8,0:0:0:0:
128,160,32465,1,0,0:0:0:0:
128,160,32781,1,0,0:0:0:0:
128,160,32939,1,8,0:0:0:0:
128,160,33254,1,0,0:0:0:0:
128,160,33412,1,8,0:0:0:0:
128,160,33570,1,8,0:0:0:0:
128,160,33728,1,0,0:0:0:0:
128,160,33886,1,0,0:0:0:0:
128,160,34202,1,8,0:0:0:0:
128,160,34518,1,8,0:0:0:0:
128,160,34676,1,0,0:0:0:0:
128,160,34833,1,8,0:0:0:0:
128,160,35149,1,8,0:0:0:0:
128,160,35386,1,8,0:0:0:0:
128,160,35623,1,8,0:0:0:0:
128,160,35781,1,0,0:0:0:0:
128,160,36097,1,8,0:0:0:0:
128,160,36412,1,0,0:0:0:0:
128,160,36649,1,0,0:0:0:0:
128,160,36886,1,8,0:0:0:0:
128,160,37044,1,4,0:0:0:0:
128,160,37202,1,0,0:0:0:0:
128,160,37360,1,8,0:0:0:0:
128,160,37676,1,8,0:0:0:0:
128,160,37912,1,0,0:0:0:0:
128,160,38149,1,0,0:0:0:0:
128,160,38465,1,0,0:0:0:0:
128,160,38623,1,8,0:0:0:0:
128,160,38781,1,0,0:0:0:0:
128,160,38939,1,8,0:0:0:0:
128,160,39176,1,8,0:0:0:0:
128,160,39412,1,8,0:0:0:0:
128,160,39570,1,4,0:0:0:0:
128,160,39886,1,8,0:0:0:0:
128,160,40202,1,0,0:0:0:0:
128,160,40360,1,0,0:0:0:0:
128,160,40518,1,8,0:0:0:0:
128,160,40833,1,4,0:0:0:0:
128,160,40991,1,0,0:0:0:0:
128,160,41149,1,8,0:0:0:0:
128,160,41307,1,8,0:0:0:0:
128,160,41623,1,0,0:0:0:0:
128,160,41781,1,8,0:0:0:0:
128,160,41939,1,0,0:0:0:0:
128,160,42097,1,4,0:0:0:0:
128,160,42254,1,0,0:0:0:0:
128,160,42412,1,8,0:0:0:0:
128,160,42570,1,0,0:0:0:0:
128,160,42728,1,4,0:0:0:0:
128,160,42886,1,0,0:0:0:0:
128,160,43044,1,8,0:0:0:0:
128,160,43202,1,0,0:0:0:0:
128,160,43360,1,0,0:0:0:0:
128,160,43518,1,8,0:0:0:0:
128,160,43833,1,8,0:0:0:0:
128,160,44149,1,8,0:0:0:0:
128,160,44307,1,8,0:0:0:0:
128,160,44465,1,8,0:0:0:0:
128,160,44623,2,0,P|480:64|416:320,1,769.999955940248
128,160,46518,1,8,0:0:0:0:
128,160,46833,1,8,0:0:0:0:
128,160,47149,1,8,0:0:0:0:
128,160,47465,1,8,0:0:0:0:
128,160,47781,1,8,0:0:0:0:
128,160,48097,1,8,0:0:0:0:
128,160,48412,1,8,0:0:0:0:
128,160,48728,1,8,0:0:0:0:
128,160,49044,1,8,0:0:0:0:
128,160,49360,1,8,0:0:0:0:
128,160,49676,1,8,0:0:0:0:
128,160,49991,1,8,0:0:0:0:
128,160,50307,1,8,0:0:0:0:
128,160,50623,1,4,0:0:0:0:
128,160,50939,1,12,0:0:0:0:
128,160,51254,1,4,0:0:0:0:
128,160,51570,1,12,0:0:0:0:
128,160,51886,1,4,0:0:0:0:
128,160,52123,1,12,0:0:0:0:
128,160,52551,1,8,0:0:0:0:
128,160,52765,1,0,0:0:0:0:
128,160,52873,1,0,0:0:0:0:
128,160,52980,1,0,0:0:0:0:
128,160,53194,1,0,0:0:0:0:
128,160,53408,1,8,0:0:0:0:
128,160,53837,1,0,0:0:0:0:
128,160,54051,1,8,0:0:0:0:
128,160,54265,1,8,0:0:0:0:
128,160,54694,1,0,0:0:0:0:
128,160,54908,1,8,0:0:0:0:
128,160,55123,1,8,0:0:0:0:
128,160,55337,1,0,0:0:0:0:
128,160,55551,1,0,0:0:0:0:
128,160,55980,1,8,0:0:0:0:
128,160,56194,1,0,0:0:0:0:
128,160,56408,1,0,0:0:0:0:
128,160,56837,1,8,0:0:0:0:
128,160,57051,1,8,0:0:0:0:
128,160,57265,1,0,0:0:0:0:
128,160,57694,1,8,0:0:0:0:
128,160,57908,1,0,0:0:0:0:
128,160,58123,1,0,0:0:0:0:
128,160,58337,1,8,0:0:0:0:
128,160,58551,1,8,0:0:0:0:
128,160,58980,1,8,0:0:0:0:
128,160,59194,1,0,0:0:0:0:
128,160,59301,1,8,0:0:0:0:
128,160,59623,1,8,0:0:0:0:
128,160,59837,1,0,0:0:0:0:
128,160,60265,1,8,0:0:0:0:
128,160,60480,1,0,0:0:0:0:
128,160,60694,1,8,0:0:0:0:
128,160,60908,1,8,0:0:0:0:
128,160,61015,1,0,0:0:0:0:
128,160,61337,1,8,0:0:0:0:
128,160,61551,1,0,0:0:0:0:
128,160,61980,1,8,0:0:0:0:
128,160,62194,1,0,0:0:0:0:
128,160,62408,1,8,0:0:0:0:
128,160,62837,1,8,0:0:0:0:
128,160,63051,1,8,0:0:0:0:
128,160,63265,1,0,0:0:0:0:
128,160,63480,1,0,0:0:0:0:
128,160,63694,1,8,0:0:0:0:
128,160,64123,1,8,0:0:0:0:
128,160,64337,1,0,0:0:0:0:
128,160,64551,1,8,0:0:0:0:
128,160,64765,1,0,0:0:0:0:
128,160,64980,1,12,0:0:0:0:
128,160,65408,1,8,0:0:0:0:
128,160,65837,1,8,0:0:0:0:
128,160,66265,1,0,0:0:0:0:
128,160,66694,1,8,0:0:0:0:
128,160,66908,1,0,0:0:0:0:
128,160,67123,1,8,0:0:0:0:
128,160,67337,1,0,0:0:0:0:
128,160,67551,1,8,0:0:0:0:
128,160,67765,1,0,0:0:0:0:
128,160,67980,1,0,0:0:0:0:
128,160,68194,1,8,0:0:0:0:
128,160,68408,1,0,0:0:0:0:
128,160,68623,1,8,0:0:0:0:
128,160,68837,1,8,0:0:0:0:
128,160,69265,1,8,0:0:0:0:
128,160,69480,1,0,0:0:0:0:
128,160,69694,1,0,0:0:0:0:
128,160,69908,1,8,0:0:0:0:
128,160,70123,1,0,0:0:0:0:
128,160,70337,1,0,0:0:0:0:
128,160,70551,1,8,0:0:0:0:
128,160,70765,1,0,0:0:0:0:
128,160,70980,1,8,0:0:0:0:
128,160,71194,1,0,0:0:0:0:
128,160,71408,1,0,0:0:0:0:
128,160,71623,1,8,0:0:0:0:
128,160,71837,1,0,0:0:0:0:
128,160,72051,1,8,0:0:0:0:
128,160,72265,1,8,0:0:0:0:
128,160,72694,1,8,0:0:0:0:
128,160,73123,1,0,0:0:0:0:
128,160,73337,1,8,0:0:0:0:
128,160,73551,1,0,0:0:0:0:
128,160,73765,1,8,0:0:0:0:
128,160,73980,1,8,0:0:0:0:
128,160,74194,1,0,0:0:0:0:
128,160,74408,1,8,0:0:0:0:
128,160,74623,1,0,0:0:0:0:
128,160,74730,1,8,0:0:0:0:
128,160,75051,1,0,0:0:0:0:
128,160,75265,1,8,0:0:0:0:
128,160,75694,1,0,0:0:0:0:
128,160,76123,1,8,0:0:0:0:
128,160,76337,1,0,0:0:0:0:
128,160,76551,1,8,0:0:0:0:
128,160,76980,1,8,0:0:0:0:
128,160,77194,1,0,0:0:0:0:
128,160,77408,1,8,0:0:0:0:
128,160,77837,1,12,0:0:0:0:
128,160,78158,1,12,0:0:0:0:
128,160,78480,1,12,0:0:0:0:
128,160,78694,1,12,0:0:0:0:
128,160,78908,1,0,0:0:0:0:
128,160,79123,1,12,0:0:0:0:
128,160,79551,1,12,0:0:0:0:
128,160,79708,1,0,0:0:0:0:
128,160,80024,1,0,0:0:0:0:
128,160,80182,1,8,0:0:0:0:
128,160,80340,1,0,0:0:0:0:
128,160,80498,1,0,0:0:0:0:
128,160,80577,1,0,0:0:0:0:
128,160,80656,1,0,0:0:0:0:
128,160,80814,1,8,0:0:0:0:
128,160,81129,1,8,0:0:0:0:
128,160,81445,1,8,0:0:0:0:
128,160,81603,1,0,0:0:0:0:
128,160,81761,1,8,0:0:0:0:
128,160,82077,1,8,0:0:0:0:
128,160,82551,1,0,0:0:0:0:
128,160,82708,1,8,0:0:0:0:
128,160,82866,1,0,0:0:0:0:
128,160,83024,1,0,0:0:0:0:
128,160,83103,1,0,0:0:0:0:
128,160,83182,1,0,0:0:0:0:
128,160,83340,1,4,0:0:0:0:
128,160,83656,1,12,0:0:0:0:
128,160,83972,1,12,0:0:0:0:
128,160,84287,1,4,0:0:0:0:
128,160,84603,1,12,0:0:0:0:
128,160,85077,1,0,0:0:0:0:
128,160,85235,1,8,0:0:0:0:
128,160,85393,1,0,0:0:0:0:
128,160,85551,1,8,0:0:0:0:
128,160,85629,1,8,0:0:0:0:
128,160,85708,1,8,0:0:0:0:
128,160,85866,1,8,0:0:0:0:
128,160,86182,1,8,0:0:0:0:
128,160,86498,1,8,0:0:0:0:
128,160,86656,1,0,0:0:0:0:
128,160,86814,1,8,0:0:0:0:
128,160,87129,1,8,0:0:0:0:
128,160,87603,1,0,0:0:0:0:
128,160,87761,1,8,0:0:0:0:
128,160,87919,1,0,0:0:0:0:
128,160,88077,1,8,0:0:0:0:
128,160,88156,1,8,0:0:0:0:
128,160,88235,1,8,0:0:0:0:
128,160,88393,1,8,0:0:0:0:
128,160,88708,1,12,0:0:0:0:
128,160,89024,1,12,0:0:0:0:
128,160,89340,1,4,0:0:0:0:
128,160,89656,1,8,0:0:0:0:
128,160,89893,1,0,0:0:0:0:
128,160,90129,1,8,0:0:0:0:
128,160,90445,1,8,0:0:0:0:
128,160,90524,1,8,0:0:0:0:
128,160,90603,1,8,0:0:0:0:
128,160,91077,1,8,0:0:0:0:
128,160,91314,1,0,0:0:0:0:
128,160,91551,1,8,0:0:0:0:
128,160,91787,1,0,0:0:0:0:
128,160,92024,1,8,0:0:0:0:
128,160,92182,1,8,0:0:0:0:
128,160,92656,1,0,0:0:0:0:
128,160,92972,1,8,0:0:0:0:
128,160,93051,1,8,0:0:0:0:
128,160,93129,1,8,0:0:0:0:
128,160,93603,1,8,0:0:0:0:
128,160,93840,1,8,0:0:0:0:
128,160,94077,1,0,0:0:0:0:
128,160,94314,1,8,0:0:0:0:
128,160,94551,1,0,0:0:0:0:
128,160,94708,1,8,0:0:0:0:
128,160,95182,1,0,0:0:0:0:
128,160,95498,1,8,0:0:0:0:
128,160,95577,1,8,0:0:0:0:
128,160,95656,1,8,0:0:0:0:
128,160,96129,1,8,0:0:0:0:
128,160,96366,1,0,0:0:0:0:
128,160,96603,1,8,0:0:0:0:
128,160,96840,1,0,0:0:0:0:
128,160,97077,1,8,0:0:0:0:
128,160,97235,1,8,0:0:0:0:
128,160,97708,1,8,0:0:0:0:
128,160,98024,1,8,0:0:0:0:
128,160,98103,1,8,0:0:0:0:
128,160,98182,1,8,0:0:0:0:
128,160,98656,1,8,0:0:0:0:
128,160,98893,1,0,0:0:0:0:
128,160,99129,1,8,0:0:0:0:
128,160,99366,1,0,0:0:0:0:
128,160,99603,1,8,0:0:0:0:
128,160,99761,1,4,0:0:0:0:
128,160,100145,1,8,0:0:0:0:
128,160,100530,1,8,0:0:0:0:
128,160,100786,1,8,0:0:0:0:
128,160,101171,1,8,0:0:0:0:
128,160,101555,1,8,0:0:0:0:
128,160,101812,1,0,0:0:0:0:
128,160,101940,1,0,0:0:0:0:
128,160,102068,1,0,0:0:0:0:
128,160,102581,1,8,0:0:0:0:
128,160,102837,1,8,0:0:0:0:
128,160,103222,1,8,0:0:0:0:
128,160,103478,1,4,0:0:0:0:
128,160,103863,1,4,0:0:0:0:
128,160,104119,1,0,0:0:0:0:
128,160,104248,1,0,0:0:0:0:
128,160,104376,1,0,0:0:0:0:
128,160,104504,1,0,0:0:0:0:
128,160,104632,1,0,0:0:0:0:
128,160,104889,1,4,0:0:0:0:
128,160,105273,1,0,0:0:0:0:
128,160,105402,1,0,0:0:0:0:
128,160,105530,1,0,0:0:0:0:
128,160,105658,1,4,0:0:0:0:
128,160,105914,1,4,0:0:0:0:
128,160,106299,1,0,0:0:0:0:
128,160,106427,1,4,0:0:0:0:
128,160,106812,1,0,0:0:0:0:
128,160,106940,1,4,0:0:0:0:
256,192,107068,12,0,107453,0:0:0:0:
128,160,107709,5,12,0:0:0:0:
128,160,107966,1,12,0:0:0:0:
128,160,108094,1,0,0:0:0:0:
128,160,108222,1,8,0:0:0:0:
128,160,108350,1,8,0:0:0:0:
128,160,108607,1,0,0:0:0:0:
128,160,108735,1,8,0:0:0:0:
128,160,108863,1,0,0:0:0:0:
128,160,108991,1,8,0:0:0:0:
128,160,109248,1,8,0:0:0:0:
128,160,109376,1,8,0:0:0:0:
128,160,109504,1,0,0:0:0:0:
128,160,109760,1,8,0:0:0:0:
128,160,110017,1,8,0:0:0:0:
128,160,110145,1,0,0:0:0:0:
128,160,110273,1,8,0:0:0:0:
128,160,110402,1,8,0:0:0:0:
128,160,110658,1,8,0:0:0:0:
128,160,110786,1,8,0:0:0:0:
128,160,110914,1,0,0:0:0:0:
128,160,111043,1,8,0:0:0:0:
128,160,111299,1,8,0:0:0:0:
128,160,111555,1,8,0:0:0:0:
128,160,111684,1,8,0:0:0:0:
128,160,111812,1,0,0:0:0:0:
128,160,111940,1,8,0:0:0:0:
128,160,112068,1,8,0:0:0:0:
128,160,112325,1,8,0:0:0:0:
128,160,112453,1,8,0:0:0:0:
128,160,112709,1,0,0:0:0:0:
128,160,112837,1,8,0:0:0:0:
128,160,112966,1,0,0:0:0:0:
128,160,113094,1,8,0:0:0:0:
128,160,113350,1,8,0:0:0:0:
128,160,113478,1,8,0:0:0:0:
128,160,113607,1,0,0:0:0:0:
128,160,113863,1,8,0:0:0:0:
128,160,114119,1,8,0:0:0:0:
128,160,114248,1,0,0:0:0:0:
128,160,114376,1,8,0:0:0:0:
128,160,114504,1,8,0:0:0:0:
128,160,114760,1,8,0:0:0:0:
128,160,114889,1,8,0:0:0:0:
128,160,115017,1,0,0:0:0:0:
128,160,115145,1,0,0:0:0:0:
128,160,115402,1,8,0:0:0:0:
128,160,115530,1,8,0:0:0:0:
128,160,115658,1,0,0:0:0:0:
128,160,115914,1,8,0:0:0:0:
128,160,116171,1,4,0:0:0:0:
128,160,116427,1,0,0:0:0:0:
128,160,116555,1,8,0:0:0:0:
128,160,116684,1,0,0:0:0:0:
128,160,116940,1,8,0:0:0:0:
128,160,117068,1,8,0:0:0:0:
128,160,117196,1,4,0:0:0:0:
128,160,117453,1,8,0:0:0:0:
128,160,117709,1,0,0:0:0:0:
128,160,117966,1,8,0:0:0:0:
128,160,118222,1,4,0:0:0:0:
128,160,118478,1,0,0:0:0:0:
128,160,118607,1,8,0:0:0:0:
128,160,118735,1,0,0:0:0:0:
128,160,118991,1,8,0:0:0:0:
128,160,119119,1,8,0:0:0:0:
128,160,119248,1,4,0:0:0:0:
128,160,119504,1,8,0:0:0:0:
128,160,119760,1,0,0:0:0:0:
128,160,120017,1,8,0:0:0:0:
128,160,120273,1,4,0:0:0:0:
128,160,120658,1,0,0:0:0:0:
128,160,120786,1,8,0:0:0:0:
128,160,120914,1,8,0:0:0:0:
128,160,121043,1,0,0:0:0:0:
128,160,121299,1,4,0:0:0:0:
128,160,121684,1,0,0:0:0:0:
128,160,121812,1,8,0:0:0:0:
128,160,121940,1,8,0:0:0:0:
128,160,122068,1,0,0:0:0:0:
128,160,122325,1,0,0:0:0:0:
128,160,122581,1,0,0:0:0:0:
128,160,122709,1,0,0:0:0:0:
128,160,122837,1,0,0:0:0:0:
128,160,122966,1,0,0:0:0:0:
128,160,123094,1,0,0:0:0:0:
128,160,123222,1,0,0:0:0:0:
128,160,123350,1,0,0:0:0:0:
256,192,123478,12,0,123991,0:0:0:0:
128,160,124119,5,12,0:0:0:0:
128,160,124376,1,12,0:0:0:0:
128,160,124504,1,0,0:0:0:0:
128,160,124632,1,8,0:0:0:0:
128,160,124760,1,8,0:0:0:0:
128,160,125017,1,0,0:0:0:0:
128,160,125145,1,8,0:0:0:0:
128,160,125273,1,0,0:0:0:0:
128,160,125402,1,8,0:0:0:0:
128,160,125658,1,0,0:0:0:0:
128,160,125786,1,8,0:0:0:0:
128,160,125914,1,8,0:0:0:0:
128,160,126171,1,8,0:0:0:0:
128,160,126427,1,8,0:0:0:0:
128,160,126555,1,0,0:0:0:0:
128,160,126684,1,8,0:0:0:0:
128,160,126812,1,8,0:0:0:0:
128,160,127068,1,8,0:0:0:0:
128,160,127196,1,8,0:0:0:0:
128,160,127325,1,0,0:0:0:0:
128,160,127453,1,8,0:0:0:0:
128,160,127709,1,8,0:0:0:0:
128,160,127966,1,8,0:0:0:0:
128,160,128094,1,0,0:0:0:0:
128,160,128222,1,0,0:0:0:0:
128,160,128478,1,8,0:0:0:0:
128,160,128735,1,8,0:0:0:0:
128,160,128863,1,8,0:0:0:0:
128,160,129119,1,0,0:0:0:0:
128,160,129248,1,8,0:0:0:0:
128,160,129376,1,0,0:0:0:0:
128,160,129504,1,8,0:0:0:0:
128,160,129760,1,0,0:0:0:0:
128,160,129889,1,8,0:0:0:0:
128,160,130017,1,8,0:0:0:0:
128,160,130273,1,8,0:0:0:0:
128,160,130530,1,8,0:0:0:0:
128,160,130658,1,0,0:0:0:0:
128,160,130786,1,8,0:0:0:0:
128,160,130914,1,8,0:0:0:0:
128,160,131171,1,0,0:0:0:0:
128,160,131299,1,8,0:0:0:0:
128,160,131427,1,0,0:0:0:0:
128,160,131555,1,0,0:0:0:0:
128,160,131812,1,8,0:0:0:0:
128,160,131940,1,8,0:0:0:0:
256,192,132068,12,0,132325,0:0:0:0:
128,160,132581,5,8,0:0:0:0:
128,160,132709,1,0,0:0:0:0:
128,160,132837,1,8,0:0:0:0:
128,160,132966,1,8,0:0:0:0:
128,160,133222,1,0,0:0:0:0:
128,160,133350,1,8,0:0:0:0:
128,160,133478,1,8,0:0:0:0:
128,160,133607,1,0,0:0:0:0:
128,160,133863,1,8,0:0:0:0:
128,160,133991,1,8,0:0:0:0:
256,192,134119,12,0,134376,0:0:0:0:
128,160,134632,5,8,0:0:0:0:
128,160,134760,1,0,0:0:0:0:
128,160,134889,1,8,0:0:0:0:
128,160,135017,1,8,0:0:0:0:
128,160,135273,1,0,0:0:0:0:
128,160,135402,1,8,0:0:0:0:
128,160,135530,1,0,0:0:0:0:
128,160,135658,1,4,0:0:0:0:
128,160,135914,1,12,0:0:0:0:
128,160,136171,1,4,0:0:0:0:
128,160,136427,1,12,0:0:0:0:
128,160,136684,1,8,0:0:0:0:
128,160,136812,1,0,0:0:0:0:
128,160,136940,1,8,0:0:0:0:
128,160,137068,1,8,0:0:0:0:
128,160,137325,1,8,0:0:0:0:
128,160,137453,1,8,0:0:0:0:
128,160,137581,1,0,0:0:0:0:
128,160,137709,1,0,0:0:0:0:
128,160,137966,1,8,0:0:0:0:
128,160,138094,1,8,0:0:0:0:
256,192,138222,12,0,138478,0:0:0:0:
128,160,138735,5,8,0:0:0:0:
128,160,138863,1,0,0:0:0:0:
128,160,138991,1,8,0:0:0:0:
128,160,139119,1,8,0:0:0:0:
128,160,139376,1,0,0:0:0:0:
128,160,139504,1,8,0:0:0:0:
128,160,139632,1,0,0:0:0:0:
128,160,139760,1,8,0:0:0:0:
128,160,140017,1,0,0:0:0:0:
128,160,140145,1,8,0:0:0:0:
256,192,140273,12,0,140530,0:0:0:0:
128,160,140786,5,0,0:0:0:0:
128,160,140914,1,0,0:0:0:0:
128,160,141043,1,8,0:0:0:0:
128,160,141299,1,0,0:0:0:0:
128,160,141427,1,0,0:0:0:0:
128,160,141555,1,8,0:0:0:0:
128,160,141812,1,0,0:0:0:0:
128,160,141940,1,0,0:0:0:0:
128,160,142068,1,8,0:0:0:0:
128,160,142196,1,8,0:0:0:0:
128,160,142325,2,0,L|416:160,1,279.99999332428
