osu file format v14

[General]
AudioFilename: audio.mp3
AudioLeadIn: 0
PreviewTime: 160057
Countdown: 0
SampleSet: Soft
StackLeniency: 0.7
Mode: 0
LetterboxInBreaks: 0
WidescreenStoryboard: 0

[Editor]
Bookmarks: 16157,41757,68957,81757,94557,94657,94857,94957,95057,95257,95457,95557,95757,95857,96057,96257,96357,96557,96657,96857,96957,97157,97357,97457,97657,97757,97957,98157,98257,98457,98557,98757,98957,99057,99257,99457,99557,99757,99857,100057,100257,100457,100657,100757,100957,101157,101257,101457,101557,101757,101957,102057,102257,102457,102657,102857,103057,103157,103357,103557,103757,103857,104057,104257,104457,104657,104857,104957,105157,105357,105557,105757,105857,106057,106257,106457,106557,106757,106957,107157,107257,107357,121757,134557,147357,147557,147657,147857,148057,148157,148257,148357,148457,148657,148757,148957,149157,149357,149457,149657,149857,149957,150157,150357,150457,150657,150857,150957,151157,151357,151557,151657,151857,152057,152257,152457,152657,152757,152957,153157,153357,153457,153657,153857,154057,154257,154357,154557,154757,154857,155057,155257,155357,155557,155757,155957,156157,156357,156557,156657,156857,157057,157257,157457,157557,157757,157957,158157,158357,158557,158757,158957,159257,159457,160157,185757,188957,201757,214557,227357,240157,252957
DistanceSpacing: 1.2
BeatDivisor: 12
GridSize: 8
TimelineZoom: 2.6

[Metadata]
Title:Lights On
TitleUnicode:Lights On
Artist:FKA twigs
ArtistUnicode:FKA twigs
Creator:Mint
Version:Insane
Source:
Tags:lp1 arca tahliah debrett barnett art pop art-pop alternative r&b english electronic appleeaterx
BeatmapID:1975997
BeatmapSetID:946331

[Difficulty]
HPDrainRate:6
CircleSize:5.5
OverallDifficulty:7.5
ApproachRate:8.2
SliderMultiplier:3.2
SliderTickRate:1

[Events]
//Background and Video events
0,0,"back1.jpg",0,0
//Break Periods
2,94808,106688
2,147608,159488
//Storyboard Layer 0 (Background)
//Storyboard Layer 1 (Fail)
//Storyboard Layer 2 (Pass)
//Storyboard Layer 3 (Foreground)
//Storyboard Layer 4 (Overlay)
//Storyboard Sound Samples

[TimingPoints]
208,800,4,2,19,37,1,0
3408,-285.714285714286,4,2,19,37,0,0
14608,-133.333333333333,4,2,19,30,0,0
16208,-400,4,2,19,25,0,0
34608,-400,4,2,19,15,0,0
41008,-200,4,2,19,30,0,0
41808,-285.714285714286,4,2,19,40,0,0
48208,-400,4,2,19,25,0,0
54608,-285.714285714286,4,2,19,40,0,0
61008,-400,4,2,19,25,0,0
66008,-400,4,2,19,35,0,0
69008,800,4,2,19,55,1,1
69008,-285.714285714286,4,2,19,55,0,1
69108,-285.714285714286,4,2,19,55,0,0
73808,-285.714285714286,4,2,19,35,0,0
74008,-285.714285714286,4,2,19,55,0,0
75208,-285.714285714286,4,2,19,45,0,0
75408,-285.714285714286,4,2,19,55,0,0
77608,-285.714285714286,4,2,19,35,0,0
77808,-285.714285714286,4,2,19,45,0,0
78608,-285.714285714286,4,2,19,55,0,0
80208,-285.714285714286,4,2,19,35,0,0
80808,-285.714285714286,4,2,19,40,0,0
81008,-285.714285714286,4,2,19,45,0,0
81808,-285.714285714286,4,2,19,55,0,1
81908,-285.714285714286,4,2,19,55,0,0
84208,-285.714285714286,4,2,19,35,0,0
84308,-285.714285714286,4,2,19,55,0,0
86608,-285.714285714286,4,2,19,35,0,0
86808,-285.714285714286,4,2,19,55,0,0
87208,-285.714285714286,4,2,19,35,0,0
87408,-285.714285714286,4,2,19,45,0,0
88008,-285.714285714286,4,2,19,45,0,0
88208,-285.714285714286,4,2,19,55,0,0
90408,-285.714285714286,4,2,19,35,0,0
90608,-285.714285714286,4,2,19,45,0,0
91408,-285.714285714286,4,2,19,55,0,0
93008,-285.714285714286,4,2,19,35,0,0
93608,-285.714285714286,4,2,19,40,0,0
93808,-285.714285714286,4,2,19,45,0,0
94208,-285.714285714286,4,2,19,35,0,0
94608,-285.714285714286,4,2,19,25,0,0
107408,-285.714285714286,4,2,19,40,0,0
113808,-400,4,2,19,25,0,0
118808,-400,4,2,19,35,0,0
121808,800,4,2,19,57,1,1
121808,-270.27027027027,4,2,19,57,0,1
121908,-270.27027027027,4,2,19,57,0,0
124008,-270.27027027027,4,2,19,47,0,0
124208,-270.27027027027,4,2,19,57,0,0
130408,-270.27027027027,4,2,19,47,0,0
130608,-270.27027027027,4,2,19,57,0,0
131208,-270.27027027027,4,2,19,47,0,0
131408,-270.27027027027,4,2,19,57,0,0
133408,-270.27027027027,4,2,19,37,0,0
133608,-270.27027027027,4,2,19,47,0,0
133808,-270.27027027027,4,2,19,57,0,0
134608,-270.27027027027,4,2,19,57,0,1
134708,-270.27027027027,4,2,19,57,0,0
136808,-270.27027027027,4,2,19,47,0,0
137008,-270.27027027027,4,2,19,57,0,0
140008,-270.27027027027,4,2,19,47,0,0
140208,-270.27027027027,4,2,19,57,0,0
140808,-270.27027027027,4,2,19,47,0,0
141008,-270.27027027027,4,2,19,57,0,0
143208,-270.27027027027,4,2,19,47,0,0
143408,-270.27027027027,4,2,19,57,0,0
144008,-270.27027027027,4,2,19,47,0,0
144208,-270.27027027027,4,2,19,57,0,0
146008,-270.27027027027,4,2,19,37,0,0
146208,-270.27027027027,4,2,19,42,0,0
146408,-270.27027027027,4,2,19,47,0,0
146608,-270.27027027027,4,2,19,57,0,0
160208,-270.27027027027,4,2,19,45,0,1
185808,-270.27027027027,4,2,19,60,0,0
189008,-333.333333333333,4,2,19,45,0,0
189808,-333.333333333333,4,2,19,35,0,0
189908,-333.333333333333,4,2,19,45,0,0
191408,-333.333333333333,4,2,19,35,0,0
191508,-333.333333333333,4,2,19,45,0,0
193008,-333.333333333333,4,2,19,35,0,0
193108,-333.333333333333,4,2,19,45,0,0
194608,-333.333333333333,4,2,19,35,0,0
194708,-333.333333333333,4,2,19,45,0,0
196208,-333.333333333333,4,2,19,35,0,0
196308,-333.333333333333,4,2,19,45,0,0
197808,-333.333333333333,4,2,19,35,0,0
197908,-333.333333333333,4,2,19,45,0,0
199408,-333.333333333333,4,2,19,35,0,0
199508,-333.333333333333,4,2,19,45,0,0
201808,-256.410256410256,4,2,19,60,0,1
201908,-256.410256410256,4,2,19,60,0,0
203008,-256.410256410256,4,2,19,40,0,0
203108,-256.410256410256,4,2,19,60,0,0
204008,-256.410256410256,4,2,19,50,0,0
204208,-256.410256410256,4,2,19,60,0,0
204808,-256.410256410256,4,2,19,50,0,0
205008,-256.410256410256,4,2,19,60,0,1
205108,-256.410256410256,4,2,19,60,0,0
207208,-256.410256410256,4,2,19,50,0,0
207408,-256.410256410256,4,2,19,60,0,0
208008,-256.410256410256,4,2,19,50,0,0
208208,-256.410256410256,4,2,19,60,0,1
208308,-256.410256410256,4,2,19,60,0,0
209408,-256.410256410256,4,2,19,40,0,0
209508,-256.410256410256,4,2,19,60,0,0
210408,-256.410256410256,4,2,19,50,0,0
210608,-256.410256410256,4,2,19,60,0,0
211208,-256.410256410256,4,2,19,50,0,0
211408,-256.410256410256,4,2,19,60,0,1
211508,-256.410256410256,4,2,19,60,0,0
212408,-256.410256410256,4,2,19,40,0,0
212608,-256.410256410256,4,2,19,60,0,0
213408,-256.410256410256,4,2,19,40,0,0
213608,-256.410256410256,4,2,19,50,0,0
213808,-256.410256410256,4,2,19,60,0,0
214608,-243.90243902439,4,2,19,67,0,1
214708,-243.90243902439,4,2,19,67,0,0
216808,-243.90243902439,4,2,19,57,0,0
217008,-243.90243902439,4,2,19,67,0,0
217408,-243.90243902439,4,2,19,47,0,0
217808,-243.90243902439,4,2,19,67,0,1
217908,-243.90243902439,4,2,19,67,0,0
219008,-243.90243902439,4,2,19,47,0,0
219108,-243.90243902439,4,2,19,67,0,0
219608,-243.90243902439,4,2,19,47,0,0
219808,-243.90243902439,4,2,19,57,0,0
220008,-243.90243902439,4,2,19,47,0,0
220308,-243.90243902439,4,2,19,67,0,0
220808,-243.90243902439,4,2,19,57,0,0
221008,-243.90243902439,4,2,19,67,0,1
221108,-243.90243902439,4,2,19,67,0,0
223208,-243.90243902439,4,2,19,57,0,0
223408,-243.90243902439,4,2,19,67,0,0
223808,-243.90243902439,4,2,19,47,0,0
224008,-243.90243902439,4,2,19,57,0,0
224208,-243.90243902439,4,2,19,67,0,1
224308,-243.90243902439,4,2,19,67,0,0
225208,-243.90243902439,4,2,19,57,0,0
225408,-243.90243902439,4,2,19,67,0,0
226208,-243.90243902439,4,2,19,47,0,0
226408,-243.90243902439,4,2,19,57,0,0
226608,-243.90243902439,4,2,19,67,0,0
227208,-243.90243902439,4,2,19,57,0,0
227408,-232.558139534884,4,2,19,67,0,1
227508,-232.558139534884,4,2,19,67,0,0
229208,-232.558139534884,4,2,19,47,0,0
229408,-232.558139534884,4,2,19,57,0,0
229608,-232.558139534884,4,2,19,47,0,0
229808,-232.558139534884,4,2,19,67,0,0
230408,-232.558139534884,4,2,19,57,0,0
230608,-232.558139534884,4,2,19,67,0,1
230708,-232.558139534884,4,2,19,67,0,0
232408,-232.558139534884,4,2,19,47,0,0
232608,-232.558139534884,4,2,19,57,0,0
232808,-232.558139534884,4,2,19,47,0,0
233008,-232.558139534884,4,2,19,67,0,0
233808,-232.558139534884,4,2,19,67,0,1
233908,-232.558139534884,4,2,19,67,0,0
235608,-232.558139534884,4,2,19,47,0,0
235808,-232.558139534884,4,2,19,57,0,0
236008,-232.558139534884,4,2,19,47,0,0
236208,-232.558139534884,4,2,19,67,0,0
236608,-232.558139534884,4,2,19,47,0,0
236808,-232.558139534884,4,2,19,57,0,0
237008,-232.558139534884,4,2,19,67,0,0
239008,-232.558139534884,4,2,19,47,0,0
239208,-232.558139534884,4,2,19,57,0,0
239408,-232.558139534884,4,2,19,67,0,0
239808,-232.558139534884,4,2,19,47,0,0
239908,-232.558139534884,4,2,19,67,0,0
240208,-222.222222222222,4,2,19,73,0,1
240308,-222.222222222222,4,2,19,73,0,0
242408,-222.222222222222,4,2,19,63,0,0
242608,-222.222222222222,4,2,19,73,0,0
243408,-222.222222222222,4,2,19,73,0,1
243508,-222.222222222222,4,2,19,73,0,0
245208,-222.222222222222,4,2,19,53,0,0
245408,-222.222222222222,4,2,19,63,0,0
245608,-222.222222222222,4,2,19,67,0,0
245808,-222.222222222222,4,2,19,73,0,0
246608,-222.222222222222,4,2,19,73,0,1
246708,-222.222222222222,4,2,19,73,0,0
248408,-222.222222222222,4,2,19,53,0,0
248608,-222.222222222222,4,2,19,63,0,0
248808,-222.222222222222,4,2,19,53,0,0
249008,-222.222222222222,4,2,19,73,0,0
249608,-222.222222222222,4,2,19,63,0,0
249808,-222.222222222222,4,2,19,73,0,1
249908,-222.222222222222,4,2,19,73,0,0
250808,-222.222222222222,4,2,19,63,0,0
251008,-222.222222222222,4,2,19,73,0,0
251208,-222.222222222222,4,2,19,53,0,0
251408,-222.222222222222,4,2,19,73,0,0
252408,-222.222222222222,4,2,19,53,0,0
252608,-222.222222222222,4,2,19,35,0,0
252708,-222.222222222222,4,2,19,53,0,0
253008,-222.222222222222,4,2,19,40,0,0
255808,-222.222222222222,4,2,19,16,0,0

[Colours]
Combo1 : 249,6,91
Combo2 : 33,149,235

[HitObjects]
256,192,208,12,0,2608,0:0:0:0:
338,111,3408,6,0,B|371:86|371:86|377:55|356:12,1,111.999996582031,10|0,0:3|0:0,0:0:0:0:
431,122,4608,2,0,L|452:130,1,18.6666660970052,6|0,0:3|0:0,0:0:0:0:
212,143,5008,6,0,P|245:158|288:159,1,74.6666643880209,0|0,0:0|0:0,0:0:0:0:
374,199,5808,2,0,P|355:202|338:209,2,37.3333321940105,0|0|0,0:0|0:0|0:0,0:0:0:0:
116,29,6608,6,0,P|141:78|129:157,1,130.666662679037,10|0,0:3|0:0,0:0:0:0:
67,152,7741,2,0,L|103:160,1,37.3333321940105,6|0,0:3|0:0,0:0:0:0:
162,320,8208,6,0,P|131:336|88:338,1,74.6666643880209,10|0,0:3|0:0,0:0:0:0:
45,225,9008,2,0,L|50:257,1,27.9999991455078,6|0,0:3|0:0,0:0:0:0:
30,377,9608,1,0,0:0:0:0:
155,241,9808,6,0,B|183:221|183:221|221:224|245:264,1,111.999996582031,10|0,0:3|0:0,0:0:0:0:
206,141,11008,2,0,L|213:117,1,18.6666660970052,6|0,0:3|0:0,0:0:0:0:
378,167,11408,6,0,L|369:88,1,74.6666643880209
436,72,12208,2,0,L|475:80,1,37.3333321940105,0|0,0:0|0:0,0:0:0:0:
372,181,12808,1,0,0:0:0:0:
323,249,13008,6,0,P|378:252|432:308,1,130.666662679037,10|0,0:3|0:0,0:0:0:0:
428,373,14141,2,0,L|439:330,1,37.3333321940105,6|0,0:3|0:0,0:0:0:0:
298,112,14608,6,0,B|276:82|291:39|291:39|321:54,1,90.0000034332277,10|0,0:3|0:0,0:0:0:0:
294,123,15008,6,0,B|272:93|287:50|287:50|317:65,1,90.0000034332277,8|0,0:3|0:0,0:0:0:0:
290,134,15408,6,0,B|268:104|283:61|283:61|313:76,1,90.0000034332277,8|0,0:3|0:0,0:0:0:0:
287,142,15808,6,0,B|265:112|280:69|280:69|310:84,1,90.0000034332277,8|0,0:3|0:0,0:0:0:0:
285,151,16208,5,10,0:3:0:0:
205,155,16608,1,2,0:0:0:0:
163,39,17008,1,2,0:0:0:0:
155,213,17408,6,0,L|158:238,1,20,6|0,0:3|0:0,0:0:0:0:
167,303,17808,2,0,L|181:224,1,80,0|0,0:0|0:0,0:0:0:0:
417,367,19408,5,10,0:3:0:0:
402,298,19808,1,2,0:0:0:0:
379,185,20208,1,2,0:0:0:0:
350,9,20608,6,0,L|372:12,1,20,6|0,0:3|0:0,0:0:0:0:
457,28,21008,2,0,B|436:15|436:15|380:28,1,80,10|6,0:3|0:3,0:0:0:0:
10,190,22608,5,10,0:3:0:0:
73,158,23008,1,2,0:0:0:0:
159,192,23408,1,2,0:0:0:0:
256,143,23808,2,0,L|248:101,1,40,6|0,0:3|0:0,0:0:0:0:
422,16,25808,5,10,0:3:0:0:
469,69,26208,1,2,0:0:0:0:
347,161,26608,1,2,0:0:0:0:
409,309,27008,6,0,L|432:314,1,20,2|0,0:0|0:0,0:0:0:0:
390,293,27408,2,0,B|373:314|373:314|364:368,1,80,10|6,0:3|0:3,0:0:0:0:
41,355,29008,5,2,0:0:0:0:
64,289,29407,1,2,0:0:0:0:
154,239,29808,1,2,0:0:0:0:
265,298,30208,2,0,L|223:309,1,40,6|6,0:3|0:3,0:0:0:0:
100,81,32208,5,10,0:3:0:0:
79,154,32608,1,2,0:0:0:0:
213,194,33008,1,2,0:0:0:0:
188,13,33408,6,0,L|192:33,1,20,6|0,0:3|0:0,0:0:0:0:
193,108,33808,2,0,L|204:27,1,80,10|8,0:3|0:3,0:0:0:0:
149,160,35008,1,6,0:3:0:0:
368,87,35408,5,10,0:3:0:0:
300,56,35808,1,2,0:0:0:0:
262,184,36208,1,2,0:0:0:0:
412,143,36608,2,0,L|431:138,1,20,6|0,0:3|0:0,0:0:0:0:
61,343,38608,5,10,0:3:0:0:
132,316,39008,1,2,0:0:0:0:
219,361,39408,1,2,0:0:0:0:
361,326,39808,2,0,L|356:350,1,20,6|0,0:3|0:0,0:0:0:0:
373,313,40208,2,0,L|412:304,1,40,10|0,0:3|0:0,0:0:0:0:
185,259,41008,6,0,P|153:241|114:244,1,66.6666666666667,6|0,0:3|0:0,0:0:0:0:
104,302,41408,2,0,L|116:261,1,40,6|0,0:3|0:0,0:0:0:0:
51,116,41808,6,0,B|82:140|115:144|115:144|150:115,1,111.999996582031,10|0,0:3|0:0,0:0:0:0:
245,157,43008,2,0,L|213:166,1,27.9999991455078,6|0,0:3|0:0,0:0:0:0:
314,3,43408,6,0,P|288:28|283:80,1,83.9999974365235,0|0,0:0|0:0,0:0:0:0:
402,177,44341,2,0,P|401:159|391:135,2,37.3333321940105
412,198,45008,6,0,P|467:196|507:236,1,111.999996582031,10|0,0:3|0:0,0:0:0:0:
413,378,46208,1,6,0:3:0:0:
350,344,46608,2,0,B|325:320|325:320|323:285|344:247,1,111.999996582031,10|6,0:3|0:3,0:0:0:0:
256,373,48208,5,10,0:3:0:0:
193,341,48608,1,2,0:0:0:0:
112,373,49008,1,2,0:0:0:0:
17,338,49408,2,0,L|23:317,1,20,6|0,0:3|0:0,0:0:0:0:
407,163,51408,5,10,0:3:0:0:
336,192,51808,1,2,0:0:0:0:
270,58,52208,1,2,0:0:0:0:
413,0,52608,6,0,L|418:21,1,20,6|0,0:3|0:0,0:0:0:0:
420,89,53008,2,0,L|439:9,1,80,2|2,0:0|0:0,0:0:0:0:
472,152,54208,1,6,0:3:0:0:
143,288,54608,6,0,B|116:275|116:275|74:275|44:321,1,111.999996582031,10|0,0:3|0:0,0:0:0:0:
253,373,55808,2,0,L|260:342,1,27.9999991455078,6|0,0:3|0:0,0:0:0:0:
203,241,56208,6,0,P|231:216|281:212,1,83.9999974365235,0|0,0:0|0:0,0:0:0:0:
376,350,57141,2,0,P|356:341|342:328,2,37.3333321940105
396,365,57808,6,0,L|418:254,1,111.999996582031,10|0,0:3|0:0,0:0:0:0:
329,125,59008,1,6,0:3:0:0:
364,186,59408,2,0,B|425:165|425:165|454:175|464:200,1,111.999996582031,10|6,0:3|0:3,0:0:0:0:
106,25,61008,5,10,0:3:0:0:
145,83,61408,1,2,0:0:0:0:
71,163,61808,1,2,0:0:0:0:
131,249,62208,2,0,L|127:271,1,20,6|0,0:3|0:0,0:0:0:0:
459,337,64208,5,10,0:3:0:0:
389,362,64607,1,2,0:0:0:0:
305,302,65008,1,2,0:0:0:0:
360,166,65408,1,6,0:3:0:0:
497,247,65808,5,10,0:3:0:0:
488,253,66008,2,0,L|496:217,1,33.3333333333333,8|0,0:0|0:0,0:0:0:0:
226,58,66608,2,0,B|210:77|210:77|200:123,1,66.6666666666667,6|0,0:3|0:0,0:0:0:0:
212,193,67408,6,0,L|195:196,1,13.3333333333333,10|0,0:3|0:3,0:0:0:0:
131,151,67674,2,0,L|114:154,1,13.3333333333333
64,129,67941,2,0,L|47:132,1,13.3333333333333,0|0,0:0|0:0,0:0:0:0:
207,187,68208,6,0,L|190:190,1,13.3333333333333,10|0,0:3|0:0,0:0:0:0:
126,145,68474,2,0,L|109:148,1,13.3333333333333,0|0,0:0|0:0,0:0:0:0:
59,123,68741,2,0,L|42:126,1,13.3333333333333,0|0,0:0|0:0,0:0:0:0:
112,219,69008,6,0,L|126:164,1,55.9999982910157,10|0,0:3|0:0,0:0:0:0:
45,258,69608,1,0,0:0:0:0:
161,335,69808,2,0,L|132:343,1,27.9999991455078,0|0,0:0|0:0,0:0:0:0:
233,351,70208,2,0,L|256:381,1,27.9999991455078,6|0,0:3|0:0,0:0:0:0:
356,269,70608,1,0,0:0:0:0:
384,326,70808,2,0,L|392:290,2,27.9999991455078,0|0|0,0:0|0:0|0:0,0:0:0:0:
479,294,71408,2,0,P|474:266|454:239,1,55.9999982910157
401,198,72008,2,0,L|380:204,1,13.9999995727539,0|0,0:0|0:0,0:0:0:0:
339,30,72208,6,0,L|350:86,1,55.9999982910157,10|0,0:3|0:0,0:0:0:0:
333,154,72808,1,0,0:0:0:0:
208,22,73008,2,0,L|202:53,1,27.9999991455078,0|0,0:0|0:0,0:0:0:0:
29,122,73408,2,0,L|61:108,1,27.9999991455078,6|0,0:3|0:0,0:0:0:0:
151,105,73808,1,8,0:3:0:0:
142,175,74008,2,0,L|130:145,2,27.9999991455078,0|0|0,0:0|0:0|0:0,0:0:0:0:
56,229,74608,2,0,P|43:249|35:284,1,55.9999982910157,6|0,0:3|0:0,0:0:0:0:
86,334,75208,2,0,L|111:325,1,13.9999995727539,8|0,0:3|0:0,0:0:0:0:
257,272,75408,6,0,L|276:334,1,55.9999982910157,10|0,0:3|0:0,0:0:0:0:
231,374,76008,1,0,0:0:0:0:
387,325,76208,2,0,L|425:336,1,27.9999991455078,0|0,0:0|0:0,0:0:0:0:
508,339,76608,2,0,L|471:344,1,27.9999991455078,6|0,0:3|0:0,0:0:0:0:
345,383,77008,2,0,L|358:348,2,27.9999991455078,0|0|0,0:0|0:0|0:0,0:0:0:0:
504,230,77608,1,8,0:3:0:0:
446,191,77808,2,0,L|439:154,1,27.9999991455078,8|0,0:3|0:0,0:0:0:0:
420,249,78208,2,0,L|429:217,1,27.9999991455078,0|8,0:0|0:3,0:0:0:0:
230,22,78608,5,10,0:3:0:0:
299,35,78808,2,0,L|337:39,1,27.9999991455078,0|0,0:0|0:0,0:0:0:0:
229,132,79208,1,0,0:0:0:0:
182,85,79408,2,0,L|191:120,2,27.9999991455078,0|0|6,0:0|0:0|0:3,0:0:0:0:
117,44,80008,1,0,0:0:0:0:
26,187,80208,2,0,L|61:181,1,27.9999991455078,8|0,0:3|0:0,0:0:0:0:
248,206,80608,1,8,0:3:0:0:
130,297,80808,1,8,0:3:0:0:
140,225,81008,2,0,P|166:233|187:253,1,55.9999982910157,8|0,0:3|0:0,0:0:0:0:
257,292,81608,2,0,L|237:307,1,13.9999995727539
384,380,81808,6,0,L|410:322,1,55.9999982910157,10|0,0:3|0:0,0:0:0:0:
472,308,82408,1,0,0:0:0:0:
372,191,82608,2,0,L|342:209,1,27.9999991455078,0|0,0:0|0:0,0:0:0:0:
439,169,83008,2,0,L|473:170,1,27.9999991455078,6|0,0:3|0:0,0:0:0:0:
333,11,83408,1,0,0:0:0:0:
352,69,83608,2,0,L|364:34,2,27.9999991455078,0|0|0,0:0|0:0|0:0,0:0:0:0:
247,137,84208,2,0,P|229:104|228:77,1,55.9999982910157,8|0,0:3|0:0,0:0:0:0:
251,7,84808,2,0,L|232:14,1,13.9999995727539
58,45,85008,6,0,L|114:67,1,55.9999982910157,10|0,0:3|0:0,0:0:0:0:
160,117,85608,1,0,0:0:0:0:
45,238,85808,2,0,L|37:265,1,27.9999991455078,0|0,0:0|0:0,0:0:0:0:
73,167,86208,2,0,L|66:130,1,27.9999991455078,6|0,0:3|0:0,0:0:0:0:
205,202,86608,1,8,0:3:0:0:
148,240,86808,2,0,L|185:229,2,27.9999991455078,0|0|8,0:0|0:0|0:3,0:0:0:0:
86,352,87408,2,0,P|113:359|141:384,1,55.9999982910157,8|0,0:3|0:0,0:0:0:0:
199,335,88008,2,0,L|222:343,1,13.9999995727539,8|0,0:3|0:0,0:0:0:0:
414,358,88208,6,0,L|353:371,1,55.9999982910157,10|0,0:3|0:0,0:0:0:0:
284,366,88808,1,0,0:0:0:0:
433,251,89008,2,0,L|441:281,1,27.9999991455078,0|0,0:0|0:0,0:0:0:0:
498,182,89408,2,0,L|487:215,1,27.9999991455078,6|0,0:3|0:0,0:0:0:0:
356,176,89808,1,0,0:0:0:0:
341,106,90008,1,0,0:0:0:0:
350,194,90208,2,0,L|361:225,1,27.9999991455078,0|8,0:0|0:3,0:0:0:0:
246,91,90608,2,0,L|281:82,1,27.9999991455078,8|0,0:3|0:0,0:0:0:0:
176,114,91008,2,0,L|137:110,1,27.9999991455078,0|8,0:0|0:3,0:0:0:0:
52,254,91408,5,10,0:3:0:0:
113,203,91608,2,0,L|120:237,2,27.9999991455078,0|0|0,0:0|0:0|0:0,0:0:0:0:
174,301,92208,2,0,L|180:271,1,27.9999991455078,0|0,0:0|0:0,0:0:0:0:
247,284,92608,2,0,L|245:251,1,27.9999991455078,6|0,0:3|0:0,0:0:0:0:
395,56,93008,1,8,0:3:0:0:
357,116,93208,1,0,0:0:0:0:
481,192,93408,1,8,0:3:0:0:
491,68,93608,1,8,0:3:0:0:
441,141,93808,2,0,L|449:169,1,27.9999991455078,8|0,0:3|0:0,0:0:0:0:
244,349,94208,6,0,B|257:321|257:321|255:302,1,41.9999987182618,8|2,0:3|0:0,0:0:0:0:
299,383,94608,1,10,0:3:0:0:
252,29,107408,6,0,B|273:50|271:78|271:78|250:102|251:134,1,111.999996582031,10|2,0:3|0:0,0:0:0:0:
339,28,108608,2,0,L|367:21,1,27.9999991455078,6|0,0:3|0:0,0:0:0:0:
323,131,109008,6,0,P|349:160|407:169,1,93.3333304850261,6|0,0:3|0:0,0:0:0:0:
459,67,109941,2,0,P|435:70|417:80,2,37.3333321940105
473,84,110608,6,0,L|494:195,1,111.999996582031,10|2,0:3|0:0,0:0:0:0:
338,366,111808,1,6,0:3:0:0:
464,260,112208,2,0,B|432:250|432:250|390:269|390:311,1,111.999996582031,10|0,0:3|0:0,0:0:0:0:
117,89,113808,5,10,0:3:0:0:
180,57,114208,1,2,0:0:0:0:
261,89,114608,1,2,0:0:0:0:
355,55,115008,2,0,L|347:13,1,40,6|0,0:3|0:0,0:0:0:0:
66,313,117008,5,10,0:3:0:0:
119,373,117408,1,2,0:0:0:0:
257,338,117808,1,2,0:0:0:0:
305,180,118208,1,2,0:0:0:0:
180,53,118608,5,2,0:0:0:0:
185,64,118808,2,0,L|179:102,1,33.3333333333333,8|0,0:0|0:0,0:0:0:0:
310,269,119408,2,0,B|349:259|349:259|378:267,1,66.6666666666667,6|0,0:3|0:0,0:0:0:0:
419,331,120208,6,0,L|415:347,1,13.3333333333333,10|0,0:3|0:0,0:0:0:0:
480,264,120474,2,0,L|484:280,1,13.3333333333333,0|0,0:0|0:0,0:0:0:0:
425,206,120741,2,0,L|429:222,1,13.3333333333333,0|0,0:0|0:0,0:0:0:0:
422,318,121008,6,0,L|418:334,1,13.3333333333333,10|0,0:3|0:0,0:0:0:0:
483,251,121274,2,0,L|487:267,1,13.3333333333333,0|0,0:0|0:0,0:0:0:0:
428,193,121541,2,0,L|432:209,1,13.3333333333333,0|0,0:0|0:0,0:0:0:0:
435,121,121808,6,0,L|420:181,1,59.2000014453125,10|0,0:3|0:0,0:0:0:0:
351,195,122408,1,0,0:0:0:0:
293,40,122608,2,0,L|330:54,1,29.6000007226563,0|0,0:0|0:0,0:0:0:0:
419,27,123008,2,0,L|381:44,1,29.6000007226563,6|0,0:3|0:0,0:0:0:0:
256,126,123408,1,6,0:3:0:0:
185,93,123608,1,0,0:0:0:0:
245,144,123808,2,0,L|255:176,1,29.6000007226563,0|8,0:0|0:3,0:0:0:0:
84,298,124208,2,0,P|93:263|115:239,1,59.2000014453125,10|6,0:3|0:3,0:0:0:0:
179,223,124808,2,0,L|201:230,1,14.8000003613281,0|0,0:0|0:0,0:0:0:0:
256,375,125008,6,0,L|246:307,1,59.2000014453125,10|0,0:3|0:0,0:0:0:0:
293,264,125608,1,0,0:0:0:0:
376,347,125808,2,0,L|368:376,1,29.6000007226563,0|0,0:0|0:0,0:0:0:0:
457,358,126208,2,0,L|440:328,1,29.6000007226563,6|0,0:3|0:0,0:0:0:0:
306,251,126608,2,0,L|335:261,1,29.6000007226563,10|0,0:3|0:0,0:0:0:0:
456,172,127008,1,0,0:0:0:0:
427,97,127208,1,0,0:0:0:0:
436,249,127408,2,0,P|400:228|383:205,1,59.2000014453125,10|0,0:3|0:0,0:0:0:0:
345,151,128008,2,0,L|351:127,1,14.8000003613281,0|0,0:0|0:0,0:0:0:0:
190,15,128208,6,0,L|253:43,1,59.2000014453125,10|0,0:3|0:0,0:0:0:0:
300,82,128808,1,0,0:0:0:0:
117,127,129008,2,0,L|112:94,1,29.6000007226563,0|0,0:0|0:0,0:0:0:0:
138,187,129408,2,0,L|148:150,1,29.6000007226563,6|0,0:3|0:0,0:0:0:0:
33,261,129808,1,6,0:3:0:0:
102,280,130008,2,0,L|66:288,2,29.6000007226563,0|0|8,0:0|0:0|0:3,0:0:0:0:
154,346,130608,1,10,0:3:0:0:
234,323,130808,1,0,0:0:0:0:
144,357,131008,2,0,L|110:351,1,29.6000007226563,0|8,0:0|0:3,0:0:0:0:
329,307,131408,6,0,L|335:338,1,29.6000007226563,10|0,0:3|0:0,0:0:0:0:
464,366,131808,1,0,0:0:0:0:
505,304,132008,1,0,0:0:0:0:
438,260,132208,2,0,L|409:269,1,29.6000007226563,0|0,0:0|0:0,0:0:0:0:
476,208,132608,2,0,L|458:237,1,29.6000007226563,6|0,0:3|0:0,0:0:0:0:
256,128,133008,6,0,L|249:93,1,29.6000007226563,8|0,0:3|0:0,0:0:0:0:
134,6,133408,1,8,0:3:0:0:
113,159,133608,1,8,0:3:0:0:
184,65,133808,2,0,P|161:81|128:84,1,59.2000014453125,10|6,0:3|0:3,0:0:0:0:
60,107,134408,2,0,P|48:99|38:90,1,14.8000003613281
34,215,134608,6,0,L|45:276,1,59.2000014453125,10|0,0:3|0:0,0:0:0:0:
18,339,135208,1,0,0:0:0:0:
163,278,135408,2,0,L|156:312,1,29.6000007226563,6|0,0:3|0:0,0:0:0:0:
231,307,135808,2,0,L|230:343,1,29.6000007226563,10|0,0:3|0:0,0:0:0:0:
368,373,136208,1,6,0:3:0:0:
434,333,136408,1,0,0:0:0:0:
355,359,136608,2,0,L|323:364,1,29.6000007226563,0|8,0:0|0:3,0:0:0:0:
230,237,137008,2,0,P|243:200|261:182,1,59.2000014453125,10|0,0:3|0:0,0:0:0:0:
322,217,137608,2,0,L|347:209,1,14.8000003613281,0|0,0:0|0:0,0:0:0:0:
478,74,137808,6,0,L|449:132,1,59.2000014453125,10|0,0:3|0:0,0:0:0:0:
443,191,138408,1,0,0:0:0:0:
370,45,138608,2,0,L|366:6,1,29.6000007226563,6|0,0:3|0:0,0:0:0:0:
293,66,139008,2,0,L|301:34,1,29.6000007226563,0|0,0:0|0:0,0:0:0:0:
173,12,139408,1,10,0:3:0:0:
111,58,139608,1,0,0:0:0:0:
183,28,139808,2,0,L|220:37,1,29.6000007226563,0|8,0:0|0:3,0:0:0:0:
286,162,140208,2,0,P|248:155|224:132,1,59.2000014453125,10|0,0:3|0:0,0:0:0:0:
162,120,140808,2,0,L|136:126,1,14.8000003613281,8|0,0:3|0:0,0:0:0:0:
34,291,141008,6,0,L|52:232,1,59.2000014453125,10|0,0:3|0:0,0:0:0:0:
36,167,141608,1,0,0:0:0:0:
128,305,141808,2,0,L|133:339,1,29.6000007226563,0|0,0:0|0:0,0:0:0:0:
162,250,142208,2,0,L|150:286,1,29.6000007226563,6|0,0:3|0:0,0:0:0:0:
256,377,142608,1,6,0:3:0:0:
280,314,142808,2,0,L|288:350,2,29.6000007226563,0|0|8,0:0|0:0|0:3,0:0:0:0:
356,191,143408,1,10,0:3:0:0:
428,215,143608,1,0,0:0:0:0:
503,110,143808,1,0,0:0:0:0:
414,135,144008,1,8,0:3:0:0:
348,18,144208,6,0,L|353:53,1,29.6000007226563,10|0,0:3|0:0,0:0:0:0:
281,173,144608,2,0,L|253:185,1,29.6000007226563,0|0,0:0|0:0,0:0:0:0:
180,77,145008,1,0,0:0:0:0:
111,90,145208,2,0,L|145:98,2,29.6000007226563,0|6|0,0:0|0:3|0:0,0:0:0:0:
34,183,145808,1,0,0:0:0:0:
59,254,146008,1,8,0:3:0:0:
191,320,146208,1,8,0:3:0:0:
253,181,146408,1,8,0:3:0:0:
264,267,146608,2,0,L|292:277,1,29.6000007226563,10|0,0:3|0:0,0:0:0:0:
448,335,147008,6,0,B|431:330|431:330|398:340,1,44.4000010839844,0|0,0:0|0:0,0:0:0:0:
501,371,147408,1,0,0:0:0:0:
339,33,160208,6,0,B|359:42|359:42|394:12|458:17,1,118.400002890625,10|8,0:3|0:3,0:0:0:0:
382,177,161408,5,4,0:0:0:0:
471,107,161608,2,0,B|435:89|435:89|401:87|365:127|377:172,1,148.000003613281,2|0,0:0|0:0,0:0:0:0:
60,141,163108,6,0,B|43:154|43:154|58:91|20:31,1,148.000003613281,2|0,0:3|0:0,0:0:0:0:
31,39,164208,2,0,L|38:14,1,14.8000003613281,10|0,0:3|0:0,0:0:0:0:
128,145,164608,6,0,B|123:178|102:198|102:198|130:190|158:205|158:205|189:191|216:199,1,177.600004335938,4|0,0:0|0:0,0:0:0:0:
458,9,166308,6,0,B|481:29|489:76|489:76|473:111|481:151,1,148.000003613281,2|0,0:3|0:0,0:0:0:0:
487,152,167408,2,0,L|481:177,1,14.8000003613281,10|0,0:3|0:0,0:0:0:0:
317,25,167808,6,0,B|354:74|417:70|417:70|382:71|353:93,1,177.600004335938,4|0,0:0|0:0,0:0:0:0:
51,117,169508,6,0,B|49:147|28:169|28:169|65:157|114:191,1,148.000003613281,2|0,0:3|0:0,0:0:0:0:
118,198,170608,2,0,L|122:173,1,14.8000003613281,8|0,0:3|0:0,0:0:0:0:
29,51,171008,6,0,B|62:35|110:53|122:99|122:99|146:82|138:42,1,177.600004335938,4|0,0:0|0:0,0:0:0:0:
300,6,172708,1,2,0:3:0:0:
373,31,173008,6,0,B|429:17|469:44|469:44|478:40|494:41,1,118.400002890625,2|8,0:3|0:3,0:0:0:0:
450,196,174208,5,4,0:0:0:0:
411,97,174408,2,0,B|383:124|377:162|403:192|403:192|443:182,1,148.000003613281,2|0,0:3|0:0,0:0:0:0:
134,58,175908,6,0,B|116:74|116:92|116:92|97:54|58:45|15:61,1,148.000003613281,2|0,0:3|0:0,0:0:0:0:
18,64,177008,2,0,L|25:38,1,14.8000003613281,8|0,0:3|0:0,0:0:0:0:
192,101,177408,6,0,B|223:103|240:129|240:129|210:69|245:13,1,177.600004335938,4|0,0:0|0:0,0:0:0:0:
499,175,179108,6,0,B|477:178|461:174|461:174|421:237|341:206,1,162.800003974609,2|8,0:3|0:3,0:0:0:0:
382,44,180608,5,4,0:0:0:0:
392,144,180808,2,0,B|413:121|413:121|421:89|389:54,1,103.600002529297,2|0,0:3|0:0,0:0:0:0:
155,169,182341,6,0,B|187:153|216:167|216:167|241:197|287:190,1,143.066670159505,2|0,0:3|0:0,0:0:0:0:
293,181,183408,2,0,L|288:155,1,14.8000003613281,8|0,0:3|0:0,0:0:0:0:
256,4,183808,5,4,0:0:0:0:
256,192,183908,12,10,185808,0:3:0:0:
416,366,189408,6,0,L|389:372,1,23.9999992675781,0|0,0:0|0:0,0:0:0:0:
479,379,189808,2,0,L|454:375,1,23.9999992675781,10|0,0:3|0:0,0:0:0:0:
333,372,190208,2,0,L|361:364,1,23.9999992675781,0|0,0:0|0:0,0:0:0:0:
241,354,190608,1,10,0:3:0:0:
308,379,190808,1,0,0:0:0:0:
219,367,191008,2,0,L|189:372,1,23.9999992675781,0|0,0:0|0:0,0:0:0:0:
117,374,191408,2,0,L|170:384,2,47.9999985351563,10|0|10,0:3|0:0|0:3,0:0:0:0:
15,315,192608,6,0,L|44:320,1,23.9999992675781,0|0,0:0|0:0,0:0:0:0:
125,350,193008,2,0,L|155:345,1,23.9999992675781,10|0,0:3|0:0,0:0:0:0:
210,328,193408,2,0,L|179:334,1,23.9999992675781,0|0,0:0|0:0,0:0:0:0:
98,349,193808,1,10,0:3:0:0:
157,320,194008,2,0,L|185:325,1,23.9999992675781,0|0,0:0|0:0,0:0:0:0:
255,379,194408,1,0,0:0:0:0:
328,337,194608,2,0,L|273:349,2,47.9999985351563,10|0|10,0:3|0:0|0:3,0:0:0:0:
434,314,195808,6,0,L|404:322,1,23.9999992675781,0|0,0:0|0:0,0:0:0:0:
491,334,196208,2,0,L|459:327,1,23.9999992675781,10|0,0:3|0:0,0:0:0:0:
389,340,196608,2,0,L|363:349,1,23.9999992675781,0|0,0:0|0:0,0:0:0:0:
231,328,197008,1,10,0:3:0:0:
302,376,197208,1,0,0:0:0:0:
247,346,197408,2,0,L|281:354,1,23.9999992675781,0|0,0:0|0:0,0:0:0:0:
193,372,197808,2,0,L|215:362,1,23.9999992675781,10|0,0:3|0:0,0:0:0:0:
326,349,198208,2,0,L|296:346,1,23.9999992675781,0|0,0:0|0:0,0:0:0:0:
231,328,198608,5,10,0:3:0:0:
168,379,198808,1,0,0:0:0:0:
209,315,199008,2,0,L|180:308,1,23.9999992675781,0|0,0:0|0:0,0:0:0:0:
89,342,199408,2,0,L|115:332,1,23.9999992675781,10|0,0:3|0:0,0:0:0:0:
38,312,199808,2,0,L|68:320,1,23.9999992675781,0|0,0:0|0:0,0:0:0:0:
183,291,200208,1,10,0:3:0:0:
98,251,200408,1,0,0:0:0:0:
167,303,200608,2,0,L|142:314,1,23.9999992675781,0|0,0:0|0:0,0:0:0:0:
239,333,201008,2,0,L|288:345,1,47.9999985351563,0|0,0:0|0:0,0:0:0:0:
359,369,201608,2,0,L|347:373,1,11.9999996337891
484,232,201808,6,0,L|501:172,1,62.4000020947266,10|0,0:3|0:0,0:0:0:0:
486,106,202408,1,0,0:0:0:0:
283,178,202608,2,0,L|317:192,1,31.2000010473633,0|8,0:0|0:0,0:0:0:0:
410,143,203008,2,0,L|386:167,1,31.2000010473633,8|0,0:3|0:0,0:0:0:0:
301,323,203408,1,6,0:3:0:0:
254,258,203608,1,0,0:0:0:0:
309,342,203808,2,0,L|316:376,1,31.2000010473633,0|8,0:0|0:3,0:0:0:0:
163,259,204208,2,0,P|173:223|194:198,1,62.4000020947266,10|0,0:3|0:0,0:0:0:0:
204,117,204808,2,0,L|217:139,1,15.6000005236817,8|0,0:3|0:0,0:0:0:0:
40,335,205008,6,0,L|66:266,1,62.4000020947266,10|0,1:3|0:0,0:0:0:0:
103,215,205608,1,0,0:0:0:0:
34,133,205808,2,0,L|52:168,1,31.2000010473633,6|0,0:3|0:0,0:0:0:0:
87,36,206208,2,0,L|78:72,1,31.2000010473633
194,205,206608,1,8,0:0:0:0:
270,144,206808,1,0,0:0:0:0:
198,187,207008,2,0,L|160:166,1,31.2000010473633,0|8,0:0|0:3,0:0:0:0:
344,110,207408,2,0,P|378:125|397:151,1,62.4000020947266,10|0,0:3|0:0,0:0:0:0:
440,216,208008,2,0,L|447:193,1,15.6000005236817,8|0,0:3|0:0,0:0:0:0:
200,9,208208,6,0,L|263:45,1,62.4000020947266,10|0,1:3|0:0,0:0:0:0:
326,39,208808,1,0,0:0:0:0:
113,93,209008,2,0,L|77:102,1,31.2000010473633
213,129,209408,2,0,L|176:117,1,31.2000010473633,8|0,0:3|0:0,0:0:0:0:
42,231,209808,1,6,0:3:0:0:
136,195,210008,1,0,0:0:0:0:
38,217,210208,2,0,L|46:176,1,31.2000010473633,8|8,0:0|0:3,0:0:0:0:
169,300,210608,1,10,0:3:0:0:
75,336,210808,1,0,0:0:0:0:
175,287,211008,2,0,L|164:248,1,31.2000010473633,0|8,0:0|0:3,0:0:0:0:
435,366,211408,5,10,1:3:0:0:
484,301,211608,1,0,0:0:0:0:
457,203,211808,1,0,0:0:0:0:
351,163,212008,1,0,0:0:0:0:
383,232,212208,2,0,L|418:222,1,31.2000010473633,0|8,0:0|0:3,0:0:0:0:
295,267,212608,2,0,L|329:276,1,31.2000010473633,10|0,0:3|0:0,0:0:0:0:
166,333,213008,5,6,0:3:0:0:
91,369,213208,1,0,0:0:0:0:
45,194,213408,1,8,0:3:0:0:
176,253,213608,1,8,0:3:0:0:
93,261,213808,2,0,L|104:220,1,31.2000010473633,10|0,0:3|0:0,0:0:0:0:
54,42,214208,2,0,B|45:59|45:59|52:87,1,46.800001571045
255,161,214608,6,0,L|225:99,1,65.6000010009766,10|0,1:3|0:0,0:0:0:0:
174,53,215208,1,0,0:0:0:0:
394,73,215408,2,0,L|384:105,1,32.8000005004883
309,15,215808,2,0,L|317:58,1,32.8000005004883,10|0,0:3|0:0,0:0:0:0:
388,235,216208,1,6,0:3:0:0:
473,179,216408,1,0,0:0:0:0:
399,247,216608,2,0,L|435:257,1,32.8000005004883,0|8,0:0|0:3,0:0:0:0:
252,375,217008,2,0,P|254:341|281:309,1,65.6000010009766,10|8,0:3|0:3,0:0:0:0:
265,242,217608,2,0,L|292:237,1,16.4000002502441
60,321,217808,6,0,L|133:350,1,65.6000010009766,10|8,1:3|0:0,0:0:0:0:
182,304,218408,1,0,0:0:0:0:
42,161,218608,2,0,L|5:170,1,32.8000005004883,6|0,0:3|0:0,0:0:0:0:
137,110,219008,2,0,L|100:102,1,32.8000005004883,8|0,0:3|0:0,0:0:0:0:
154,236,219408,1,6,0:3:0:0:
250,198,219608,1,8,0:3:0:0:
162,222,219808,2,0,L|155:190,1,32.8000005004883,8|8,0:3|0:3,0:0:0:0:
310,74,220208,2,0,P|340:87|364:126,1,65.6000010009766,8|6,0:3|0:3,0:0:0:0:
429,151,220808,2,0,L|439:121,1,16.4000002502441,8|0,0:3|0:0,0:0:0:0:
482,339,221008,6,0,L|424:298,1,65.6000010009766,10|0,1:3|0:0,0:0:0:0:
410,231,221608,1,0,0:0:0:0:
289,352,221808,2,0,L|285:385,1,32.8000005004883
198,277,222208,2,0,L|204:312,1,32.8000005004883,10|0,0:3|0:0,0:0:0:0:
321,204,222608,5,0,0:0:0:0:
329,275,222808,2,0,L|336:241,2,32.8000005004883,0|0|8,0:0|0:0|0:3,0:0:0:0:
459,165,223408,1,10,0:3:0:0:
378,146,223608,1,0,0:0:0:0:
321,204,223808,1,8,0:3:0:0:
178,142,224008,1,8,0:3:0:0:
79,366,224208,6,0,L|90:328,1,32.8000005004883,10|0,1:3|0:0,0:0:0:0:
249,219,224608,2,0,L|242:185,1,32.8000005004883
201,350,225008,2,0,L|206:308,1,32.8000005004883,0|8,0:0|0:3,0:0:0:0:
14,184,225408,1,10,0:3:0:0:
87,260,225608,1,0,0:0:0:0:
27,192,225808,2,0,L|64:179,1,32.8000005004883,6|0,0:3|0:0,0:0:0:0:
240,97,226208,1,8,0:3:0:0:
155,209,226408,1,8,0:3:0:0:
124,131,226608,2,0,L|135:99,1,32.8000005004883,10|0,0:3|0:0,0:0:0:0:
336,59,227008,2,0,B|366:70|366:70|395:64,1,49.2000007507324
487,253,227408,6,0,L|412:271,1,68.8000010498047,10|8,1:3|0:0,0:0:0:0:
378,324,228008,1,0,0:0:0:0:
312,135,228208,2,0,L|353:148,1,34.4000005249024
237,278,228608,1,10,0:3:0:0:
332,233,228808,1,0,0:0:0:0:
247,294,229008,2,0,L|261:258,1,34.4000005249024,6|8,0:3|0:3,0:0:0:0:
234,109,229408,1,8,0:3:0:0:
141,168,229608,1,8,0:3:0:0:
115,32,229808,2,0,P|140:54|152:86,1,68.8000010498047,6|0,0:3|0:0,0:0:0:0:
68,113,230408,2,0,L|79:88,1,17.2000002624512,8|0,0:3|0:0,0:0:0:0:
379,36,230608,6,0,L|311:55,1,68.8000010498047,10|0,1:3|0:0,0:0:0:0:
238,16,231208,1,8,0:0:0:0:
363,160,231408,2,0,L|353:119,1,34.4000005249024,6|0,0:3|0:0,0:0:0:0:
444,208,231808,1,10,0:3:0:0:
415,301,232008,1,0,0:0:0:0:
452,218,232208,2,0,L|491:223,1,34.4000005249024,6|8,0:3|0:3,0:0:0:0:
383,384,232608,1,8,0:3:0:0:
227,277,232808,1,8,0:3:0:0:
330,316,233008,2,0,P|296:326|264:360,1,68.8000010498047,10|6,0:3|0:3,0:0:0:0:
171,369,233608,2,0,L|202:381,1,17.2000002624512
2,220,233808,6,0,L|72:205,1,68.8000010498047,10|8,1:3|0:0,0:0:0:0:
134,247,234408,1,0,0:0:0:0:
57,75,234608,2,0,L|18:68,1,34.4000005249024
141,125,235008,2,0,L|104:132,1,34.4000005249024,10|0,0:3|0:0,0:0:0:0:
260,38,235408,5,6,0:3:0:0:
326,93,235608,1,8,0:3:0:0:
254,59,235808,1,8,0:3:0:0:
336,8,236008,1,8,0:3:0:0:
282,166,236208,1,6,0:3:0:0:
382,207,236408,1,0,0:0:0:0:
279,183,236608,1,8,0:3:0:0:
408,108,236808,1,8,0:3:0:0:
479,312,237008,5,10,0:3:0:0:
473,237,237208,2,0,L|479:275,2,34.4000005249024,0|8|0,0:0|0:0|0:0,0:0:0:0:
348,324,237808,2,0,L|345:360,1,34.4000005249024,0|0,0:0|0:0,0:0:0:0:
275,170,238208,1,10,0:3:0:0:
363,208,238408,1,0,0:0:0:0:
205,235,238608,2,0,L|198:271,1,34.4000005249024,6|0,0:3|0:0,0:0:0:0:
44,221,239008,1,8,0:3:0:0:
160,164,239208,1,8,0:3:0:0:
79,90,239408,2,0,L|85:128,1,34.4000005249024,10|0,0:3|0:0,0:0:0:0:
109,342,239808,2,0,B|145:332|145:332|161:337,1,51.6000007873535,8|0,0:3|0:0,0:0:0:0:
394,227,240208,6,0,L|319:211,1,71.9999978027344,10|8,1:3|0:0,0:0:0:0:
261,174,240808,1,0,0:0:0:0:
312,376,241008,1,6,0:3:0:0:
395,336,241208,1,0,0:0:0:0:
309,304,241408,2,0,L|315:346,1,35.9999989013672,10|0,0:3|0:0,0:0:0:0:
183,185,241808,1,6,0:3:0:0:
177,256,242008,2,0,L|189:219,2,35.9999989013672,0|0|8,0:0|0:0|0:3,0:0:0:0:
34,325,242608,2,0,P|13:290|13:256,1,71.9999978027344,10|0,0:3|0:0,0:0:0:0:
37,184,243208,2,0,L|59:197,1,17.9999994506836
258,381,243408,6,0,L|288:309,1,71.9999978027344,10|8,1:3|0:0,0:0:0:0:
356,288,244008,1,0,0:0:0:0:
233,197,244208,1,6,0:3:0:0:
141,240,244408,1,0,0:0:0:0:
245,208,244608,2,0,L|256:247,1,35.9999989013672,10|0,0:3|0:0,0:0:0:0:
477,338,245008,1,6,0:3:0:0:
408,359,245208,2,0,L|446:366,2,35.9999989013672,8|8|8,0:3|0:3|0:3,0:0:0:0:
298,125,245808,2,0,P|309:92|349:64,1,71.9999978027344,10|6,0:3|0:3,0:0:0:0:
432,68,246408,2,0,L|412:77,1,17.9999994506836,0|0,0:0|0:0,0:0:0:0:
110,139,246608,6,0,L|147:62,1,71.9999978027344,10|8,1:3|0:0,0:0:0:0:
114,10,247208,1,0,0:0:0:0:
187,157,247408,1,6,0:3:0:0:
116,225,247608,1,0,0:0:0:0:
195,175,247808,2,0,L|200:219,1,35.9999989013672,10|0,0:3|0:0,0:0:0:0:
225,367,248208,5,6,0:3:0:0:
281,313,248408,1,8,0:3:0:0:
359,302,248608,1,8,0:3:0:0:
428,341,248808,1,8,0:3:0:0:
479,169,249008,1,10,0:3:0:0:
396,226,249208,1,0,0:0:0:0:
296,211,249408,1,0,0:0:0:0:
244,121,249608,1,8,0:3:0:0:
437,30,249808,5,10,1:3:0:0:
398,118,250008,1,0,0:0:0:0:
444,45,250208,1,8,0:0:0:0:
479,169,250408,1,10,0:3:0:0:
314,49,250608,1,0,0:0:0:0:
230,144,250808,1,8,0:3:0:0:
317,62,251008,1,6,0:3:0:0:
346,207,251208,1,8,0:3:0:0:
82,143,251408,5,10,0:3:0:0:
150,90,251608,1,0,0:0:0:0:
235,225,251808,1,0,0:0:0:0:
139,313,252008,1,0,0:0:0:0:
159,208,252208,2,0,L|167:170,1,35.9999989013672,0|6,0:0|0:3,0:0:0:0:
261,330,252608,6,0,B|244:322|244:322|201:336,1,53.9999983520508,8|0,0:0|0:0,0:0:0:0:
294,382,253008,1,10,0:3:0:0:
256,192,253108,12,2,255808,0:0:0:0:
