osu file format v14

[General]
AudioFilename: audio.ogg
AudioLeadIn: 0
PreviewTime: 20246
Countdown: 0
SampleSet: Soft
StackLeniency: 0.7
Mode: 0
LetterboxInBreaks: 0
WidescreenStoryboard: 0

[Editor]
Bookmarks: 7538,20871,34204,47538,60871,74204,87538,100871,115871,129204,142538
DistanceSpacing: 0.8
BeatDivisor: 8
GridSize: 16
TimelineZoom: 1.7

[Metadata]
Title:Cupid (Twin Ver.) (Sped Up Ver.)
TitleUnicode:Cupid (Twin Ver.) (Sped Up Ver.)
Artist:FIFTY FIFTY
ArtistUnicode:피프티피프티
Creator:LeCandy
Version:Foolish
Source:
Tags:pop korean kpop k-pop english 50 asagi nagaraia alevi kyuuchie liyuu
BeatmapID:4130321
BeatmapSetID:1988283

[Difficulty]
HPDrainRate:5.8
CircleSize:4.6
OverallDifficulty:7.8
ApproachRate:8.8
SliderMultiplier:2.22
SliderTickRate:1

[Events]
//Background and Video events
0,0,"bg.jpg",0,0
//Break Periods
//Storyboard Layer 0 (Background)
//Storyboard Layer 1 (Fail)
//Storyboard Layer 2 (Pass)
//Storyboard Layer 3 (Foreground)
//Storyboard Layer 4 (Overlay)
//Storyboard Sound Samples

[TimingPoints]
7538,416.666666666667,4,2,1,60,1,0
7538,-166.666666666667,4,2,1,60,0,0
17538,-142.857142857143,4,2,1,60,0,0
20871,-83.3333333333333,4,2,1,80,0,0
22121,-71.4285714285714,4,2,1,80,0,0
22538,-83.3333333333333,4,2,1,80,0,0
22954,-125,4,2,1,80,0,0
23371,-166.666666666667,4,2,1,80,0,0
23579,-125,4,2,1,80,0,0
23788,-100,4,2,1,80,0,0
23996,-76.9230769230769,4,2,1,80,0,0
24204,-71.4285714285714,4,2,1,80,0,0
25038,-333.333333333334,4,2,1,80,0,0
25350,-333.333333333334,4,2,1,5,0,0
25454,-166.666666666667,4,2,1,80,0,0
25871,-76.9230769230769,4,2,1,80,0,0
26183,-76.9230769230769,4,2,1,5,0,0
26288,-166.666666666667,4,2,1,80,0,0
27121,-71.4285714285714,4,2,1,80,0,0
27329,-50,4,2,1,80,0,0
27954,-71.4285714285714,4,2,1,80,0,0
28371,-111.111111111111,4,2,1,80,0,0
28579,-66.6666666666667,4,2,1,80,0,0
28788,-125,4,2,1,80,0,0
28996,-58.8235294117647,4,2,1,80,0,0
29204,-71.4285714285714,4,2,1,80,0,0
30871,-83.3333333333333,4,2,1,80,0,0
31183,-83.3333333333333,4,2,1,5,0,0
31288,-90.9090909090909,4,2,1,80,0,0
31392,-90.9090909090909,4,2,1,5,0,0
31496,-76.9230769230769,4,2,1,80,0,0
31808,-76.9230769230769,4,2,1,5,0,0
31913,-100,4,2,1,80,0,0
32017,-100,4,2,1,5,0,0
32121,-71.4285714285714,4,2,1,80,0,0
32433,-71.4285714285714,4,2,1,5,0,0
32538,-71.4285714285714,4,2,22,50,0,0
34621,-55.5555555555556,4,2,1,90,0,0
34933,-55.5555555555556,4,2,1,5,0,0
35038,-83.3333333333333,4,2,1,90,0,0
35246,-66.6666666666667,4,2,1,90,0,0
35663,-83.3333333333333,4,2,1,90,0,0
36079,-100,4,2,1,90,0,0
36288,-58.8235294117647,4,2,1,90,0,0
36600,-58.8235294117647,4,2,1,5,0,0
36704,-55.5555555555556,4,2,1,90,0,0
36913,-62.5,4,2,1,90,0,0
37121,-76.9230769230769,4,2,1,90,0,0
37329,-100,4,2,1,90,0,0
37538,-66.6666666666667,4,2,1,90,0,0
38371,-125,4,2,1,90,0,0
38996,-62.5,4,2,1,90,0,0
39621,-100,4,2,1,90,0,0
40871,-71.4285714285714,4,2,1,90,0,0
41183,-71.4285714285714,4,2,1,5,0,0
41288,-100,4,2,1,90,0,0
42329,-71.4285714285714,4,2,1,90,0,0
43371,-100,4,2,1,90,0,0
43996,-83.3333333333333,4,2,1,90,0,0
44829,-71.4285714285714,4,2,1,90,0,0
45975,-71.4285714285714,4,2,1,5,0,0
46079,-166.666666666667,4,2,1,90,0,0
47538,-166.666666666667,4,2,1,60,0,0
48996,-166.666666666667,4,2,1,50,0,0
54204,-166.666666666667,4,2,1,60,0,0
55038,-200,4,2,1,60,0,0
55454,-125,4,2,1,60,0,0
59308,-125,4,2,1,5,0,0
59413,-125,4,2,1,60,0,0
60871,-83.3333333333333,4,2,1,80,0,0
62121,-71.4285714285714,4,2,1,80,0,0
62538,-83.3333333333333,4,2,1,80,0,0
62954,-125,4,2,1,80,0,0
63371,-166.666666666667,4,2,1,80,0,0
63579,-125,4,2,1,80,0,0
63788,-100,4,2,1,80,0,0
63996,-76.9230769230769,4,2,1,80,0,0
64204,-71.4285714285714,4,2,1,80,0,0
65038,-333.333333333334,4,2,1,80,0,0
65350,-333.333333333334,4,2,1,5,0,0
65454,-125,4,2,1,80,0,0
65663,-166.666666666667,4,2,1,80,0,0
65871,-66.6666666666667,4,2,1,80,0,0
66183,-66.6666666666667,4,2,1,5,0,0
66288,-166.666666666667,4,2,1,80,0,0
67121,-71.4285714285714,4,2,1,80,0,0
67329,-45.4545454545455,4,2,1,80,0,0
67954,-71.4285714285714,4,2,1,80,0,0
68371,-111.111111111111,4,2,1,80,0,0
68579,-66.6666666666667,4,2,1,80,0,0
68788,-125,4,2,1,80,0,0
68996,-58.8235294117647,4,2,1,80,0,0
69204,-71.4285714285714,4,2,1,80,0,0
70871,-83.3333333333333,4,2,1,80,0,0
71183,-83.3333333333333,4,2,1,5,0,0
71288,-90.9090909090909,4,2,1,80,0,0
71392,-90.9090909090909,4,2,1,5,0,0
71496,-142.857142857143,4,2,1,80,0,0
71808,-142.857142857143,4,2,1,5,0,0
71913,-125,4,2,1,80,0,0
72017,-125,4,2,1,5,0,0
72121,-62.5,4,2,1,80,0,0
72433,-62.5,4,2,1,5,0,0
72538,-62.5,4,2,22,50,0,0
74621,-55.5555555555556,4,2,1,90,0,0
74933,-55.5555555555556,4,2,1,5,0,0
75038,-125,4,2,1,90,0,0
75246,-66.6666666666667,4,2,1,90,0,0
75663,-83.3333333333333,4,2,1,90,0,0
76079,-125,4,2,1,90,0,0
76288,-58.8235294117647,4,2,1,90,0,0
76600,-58.8235294117647,4,2,1,5,0,0
76704,-55.5555555555556,4,2,1,90,0,0
76913,-62.5,4,2,1,90,0,0
77121,-76.9230769230769,4,2,1,90,0,0
77329,-100,4,2,1,90,0,0
77538,-66.6666666666667,4,2,1,90,0,0
78371,-125,4,2,1,90,0,0
78996,-55.5555555555556,4,2,1,90,0,0
79621,-125,4,2,1,90,0,0
80871,-71.4285714285714,4,2,1,90,0,0
81183,-71.4285714285714,4,2,1,5,0,0
81288,-100,4,2,1,90,0,0
82329,-71.4285714285714,4,2,1,90,0,0
83371,-100,4,2,1,90,0,0
84829,-71.4285714285714,4,2,1,90,0,0
87121,-83.3333333333333,4,2,1,90,0,0
87538,-100,4,2,1,80,0,0
88371,-125,4,2,1,80,0,0
88996,-100,4,2,1,80,0,0
90038,-125,4,2,1,80,0,0
90871,-166.666666666667,4,2,1,80,0,0
91288,-100,4,2,1,80,0,0
91704,-250,4,2,1,80,0,0
92121,-142.857142857143,4,2,1,80,0,0
92329,-100,4,2,1,80,0,0
92746,-142.857142857143,4,2,1,80,0,0
93371,-86.9565217391304,4,2,1,80,0,0
93579,-111.111111111111,4,2,1,80,0,0
93788,-133.333333333333,4,2,1,80,0,0
93996,-200,4,2,1,80,0,0
94204,-100,4,2,1,80,0,0
95038,-125,4,2,1,80,0,0
95663,-100,4,2,1,80,0,0
96704,-125,4,2,1,80,0,0
97538,-100,4,2,1,80,0,0
98996,-71.4285714285714,4,2,1,80,0,0
99308,-71.4285714285714,4,2,1,5,0,0
99413,-125,4,2,1,80,0,0
100871,-125,4,2,1,50,0,0
102329,-250,4,2,1,50,0,0
108996,-333.333333333333,4,2,1,50,0,0
110871,-250,4,2,1,50,0,0
116288,-55.5555555555556,4,2,1,90,0,0
116600,-55.5555555555556,4,2,1,5,0,0
116704,-83.3333333333333,4,2,1,90,0,0
116913,-66.6666666666667,4,2,1,90,0,0
117329,-100,4,2,1,90,0,0
117954,-58.8235294117647,4,2,1,90,0,0
118266,-58.8235294117647,4,2,1,5,0,0
118371,-55.5555555555556,4,2,1,90,0,0
118579,-62.5,4,2,1,90,0,0
118788,-76.9230769230769,4,2,1,90,0,0
118996,-100,4,2,1,90,0,0
119204,-62.5,4,2,1,90,0,0
120038,-166.666666666667,4,2,1,90,0,0
120663,-58.8235294117647,4,2,1,90,0,0
121288,-125,4,2,1,90,0,0
122538,-62.5,4,2,1,90,0,0
122850,-62.5,4,2,1,5,0,0
122954,-100,4,2,1,90,0,0
123996,-71.4285714285714,4,2,1,90,0,0
125038,-100,4,2,1,90,0,0
125663,-76.9230769230769,4,2,1,90,0,0
126496,-62.5,4,2,1,90,0,0
127329,-71.4285714285714,4,2,1,90,0,0
127641,-71.4285714285714,4,2,1,5,0,0
127746,-71.4285714285714,4,2,1,90,0,0
128058,-125,4,2,1,90,0,0
129621,-55.5555555555556,4,2,1,90,0,0
129933,-55.5555555555556,4,2,1,5,0,0
130038,-83.3333333333333,4,2,1,90,0,0
130246,-55.5555555555556,4,2,1,90,0,0
130663,-83.3333333333333,4,2,1,90,0,0
131079,-100,4,2,1,90,0,0
131288,-52.6315789473684,4,2,1,90,0,0
131600,-52.6315789473684,4,2,1,5,0,0
131704,-55.5555555555556,4,2,1,90,0,0
131913,-62.5,4,2,1,90,0,0
132121,-76.9230769230769,4,2,1,90,0,0
132329,-100,4,2,1,90,0,0
132538,-52.6315789473684,4,2,1,90,0,0
133371,-125,4,2,1,90,0,0
133996,-45.4545454545455,4,2,1,90,0,0
134621,-125,4,2,1,90,0,0
135871,-71.4285714285714,4,2,1,90,0,0
136183,-71.4285714285714,4,2,1,5,0,0
136288,-166.666666666667,4,2,1,90,0,0
137121,-100,4,2,1,90,0,0
137329,-58.8235294117647,4,2,1,90,0,0
138371,-100,4,2,1,90,0,0
138996,-83.3333333333333,4,2,1,90,0,0
139829,-58.8235294117647,4,2,1,90,0,0
140663,-66.6666666666667,4,2,1,90,0,0
140975,-66.6666666666667,4,2,1,5,0,0
141079,-166.666666666667,4,2,1,90,0,0
142329,-166.666666666667,4,2,1,50,0,0

[Colours]
Combo1 : 251,213,250
Combo2 : 250,169,245

[HitObjects]
457,17,7538,6,0,P|431:68|424:148,1,133.2,2|8,3:2|2:0,2:0:0:0:
424,143,8163,1,0,2:0:0:0:
358,180,8371,1,0,3:0:0:0:
270,103,8579,1,0,2:0:0:0:
154,129,8788,1,8,2:0:0:0:
113,72,8996,2,0,P|106:55|102:28,1,33.2999999999999,2|0,2:0|2:0,2:0:0:0:
13,177,9204,5,0,3:2:0:0:
13,177,9413,2,0,P|3:206|1:256,1,66.5999999999999,0|8,2:0|2:0,2:0:0:0:
85,363,9829,1,0,2:0:0:0:
85,363,10038,6,0,P|81:346|74:331,1,33.2999999999999,0|0,3:0|2:0,2:0:0:0:
156,312,10246,2,0,P|159:295|158:279,1,33.2999999999999,0|0,2:0|2:0,2:0:0:0:
216,384,10454,2,0,P|225:370|232:355,1,33.2999999999999,8|0,2:0|2:0,2:0:0:0:
364,308,10663,1,0,2:0:0:0:
364,308,10871,6,0,P|428:287|497:277,1,133.2,2|8,3:2|2:0,2:0:0:0:
373,200,11496,1,0,2:0:0:0:
373,200,11704,2,0,P|365:215|360:230,1,33.2999999999999,0|0,3:0|2:0,2:0:0:0:
455,182,11913,2,0,P|446:196|441:212,1,33.2999999999999,0|0,2:0|2:0,2:0:0:0:
275,134,12121,1,8,2:0:0:0:
275,134,12329,6,0,P|341:124|404:103,1,133.2,2|0,2:0|2:0,2:0:0:0:
283,241,12954,1,8,2:0:0:0:
283,241,13163,2,0,P|283:224|289:207,1,33.2999999999999,0|0,2:0|2:0,2:0:0:0:
219,87,13371,5,0,3:0:0:0:
112,245,13579,1,0,2:0:0:0:
169,202,13788,5,8,2:0:0:0:
58,28,13996,1,0,2:0:0:0:
0,74,14204,6,0,P|12:139|16:205,1,133.2,2|8,3:2|2:0,2:0:0:0:
16,205,14829,1,0,2:0:0:0:
139,310,15038,1,0,3:0:0:0:
139,310,15246,6,0,P|141:326|142:343,1,33.2999999999999,0|0,2:0|2:0,2:0:0:0:
298,328,15454,2,0,P|290:342|284:358,1,33.2999999999999,8|0,2:0|2:0,2:0:0:0:
213,384,15663,2,0,P|216:317|229:252,1,133.2,2|0,2:0|2:0,2:0:0:0:
268,81,16288,1,8,2:0:0:0:
268,81,16496,1,0,2:0:0:0:
178,193,16704,6,0,P|194:189|209:183,1,33.2999999999999,0|0,3:0|2:0,2:0:0:0:
359,128,16913,2,0,P|342:131|327:137,1,33.2999999999999,0|0,2:0|2:0,2:0:0:0:
311,218,17121,6,0,P|295:211|282:201,1,33.2999999999999,8|0,2:0|2:0,2:0:0:0:
160,93,17329,2,0,P|175:99|188:109,1,33.2999999999999,0|0,2:0|2:0,2:0:0:0:
117,300,17538,6,0,P|60:314|12:346,1,116.55,2|0,3:2|2:0,2:0:0:0:
36,244,17954,2,0,P|15:211|15:173,1,77.6999999999999,8|0,2:0|2:0,2:0:0:0:
62,116,18267,1,0,2:0:0:0:
62,116,18371,1,2,3:2:0:0:
0,14,18579,2,0,P|4:32|14:49,1,38.85,0|0,2:0|2:0,2:0:0:0:
62,116,18788,1,10,2:0:0:0:
62,115,18996,6,0,P|132:82|209:75,1,155.4,2|0,2:0|2:0,2:0:0:0:
282,96,19517,1,0,2:0:0:0:
282,96,19621,1,10,2:0:0:0:
338,3,19829,2,0,P|336:22|328:39,1,38.85,0|0,2:0|2:0,2:0:0:0:
282,96,20038,1,2,3:2:0:0:
340,202,20246,5,2,2:0:0:0:
431,224,20454,1,10,2:0:0:0:
488,272,20663,1,2,2:0:0:0:
272,167,20871,6,0,P|155:228|23:240,1,266.4,2|10,3:2|2:0,2:0:0:0:
23,240,21496,1,0,2:0:0:0:
108,263,21704,1,2,3:2:0:0:
163,203,21913,1,0,2:0:0:0:
241,243,22121,6,0,P|265:273|281:308,1,77.7,10|0,2:0|2:0,2:0:0:0:
344,203,22329,2,0,P|354:240|353:279,1,77.7,2|0,2:0|2:0,2:0:0:0:
484,269,22538,6,0,P|471:299|451:326,1,66.6,2|0,3:2|2:0,2:0:0:0:
397,368,22746,1,0,2:0:0:0:
348,126,22954,6,0,P|339:105|325:88,1,44.4,10|0,2:0|2:0,2:0:0:0:
272,48,23163,1,0,2:0:0:0:
472,9,23371,6,0,P|460:20|445:28,1,33.2999999999999,2|0,3:2|2:0,2:0:0:0:
496,96,23579,2,0,P|474:99|452:95,1,44.4,2|0,2:0|2:0,2:0:0:0:
456,195,23788,2,0,P|431:182|412:162,1,55.5,10|0,2:0|2:0,2:0:0:0:
353,262,23996,2,0,P|335:230|331:194,1,72.15,2|0,2:0|2:0,2:0:0:0:
475,294,24204,6,0,P|335:228|181:215,1,310.8,2|10,3:2|2:0,2:0:0:0:
181,215,24829,1,0,2:0:0:0:
0,86,25038,2,0,P|23:94|43:108,1,49.9499999999999,2|0,3:2|2:0,2:0:0:0:
148,45,25454,6,0,P|146:28|146:11,1,33.2999999999999,10|0,2:0|2:0,2:0:0:0:
54,12,25663,2,0,P|61:26|73:48,1,33.2999999999999,0|0,2:0|2:0,2:0:0:0:
15,174,25871,6,0,P|100:107|207:86,1,216.45,2|0,3:2|2:0,2:0:0:0:
333,136,26288,6,0,P|342:122|344:105,1,33.2999999999999,10|0,2:0|2:0,2:0:0:0:
430,184,26496,2,0,P|441:172|448:157,1,33.2999999999999,0|0,2:0|2:0,2:0:0:0:
418,95,26704,5,2,3:2:0:0:
418,95,26913,1,2,2:0:0:0:
512,0,27121,6,0,P|494:34|487:72,1,77.7,10|0,2:0|2:0,2:0:0:0:
274,201,27329,2,0,P|241:156|228:102,1,111,2|0,3:2|2:0,2:0:0:0:
147,85,27538,5,2,2:0:0:0:
147,85,27954,6,0,P|152:41|177:10,1,77.7,10|0,2:0|2:0,2:0:0:0:
0,117,28163,1,0,2:0:0:0:
0,117,28371,6,0,P|16:135|24:158,1,49.9500000000001,2|0,3:2|2:0,2:0:0:0:
96,176,28579,2,0,P|109:215|104:256,1,83.25,0|0,2:0|2:0,2:0:0:0:
396,253,28788,6,0,P|374:257|356:270,1,44.4,10|0,2:0|2:0,2:0:0:0:
287,240,28996,2,0,P|248:266|226:307,1,94.35,0|0,2:0|2:0,2:0:0:0:
57,335,29204,6,0,P|133:336|191:384,1,155.4,2|0,3:2|2:0,2:0:0:0:
434,49,29621,6,0,P|357:47|299:0,1,155.4,10|0,2:0|2:0,2:0:0:0:
232,37,30038,5,2,3:2:0:0:
268,108,30246,1,2,2:0:0:0:
358,176,30454,5,10,2:0:0:0:
254,384,30663,1,2,2:0:0:0:
446,213,30871,6,0,P|351:236|285:309,1,199.8,2|0,3:2|2:0,2:0:0:0:
292,316,31288,2,0,P|305:288|326:267,1,61.05,8|0,2:0|2:0,2:0:0:0:
200,69,31496,6,0,P|139:7|133:93,1,216.45,2|0,2:0|2:0,2:0:0:0:
132,98,31913,2,0,P|109:82|97:57,1,55.5,0|0,2:0|2:0,2:0:0:0:
220,160,32121,6,0,P|119:103|3:99,1,233.1,10|0,2:0|2:0,2:0:0:0:
5,100,32538,5,0,3:0:0:0:
13,89,32954,1,0,3:0:0:0:
107,29,33371,5,0,3:0:0:0:
122,99,33579,1,0,3:0:0:0:
352,141,33788,5,0,3:0:0:0:
406,87,33996,1,0,3:0:0:0:
268,8,34204,5,2,2:0:0:0:
268,8,34621,6,0,P|225:151|217:300,1,299.7,14|0,2:0|2:0,2:0:0:0:
169,352,35038,2,0,P|142:334|142:302,1,66.6,2|0,3:2|2:0,2:0:0:0:
68,300,35246,2,0,P|71:261|106:241,1,83.25,2|0,2:0|2:0,2:0:0:0:
0,90,35454,1,10,2:0:0:0:
0,90,35663,2,0,P|59:115|64:187,1,133.2,2|0,2:0|3:0,2:0:0:0:
202,191,36079,6,0,P|196:217|179:239,1,55.5,2|0,2:0|2:0,2:0:0:0:
0,383,36288,2,0,P|110:298|248:273,1,283.05,10|0,2:0|2:0,2:0:0:0:
312,328,36704,6,0,P|322:279|316:230,1,99.8999999999999,2|0,3:2|2:0,2:0:0:0:
420,284,36913,2,0,P|411:240|388:202,1,88.8,2|0,2:0|2:0,2:0:0:0:
385,0,37121,6,0,P|388:35|379:70,1,72.15,10|0,2:0|2:0,2:0:0:0:
470,54,37329,2,0,P|461:80|444:102,1,55.5,2|0,2:0|2:0,2:0:0:0:
512,211,37538,6,0,P|384:106|223:71,1,333,2|10,3:2|2:0,2:0:0:0:
223,70,38163,1,0,2:0:0:0:
62,41,38371,2,0,P|84:79|92:123,1,88.8,2|0,3:2|2:0,2:0:0:0:
157,159,38788,1,10,2:0:0:0:
287,0,38996,6,0,P|227:166|212:343,1,355.2,2|0,2:0|2:0,2:0:0:0:
150,384,39621,2,0,P|107:358|112:300,1,111,10|0,2:0|2:0,2:0:0:0:
65,245,40038,5,2,3:2:0:0:
0,278,40246,1,2,2:0:0:0:
104,149,40454,5,10,2:0:0:0:
196,105,40663,1,2,2:0:0:0:
0,74,40871,6,0,P|111:106|201:179,1,233.1,2|0,3:2|2:0,2:0:0:0:
220,257,41288,2,0,P|262:221|280:169,1,111,10|0,2:0|2:0,2:0:0:0:
348,142,41704,1,2,3:2:0:0:
451,253,41913,1,0,2:0:0:0:
512,222,42121,2,0,P|512:194|499:170,1,55.5,10|0,2:0|2:0,2:0:0:0:
448,38,42329,6,0,P|395:152|376:357,1,310.8,2|2,2:0|2:0,2:0:0:0:
331,384,42850,1,0,2:0:0:0:
331,384,42954,1,10,2:0:0:0:
94,63,43371,6,0,P|102:36|103:8,1,55.5,2|0,3:2|2:0,2:0:0:0:
164,78,43579,2,0,P|174:52|177:24,1,55.5,2|0,2:0|2:0,2:0:0:0:
227,110,43788,2,0,P|240:85|247:58,1,55.5,10|0,2:0|2:0,2:0:0:0:
0,123,43996,6,0,P|131:146|249:208,1,266.4,2|0,2:0|2:0,2:0:0:0:
312,255,44621,1,10,2:0:0:0:
512,246,44829,6,0,P|358:273|220:345,1,310.8,2|0,2:0|2:0,2:0:0:0:
158,384,45454,1,10,2:0:0:0:
256,103,45663,6,0,P|270:28|247:100,1,233.1,2|0,2:0|2:0,2:0:0:0:
272,20,46079,2,0,P|305:48|309:72,1,66.5999999999999,2|8,2:0|2:0,2:0:0:0:
273,14,46496,2,0,P|308:38|314:62,1,66.5999999999999,2|0,2:0|3:0,2:0:0:0:
353,231,46913,5,8,2:3:0:0:
390,234,47017,1,8,2:3:0:0:
408,201,47121,1,8,2:0:0:0:
478,282,47329,2,0,P|478:265|484:250,1,33.2999999999999,4|0,2:3|2:0,2:0:0:0:
252,373,47538,5,4,2:0:0:0:
245,360,48996,5,2,2:0:0:0:
278,335,50871,5,2,2:0:0:0:
230,311,52329,5,2,2:0:0:0:
444,103,54204,5,2,3:2:0:0:
396,55,54343,1,0,2:0:0:0:
330,73,54482,1,0,2:0:0:0:
190,24,54621,5,10,2:0:0:0:
142,72,54760,1,0,2:0:0:0:
76,54,54899,1,0,2:0:0:0:
269,0,55038,6,0,P|261:36|257:73,1,74,2|0,3:2|2:0,2:0:0:0:
231,261,55454,2,0,P|219:319|213:377,1,118.4,10|0,2:0|2:0,2:0:0:0:
116,326,55871,6,0,P|109:297|97:270,1,59.2,2|0,3:2|2:0,2:0:0:0:
123,200,56149,1,0,2:0:0:0:
354,384,56288,6,0,P|347:355|335:328,1,59.2,10|0,2:0|2:0,2:0:0:0:
361,258,56565,1,0,2:0:0:0:
231,261,56704,1,2,3:2:0:0:
266,126,56913,5,0,2:0:0:0:
256,133,57121,1,10,2:0:0:0:
269,135,57329,1,0,2:0:0:0:
160,60,57538,5,2,3:2:0:0:
182,126,57676,1,0,2:0:0:0:
188,196,57815,1,0,2:0:0:0:
349,136,57954,5,10,2:0:0:0:
343,66,58093,1,0,2:0:0:0:
321,0,58232,1,0,2:0:0:0:
487,137,58371,6,0,P|473:179|469:223,1,88.8,2|0,3:2|2:0,2:0:0:0:
279,356,58788,1,10,2:0:0:0:
349,375,58996,2,0,P|342:308|322:244,1,133.2,2|0,2:0|2:0,2:0:0:0:
322,245,59413,5,4,2:3:0:0:
290,174,59621,1,8,2:0:0:0:
290,174,59725,1,4,2:3:0:0:
197,30,59933,1,0,2:0:0:0:
246,84,60038,2,0,P|219:117|176:119,1,88.8,4|8,3:0|2:3,2:0:0:0:
176,119,60350,1,8,2:3:0:0:
176,119,60454,1,8,2:0:0:0:
118,32,60663,1,8,2:3:0:0:
43,72,60871,6,0,P|175:76|297:127,1,266.4,2|10,3:2|2:0,2:0:0:0:
297,127,61496,1,0,2:0:0:0:
446,214,61704,1,2,3:2:0:0:
351,212,61913,1,0,2:0:0:0:
308,297,62121,6,0,P|284:327|268:362,1,77.7,10|0,2:0|2:0,2:0:0:0:
202,329,62329,2,0,P|216:292|240:261,1,77.7,2|0,2:0|2:0,2:0:0:0:
125,155,62538,6,0,P|100:176|79:203,1,66.6,2|0,3:2|2:0,2:0:0:0:
81,276,62746,1,0,2:0:0:0:
358,126,62954,6,0,P|338:136|322:151,1,44.4,10|0,2:0|2:0,2:0:0:0:
283,210,63163,1,0,2:0:0:0:
195,72,63371,6,0,P|180:64|168:53,1,33.2999999999999,2|0,3:2|2:0,2:0:0:0:
129,150,63579,2,0,P|150:153|172:149,1,44.4,2|0,2:0|2:0,2:0:0:0:
212,227,63788,2,0,P|192:246|168:259,1,55.5,10|0,2:0|2:0,2:0:0:0:
294,344,63996,2,0,P|312:312|316:276,1,72.15,2|0,2:0|2:0,2:0:0:0:
438,268,64204,6,0,P|286:294|160:383,1,310.8,2|10,3:2|2:0,2:0:0:0:
161,384,64829,1,0,2:0:0:0:
0,241,65038,2,0,P|17:260|29:285,1,49.9499999999999,2|0,3:2|2:0,2:0:0:0:
162,182,65454,6,0,P|156:203|155:225,1,44.4,10|0,2:0|2:0,2:0:0:0:
97,268,65663,2,0,P|91:252|85:236,1,33.2999999999999,0|0,2:0|2:0,2:0:0:0:
42,111,65871,6,0,P|160:155|263:231,1,249.75,2|0,3:2|2:0,2:0:0:0:
375,233,66288,6,0,P|361:224|352:210,1,33.2999999999999,10|0,2:0|2:0,2:0:0:0:
341,324,66496,2,0,P|296:330|281:337,1,33.2999999999999,0|0,2:0|2:0,2:0:0:0:
512,349,66704,5,2,3:2:0:0:
512,349,66913,1,2,2:0:0:0:
428,348,67121,6,0,P|424:310|446:279,1,77.7,10|0,2:0|2:0,2:0:0:0:
202,111,67329,6,0,P|247:147|307:144,1,122.1,2|0,3:2|2:0,2:0:0:0:
422,74,67538,5,2,2:0:0:0:
422,74,67954,6,0,P|429:29|409:-12,1,77.7,10|0,2:0|2:0,2:0:0:0:
512,154,68163,1,0,2:0:0:0:
512,154,68371,6,0,P|488:146|466:134,1,49.9500000000001,2|0,3:2|2:0,2:0:0:0:
395,160,68579,2,0,P|367:192|387:240,1,83.25,0|0,2:0|2:0,2:0:0:0:
181,255,68788,6,0,P|159:261|140:272,1,44.4,10|0,2:0|2:0,2:0:0:0:
71,246,68996,2,0,P|40:212|48:167,1,94.35,0|0,2:0|2:0,2:0:0:0:
0,65,69204,6,0,P|71:94|148:105,1,155.4,2|0,3:2|2:0,2:0:0:0:
364,302,69621,6,0,P|440:313|512:342,1,155.4,10|0,2:0|2:0,2:0:0:0:
281,324,70038,5,2,3:2:0:0:
307,231,70246,1,2,2:0:0:0:
44,140,70454,5,10,2:0:0:0:
68,207,70663,1,2,2:0:0:0:
32,338,70871,6,0,P|106:273|204:264,1,199.8,2|0,3:2|2:0,2:0:0:0:
205,272,71288,2,0,P|174:266|145:270,1,61.05,8|0,2:0|2:0,2:0:0:0:
371,87,71496,6,0,P|327:125|304:178,1,116.55,2|0,2:0|2:0,2:0:0:0:
311,184,71913,2,0,P|314:162|323:142,1,44.4,0|0,2:0|2:0,2:0:0:0:
465,143,72121,6,0,P|331:126|230:39,1,266.4,10|0,2:0|2:0,2:0:0:0:
233,43,72538,5,0,3:0:0:0:
233,43,72954,1,0,3:0:0:0:
315,83,73371,5,0,3:0:0:0:
233,171,73579,1,8,3:0:0:0:
246,183,73683,1,8,3:0:0:0:
245,199,73788,5,8,3:0:0:0:
308,252,73996,1,4,2:3:0:0:
188,329,74204,5,2,2:0:0:0:
366,384,74621,6,0,P|235:308|91:274,1,299.7,14|0,2:0|2:0,2:0:0:0:
26,225,75038,2,0,P|23:204|15:183,1,44.4,2|0,3:2|2:0,2:0:0:0:
170,129,75246,2,0,P|150:165|141:206,1,83.25,2|0,2:0|2:0,2:0:0:0:
77,139,75454,1,10,2:0:0:0:
233,294,75663,2,0,P|282:250|344:227,1,133.2,2|0,2:0|3:0,2:0:0:0:
494,36,76079,6,0,P|474:47|453:54,1,44.4,2|0,2:0|2:0,2:0:0:0:
347,0,76288,2,0,P|438:105|465:243,1,283.05,10|0,2:0|2:0,2:0:0:0:
512,348,76704,6,0,P|463:358|420:384,1,99.8999999999999,2|0,3:2|2:0,2:0:0:0:
393,298,76913,2,0,P|356:324|331:360,1,88.8,2|0,2:0|2:0,2:0:0:0:
67,312,77121,6,0,P|97:329|121:356,1,72.15,10|0,2:0|2:0,2:0:0:0:
159,271,77329,2,0,P|175:293|184:319,1,55.5,2|0,2:0|2:0,2:0:0:0:
246,384,77538,6,0,P|283:221|293:55,1,333,2|10,3:2|2:0,2:0:0:0:
293,55,78163,1,0,2:0:0:0:
455,94,78371,2,0,P|441:52|437:-3,1,88.8,2|0,3:2|2:0,2:0:0:0:
367,70,78788,1,10,2:0:0:0:
486,233,78996,6,0,P|287:246|108:331,1,399.6,2|0,2:0|2:0,2:0:0:0:
174,190,79621,2,0,P|218:188|255:165,1,88.8,10|0,2:0|2:0,2:0:0:0:
327,163,80038,5,2,3:2:0:0:
294,232,80246,1,2,2:0:0:0:
116,230,80454,5,10,2:0:0:0:
189,260,80663,1,2,2:0:0:0:
0,294,80871,6,0,P|114:311|207:379,1,233.1,2|0,3:2|2:0,2:0:0:0:
278,383,81288,2,0,P|320:352|299:305,1,111,10|0,2:0|2:0,2:0:0:0:
377,228,81704,1,2,3:2:0:0:
446,244,81913,1,0,2:0:0:0:
500,164,82121,2,0,P|503:136|512:110,1,55.5,10|0,2:0|2:0,2:0:0:0:
338,52,82329,6,0,P|401:182|424:362,1,310.8,2|2,2:0|2:0,2:0:0:0:
483,384,82850,1,0,2:0:0:0:
483,384,82954,1,10,2:0:0:0:
133,153,83371,6,0,P|146:178|153:205,1,55.5,2|0,3:2|2:0,2:0:0:0:
70,185,83579,2,0,P|80:211|83:239,1,55.5,2|0,2:0|2:0,2:0:0:0:
0,200,83788,2,0,P|8:227|9:255,1,55.5,10|0,2:0|2:0,2:0:0:0:
0,358,83996,6,0,P|98:306|208:287,1,222,2|0,2:0|2:0,2:0:0:0:
280,299,84621,1,10,2:0:0:0:
512,161,84829,6,0,P|358:134|220:62,1,310.8,2|0,2:0|2:0,2:0:0:0:
150,131,85454,1,10,2:0:0:0:
283,6,85663,1,2,2:0:0:0:
87,80,85871,6,0,P|76:112|71:156,1,77.7,0|0,3:2|2:0,2:0:0:0:
0,128,86079,2,0,P|3:89|15:52,1,77.7,4|0,2:3|2:0,2:0:0:0:
81,6,86288,1,8,2:0:0:0:
75,0,86392,1,4,2:3:0:0:
255,101,86704,6,0,P|230:174|224:251,1,155.4,4|8,3:0|2:3,2:0:0:0:
198,324,87017,1,8,2:3:0:0:
204,320,87121,2,0,P|214:347|217:385,1,66.6,8|0,2:0|2:0,2:0:0:0:
291,368,87329,2,0,P|289:334|278:302,1,66.6,8|0,2:3|2:0,2:0:0:0:
488,188,87538,6,0,P|479:213|477:241,1,55.5,6|0,3:2|2:0,2:0:0:0:
419,176,87746,2,0,P|407:200|403:227,1,55.5,2|0,2:0|2:0,2:0:0:0:
358,140,87954,2,0,P|344:163|337:189,1,55.5,10|0,2:0|2:0,2:0:0:0:
269,230,88163,1,2,2:0:0:0:
148,105,88371,6,0,P|140:83|139:60,1,44.4,2|0,3:2|2:0,2:0:0:0:
79,117,88579,2,0,P|68:94|64:70,1,44.4,2|0,2:0|2:0,2:0:0:0:
18,153,88788,2,0,P|6:132|0:110,1,44.4,10|0,2:0|2:0,2:0:0:0:
31,20,88996,2,0,P|73:91|94:171,1,166.5,2|0,2:0|2:0,2:0:0:0:
160,231,89413,6,0,P|161:203|170:177,1,55.5,2|0,2:0|2:0,2:0:0:0:
308,255,89621,2,0,P|303:227|306:200,1,55.5,10|0,2:0|2:0,2:0:0:0:
233,220,89829,1,2,2:0:0:0:
334,70,90038,6,0,P|342:48|344:25,1,44.4,2|0,3:2|2:0,2:0:0:0:
268,44,90246,2,0,P|274:20|274:-4,1,44.4,2|0,2:0|2:0,2:0:0:0:
199,44,90454,2,0,P|202:21|200:0,1,44.4,10|0,2:0|2:0,2:0:0:0:
255,118,90663,1,2,2:0:0:0:
227,384,90871,6,0,P|256:369|289:366,1,66.5999999999999,2|0,3:2|2:0,2:0:0:0:
326,288,91183,1,0,2:0:0:0:
332,295,91288,2,0,P|277:289|227:265,1,111,10|0,2:0|2:0,2:0:0:0:
415,167,91704,6,0,P|407:187|405:209,1,44.4,2|0,3:2|2:0,2:0:0:0:
99,88,92121,2,0,P|105:106|107:125,1,38.85,10|0,2:0|2:0,2:0:0:0:
239,21,92329,6,0,P|257:102|262:185,1,166.5,2|0,2:0|2:0,2:0:0:0:
190,148,92746,6,0,P|190:128|186:109,1,38.85,2|0,2:0|2:0,2:0:0:0:
329,120,92954,2,0,P|329:100|325:81,1,38.85,10|0,2:0|2:0,2:0:0:0:
258,112,93163,1,2,2:0:0:0:
496,231,93371,6,0,P|481:259|475:290,1,63.825,2|0,3:2|2:0,2:0:0:0:
376,287,93579,2,0,P|372:262|376:237,1,49.9500000000001,2|0,2:0|2:0,2:0:0:0:
291,274,93788,2,0,P|293:294|303:313,1,41.6250000000001,10|0,2:0|2:0,2:0:0:0:
261,367,93996,2,0,P|250:358|242:346,1,27.75,2|0,2:0|2:0,2:0:0:0:
0,232,94204,6,0,P|9:257|11:285,1,55.5,6|0,3:2|2:0,2:0:0:0:
69,220,94413,2,0,P|81:244|85:271,1,55.5,2|0,2:0|2:0,2:0:0:0:
130,184,94621,2,0,P|144:207|151:233,1,55.5,10|0,2:0|2:0,2:0:0:0:
219,274,94829,1,2,2:0:0:0:
365,96,95038,6,0,P|373:74|374:51,1,44.4,2|0,3:2|2:0,2:0:0:0:
434,108,95246,2,0,P|445:85|449:61,1,44.4,2|0,2:0|2:0,2:0:0:0:
495,144,95454,2,0,P|507:123|513:101,1,44.4,10|0,2:0|2:0,2:0:0:0:
482,11,95663,2,0,P|440:82|419:162,1,166.5,2|0,2:0|2:0,2:0:0:0:
488,232,96079,6,0,P|470:253|459:279,1,55.5,2|0,2:0|2:0,2:0:0:0:
337,183,96288,2,0,P|330:209|330:237,1,55.5,10|0,2:0|2:0,2:0:0:0:
400,231,96496,1,2,2:0:0:0:
139,301,96704,6,0,P|126:281|120:261,1,44.4,2|0,3:2|2:0,2:0:0:0:
75,329,96913,2,0,P|59:309|49:287,1,44.4,2|0,2:0|2:0,2:0:0:0:
26,379,97121,2,0,P|9:362|-1:341,1,44.4,10|0,2:0|2:0,2:0:0:0:
119,384,97329,1,2,2:0:0:0:
221,176,97538,6,0,P|221:126|240:43,1,111,2|0,3:2|2:0,2:0:0:0:
140,142,97954,1,10,2:0:0:0:
40,13,98163,6,0,P|61:124|62:238,1,222,2|0,2:0|2:0,2:0:0:0:
144,146,98788,1,10,2:0:0:0:
263,365,98996,6,0,P|258:286|283:362,1,233.1,2|0,2:0|2:0,2:0:0:0:
316,314,99413,2,0,P|288:281|242:283,1,88.8,2|8,2:0|2:0,2:0:0:0:
322,312,99829,2,0,P|297:276|251:272,1,88.8,2|0,2:0|3:0,2:0:0:0:
176,158,100246,5,0,2:0:0:0:
159,177,100350,1,0,2:0:0:0:
133,175,100454,1,8,2:0:0:0:
300,57,100663,6,0,P|294:78|292:100,1,44.4,0|0,2:0|2:0,2:0:0:0:
247,159,100871,1,2,2:0:0:0:
247,158,102329,6,0,P|264:268|265:379,1,222,2|0,2:0|2:0,2:0:0:0:
343,306,103788,1,0,2:0:0:0:
391,371,104204,6,0,P|391:303|402:237,1,133.2,2|0,2:0|2:0,2:0:0:0:
455,179,105038,1,0,2:0:0:0:
402,123,105350,1,0,2:0:0:0:
453,12,105663,6,0,P|375:54|288:66,1,177.6,2|0,2:0|2:0,2:0:0:0:
216,98,106704,2,0,P|178:78|178:35,1,88.8,0|0,2:0|2:0,2:0:0:0:
0,285,107538,6,0,P|119:228|250:205,1,266.4,2|0,2:0|2:0,2:0:0:0:
378,150,108996,2,0,P|437:178|503:190,1,133.2,2|0,2:0|2:0,2:0:0:0:
301,148,110038,2,0,P|298:123|290:99,2,49.9500000000001,0|0|0,2:0|2:0|2:0,2:0:0:0:
120,206,110871,6,0,P|145:144|155:77,1,133.2,2|0,2:0|2:0,2:0:0:0:
11,49,111704,2,0,P|38:31|59:5,2,66.6,0|0|2,2:0|2:0|2:0,2:0:0:0:
259,45,113371,5,0,2:0:0:0:
237,4,113579,1,0,2:0:0:0:
268,42,113788,1,0,2:0:0:0:
246,0,113996,1,0,2:0:0:0:
236,203,115246,5,8,2:3:0:0:
250,192,115350,1,8,2:3:0:0:
267,196,115454,1,8,2:3:0:0:
344,240,115663,5,4,2:3:0:0:
163,171,115871,1,2,2:0:0:0:
268,384,116288,6,0,P|267:234|229:90,1,299.7,14|0,2:0|2:0,2:0:0:0:
160,67,116704,2,0,P|173:36|200:19,1,66.6,2|0,3:2|2:0,2:0:0:0:
330,155,116913,2,0,P|325:114|342:76,1,83.25,2|0,2:0|2:0,2:0:0:0:
278,28,117121,1,10,2:0:0:0:
511,0,117329,2,0,P|473:39|420:55,1,111,2|0,2:0|3:0,2:0:0:0:
261,295,117746,6,0,P|278:316|284:343,1,55.5,2|0,2:0|2:0,2:0:0:0:
398,383,117954,2,0,P|272:322|132:326,1,283.05,10|0,2:0|2:0,2:0:0:0:
65,295,118371,6,0,P|34:255|18:208,1,99.8999999999999,2|0,3:2|2:0,2:0:0:0:
126,254,118579,2,0,P|115:210|120:167,1,88.8,2|0,2:0|2:0,2:0:0:0:
383,284,118788,6,0,P|394:250|416:222,1,72.15,10|0,2:0|2:0,2:0:0:0:
465,343,118996,2,0,P|462:315|469:288,1,55.5,2|0,2:0|2:0,2:0:0:0:
251,383,119204,6,0,P|270:208|344:47,1,355.2,2|10,3:2|2:0,2:0:0:0:
344,46,119829,1,0,2:0:0:0:
238,67,120038,2,0,P|255:94|265:126,1,66.5999999999999,2|0,3:2|2:0,2:0:0:0:
196,168,120454,1,10,2:0:0:0:
433,225,120663,6,0,P|264:144|77:125,1,377.4,2|0,2:0|2:0,2:0:0:0:
0,70,121288,2,0,P|42:58|79:34,1,88.8,10|0,2:0|2:0,2:0:0:0:
163,50,121704,5,2,3:2:0:0:
358,117,121913,1,2,2:0:0:0:
292,150,122121,5,10,2:0:0:0:
496,301,122329,1,2,2:0:0:0:
334,383,122538,6,0,P|209:339|77:331,1,266.4,2|0,3:2|2:0,2:0:0:0:
22,280,122954,2,0,P|9:233|64:205,1,111,10|0,2:0|2:0,2:0:0:0:
157,293,123371,1,2,3:2:0:0:
187,120,123579,1,0,2:0:0:0:
134,218,123788,2,0,P|134:190|121:166,1,55.5,10|0,2:0|2:0,2:0:0:0:
310,31,123996,6,0,P|257:145|238:350,1,310.8,2|2,2:0|2:0,2:0:0:0:
190,384,124517,1,0,2:0:0:0:
190,384,124621,1,10,2:0:0:0:
455,168,125038,6,0,P|468:193|475:220,1,55.5,2|0,3:2|2:0,2:0:0:0:
392,200,125246,2,0,P|402:226|405:254,1,55.5,2|0,2:0|2:0,2:0:0:0:
322,215,125454,2,0,P|330:242|331:270,1,55.5,10|0,2:0|2:0,2:0:0:0:
509,298,125663,6,0,P|391:236|216:208,1,288.6,2|0,2:0|2:0,2:0:0:0:
266,135,126288,1,10,2:0:0:0:
0,124,126496,6,0,P|174:94|325:3,1,355.2,2|0,2:0|2:0,2:0:0:0:
168,176,127121,1,10,2:0:0:0:
483,26,127329,6,0,P|436:86|487:29,1,233.1,2|0,2:0|2:0,2:0:0:0:
419,6,127746,1,4,2:3:0:0:
491,179,127954,1,8,2:0:0:0:
486,171,128058,2,0,P|464:209|458:253,1,88.8,4|0,2:3|2:0,2:0:0:0:
416,349,128371,2,0,P|414:327|404:308,1,44.4,4|0,3:0|2:0,2:0:0:0:
303,258,128579,5,8,2:3:0:0:
340,254,128683,1,8,2:3:0:0:
351,218,128788,1,8,2:0:0:0:
282,184,128996,1,8,2:3:0:0:
147,384,129204,5,6,3:2:0:0:
216,366,129621,6,0,P|208:216|165:73,1,299.7,10|0,2:0|2:0,2:0:0:0:
62,0,130038,2,0,P|84:24|95:55,1,66.6,2|0,3:2|2:0,2:0:0:0:
248,84,130246,2,0,P|289:60|285:13,1,99.8999999999999,2|0,2:0|2:0,2:0:0:0:
215,24,130454,1,10,2:0:0:0:
0,214,130663,2,0,P|-5:151|49:120,1,133.2,2|0,2:0|3:0,2:0:0:0:
258,295,131079,6,0,P|244:319|240:346,1,55.5,2|0,2:0|2:0,2:0:0:0:
114,384,131288,2,0,P|237:316|416:302,1,316.35,10|0,2:0|2:0,2:0:0:0:
488,283,131704,6,0,P|483:233|494:185,1,99.8999999999999,2|0,3:2|2:0,2:0:0:0:
385,227,131913,2,0,P|398:184|425:148,1,88.8,2|0,2:0|2:0,2:0:0:0:
101,286,132121,6,0,P|82:255|74:221,1,72.15,10|0,2:0|2:0,2:0:0:0:
48,336,132329,2,0,P|25:321|9:299,1,55.5,2|0,2:0|2:0,2:0:0:0:
260,383,132538,6,0,P|220:177|113:-2,1,421.8,2|10,3:2|2:0,2:0:0:0:
112,0,133163,1,0,2:0:0:0:
314,161,133371,2,0,P|344:130|340:87,1,88.8,2|0,3:2|2:0,2:0:0:0:
269,104,133788,1,10,2:0:0:0:
495,76,133996,6,0,P|264:148|93:319,1,488.4,2|0,2:0|2:0,2:0:0:0:
0,326,134621,2,0,P|22:287|31:244,1,88.8,10|0,2:0|2:0,2:0:0:0:
35,48,135038,5,2,3:2:0:0:
92,191,135246,1,2,2:0:0:0:
295,115,135454,5,10,2:0:0:0:
313,44,135663,1,2,2:0:0:0:
511,289,135871,6,0,P|408:238|292:226,1,233.1,2|0,3:2|2:0,2:0:0:0:
429,166,136288,2,0,P|443:136|438:103,1,66.5999999999999,10|0,2:0|2:0,2:0:0:0:
501,52,136704,1,2,3:2:0:0:
359,198,136913,1,0,2:0:0:0:
160,31,137121,2,0,P|148:55|151:83,1,55.5,10|0,2:0|2:0,2:0:0:0:
0,199,137329,6,0,P|164:108|348:70,1,377.4,2|2,2:0|2:0,2:0:0:0:
420,72,137850,1,0,2:0:0:0:
420,72,137954,1,10,2:0:0:0:
195,229,138371,6,0,P|199:255|197:283,1,55.5,2|0,3:2|2:0,2:0:0:0:
271,226,138579,2,0,P|273:252|269:280,1,55.5,2|0,2:0|2:0,2:0:0:0:
346,251,138788,2,0,P|344:278|337:305,1,55.5,10|0,2:0|2:0,2:0:0:0:
453,384,138996,6,0,P|462:251|512:128,1,266.4,2|0,2:0|2:0,2:0:0:0:
269,155,139621,1,10,2:0:0:0:
0,17,139829,6,0,P|83:184|97:371,1,377.4,2|0,2:0|2:0,2:0:0:0:
271,157,140454,1,10,2:0:0:0:
260,384,140663,6,0,P|265:301|253:383,1,249.75,2|0,2:0|2:0,2:0:0:0:
223,312,141079,2,0,P|251:295|284:298,1,66.5999999999999,2|8,2:0|2:0,2:0:0:0:
217,309,141496,2,0,P|243:289|276:288,1,66.5999999999999,2|0,2:0|3:0,2:0:0:0:
434,200,141913,5,2,2:0:0:0:
428,173,142017,1,0,2:0:0:0:
448,154,142121,1,10,2:0:0:0:
505,199,142329,5,2,2:0:0:0:
