osu file format v14

[General]
AudioFilename: beatmap-638188935581648982-audio.mp3
AudioLeadIn: 0
PreviewTime: 19553
Countdown: 0
SampleSet: Normal
StackLeniency: 0.7
Mode: 1
LetterboxInBreaks: 0
WidescreenStoryboard: 0

[Editor]
DistanceSpacing: 4.3
BeatDivisor: 4
GridSize: 16
TimelineZoom: 2.799999

[Metadata]
Title:Cupid (Twin Ver.) (Sped Up Ver.)
TitleUnicode:Cupid (Twin Ver.) (Sped Up Ver.)
Artist:FIFTY FIFTY
ArtistUnicode:피프티피프티
Creator:raynald
Version:Oni
Source:
Tags:english pop The Beginning: FIFTYFIFTY 큐피드 keena 키나 sio 시오 saena 새나 aran 아란 k-pop kpop speed up version tiktok tik tok love nightcore
BeatmapID:4130093
BeatmapSetID:1988181

[Difficulty]
HPDrainRate:6
CircleSize:5
OverallDifficulty:5.5
ApproachRate:5
SliderMultiplier:1.4
SliderTickRate:1

[Events]
//Background and Video events
0,0,"cropped-1920-1080-1253963.jpg",0,40
//Break Periods
//Storyboard Layer 0 (Background)
//Storyboard Layer 1 (Fail)
//Storyboard Layer 2 (Pass)
//Storyboard Layer 3 (Foreground)
//Storyboard Layer 4 (Overlay)
//Storyboard Sound Samples

[TimingPoints]
7353,400,4,1,0,70,1,0
31353,-100,4,1,0,60,0,0
33353,-90.9090909090909,4,1,0,80,0,1
45753,-90.9090909090909,4,1,0,80,0,0
46353,-100,4,1,0,60,0,0
52153,-100,4,1,0,70,0,0
69753,-100,4,1,0,60,0,0
71753,-90.9090909090909,4,1,0,80,0,1
84153,-90.9090909090909,4,1,0,80,0,0
84553,-95.2380952380952,4,1,0,70,0,0
96252,-96.969696969697,4,1,0,70,0,0
96352,-98.7654320987654,4,1,0,70,0,0
96553,-102.564102564103,4,1,0,70,0,0
96753,-106.666666666667,4,1,0,70,0,0
96953,-111.111111111111,4,1,0,55,0,0
109753,-100,4,1,0,60,0,0
111353,400,4,1,0,60,1,0
111753,-90.9090909090909,4,1,0,80,0,1
122553,-90.9090909090909,4,1,0,70,0,0
124153,-90.9090909090909,4,1,0,80,0,1
136753,-90.9090909090909,4,1,0,80,0,0

[HitObjects]
256,192,7353,5,0,0:0:0:0:
256,192,7753,1,8,0:0:0:0:
256,192,7953,1,0,0:0:0:0:
256,192,8153,1,8,0:0:0:0:
256,192,8253,1,8,0:0:0:0:
256,192,8353,1,0,0:0:0:0:
256,192,8553,1,8,0:0:0:0:
256,192,8753,1,8,0:0:0:0:
256,192,8953,1,0,0:0:0:0:
256,192,9153,1,8,0:0:0:0:
256,192,9553,1,8,0:0:0:0:
256,192,9753,1,0,0:0:0:0:
256,192,9953,1,8,0:0:0:0:
256,192,10153,1,0,0:0:0:0:
256,192,10253,1,0,0:0:0:0:
256,192,10353,1,8,0:0:0:0:
256,192,10553,1,0,0:0:0:0:
256,192,10953,1,8,0:0:0:0:
256,192,11153,1,0,0:0:0:0:
256,192,11253,1,0,0:0:0:0:
256,192,11353,1,8,0:0:0:0:
256,192,11553,1,0,0:0:0:0:
256,192,11753,1,8,0:0:0:0:
256,192,11953,1,8,0:0:0:0:
256,192,12053,1,8,0:0:0:0:
256,192,12153,1,8,0:0:0:0:
256,192,12353,1,0,0:0:0:0:
256,192,12753,1,8,0:0:0:0:
256,192,12953,1,8,0:0:0:0:
256,192,13153,1,0,0:0:0:0:
256,192,13253,1,0,0:0:0:0:
256,192,13353,1,0,0:0:0:0:
256,192,13553,1,8,0:0:0:0:
256,192,13753,1,0,0:0:0:0:
256,192,14153,1,8,0:0:0:0:
256,192,14353,1,0,0:0:0:0:
256,192,14553,1,8,0:0:0:0:
256,192,14653,1,0,0:0:0:0:
256,192,14753,1,8,0:0:0:0:
256,192,14853,1,8,0:0:0:0:
256,192,14953,1,0,0:0:0:0:
256,192,15153,1,8,0:0:0:0:
256,192,15353,1,0,0:0:0:0:
256,192,15553,1,8,0:0:0:0:
256,192,15953,1,8,0:0:0:0:
256,192,16153,1,0,0:0:0:0:
256,192,16353,1,8,0:0:0:0:
256,192,16453,1,8,0:0:0:0:
256,192,16553,1,8,0:0:0:0:
256,192,16753,1,8,0:0:0:0:
256,192,16953,1,0,0:0:0:0:
256,192,17353,1,8,0:0:0:0:
256,192,17753,1,8,0:0:0:0:
256,192,17953,1,0,0:0:0:0:
256,192,18153,1,8,0:0:0:0:
256,192,18553,1,0,0:0:0:0:
256,192,18953,1,8,0:0:0:0:
256,192,19153,1,0,0:0:0:0:
256,192,19353,1,8,0:0:0:0:
256,192,19553,1,8,0:0:0:0:
256,192,19753,1,8,0:0:0:0:
256,192,19953,1,0,0:0:0:0:
256,192,20153,1,8,0:0:0:0:
256,192,20253,1,8,0:0:0:0:
256,192,20353,1,0,0:0:0:0:
256,192,20553,1,8,0:0:0:0:
256,192,20953,1,8,0:0:0:0:
256,192,21153,1,0,0:0:0:0:
256,192,21353,1,8,0:0:0:0:
256,192,21453,1,8,0:0:0:0:
256,192,21553,1,0,0:0:0:0:
256,192,21753,1,8,0:0:0:0:
256,192,21953,1,8,0:0:0:0:
256,192,22153,1,0,0:0:0:0:
256,192,22253,1,0,0:0:0:0:
256,192,22353,1,8,0:0:0:0:
256,192,22553,1,8,0:0:0:0:
256,192,22653,1,0,0:0:0:0:
256,192,22753,1,8,0:0:0:0:
256,192,22853,1,8,0:0:0:0:
256,192,22953,1,0,0:0:0:0:
256,192,23153,1,0,0:0:0:0:
256,192,23353,1,8,0:0:0:0:
256,192,23453,1,8,0:0:0:0:
256,192,23553,1,0,0:0:0:0:
256,192,23753,1,8,0:0:0:0:
256,192,24153,1,8,0:0:0:0:
256,192,24353,1,0,0:0:0:0:
256,192,24553,1,8,0:0:0:0:
256,192,24753,1,0,0:0:0:0:
256,192,24953,1,8,0:0:0:0:
256,192,25053,1,8,0:0:0:0:
256,192,25153,1,8,0:0:0:0:
256,192,25253,1,8,0:0:0:0:
256,192,25353,1,0,0:0:0:0:
256,192,25553,1,8,0:0:0:0:
256,192,25753,1,0,0:0:0:0:
256,192,26153,1,8,0:0:0:0:
256,192,26353,1,0,0:0:0:0:
256,192,26553,1,8,0:0:0:0:
259,181,26753,1,0,0:0:0:0:
256,192,26853,1,8,0:0:0:0:
256,192,26953,1,0,0:0:0:0:
256,192,27153,1,8,0:0:0:0:
256,192,27353,1,8,0:0:0:0:
256,192,27553,1,0,0:0:0:0:
256,192,27753,1,8,0:0:0:0:
256,192,28153,1,8,0:0:0:0:
256,192,28553,1,8,0:0:0:0:
256,192,28753,1,0,0:0:0:0:
256,192,28853,1,0,0:0:0:0:
256,192,28953,1,8,0:0:0:0:
256,192,29053,1,0,0:0:0:0:
256,192,29153,1,8,0:0:0:0:
256,192,29353,1,0,0:0:0:0:
256,192,29553,1,8,0:0:0:0:
256,192,29753,1,8,0:0:0:0:
256,192,29853,1,8,0:0:0:0:
256,192,29953,1,8,0:0:0:0:
256,192,30153,1,0,0:0:0:0:
256,192,30353,1,8,0:0:0:0:
256,192,30453,1,8,0:0:0:0:
256,192,30553,1,8,0:0:0:0:
256,192,30753,1,0,0:0:0:0:
256,192,30953,1,8,0:0:0:0:
256,192,31553,1,8,0:0:0:0:
256,192,31753,1,8,0:0:0:0:
256,192,31953,1,0,0:0:0:0:
256,192,32153,1,8,0:0:0:0:
256,192,32353,1,0,0:0:0:0:
256,192,32553,1,8,0:0:0:0:
256,192,32753,1,8,0:0:0:0:
256,192,32953,1,0,0:0:0:0:
256,192,33353,1,12,0:0:0:0:
256,192,33753,1,0,0:0:0:0:
256,192,33953,1,8,0:0:0:0:
256,192,34153,1,0,0:0:0:0:
256,192,34253,1,0,0:0:0:0:
256,192,34353,1,8,0:0:0:0:
256,192,34553,1,0,0:0:0:0:
256,192,34753,1,8,0:0:0:0:
256,192,34853,1,0,0:0:0:0:
256,192,34953,1,8,0:0:0:0:
256,192,35053,1,8,0:0:0:0:
256,192,35153,1,0,0:0:0:0:
256,192,35353,1,8,0:0:0:0:
256,192,35553,1,0,0:0:0:0:
256,192,35653,1,0,0:0:0:0:
256,192,35753,1,8,0:0:0:0:
256,192,35953,1,0,0:0:0:0:
256,192,36153,1,8,0:0:0:0:
256,192,36253,1,8,0:0:0:0:
256,192,36353,1,0,0:0:0:0:
256,192,36553,1,8,0:0:0:0:
256,192,36953,1,0,0:0:0:0:
256,192,37153,1,0,0:0:0:0:
256,192,37353,1,8,0:0:0:0:
256,192,37553,1,8,0:0:0:0:
256,192,37753,1,0,0:0:0:0:
256,192,38153,1,8,0:0:0:0:
256,192,38553,1,8,0:0:0:0:
256,192,38653,1,8,0:0:0:0:
256,192,38753,1,0,0:0:0:0:
256,192,38953,1,8,0:0:0:0:
256,192,39153,1,8,0:0:0:0:
256,192,39353,1,0,0:0:0:0:
256,192,39753,1,0,0:0:0:0:
256,192,40153,1,8,0:0:0:0:
256,192,40353,1,0,0:0:0:0:
256,192,40553,1,8,0:0:0:0:
256,192,40653,1,0,0:0:0:0:
256,192,40753,1,8,0:0:0:0:
256,192,40953,1,0,0:0:0:0:
256,192,41153,1,8,0:0:0:0:
256,192,41353,1,8,0:0:0:0:
256,192,41453,1,0,0:0:0:0:
256,192,41553,1,0,0:0:0:0:
256,192,41653,1,0,0:0:0:0:
256,192,41753,1,8,0:0:0:0:
256,192,42153,5,0,0:0:0:0:
256,192,42353,1,8,0:0:0:0:
256,192,42453,1,8,0:0:0:0:
256,192,42553,1,8,0:0:0:0:
256,192,42753,1,0,0:0:0:0:
256,192,42953,1,8,0:0:0:0:
256,192,43053,1,0,0:0:0:0:
256,192,43153,1,8,0:0:0:0:
256,192,43253,1,8,0:0:0:0:
256,192,43353,1,0,0:0:0:0:
256,192,43553,1,0,0:0:0:0:
256,192,43753,1,0,0:0:0:0:
256,192,43853,1,0,0:0:0:0:
256,192,43953,1,8,0:0:0:0:
256,192,44153,1,0,0:0:0:0:
256,192,44553,1,8,0:0:0:0:
256,192,44953,1,0,0:0:0:0:
256,192,45153,1,0,0:0:0:0:
256,192,45253,1,0,0:0:0:0:
256,192,45353,1,8,0:0:0:0:
256,192,45553,1,8,0:0:0:0:
256,192,45753,1,4,0:0:0:0:
256,192,46353,1,0,0:0:0:0:
256,192,46553,1,8,0:0:0:0:
256,192,46753,1,8,0:0:0:0:
256,192,46953,1,0,0:0:0:0:
256,192,47153,1,8,0:0:0:0:
256,192,47553,1,0,0:0:0:0:
256,192,47953,1,0,0:0:0:0:
256,192,48353,1,8,0:0:0:0:
256,192,48753,1,8,0:0:0:0:
256,192,49553,1,0,0:0:0:0:
256,192,49753,1,8,0:0:0:0:
256,192,49953,1,8,0:0:0:0:
256,192,50153,1,0,0:0:0:0:
256,192,50353,1,0,0:0:0:0:
256,192,50753,1,0,0:0:0:0:
256,192,51153,1,8,0:0:0:0:
256,192,51553,1,8,0:0:0:0:
256,192,51953,1,0,0:0:0:0:
256,192,52153,1,8,0:0:0:0:
256,192,52286,1,8,0:0:0:0:
256,192,52419,1,0,0:0:0:0:
256,192,52553,1,8,0:0:0:0:
256,192,52686,1,0,0:0:0:0:
256,192,52819,1,0,0:0:0:0:
256,192,52953,1,8,0:0:0:0:
256,192,53353,1,8,0:0:0:0:
256,192,53619,1,0,0:0:0:0:
256,192,53753,1,8,0:0:0:0:
256,192,53886,1,0,0:0:0:0:
256,192,54019,1,0,0:0:0:0:
256,192,54153,1,8,0:0:0:0:
256,192,54286,1,8,0:0:0:0:
256,192,54419,1,0,0:0:0:0:
256,192,54553,1,8,0:0:0:0:
256,192,54953,1,0,0:0:0:0:
256,192,55353,1,8,0:0:0:0:
256,192,55486,1,8,0:0:0:0:
256,192,55619,1,0,0:0:0:0:
256,192,55753,1,8,0:0:0:0:
256,192,55886,1,8,0:0:0:0:
256,192,56019,1,0,0:0:0:0:
256,192,56153,1,8,0:0:0:0:
256,192,56553,1,8,0:0:0:0:
256,192,56953,1,0,0:0:0:0:
256,192,57153,1,8,0:0:0:0:
256,192,57353,1,0,0:0:0:0:
256,192,57453,1,8,0:0:0:0:
256,192,57653,1,8,0:0:0:0:
256,192,57753,1,0,0:0:0:0:
256,192,57953,1,8,0:0:0:0:
256,192,58053,1,0,0:0:0:0:
256,192,58153,1,8,0:0:0:0:
256,192,58253,1,8,0:0:0:0:
256,192,58353,1,0,0:0:0:0:
256,192,58553,1,12,0:0:0:0:
256,192,58953,1,8,0:0:0:0:
256,192,59353,1,0,0:0:0:0:
256,192,59753,1,8,0:0:0:0:
256,192,59853,1,8,0:0:0:0:
256,192,59953,1,0,0:0:0:0:
256,192,60153,1,8,0:0:0:0:
256,192,60353,1,8,0:0:0:0:
256,192,60553,1,0,0:0:0:0:
256,192,60653,1,0,0:0:0:0:
256,192,60753,1,8,0:0:0:0:
256,192,60953,1,8,0:0:0:0:
256,192,61053,1,0,0:0:0:0:
256,192,61153,1,8,0:0:0:0:
256,192,61253,1,8,0:0:0:0:
256,192,61353,1,0,0:0:0:0:
256,192,61553,1,0,0:0:0:0:
256,192,61753,1,8,0:0:0:0:
256,192,61853,1,8,0:0:0:0:
256,192,61953,1,0,0:0:0:0:
256,192,62153,1,8,0:0:0:0:
256,192,62553,1,8,0:0:0:0:
256,192,62753,1,0,0:0:0:0:
256,192,62953,1,8,0:0:0:0:
256,192,63153,1,0,0:0:0:0:
256,192,63353,1,8,0:0:0:0:
256,192,63453,1,8,0:0:0:0:
256,192,63553,1,8,0:0:0:0:
256,192,63653,1,8,0:0:0:0:
256,192,63753,1,0,0:0:0:0:
256,192,63953,1,8,0:0:0:0:
256,192,64153,1,0,0:0:0:0:
256,192,64553,1,8,0:0:0:0:
256,192,64753,1,0,0:0:0:0:
256,192,64953,1,8,0:0:0:0:
256,192,65153,1,0,0:0:0:0:
256,192,65253,1,8,0:0:0:0:
256,192,65353,1,0,0:0:0:0:
256,192,65553,1,8,0:0:0:0:
256,192,65753,1,8,0:0:0:0:
256,192,65953,1,0,0:0:0:0:
250,194,66053,1,0,0:0:0:0:
256,192,66153,1,8,0:0:0:0:
256,192,66553,1,8,0:0:0:0:
256,192,66953,1,8,0:0:0:0:
256,192,67153,1,0,0:0:0:0:
256,192,67253,1,0,0:0:0:0:
256,192,67353,1,8,0:0:0:0:
256,192,67453,1,0,0:0:0:0:
256,192,67553,1,8,0:0:0:0:
256,192,67753,1,0,0:0:0:0:
256,192,67953,1,8,0:0:0:0:
256,192,68153,1,8,0:0:0:0:
256,192,68253,1,8,0:0:0:0:
256,192,68353,1,8,0:0:0:0:
256,192,68553,1,0,0:0:0:0:
256,192,68753,1,8,0:0:0:0:
256,192,68853,1,8,0:0:0:0:
256,192,68953,1,8,0:0:0:0:
256,192,69153,1,0,0:0:0:0:
256,192,69353,1,8,0:0:0:0:
256,192,69953,1,8,0:0:0:0:
256,192,70153,1,8,0:0:0:0:
256,192,70353,1,0,0:0:0:0:
256,192,70553,1,8,0:0:0:0:
256,192,70753,1,0,0:0:0:0:
256,192,70853,1,0,0:0:0:0:
256,192,70953,1,8,0:0:0:0:
256,192,71153,1,8,0:0:0:0:
256,192,71353,1,0,0:0:0:0:
256,192,71753,1,12,0:0:0:0:
256,192,72153,1,0,0:0:0:0:
256,192,72353,1,8,0:0:0:0:
256,192,72553,1,0,0:0:0:0:
256,192,72653,1,0,0:0:0:0:
256,192,72753,1,8,0:0:0:0:
256,192,72953,1,0,0:0:0:0:
256,192,73153,1,8,0:0:0:0:
256,192,73253,1,0,0:0:0:0:
256,192,73353,1,8,0:0:0:0:
256,192,73453,1,8,0:0:0:0:
256,192,73553,1,0,0:0:0:0:
256,192,73753,1,8,0:0:0:0:
256,192,73953,1,0,0:0:0:0:
256,192,74053,1,0,0:0:0:0:
256,192,74153,1,8,0:0:0:0:
256,192,74353,1,0,0:0:0:0:
256,192,74553,1,8,0:0:0:0:
256,192,74653,1,8,0:0:0:0:
256,192,74753,1,0,0:0:0:0:
256,192,74953,1,8,0:0:0:0:
256,192,75353,1,0,0:0:0:0:
256,192,75553,1,0,0:0:0:0:
256,192,75753,1,8,0:0:0:0:
256,192,75953,1,8,0:0:0:0:
256,192,76153,1,0,0:0:0:0:
256,192,76553,1,8,0:0:0:0:
256,192,76953,1,8,0:0:0:0:
256,192,77053,1,8,0:0:0:0:
256,192,77153,1,0,0:0:0:0:
256,192,77353,1,8,0:0:0:0:
256,192,77553,1,8,0:0:0:0:
256,192,77753,1,0,0:0:0:0:
256,192,78153,1,0,0:0:0:0:
256,192,78553,1,8,0:0:0:0:
256,192,78753,1,0,0:0:0:0:
256,192,78953,1,8,0:0:0:0:
256,192,79053,1,0,0:0:0:0:
256,192,79153,1,8,0:0:0:0:
256,192,79353,1,0,0:0:0:0:
256,192,79553,1,8,0:0:0:0:
256,192,79753,1,8,0:0:0:0:
256,192,79853,1,0,0:0:0:0:
256,192,79953,1,0,0:0:0:0:
256,192,80053,1,0,0:0:0:0:
256,192,80153,1,8,0:0:0:0:
256,192,80553,5,0,0:0:0:0:
256,192,80753,1,8,0:0:0:0:
256,192,80853,1,8,0:0:0:0:
256,192,80953,1,8,0:0:0:0:
256,192,81153,1,0,0:0:0:0:
256,192,81353,1,8,0:0:0:0:
256,192,81453,1,0,0:0:0:0:
256,192,81553,1,8,0:0:0:0:
256,192,81653,1,8,0:0:0:0:
256,192,81753,1,0,0:0:0:0:
256,192,81953,1,0,0:0:0:0:
256,192,82153,1,0,0:0:0:0:
256,192,82253,1,0,0:0:0:0:
256,192,82353,1,8,0:0:0:0:
256,192,82553,1,0,0:0:0:0:
256,192,82753,1,8,0:0:0:0:
256,192,82953,1,0,0:0:0:0:
256,192,83053,5,8,0:0:0:0:
256,192,83253,1,8,0:0:0:0:
256,192,83353,1,0,0:0:0:0:
256,192,83553,1,0,0:0:0:0:
256,192,83653,1,0,0:0:0:0:
256,192,83753,1,8,0:0:0:0:
256,192,83953,1,8,0:0:0:0:
256,192,84153,1,4,0:0:0:0:
256,192,84553,1,0,0:0:0:0:
256,192,84753,1,8,0:0:0:0:
256,192,84953,1,0,0:0:0:0:
256,192,85053,1,0,0:0:0:0:
256,192,85153,1,8,0:0:0:0:
256,192,85353,1,0,0:0:0:0:
256,192,85553,1,8,0:0:0:0:
256,192,85953,1,8,0:0:0:0:
256,192,86153,1,0,0:0:0:0:
256,192,86253,1,0,0:0:0:0:
256,192,86353,1,8,0:0:0:0:
256,192,86553,1,0,0:0:0:0:
256,192,86753,1,0,0:0:0:0:
256,192,86953,1,8,0:0:0:0:
256,192,87153,1,8,0:0:0:0:
256,192,87353,1,0,0:0:0:0:
256,192,87753,1,8,0:0:0:0:
256,192,87953,1,0,0:0:0:0:
256,192,88053,1,0,0:0:0:0:
256,192,88153,1,8,0:0:0:0:
256,192,88353,1,0,0:0:0:0:
256,192,88553,1,8,0:0:0:0:
256,192,88653,1,0,0:0:0:0:
256,192,88753,1,8,0:0:0:0:
256,192,89153,1,8,0:0:0:0:
256,192,89353,1,0,0:0:0:0:
256,192,89553,1,0,0:0:0:0:
256,192,89753,1,8,0:0:0:0:
256,192,89853,1,0,0:0:0:0:
256,192,89953,1,8,0:0:0:0:
256,192,90153,1,0,0:0:0:0:
256,192,90353,1,8,0:0:0:0:
256,192,90553,1,0,0:0:0:0:
256,192,90953,1,8,0:0:0:0:
256,192,91153,1,8,0:0:0:0:
256,192,91353,1,0,0:0:0:0:
256,192,91453,1,0,0:0:0:0:
256,192,91553,1,0,0:0:0:0:
256,192,91753,1,0,0:0:0:0:
256,192,91953,1,8,0:0:0:0:
256,192,92353,1,8,0:0:0:0:
256,192,92553,1,0,0:0:0:0:
256,192,92753,1,8,0:0:0:0:
256,192,92953,1,0,0:0:0:0:
256,192,93153,1,0,0:0:0:0:
256,192,93353,1,0,0:0:0:0:
256,192,93553,1,8,0:0:0:0:
256,192,93653,1,8,0:0:0:0:
256,192,93753,1,0,0:0:0:0:
256,192,93953,1,0,0:0:0:0:
256,192,94153,1,8,0:0:0:0:
256,192,94253,1,0,0:0:0:0:
256,192,94353,1,8,0:0:0:0:
256,192,94453,1,8,0:0:0:0:
256,192,94553,1,0,0:0:0:0:
256,192,94753,1,0,0:0:0:0:
256,192,94953,1,8,0:0:0:0:
256,192,95053,1,0,0:0:0:0:
256,192,95153,1,8,0:0:0:0:
256,192,95353,1,0,0:0:0:0:
256,192,95753,1,8,0:0:0:0:
256,192,96153,1,0,0:0:0:0:
256,192,96253,1,0,0:0:0:0:
256,192,96353,1,0,0:0:0:0:
256,192,96553,1,8,0:0:0:0:
256,192,96753,1,0,0:0:0:0:
256,192,96953,1,8,0:0:0:0:
256,192,97553,1,0,0:0:0:0:
256,192,98153,1,8,0:0:0:0:
256,192,99353,1,8,0:0:0:0:
256,192,99753,1,0,0:0:0:0:
256,192,100153,1,8,0:0:0:0:
256,192,100753,1,8,0:0:0:0:
256,192,100953,1,0,0:0:0:0:
256,192,101253,1,0,0:0:0:0:
256,192,101553,1,8,0:0:0:0:
256,192,102353,1,0,0:0:0:0:
256,192,102553,1,8,0:0:0:0:
256,192,102953,1,0,0:0:0:0:
256,192,103353,1,8,0:0:0:0:
256,192,103953,1,0,0:0:0:0:
256,192,104553,1,8,0:0:0:0:
256,192,105553,1,8,0:0:0:0:
256,192,105753,1,0,0:0:0:0:
256,192,106053,1,0,0:0:0:0:
256,192,106353,1,8,0:0:0:0:
256,192,107153,1,8,0:0:0:0:
256,192,107353,1,0,0:0:0:0:
256,192,107653,1,0,0:0:0:0:
256,192,107953,1,8,0:0:0:0:
256,192,109953,5,8,0:0:0:0:
256,192,110153,1,8,0:0:0:0:
256,192,110353,1,0,0:0:0:0:
256,192,110553,1,8,0:0:0:0:
256,192,110753,1,0,0:0:0:0:
256,192,110853,1,0,0:0:0:0:
256,192,110953,1,8,0:0:0:0:
256,192,111153,1,8,0:0:0:0:
256,192,111353,1,0,0:0:0:0:
256,192,111753,1,12,0:0:0:0:
256,192,112153,1,0,0:0:0:0:
256,192,112353,1,8,0:0:0:0:
256,192,112553,1,0,0:0:0:0:
256,192,112653,1,0,0:0:0:0:
256,192,112753,1,8,0:0:0:0:
256,192,112953,1,0,0:0:0:0:
256,192,113153,1,8,0:0:0:0:
256,192,113253,1,0,0:0:0:0:
256,192,113353,1,8,0:0:0:0:
256,192,113453,1,8,0:0:0:0:
256,192,113553,1,0,0:0:0:0:
256,192,113753,1,8,0:0:0:0:
256,192,113953,1,0,0:0:0:0:
256,192,114053,1,0,0:0:0:0:
256,192,114153,1,8,0:0:0:0:
256,192,114353,1,0,0:0:0:0:
256,192,114553,1,8,0:0:0:0:
256,192,114653,1,8,0:0:0:0:
256,192,114753,1,0,0:0:0:0:
256,192,114953,1,8,0:0:0:0:
256,192,115353,1,0,0:0:0:0:
256,192,115553,1,0,0:0:0:0:
256,192,115753,1,8,0:0:0:0:
256,192,115953,1,8,0:0:0:0:
256,192,116153,1,0,0:0:0:0:
256,192,116553,1,8,0:0:0:0:
256,192,116953,1,8,0:0:0:0:
256,192,117053,1,8,0:0:0:0:
256,192,117153,1,0,0:0:0:0:
256,192,117353,1,8,0:0:0:0:
256,192,117553,1,8,0:0:0:0:
256,192,117753,1,0,0:0:0:0:
256,192,118153,1,0,0:0:0:0:
256,192,118553,1,8,0:0:0:0:
256,192,118753,1,0,0:0:0:0:
256,192,118953,1,8,0:0:0:0:
256,192,119053,1,0,0:0:0:0:
256,192,119153,1,8,0:0:0:0:
256,192,119353,1,0,0:0:0:0:
256,192,119553,1,8,0:0:0:0:
256,192,119753,1,8,0:0:0:0:
256,192,119853,1,0,0:0:0:0:
256,192,119953,1,0,0:0:0:0:
256,192,120053,1,0,0:0:0:0:
256,192,120153,1,8,0:0:0:0:
256,192,120553,5,0,0:0:0:0:
256,192,120753,1,8,0:0:0:0:
256,192,120853,1,8,0:0:0:0:
256,192,120953,1,8,0:0:0:0:
256,192,121153,1,0,0:0:0:0:
256,192,121353,1,8,0:0:0:0:
256,192,121453,1,0,0:0:0:0:
256,192,121553,1,8,0:0:0:0:
256,192,121653,1,8,0:0:0:0:
256,192,121753,1,0,0:0:0:0:
256,192,121953,1,0,0:0:0:0:
256,192,122153,1,0,0:0:0:0:
256,192,122253,1,0,0:0:0:0:
256,192,122353,1,8,0:0:0:0:
256,192,122553,1,0,0:0:0:0:
256,192,122753,1,8,0:0:0:0:
256,192,122953,1,8,0:0:0:0:
256,192,123053,1,8,0:0:0:0:
256,192,123153,1,0,0:0:0:0:
256,192,123353,1,8,0:0:0:0:
256,192,123553,1,0,0:0:0:0:
256,192,123653,1,0,0:0:0:0:
256,192,123753,1,8,0:0:0:0:
256,192,123953,1,8,0:0:0:0:
256,192,124153,1,4,0:0:0:0:
256,192,124553,1,8,0:0:0:0:
256,192,124953,1,0,0:0:0:0:
256,192,125153,1,8,0:0:0:0:
256,192,125353,1,0,0:0:0:0:
256,192,125453,1,0,0:0:0:0:
256,192,125553,1,8,0:0:0:0:
256,192,125753,1,0,0:0:0:0:
256,192,125953,1,8,0:0:0:0:
256,192,126053,1,0,0:0:0:0:
256,192,126153,1,8,0:0:0:0:
256,192,126253,1,8,0:0:0:0:
256,192,126353,1,0,0:0:0:0:
256,192,126553,1,8,0:0:0:0:
256,192,126753,1,0,0:0:0:0:
256,192,126853,1,0,0:0:0:0:
256,192,126953,1,8,0:0:0:0:
256,192,127153,1,0,0:0:0:0:
256,192,127353,1,8,0:0:0:0:
256,192,127453,1,0,0:0:0:0:
256,192,127553,1,0,0:0:0:0:
256,192,127653,1,0,0:0:0:0:
256,192,127753,1,8,0:0:0:0:
256,192,128153,1,0,0:0:0:0:
256,192,128353,1,0,0:0:0:0:
256,192,128553,1,8,0:0:0:0:
256,192,128653,1,8,0:0:0:0:
256,192,128753,1,8,0:0:0:0:
256,192,128953,1,0,0:0:0:0:
256,192,129353,1,8,0:0:0:0:
256,192,129753,1,8,0:0:0:0:
256,192,129853,1,0,0:0:0:0:
256,192,129953,1,8,0:0:0:0:
256,192,130153,1,8,0:0:0:0:
240,192,130353,1,0,0:0:0:0:
240,192,130553,1,8,0:0:0:0:
240,192,130653,1,8,0:0:0:0:
240,192,130753,1,0,0:0:0:0:
240,192,130953,1,8,0:0:0:0:
256,192,131353,1,8,0:0:0:0:
256,192,131553,1,0,0:0:0:0:
256,192,131753,1,8,0:0:0:0:
256,192,131853,1,0,0:0:0:0:
256,192,131953,1,8,0:0:0:0:
256,192,132153,1,0,0:0:0:0:
256,192,132353,1,8,0:0:0:0:
256,192,132553,1,8,0:0:0:0:
256,192,132653,1,0,0:0:0:0:
256,192,132753,1,0,0:0:0:0:
256,192,132853,1,0,0:0:0:0:
256,192,132953,1,8,0:0:0:0:
256,192,133353,5,0,0:0:0:0:
256,192,133553,1,8,0:0:0:0:
256,192,133653,1,8,0:0:0:0:
256,192,133753,1,8,0:0:0:0:
256,192,133953,1,0,0:0:0:0:
256,192,134153,1,8,0:0:0:0:
256,192,134253,1,0,0:0:0:0:
256,192,134353,1,8,0:0:0:0:
256,192,134453,1,8,0:0:0:0:
256,192,134553,1,0,0:0:0:0:
256,192,134753,1,0,0:0:0:0:
256,192,134953,1,0,0:0:0:0:
256,192,135053,1,0,0:0:0:0:
256,192,135153,1,8,0:0:0:0:
240,192,135253,1,8,0:0:0:0:
256,192,135353,1,0,0:0:0:0:
256,192,135553,1,8,0:0:0:0:
256,192,135753,1,0,0:0:0:0:
256,192,135853,5,8,0:0:0:0:
256,192,135953,1,0,0:0:0:0:
256,192,136153,1,0,0:0:0:0:
256,192,136353,1,0,0:0:0:0:
256,192,136453,1,0,0:0:0:0:
256,192,136553,1,8,0:0:0:0:
256,192,136753,1,8,0:0:0:0:
