osu file format v14

[General]
AudioFilename: audio.mp3
AudioLeadIn: 0
PreviewTime: 24293
Countdown: 0
SampleSet: Soft
StackLeniency: 0.7
Mode: 0
LetterboxInBreaks: 0
WidescreenStoryboard: 1

[Editor]
Bookmarks: 121043,137043
DistanceSpacing: 1
BeatDivisor: 4
GridSize: 16
TimelineZoom: 1

[Metadata]
Title:Cupid (Twin Ver.)
TitleUnicode:Cupid (Twin Ver.)
Artist:FIFTY FIFTY
ArtistUnicode:피프티피프티
Creator:Nijika Ijichi
Version:normal
Source:
Tags:potatodew 큐피드 the beginning: cupid korean english pop kpop k-pop ₍⑅ᐢ..ᐢ₎ bunny
BeatmapID:4134026
BeatmapSetID:1987309

[Difficulty]
HPDrainRate:3
CircleSize:3.5
OverallDifficulty:4
ApproachRate:5.5
SliderMultiplier:1.2
SliderTickRate:1

[Events]
//Background and Video events
0,0,"bunny.jpg",0,0
//Break Periods
2,57247,63922
2,121246,136172
//Storyboard Layer 0 (Background)
//Storyboard Layer 1 (Fail)
//Storyboard Layer 2 (Pass)
//Storyboard Layer 3 (Foreground)
//Storyboard Layer 4 (Overlay)
//Storyboard Sound Samples

[TimingPoints]
1047,500,4,2,1,50,1,0
9047,-111.111111111111,4,2,1,50,0,0
41547,-99.9999999999999,4,2,1,60,0,1
42047,-99.9999999999999,4,2,1,60,0,0
65047,-105.263157894737,4,2,1,50,0,0
89547,-100,4,2,1,60,0,1
90047,-100,4,2,1,60,0,0
105047,-105.263157894737,4,2,1,55,0,1
121047,-105.263157894737,4,2,1,55,0,0
137297,-111.111111111111,4,2,1,50,0,0
139547,-100,4,2,1,60,0,1
140047,-100,4,2,1,60,0,0
155047,-95.2380952380952,4,2,1,65,0,1
170797,-95.2380952380952,4,2,1,60,0,0

[Colours]
Combo1 : 255,206,231
Combo2 : 255,198,255

[HitObjects]
45,49,9047,6,0,P|104:37|166:38,1,107.999996704102,4|8,3:2|3:2,0:0:0:0:
233,106,10047,2,0,L|295:97,2,53.9999983520508,0|2|8,3:0|0:0|3:2,0:0:0:0:
196,146,10797,2,0,P|179:186|183:260,1,107.999996704102,2|2,0:0|0:0,0:0:0:0:
245,335,11797,2,0,P|285:352|359:348,1,107.999996704102,2|2,0:0|0:0,0:0:0:0:
377,305,12547,2,0,L|365:230,1,53.9999983520508,8|2,3:2|0:0,0:0:0:0:
400,207,13047,6,0,P|394:159|404:83,1,107.999996704102,2|8,3:2|3:2,0:0:0:0:
320,26,14047,2,0,L|249:35,1,53.9999983520508,0|2,3:0|0:0,0:0:0:0:
228,70,14547,1,8,3:2:0:0:
228,70,14797,2,0,P|217:124|232:184,1,107.999996704102,2|2,0:0|0:0,0:0:0:0:
160,259,15797,2,0,P|107:248|54:259,1,107.999996704102,2|2,0:0|0:0,0:0:0:0:
15,296,16547,2,0,L|22:356,1,53.9999983520508,8|2,3:2|0:0,0:0:0:0:
68,377,17047,6,0,P|125:376|181:350,1,107.999996704102,2|8,3:2|3:2,0:0:0:0:
228,265,18047,2,0,L|221:207,2,53.9999983520508,0|2|8,3:2|0:0|3:2,0:0:0:0:
270,298,18797,2,0,P|321:304|381:278,1,107.999996704102,2|2,0:0|0:0,0:0:0:0:
438,198,19797,1,2,0:0:0:0:
358,124,20297,2,0,L|295:113,1,53.9999983520508,2|8,0:0|3:2,0:0:0:0:
258,143,20797,1,2,0:0:0:0:
258,143,21047,6,0,P|265:86|258:30,1,107.999996704102,2|8,3:2|0:0,0:0:0:0:
162,84,22047,2,0,L|94:72,2,53.9999983520508,2|2|10,3:2|0:0|3:2,0:0:0:0:
242,155,23047,1,0,3:0:0:0:
151,213,23547,2,0,L|83:201,2,53.9999983520508,10|2|2,3:2|0:0|3:2,0:0:0:0:
189,251,24297,1,2,0:3:0:0:
189,251,24547,2,0,L|256:241,1,53.9999983520508,10|2,0:3|0:3,0:0:0:0:
282,206,25047,6,0,P|296:154|277:93,2,107.999996704102,2|10|2,3:1|3:2|3:3,0:0:0:0:
196,272,26547,1,10,3:2:0:0:
98,225,27047,2,0,L|92:157,1,53.9999983520508,0|2,3:2|0:0,0:0:0:0:
58,130,27547,2,0,L|71:59,2,53.9999983520508,8|2|0,3:2|0:0|3:0,0:0:0:0:
16,233,28547,1,10,0:3:0:0:
16,233,28797,1,2,0:3:0:0:
16,233,29047,6,0,P|62:258|137:248,2,107.999996704102,2|10|2,3:2|3:2|3:3,0:0:0:0:
60,134,30547,1,10,3:2:0:0:
161,171,31047,2,0,L|225:162,1,53.9999983520508,2|0,3:2|0:0,0:0:0:0:
258,194,31547,2,0,L|322:203,2,53.9999983520508,8|2|0,3:2|0:0|3:0,0:0:0:0:
188,276,32547,1,10,3:0:0:0:
188,276,32797,2,0,L|198:348,1,53.9999983520508,2|2,3:3|0:2,0:0:0:0:
301,309,33547,6,0,L|291:237,1,53.9999983520508,8|2,3:0|0:0,0:0:0:0:
259,213,34047,2,0,P|250:156|261:95,1,107.999996704102,2|8,3:2|3:0,0:0:0:0:
324,21,35047,2,0,L|390:7,2,53.9999983520508,2|2|10,3:2|0:0|3:2,0:0:0:0:
217,3,36047,2,0,L|151:17,1,53.9999983520508,2|2,3:2|0:3,0:0:0:0:
123,49,36547,2,0,L|57:63,1,53.9999983520508,10|2,3:0|0:3,0:0:0:0:
23,32,37047,6,0,P|3:99|39:194,2,161.999995056153,2|2|10,3:2|0:0|3:2,0:0:0:0:
130,17,39047,1,0,0:0:0:0:
145,123,39547,1,2,0:3:0:0:
251,107,40047,1,2,0:3:0:0:
240,8,40547,1,2,0:3:0:0:
240,8,40797,1,0,0:0:0:0:
240,8,41047,1,2,0:0:0:0:
346,62,41547,6,0,P|358:130|347:201,1,120,14|0,3:1|3:0,0:0:0:0:
305,217,42297,1,2,0:0:0:0:
247,200,42547,1,10,3:2:0:0:
197,233,42797,1,2,0:0:0:0:
149,129,43297,1,2,0:0:0:0:
149,129,43547,2,0,L|67:142,1,60,8|2,3:0|0:0,0:0:0:0:
47,181,44047,2,0,L|58:253,1,60,0|2,3:0|0:0,0:0:0:0:
101,279,44547,2,0,L|173:268,1,60,10|2,3:0|0:3,0:0:0:0:
200,225,45047,5,6,3:2:0:0:
292,301,45547,2,0,P|358:295|416:319,2,120,10|2|10,3:2|3:2|3:2,0:0:0:0:
236,323,46797,2,0,P|181:330|103:299,1,120,2|0,0:2|0:0,0:0:0:0:
80,266,47547,1,8,3:0:0:0:
132,158,48047,1,2,3:3:0:0:
183,127,48297,1,2,0:2:0:0:
236,154,48547,2,0,L|304:166,1,60,10|2,3:0|0:2,0:0:0:0:
340,124,49047,6,0,P|346:89|326:-3,2,120,6|10|2,3:2|3:2|3:2,0:0:0:0:
262,216,50547,1,10,3:2:0:0:
262,216,50797,2,0,P|245:270|260:332,1,120,6|2,0:2|0:0,0:0:0:0:
305,368,51547,1,8,3:0:0:0:
406,304,52047,2,0,L|482:323,2,60,2|2|8,3:2|0:0|3:0,0:0:0:0:
368,257,52797,1,2,0:0:0:0:
368,257,53047,6,0,P|377:203|366:121,1,120,6|10,3:2|3:2,0:0:0:0:
325,98,53797,2,0,P|226:87|122:97,1,180,6|10,0:2|3:2,0:0:0:0:
106,137,54797,1,2,0:2:0:0:
122,255,55297,1,2,0:0:0:0:
241,244,55797,1,2,0:0:0:0:
224,125,56297,2,0,L|238:47,2,60,0|8|0,3:0|3:0|3:0,0:0:0:0:
177,162,57047,5,4,0:0:0:0:
119,15,65047,6,0,L|128:73,1,56.9999984779358,2|2,3:2|0:2,0:2:0:0:
171,108,65547,1,8,3:2:0:0:
72,164,66047,2,0,P|55:217|70:283,1,113.999996955872,2|8,3:2|0:0,0:0:0:0:
152,347,67047,1,2,3:2:0:0:
253,296,67547,2,0,L|320:308,1,56.9999984779358,10|2,3:2|0:0,3:2:0:0:
354,341,68047,2,0,P|377:294|353:217,1,113.999996955872,2|8,3:2|3:0,0:0:0:0:
282,157,69047,6,0,L|292:77,1,56.9999984779358,2|2,3:2|0:0,0:0:0:0:
262,49,69547,2,0,L|182:39,1,56.9999984779358,10|2,3:2|0:0,0:0:0:0:
156,71,70047,2,0,P|98:99|32:85,1,113.999996955872,2|8,3:2|0:0,0:0:0:0:
5,198,71047,2,0,L|12:266,1,56.9999984779358,0|0,3:0|3:0,0:0:0:0:
58,286,71547,2,0,L|92:267,1,28.4999992389679,8|0,3:0|3:0,0:0:0:0:
157,228,72047,1,14,3:3:0:0:
210,259,72297,1,0,3:0:0:0:
210,259,72547,2,0,L|284:250,1,56.9999984779358,8|2,3:0|0:0,0:0:0:0:
316,280,73047,6,0,P|385:291|430:273,2,113.999996955872,2|10|2,3:1|3:2|3:3,0:0:0:0:
234,200,74547,1,10,3:2:0:0:
310,115,75047,2,0,L|319:48,1,56.9999984779358,0|2,3:2|0:0,0:0:0:0:
364,26,75547,2,0,L|435:35,2,56.9999984779358,8|2|0,3:2|0:0|3:0,0:0:0:0:
259,13,76547,1,10,0:3:0:0:
259,13,76797,1,2,0:3:0:0:
259,13,77047,6,0,P|198:25|130:5,2,113.999996955872,2|10|2,3:2|3:2|3:3,0:0:0:0:
327,103,78547,1,10,3:2:0:0:
256,192,79047,2,0,L|246:271,1,56.9999984779358,2|0,3:2|0:0,0:0:0:0:
276,298,79547,2,0,L|290:373,2,56.9999984779358,8|2|0,3:2|0:0|3:0,0:0:0:0:
166,294,80547,1,10,3:0:0:0:
166,294,80797,2,0,L|151:216,1,56.9999984779358,2|2,3:3|0:2,0:0:0:0:
236,157,81547,6,0,L|251:235,1,56.9999984779358,8|2,3:0|0:0,0:0:0:0:
273,263,82047,2,0,P|334:265|386:283,1,113.999996955872,2|8,3:2|3:0,0:0:0:0:
453,191,83047,2,0,L|520:183,2,56.9999984779358,2|2|10,3:2|0:0|3:2,0:0:0:0:
346,150,84047,2,0,L|279:158,1,56.9999984779358,2|2,3:2|0:3,0:0:0:0:
247,195,84547,2,0,L|180:203,1,56.9999984779358,10|2,3:0|0:3,0:0:0:0:
140,174,85047,6,0,P|119:118|150:6,2,170.999995433807,2|2|10,3:2|0:0|3:2,0:0:0:0:
117,285,87047,1,2,0:3:0:0:
226,315,87547,1,2,0:3:0:0:
260,212,88047,1,2,0:3:0:0:
260,212,88297,1,0,3:0:0:0:
260,212,88547,2,0,L|335:228,2,56.9999984779358,0|0|2,3:0|3:0|0:0,0:0:0:0:
166,277,89547,6,0,P|97:304|31:288,1,120,14|0,3:1|3:0,0:0:0:0:
14,252,90297,1,2,0:0:0:0:
35,196,90547,1,10,3:2:0:0:
8,141,90797,1,2,0:0:0:0:
126,107,91297,1,2,0:0:0:0:
126,107,91547,2,0,L|203:120,1,60,8|2,3:0|0:0,0:0:0:0:
226,161,92047,2,0,L|303:148,1,60,0|2,3:0|0:0,0:0:0:0:
333,115,92547,2,0,L|410:128,1,60,10|2,3:0|0:3,0:0:0:0:
442,91,93047,5,6,3:2:0:0:
463,208,93547,2,0,P|476:263|448:326,2,120,10|2|10,3:2|3:2|3:2,0:0:0:0:
416,169,94797,2,0,P|403:114|431:51,1,120,2|0,0:2|0:0,0:0:0:0:
465,11,95547,1,8,3:0:0:0:
345,4,96047,1,2,3:3:0:0:
291,31,96297,1,2,0:2:0:0:
232,19,96547,2,0,L|227:101,1,60,10|2,3:0|0:2,0:0:0:0:
268,123,97047,6,0,P|319:142|391:123,2,120,6|10|2,3:2|3:2|3:2,0:0:0:0:
162,181,98547,1,10,3:2:0:0:
162,181,98797,2,0,P|105:159|37:167,1,120,6|2,0:2|0:0,0:0:0:0:
8,209,99547,1,8,3:0:0:0:
88,297,100047,2,0,L|74:369,2,60,2|2|8,3:2|0:0|3:0,0:0:0:0:
138,264,100797,1,2,0:0:0:0:
138,264,101047,6,0,P|201:278|266:272,1,120,6|10,3:2|3:2,0:0:0:0:
292,226,101797,2,0,P|300:152|286:35,1,180,6|10,0:2|3:2,0:0:0:0:
248,2,102797,1,2,0:0:0:0:
158,82,103297,1,2,0:0:0:0:
158,82,103547,2,0,P|147:139|155:220,1,120,8|0,3:0|3:0,0:0:0:0:
242,277,104547,2,0,L|319:260,1,60,8|0,3:0|3:3,0:0:0:0:
341,220,105047,5,4,3:2:0:0:
236,173,105547,1,8,3:0:0:0:
147,245,106047,1,0,3:0:0:0:
105,284,106297,2,0,L|36:298,1,56.9999984779358,2|8,0:0|3:0,0:0:0:0:
9,254,106797,2,0,L|20:116,1,113.999996955872,2|0,0:0|0:0,0:0:0:0:
62,104,107547,1,8,3:0:0:0:
160,160,108047,1,0,3:0:0:0:
251,92,108547,1,8,3:0:0:0:
251,92,108797,1,0,0:0:0:0:
226,46,109047,5,4,3:2:0:0:
204,158,109547,1,10,3:2:0:0:
315,183,110047,1,2,3:2:0:0:
337,71,110547,1,10,0:0:0:0:
307,22,110797,2,0,P|399:10|473:50,1,170.999995433807,2|10,0:0|0:0,0:0:0:0:
437,92,111797,2,0,P|413:145|416:218,2,113.999996955872,2|2|2,0:0|0:0|0:0,0:0:0:0:
493,100,113047,5,4,3:2:0:0:
507,213,113547,1,8,3:0:0:0:
419,285,114047,1,0,3:0:0:0:
310,250,114547,2,0,L|233:266,2,56.9999984779358,8|4|0,3:0|0:0|3:0,0:0:0:0:
341,202,115297,1,0,0:0:0:0:
341,202,115547,1,8,3:0:0:0:
236,156,116047,1,0,3:0:0:0:
142,221,116547,1,8,3:0:0:0:
129,276,116797,1,2,0:0:0:0:
153,327,117047,6,0,P|210:318|275:317,1,113.999996955872,6|8,3:2|3:0,0:0:0:0:
313,348,117797,1,2,0:0:0:0:
313,348,118047,2,0,P|372:347|431:330,1,113.999996955872,2|10,3:2|3:2,0:0:0:0:
469,297,118797,1,2,0:0:0:0:
383,222,119297,1,2,0:0:0:0:
452,131,119797,1,2,0:0:0:0:
452,131,120047,2,0,L|469:53,2,56.9999984779358,0|0|8,3:0|0:0|3:0,0:0:0:0:
484,177,120797,2,0,L|501:247,1,56.9999984779358,0|2,0:0|0:0,0:0:0:0:
366,121,137297,5,0,0:0:0:0:
366,121,137547,2,0,P|305:141|237:134,1,107.999996704102
178,71,138547,2,0,L|185:14,2,53.9999983520508,2|2|2,3:2|3:2|0:3,0:0:0:0:
104,165,139547,6,0,P|91:244|102:293,1,120,14|0,3:1|3:0,0:0:0:0:
131,332,140297,1,2,0:0:0:0:
194,339,140547,1,10,3:2:0:0:
239,299,140797,1,2,0:0:0:0:
356,341,141297,1,2,0:0:0:0:
356,341,141547,2,0,L|429:331,1,60,8|2,3:0|0:0,0:0:0:0:
453,286,142047,2,0,L|443:213,1,60,0|2,3:0|0:0,0:0:0:0:
399,187,142547,2,0,L|326:197,1,60,10|2,3:0|0:3,0:0:0:0:
292,157,143047,5,6,3:2:0:0:
179,198,143547,2,0,P|116:222|50:205,2,120,10|2|10,3:2|3:2|3:2,0:0:0:0:
222,155,144797,2,0,P|285:131|351:148,1,120,2|0,0:2|0:0,0:0:0:0:
382,177,145547,1,8,3:0:0:0:
332,286,146047,1,2,3:3:0:0:
278,313,146297,1,2,0:2:0:0:
223,288,146547,2,0,L|158:302,1,60,10|2,3:0|0:2,0:0:0:0:
110,326,147047,6,0,P|101:252|111:191,2,120,6|10|2,3:2|3:2|3:2,0:0:0:0:
227,369,148547,1,10,3:2:0:0:
226,371,148797,2,0,P|235:297|225:236,1,120,6|2,0:2|0:0,0:0:0:0:
266,205,149547,1,8,3:0:0:0:
175,126,150047,2,0,L|97:140,2,60,2|2|8,3:2|0:0|3:0,0:0:0:0:
217,83,150797,1,2,0:0:0:0:
217,83,151047,6,0,P|279:76|356:81,1,120,6|10,3:2|3:2,0:0:0:0:
374,124,151797,2,0,P|383:209|372:316,1,180,6|10,0:2|3:2,0:0:0:0:
335,347,152797,1,2,0:0:0:0:
245,274,153297,1,2,0:0:0:0:
245,274,153547,2,0,P|161:267|113:280,1,120,2|14,3:2|3:3,0:0:0:0:
50,196,154547,1,10,3:2:0:0:
50,196,154797,1,2,3:2:0:0:
50,196,155047,6,0,P|39:136|72:53,1,125.999996154785,6|8,3:2|3:0,0:0:0:0:
108,38,155797,1,2,0:0:0:0:
108,38,156047,1,2,3:2:0:0:
217,99,156547,1,8,3:0:0:0:
217,99,156797,2,0,P|272:101|333:64,1,125.999996154785,2|0,0:0|0:0,0:0:0:0:
385,33,157547,2,0,L|456:46,1,62.9999980773926,10|2,3:2|0:0,0:0:0:0:
491,89,158047,1,2,3:2:0:0:
420,193,158547,2,0,L|427:264,1,62.9999980773926,10|2,3:3|0:3,0:0:0:0:
387,305,159047,6,0,P|331:315|261:275,1,125.999996154785,6|8,3:2|3:0,0:0:0:0:
244,228,159797,1,2,0:0:0:0:
244,228,160047,1,2,3:2:0:0:
133,289,160547,1,8,3:0:0:0:
78,257,160797,2,0,P|71:202|79:124,1,125.999996154785,2|0,0:0|0:0,0:0:0:0:
120,86,161547,1,8,3:0:0:0:
237,130,162047,1,2,3:0:0:0:
294,155,162297,1,2,0:0:0:0:
349,125,162547,2,0,L|416:117,1,62.9999980773926,10|2,3:0|0:0,0:0:0:0:
468,143,163047,6,0,P|483:85|461:7,2,125.999996154785,6|10|2,3:2|3:2|3:2,0:0:0:0:
362,213,164547,1,10,3:2:0:0:
362,213,164797,2,0,P|297:218|241:188,1,125.999996154785,6|2,0:2|0:0,0:0:0:0:
208,139,165547,1,8,3:0:0:0:
101,71,166047,2,0,L|88:2,2,62.9999980773926,2|2|8,3:2|0:0|3:0,0:0:0:0:
63,121,166797,1,2,0:0:0:0:
63,121,167047,6,0,P|53:197|64:250,1,125.999996154785,6|10,3:2|3:2,0:0:0:0:
114,280,167797,2,0,P|205:291|317:276,1,188.999994232178,6|10,0:2|3:2,0:0:0:0:
340,230,168797,1,2,0:2:0:0:
235,159,169297,1,2,0:0:0:0:
346,99,169797,2,0,L|432:113,1,62.9999980773926,0|0,0:0|3:0,0:0:0:0:
463,78,170297,2,0,L|473:4,2,62.9999980773926,0|8|2,0:0|3:0|0:0,0:0:0:0:
