osu file format v14

[General]
AudioFilename: audio.mp3
AudioLeadIn: 0
PreviewTime: 24293
Countdown: 0
SampleSet: Soft
StackLeniency: 0.7
Mode: 0
LetterboxInBreaks: 0
WidescreenStoryboard: 1

[Editor]
Bookmarks: 121043,137043
DistanceSpacing: 0.8
BeatDivisor: 3
GridSize: 16
TimelineZoom: 1

[Metadata]
Title:Cupid (Twin Ver.)
TitleUnicode:Cupid (Twin Ver.)
Artist:FIFTY FIFTY
ArtistUnicode:피프티피프티
Creator:Nijika Ijichi
Version:hard
Source:
Tags:potatodew 큐피드 the beginning: cupid korean english pop kpop k-pop ₍⑅ᐢ..ᐢ₎ bunny
BeatmapID:4134025
BeatmapSetID:1987309

[Difficulty]
HPDrainRate:4
CircleSize:4
OverallDifficulty:6
ApproachRate:7
SliderMultiplier:1.5
SliderTickRate:1

[Events]
//Background and Video events
0,0,"bunny.jpg",0,0
//Break Periods
2,57246,64146
2,121247,136397
//Storyboard Layer 0 (Background)
//Storyboard Layer 1 (Fail)
//Storyboard Layer 2 (Pass)
//Storyboard Layer 3 (Foreground)
//Storyboard Layer 4 (Overlay)
//Storyboard Sound Samples

[TimingPoints]
1047,500,4,2,1,50,1,0
9047,-111.111111111111,4,2,1,50,0,0
25047,-105.263157894737,4,2,1,50,0,0
41547,-90.9090909090909,4,2,1,60,0,1
42047,-90.9090909090909,4,2,1,60,0,0
65046,-100,4,2,1,50,0,0
87047,-111.111111111111,4,2,1,50,0,0
89547,-90.9090909090909,4,2,1,60,0,1
90047,-90.9090909090909,4,2,1,60,0,0
105047,-100,4,2,1,55,0,1
121047,-100,4,2,1,55,0,0
137297,-111.111111111111,4,2,1,50,0,0
139547,-90.9090909090909,4,2,1,60,0,1
140047,-90.9090909090909,4,2,1,60,0,0
155047,-83.3333333333333,4,2,1,65,0,1
170797,-83.3333333333333,4,2,1,60,0,0

[Colours]
Combo1 : 255,206,231
Combo2 : 255,198,255

[HitObjects]
109,255,9047,6,0,P|106:213|125:116,1,134.999995880127,4|8,3:2|3:2,0:0:0:0:
122,122,9797,1,2,0:0:0:0:
204,74,10047,2,0,P|207:39|207:1,2,67.4999979400635,0|2|8,3:0|0:0|3:2,0:0:0:0:
215,164,10797,2,0,P|281:181|356:155,1,134.999995880127,2|2,0:0|0:0,0:0:0:0:
435,324,11797,2,0,P|369:307|294:333,1,134.999995880127,2|2,0:0|0:0,0:0:0:0:
226,364,12547,2,0,L|143:348,1,67.4999979400635,8|2,3:2|0:0,0:0:0:0:
96,279,13047,6,0,P|136:247|236:261,1,134.999995880127,2|8,3:2|3:2,0:0:0:0:
216,248,13797,1,2,0:0:0:0:
290,188,14047,2,0,P|291:145|288:108,2,67.4999979400635,0|2|8,3:0|0:0|3:2,0:0:0:0:
318,275,14797,2,0,P|363:290|448:266,1,134.999995880127,2|2,0:0|0:0,0:0:0:0:
351,116,15797,2,0,P|306:101|221:125,1,134.999995880127,2|2,0:0|0:0,0:0:0:0:
157,180,16547,1,8,3:2:0:0:
157,180,16797,1,2,0:0:0:0:
220,251,17047,6,0,P|222:296|210:386,1,134.999995880127,2|8,3:2|3:2,0:0:0:0:
210,384,17797,1,2,0:0:0:0:
128,337,18047,2,0,P|86:344|54:359,2,67.4999979400635,0|2|8,3:2|0:0|3:2,0:0:0:0:
200,276,18797,2,0,P|258:306|339:292,2,134.999995880127,2|2|2,0:0|0:0|0:0,0:0:0:0:
136,103,20297,2,0,P|80:76|0:97,1,134.999995880127,2|2,0:0|0:0,0:0:0:0:
49,179,21047,6,0,P|59:226|49:315,1,134.999995880127,2|8,3:2|0:0,0:0:0:0:
128,361,21797,2,0,P|186:348|223:345,1,67.4999979400635,2|2,0:0|3:2,0:0:0:0:
257,272,22297,1,2,0:0:0:0:
200,198,22547,2,0,P|187:152|216:54,1,134.999995880127,10|0,3:2|3:0,0:0:0:0:
285,24,23297,2,0,P|321:32|363:36,1,67.4999979400635,2|10,0:0|3:2,0:0:0:0:
424,94,23797,1,2,0:0:0:0:
380,182,24047,2,0,P|387:238|388:266,1,67.4999979400635,2|2,3:2|0:3,0:0:0:0:
277,278,24547,2,0,P|270:222|269:194,1,67.4999979400635,10|2,0:3|0:3,0:0:0:0:
164,157,25047,6,0,P|104:125|20:147,2,142.49999619484,2|10|2,3:1|3:2|3:3,0:0:0:0:
314,283,26547,2,0,P|351:298|390:299,1,71.2499980974198,10|2,3:2|0:0,0:0:0:0:
448,231,27047,1,0,3:2:0:0:
448,231,27297,1,2,0:0:0:0:
383,154,27547,2,0,P|379:113|380:72,1,71.2499980974198,8|2,3:2|0:0,0:0:0:0:
470,49,28047,2,0,P|474:90|473:131,1,71.2499980974198,0|2,3:0|0:0,0:0:0:0:
458,208,28547,1,10,0:3:0:0:
369,166,28797,1,2,0:3:0:0:
289,224,29047,6,0,P|264:274|304:371,2,142.49999619484,2|10|2,3:2|3:2|3:3,0:0:0:0:
194,38,30547,2,0,P|147:46|115:66,1,71.2499980974198,10|2,3:2|0:0,0:0:0:0:
38,110,31047,2,0,P|75:132|192:142,1,142.49999619484,2|8,3:2|3:2,0:0:0:0:
256,108,31797,1,2,0:0:0:0:
324,169,32047,2,0,L|312:250,2,71.2499980974198,0|2|10,3:0|0:3|3:0,0:0:0:0:
400,115,32797,2,0,L|385:21,1,71.2499980974198,2|2,3:3|0:2,0:0:0:0:
388,44,33547,5,8,3:0:0:0:
318,5,33797,1,2,0:0:0:0:
242,48,34047,2,0,P|175:65|89:60,1,142.49999619484,2|8,3:2|3:0,0:0:0:0:
6,230,35047,2,0,P|52:237|91:247,1,71.2499980974198,2|2,3:2|0:0,0:0:0:0:
103,272,35422,1,2,0:0:0:0:
103,272,35547,2,0,P|149:265|188:255,1,71.2499980974198,10|2,3:2|0:0,0:0:0:0:
226,180,36047,1,2,3:2:0:0:
226,180,36297,1,2,0:3:0:0:
287,259,36547,2,0,P|276:312|273:344,1,71.2499980974198,10|2,3:0|0:3,0:0:0:0:
376,208,37047,6,0,P|378:164|332:63,1,142.49999619484,2|8,3:2|3:0,0:0:0:0:
240,82,37797,1,2,0:0:0:0:
240,82,38047,2,0,P|189:62|152:50,1,71.2499980974198,0|0,3:0|0:0,0:0:0:0:
91,111,38547,1,10,3:2:0:0:
147,188,38797,1,2,0:0:0:0:
256,192,39047,12,2,41047,0:0:0:0:
443,50,41547,6,0,P|454:138|441:224,1,165.000005035401,14|0,3:1|3:0,0:0:0:0:
321,271,42297,1,2,0:0:0:0:
346,146,42547,1,10,3:2:0:0:
238,182,42797,2,0,P|167:181|84:119,1,165.000005035401,2|2,0:0|0:0,0:0:0:0:
166,40,43547,2,0,P|224:30|262:16,1,82.5000025177003,8|2,3:0|0:0,0:0:0:0:
366,48,44047,1,0,3:0:0:0:
366,48,44297,1,2,0:0:0:0:
333,175,44547,1,10,3:0:0:0:
216,141,44797,1,2,0:3:0:0:
246,22,45047,1,6,3:2:0:0:
95,221,45547,6,0,P|155:241|268:222,2,165.000005035401,10|2|10,3:2|3:2|3:2,0:0:0:0:
182,115,46797,2,0,P|241:101|350:124,1,165.000005035401,2|0,0:2|0:0,0:0:0:0:
401,245,47547,2,0,P|349:255|308:246,1,82.5000025177003,8|0,3:0|0:0,0:0:0:0:
220,220,48047,1,2,3:3:0:0:
136,288,48297,1,2,0:2:0:0:
44,252,48547,1,10,3:0:0:0:
44,252,48797,1,2,0:2:0:0:
48,148,49047,5,6,3:2:0:0:
256,336,49547,1,10,3:2:0:0:
464,148,50047,1,2,3:2:0:0:
256,336,50547,1,10,3:2:0:0:
190,229,50797,2,0,P|106:198|14:201,1,165.000005035401,6|2,0:2|0:0,0:0:0:0:
48,306,51547,2,0,P|103:325|138:328,1,82.5000025177003,8|0,3:0|0:0,0:0:0:0:
216,269,52047,1,2,3:2:0:0:
216,269,52297,2,0,P|235:214|238:179,1,82.5000025177003,2|8,0:0|3:0,0:0:0:0:
174,100,52797,5,2,0:0:0:0:
174,100,52922,1,2,0:0:0:0:
174,100,53047,2,0,P|246:62|349:76,1,165.000005035401,6|10,3:2|3:2,0:0:0:0:
395,202,53797,2,0,P|323:164|220:178,1,165.000005035401,6|0,0:2|0:0,0:0:0:0:
156,245,54547,1,10,3:2:0:0:
53,179,54797,6,0,P|45:128|37:78,1,82.5000025177003,2|0,0:2|3:0,0:0:0:0:
156,141,55297,2,0,P|148:90|140:40,1,82.5000025177003,2|8,0:0|3:0,0:0:0:0:
259,103,55797,2,0,P|251:52|243:2,1,82.5000025177003,2|0,0:0|3:0,0:0:0:0:
358,73,56297,1,0,3:0:0:0:
358,73,56422,1,0,3:0:0:0:
358,73,56547,2,0,P|350:124|342:174,2,82.5000025177003,8|0|4,3:0|3:0|0:0,0:0:0:0:
123,127,65046,6,0,L|57:140,2,50,2|0|0,3:2|0:0|0:0,0:0:0:0:
162,161,65547,2,0,L|226:147,2,50,10|0|0,3:2|0:0|0:0,0:0:0:0:
136,203,66047,2,0,P|130:256|147:370,1,150,2|8,3:2|0:0,0:0:0:0:
273,314,66880,5,2,0:0:0:0:
304,281,67047,2,0,L|296:221,2,50,2|0|0,3:2|0:0|0:0,0:0:0:0:
344,307,67547,1,10,3:2:0:0:
388,307,67713,1,2,0:0:0:0:
423,273,67880,1,2,0:0:0:0:
425,225,68047,2,0,P|421:161|428:60,1,150,2|8,3:2|3:0,0:0:0:0:
237,12,69047,5,2,3:2:0:0:
200,50,69213,1,0,0:0:0:0:
202,102,69380,1,2,0:0:0:0:
239,139,69547,2,0,L|292:127,2,50,10|2|2,3:2|0:0|0:0,0:0:0:0:
202,179,70047,2,0,P|123:166|16:176,1,150,2|8,3:2|0:0,0:0:0:0:
86,271,70797,2,0,P|140:285|246:285,1,150,2|0,0:0|3:0,0:0:0:0:
303,219,71547,5,8,3:0:0:0:
303,219,71672,2,0,L|291:126,1,75,0|0,3:0|3:0,0:0:0:0:
277,129,72047,1,14,3:3:0:0:
358,61,72297,2,0,L|367:11,2,37.5,0|0|8,3:0|3:0|3:0,0:0:0:0:
419,146,72797,1,2,0:0:0:0:
330,221,73047,6,0,P|265:255|164:240,2,150,2|10|2,3:1|3:2|3:3,0:0:0:0:
208,53,74547,2,0,P|169:58|122:87,1,75,10|2,3:2|0:0,0:0:0:0:
66,139,75047,1,0,3:2:0:0:
66,139,75297,1,2,0:0:0:0:
111,225,75547,2,0,P|106:274|95:308,1,75,8|2,3:2|0:0,0:0:0:0:
0,307,76047,2,0,P|5:258|16:224,1,75,0|2,3:0|0:0,0:0:0:0:
56,154,76547,1,10,0:3:0:0:
8,81,76797,1,2,0:3:0:0:
81,23,77047,6,0,P|156:14|231:49,2,150,2|10|2,3:2|3:2|3:3,0:0:0:0:
164,202,78547,2,0,P|199:216|245:211,1,75,10|2,3:2|0:0,0:0:0:0:
305,300,79047,2,0,P|223:305|151:349,1,150,2|8,3:2|3:2,0:0:0:0:
93,267,79797,1,2,0:0:0:0:
153,178,80047,2,0,L|141:89,2,75,0|2|10,3:0|0:3|3:0,0:0:0:0:
236,248,80797,2,0,L|221:345,1,75,2|2,3:3|0:2,0:0:0:0:
224,322,81547,5,8,3:0:0:0:
311,366,81797,1,2,0:0:0:0:
384,306,82047,2,0,P|399:249|369:149,1,150,2|8,3:2|3:0,0:0:0:0:
205,66,83047,2,0,P|157:74|122:73,1,75,2|2,3:2|0:0,0:0:0:0:
96,94,83422,1,2,0:0:0:0:
96,94,83547,2,0,P|48:102|13:101,1,75,10|2,3:2|0:0,0:0:0:0:
4,197,84047,1,2,3:2:0:0:
4,197,84297,1,2,0:3:0:0:
102,212,84547,2,0,P|146:218|191:229,1,75,10|2,3:0|0:3,0:0:0:0:
32,319,85047,6,0,P|20:252|15:138,1,150,2|8,3:2|3:0,0:0:0:0:
97,99,85797,1,2,0:0:0:0:
97,99,86047,2,0,P|125:39|140:17,1,75,0|0,3:0|0:0,0:0:0:0:
236,12,86547,1,10,3:2:0:0:
201,107,86797,1,2,0:0:0:0:
201,107,87047,5,2,0:3:0:0:
265,264,87547,1,2,0:3:0:0:
189,82,88047,1,2,0:3:0:0:
277,114,88297,1,0,3:0:0:0:
277,114,88422,1,0,3:0:0:0:
277,114,88547,2,0,P|322:107|359:104,2,67.4999979400635,0|0|2,3:0|3:0|0:0,0:0:0:0:
80,278,89547,6,0,P|173:293|274:314,1,165.000005035401,14|0,3:1|3:0,0:0:0:0:
368,370,90297,1,2,0:0:0:0:
321,229,90547,1,10,3:2:0:0:
447,287,90797,2,0,P|469:222|449:124,1,165.000005035401,2|2,0:0|0:0,0:0:0:0:
345,75,91547,2,0,P|289:87|251:88,1,82.5000025177003,8|2,3:0|0:0,0:0:0:0:
135,55,92047,1,0,3:0:0:0:
107,193,92297,1,2,0:0:0:0:
0,103,92547,1,10,3:0:0:0:
0,103,92797,1,2,0:3:0:0:
135,55,93047,1,6,3:2:0:0:
329,183,93547,6,0,P|350:125|323:25,2,165.000005035401,10|2|10,3:2|3:2|3:2,0:0:0:0:
210,240,94797,2,0,P|187:154|219:79,1,165.000005035401,2|0,0:2|0:0,0:0:0:0:
359,18,95547,2,0,P|364:69|337:125,1,82.5000025177003,8|0,3:0|0:0,0:0:0:0:
294,185,96047,1,2,3:3:0:0:
363,281,96297,1,2,0:2:0:0:
463,264,96547,1,10,3:0:0:0:
463,264,96797,1,2,0:2:0:0:
497,158,97047,5,6,3:2:0:0:
256,0,97547,1,10,3:2:0:0:
15,158,98047,1,2,3:2:0:0:
256,0,98547,1,10,3:2:0:0:
347,86,98797,2,0,P|294:129|181:131,1,165.000005035401,6|2,0:2|0:0,0:0:0:0:
115,217,99547,2,0,P|165:231|206:249,1,82.5000025177003,8|0,3:0|0:0,0:0:0:0:
280,318,100047,1,2,3:2:0:0:
280,318,100297,2,0,P|330:304|371:286,1,82.5000025177003,2|8,0:0|3:0,0:0:0:0:
477,342,100797,5,2,0:0:0:0:
477,342,100922,1,2,0:0:0:0:
477,342,101047,2,0,P|489:260|416:187,1,165.000005035401,6|10,3:2|3:2,0:0:0:0:
379,77,101797,2,0,P|331:141|343:221,1,165.000005035401,6|0,0:2|0:0,0:0:0:0:
409,317,102547,1,10,3:2:0:0:
287,349,102797,6,0,P|236:339|190:330,1,82.5000025177003,2|0,0:0|3:0,0:0:0:0:
127,280,103297,1,2,0:0:0:0:
209,231,103547,1,8,3:0:0:0:
209,231,103672,1,0,3:0:0:0:
209,231,103797,1,2,3:2:0:0:
125,165,104047,2,0,P|120:108|145:32,1,123.75000377655,0|0,3:0|3:0,0:0:0:0:
165,23,104547,2,0,L|251:37,1,82.5000025177003,8|0,3:0|3:3,0:0:0:0:
326,113,105047,5,4,3:2:0:0:
326,113,105297,1,0,0:0:0:0:
259,184,105547,1,8,3:0:0:0:
259,184,105797,1,0,0:0:0:0:
259,184,106047,1,0,3:0:0:0:
354,210,106297,2,0,L|449:199,1,75,2|8,0:0|3:0,0:0:0:0:
286,285,106797,2,0,L|118:252,1,150,2|0,0:0|0:0,0:0:0:0:
48,238,107547,1,8,3:0:0:0:
48,238,107797,1,0,0:0:0:0:
48,238,108047,1,0,3:0:0:0:
116,164,108297,1,0,0:0:0:0:
116,164,108547,1,8,3:0:0:0:
116,164,108797,1,0,0:0:0:0:
138,254,109047,5,4,3:2:0:0:
301,144,109547,2,0,P|316:102|294:-6,2,150,10|2|10,3:2|3:2|0:0,0:0:0:0:
211,240,110797,2,0,P|196:282|218:390,1,150,2|0,0:0|0:0,0:0:0:0:
303,325,111547,1,10,0:0:0:0:
303,325,111797,2,0,P|237:300|140:305,2,150,2|2|2,0:0|0:0|0:0,0:0:0:0:
409,371,113047,5,4,3:2:0:0:
409,371,113297,1,0,0:0:0:0:
409,371,113547,1,8,3:0:0:0:
409,371,113797,1,0,0:0:0:0:
376,262,114047,1,0,3:0:0:0:
376,262,114297,1,0,0:0:0:0:
376,262,114547,1,8,3:0:0:0:
376,262,114797,2,0,P|369:210|367:174,1,75,4|0,0:0|3:0,0:0:0:0:
298,118,115297,1,0,0:0:0:0:
298,118,115547,1,8,3:0:0:0:
298,118,115797,1,0,0:0:0:0:
280,217,116047,1,0,3:0:0:0:
280,217,116297,1,0,0:0:0:0:
280,217,116547,1,8,3:0:0:0:
367,187,116797,1,2,0:0:0:0:
337,94,117047,6,0,P|278:59|178:74,1,150,6|8,3:2|3:0,0:0:0:0:
178,172,117797,1,2,0:0:0:0:
178,172,118047,2,0,P|242:208|316:202,1,150,2|10,3:2|3:2,0:0:0:0:
419,222,118797,6,0,P|430:280|439:312,1,75,2|0,0:0|3:0,0:0:0:0:
315,241,119297,2,0,P|326:299|335:331,1,75,2|8,0:0|3:0,0:0:0:0:
211,260,119797,2,0,P|222:318|231:350,1,75,2|0,0:0|3:0,0:0:0:0:
118,278,120297,2,0,P|129:220|138:188,2,75,0|8|0,0:0|3:0|0:0,0:0:0:0:
51,328,121047,1,2,0:0:0:0:
127,222,137297,6,0,P|82:227|50:237,2,67.4999979400635
206,171,138047,1,0,0:0:0:0:
124,133,138297,1,0,3:0:0:0:
124,133,138422,1,0,3:0:0:0:
124,133,138547,1,2,3:2:0:0:
156,47,138797,1,2,3:2:0:0:
245,86,139047,2,0,P|284:80|322:72,1,67.4999979400635,2|2,0:3|0:3,0:0:0:0:
188,225,139547,6,0,P|152:174|165:71,1,165.000005035401,14|0,3:1|3:0,0:0:0:0:
291,1,140297,1,2,0:0:0:0:
268,158,140547,1,10,3:2:0:0:
389,88,140797,2,0,P|425:139|412:242,1,165.000005035401,2|2,0:0|0:0,0:0:0:0:
330,312,141547,2,0,P|262:292|220:290,1,82.5000025177003,8|2,3:0|0:0,0:0:0:0:
126,329,142047,1,0,3:0:0:0:
91,206,142297,1,2,0:0:0:0:
215,170,142547,1,10,3:0:0:0:
215,170,142797,1,2,0:3:0:0:
250,290,143047,1,6,3:2:0:0:
441,85,143547,6,0,P|384:73|272:93,2,165.000005035401,10|2|10,3:2|3:2|3:2,0:0:0:0:
350,210,144797,2,0,P|285:223|173:195,1,165.000005035401,2|0,0:2|0:0,0:0:0:0:
103,81,145547,2,0,P|148:71|201:77,1,82.5000025177003,8|0,3:0|0:0,0:0:0:0:
273,144,146047,1,2,3:3:0:0:
385,123,146297,1,2,0:2:0:0:
436,22,146547,1,10,3:0:0:0:
436,22,146797,1,2,0:2:0:0:
318,0,147047,5,6,3:2:0:0:
96,192,147547,1,10,3:2:0:0:
318,384,148047,1,2,3:2:0:0:
96,192,148547,1,10,3:2:0:0:
3,249,148797,2,0,P|71:230|191:235,1,165.000005035401,6|2,0:2|0:0,0:0:0:0:
254,300,149547,2,0,P|294:301|347:285,1,82.5000025177003,8|0,3:0|0:0,0:0:0:0:
394,204,150047,1,2,3:2:0:0:
394,204,150297,2,0,P|395:164|379:111,1,82.5000025177003,2|8,0:0|3:0,0:0:0:0:
452,21,150797,5,2,0:0:0:0:
452,21,150922,1,2,0:0:0:0:
452,21,151047,2,0,P|347:29|293:81,1,165.000005035401,6|10,3:2|3:2,0:0:0:0:
192,151,151797,2,0,P|185:70|227:0,1,165.000005035401,6|0,0:2|0:0,0:0:0:0:
303,65,152547,1,10,3:2:0:0:
208,131,152797,6,0,P|126:120|110:117,1,82.5000025177003,2|0,0:0|3:0,0:0:0:0:
43,183,153297,1,2,0:0:0:0:
100,270,153547,1,2,3:2:0:0:
100,270,153672,2,0,P|182:281|198:284,1,82.5000025177003,0|0,3:0|3:0,0:0:0:0:
215,262,154047,2,0,P|297:273|313:276,1,82.5000025177003,14|0,3:3|3:0,0:0:0:0:
322,305,154422,1,0,3:0:0:0:
322,305,154547,1,10,3:2:0:0:
421,226,154797,1,2,3:2:0:0:
298,165,155047,6,0,P|227:163|134:228,1,179.999994506836,6|8,3:2|3:0,0:0:0:0:
29,275,155797,1,2,0:0:0:0:
29,275,155922,1,2,0:0:0:0:
29,275,156047,2,0,P|39:218|35:172,1,89.9999972534181,2|0,3:2|0:0,0:0:0:0:
126,114,156547,1,8,3:0:0:0:
221,186,156797,2,0,P|312:203|399:133,1,179.999994506836,2|0,0:0|0:0,0:0:0:0:
357,5,157547,1,10,3:2:0:0:
213,45,157797,1,2,0:0:0:0:
249,181,158047,1,2,3:2:0:0:
402,149,158297,1,2,0:0:0:0:
402,149,158422,1,0,0:0:0:0:
402,149,158547,2,0,P|416:208|410:251,1,89.9999972534181,10|2,3:3|0:3,0:0:0:0:
457,62,159047,6,0,P|379:48|293:119,1,179.999994506836,6|8,3:2|3:0,0:0:0:0:
255,218,159797,1,2,0:0:0:0:
255,218,159922,1,2,0:0:0:0:
255,218,160047,2,0,L|143:233,1,89.9999972534181,2|0,3:2|0:0,0:0:0:0:
144,259,160422,2,0,L|32:274,1,89.9999972534181,2|0,0:0|0:0,0:0:0:0:
21,249,160797,6,0,P|5:188|36:72,1,179.999994506836,2|0,0:0|0:0,0:0:0:0:
143,20,161547,2,0,P|194:34|239:39,1,89.9999972534181,8|0,3:0|0:0,0:0:0:0:
314,127,162047,1,2,3:0:0:0:
243,226,162297,1,2,0:0:0:0:
130,187,162547,1,10,3:0:0:0:
130,187,162797,1,2,0:0:0:0:
43,264,163047,5,6,3:2:0:0:
256,12,163547,1,10,3:2:0:0:
469,264,164047,1,2,3:2:0:0:
256,12,164547,1,10,3:2:0:0:
163,109,164797,2,0,P|206:147|345:152,1,179.999994506836,6|2,0:2|0:0,0:0:0:0:
393,270,165547,2,0,P|330:268|276:278,1,89.9999972534181,8|0,3:0|0:0,0:0:0:0:
201,323,166047,1,2,3:2:0:0:
201,323,166297,2,0,P|200:252|191:212,1,89.9999972534181,2|8,0:0|3:0,0:0:0:0:
97,145,166797,5,2,0:0:0:0:
97,145,166922,1,2,0:0:0:0:
97,145,167047,2,0,P|168:99|277:122,1,179.999994506836,6|10,3:2|3:2,0:0:0:0:
363,234,167797,2,0,P|275:246|200:199,1,179.999994506836,6|0,0:2|0:0,0:0:0:0:
161,89,168547,1,10,3:2:0:0:
280,120,168797,6,0,P|334:111|386:104,1,89.9999972534181,2|0,0:2|3:0,0:0:0:0:
275,228,169297,2,0,P|329:219|381:212,1,89.9999972534181,2|8,0:0|3:0,0:0:0:0:
270,336,169797,1,0,0:0:0:0:
270,336,169922,1,0,0:0:0:0:
270,336,170047,2,0,P|324:327|376:320,1,89.9999972534181,0|0,3:0|0:0,0:0:0:0:
451,267,170547,1,8,3:0:0:0:
363,214,170797,1,2,0:0:0:0:
