osu file format v14

[General]
AudioFilename: audio.ogg
AudioLeadIn: 0
PreviewTime: 69396
Countdown: 0
SampleSet: Soft
StackLeniency: 0.7
Mode: 3
LetterboxInBreaks: 0
SpecialStyle: 0
WidescreenStoryboard: 1

[Editor]
DistanceSpacing: 0.3
BeatDivisor: 4
GridSize: 32
TimelineZoom: 1.1

[Metadata]
Title:DAN DAN Kokoro Hikareteku (TV Size)
TitleUnicode:DAN DAN 心魅かれてく (TV Size)
Artist:FIELD OF VIEW
ArtistUnicode:FIELD OF VIEW
Creator:Kibitz
Version:Tribute
Source:DRAGON BALL GT
Tags:anime japanese dbgt dragonball 1996 op opening 1 one j-rock jrock rock ドラゴンボール ジーティー toei animation pan パン son goku 孫 そん 悟空 ごくう future trunks 未み来らいのトランクス フィールド・オブ・ビュー 浅岡雄也 Asaoka Yuuya Oda Takashi 小田孝 Kohashi Takuto 小橋琢人 Niitsu Kenji 新津健二 Abe Jun 安部潤 Akira Toriyama 鳥山明
BeatmapID:4522922
BeatmapSetID:2147193

[Difficulty]
HPDrainRate:8
CircleSize:4
OverallDifficulty:8
ApproachRate:5
SliderMultiplier:1.4
SliderTickRate:1

[Events]
//Background and Video events
Video,-460,"video.mp4"
0,0,"Legend.png",0,0
//Break Periods
//Storyboard Layer 0 (Background)
//Storyboard Layer 1 (Fail)
//Storyboard Layer 2 (Pass)
//Storyboard Layer 3 (Foreground)
//Storyboard Layer 4 (Overlay)
//Storyboard Sound Samples

[TimingPoints]
933,451.161741484322,4,2,1,70,1,0
4542,-100,4,2,1,70,0,1
18979,-100,4,2,1,70,0,0
69509,-100,4,2,1,70,0,1
83044,-100,4,2,1,70,0,0
83946,-100,4,2,1,70,0,1
98383,-100,4,2,1,70,0,0

[HitObjects]
448,192,707,5,0,0:0:0:0:
320,192,820,1,0,0:0:0:0:
192,192,933,1,0,0:0:0:0:
64,192,933,128,0,2737:0:0:0:0:
320,192,1158,1,0,0:0:0:0:
448,192,1158,1,0,0:0:0:0:
192,192,1384,1,0,0:0:0:0:
448,192,1384,1,0,0:0:0:0:
192,192,1835,1,0,0:0:0:0:
320,192,1835,1,0,0:0:0:0:
448,192,2060,1,0,0:0:0:0:
192,192,2060,1,0,0:0:0:0:
320,192,2286,1,0,0:0:0:0:
448,192,2286,1,0,0:0:0:0:
320,192,2512,1,0,0:0:0:0:
192,192,2737,1,0,0:0:0:0:
448,192,2737,1,0,0:0:0:0:
320,192,2963,128,0,3188:0:0:0:0:
64,192,3188,128,0,3414:0:0:0:0:
192,192,3188,1,0,0:0:0:0:
448,192,3414,128,0,3639:0:0:0:0:
64,192,3639,1,0,0:0:0:0:
192,192,3639,1,0,0:0:0:0:
320,192,3752,1,0,0:0:0:0:
448,192,3865,1,0,0:0:0:0:
64,192,3865,1,0,0:0:0:0:
192,192,3978,1,0,0:0:0:0:
448,192,4091,1,0,0:0:0:0:
320,192,4091,1,0,0:0:0:0:
192,192,4203,1,0,0:0:0:0:
448,192,4316,1,0,0:0:0:0:
64,192,4316,1,0,0:0:0:0:
320,192,4429,1,0,0:0:0:0:
192,192,4542,128,0,4767:0:0:0:0:
64,192,4542,128,0,4767:0:0:0:0:
448,192,4767,1,0,0:0:0:0:
320,192,4767,1,0,0:0:0:0:
64,192,4993,128,0,5331:0:0:0:0:
192,192,4993,128,0,5331:0:0:0:0:
320,192,5444,1,0,0:0:0:0:
448,192,5444,128,0,5670:0:0:0:0:
320,192,5670,128,0,5895:0:0:0:0:
192,192,5670,1,0,0:0:0:0:
192,192,5895,128,0,6121:0:0:0:0:
64,192,5895,1,0,0:0:0:0:
64,192,6121,128,0,6346:0:0:0:0:
448,192,6346,128,0,6798:0:0:0:0:
320,192,6346,1,0,0:0:0:0:
64,192,6572,128,0,6798:0:0:0:0:
320,192,6798,128,0,7249:0:0:0:0:
192,192,6798,1,0,0:0:0:0:
448,192,7023,128,0,7249:0:0:0:0:
192,192,7249,128,0,7700:0:0:0:0:
64,192,7249,1,0,0:0:0:0:
320,192,7474,128,0,7700:0:0:0:0:
64,192,7700,128,0,7926:0:0:0:0:
448,192,7700,1,0,0:0:0:0:
192,192,7926,1,0,0:0:0:0:
320,192,8151,128,0,8377:0:0:0:0:
448,192,8151,128,0,8377:0:0:0:0:
192,192,8377,1,0,0:0:0:0:
64,192,8377,1,0,0:0:0:0:
320,192,8602,128,0,8941:0:0:0:0:
448,192,8602,128,0,8941:0:0:0:0:
192,192,9053,1,0,0:0:0:0:
64,192,9053,128,0,9279:0:0:0:0:
192,192,9279,128,0,9505:0:0:0:0:
320,192,9279,1,0,0:0:0:0:
320,192,9505,128,0,9730:0:0:0:0:
448,192,9505,1,0,0:0:0:0:
448,192,9730,128,0,9956:0:0:0:0:
64,192,9956,128,0,10407:0:0:0:0:
192,192,9956,1,0,0:0:0:0:
448,192,10181,128,0,10407:0:0:0:0:
192,192,10407,128,0,10858:0:0:0:0:
320,192,10407,1,0,0:0:0:0:
64,192,10632,128,0,10858:0:0:0:0:
320,192,10858,128,0,11309:0:0:0:0:
448,192,10858,1,0,0:0:0:0:
192,192,11084,128,0,11309:0:0:0:0:
448,192,11309,128,0,11535:0:0:0:0:
64,192,11309,1,0,0:0:0:0:
320,192,11535,1,0,0:0:0:0:
192,192,11760,1,0,0:0:0:0:
64,192,11760,1,0,0:0:0:0:
448,192,11760,1,0,0:0:0:0:
64,192,11986,1,0,0:0:0:0:
320,192,12212,1,0,0:0:0:0:
448,192,12212,128,0,12324:0:0:0:0:
448,192,12437,128,0,12663:0:0:0:0:
64,192,12663,128,0,12888:0:0:0:0:
192,192,12663,1,0,0:0:0:0:
320,192,12888,1,0,0:0:0:0:
192,192,13114,128,0,13565:0:0:0:0:
64,192,13114,1,0,0:0:0:0:
448,192,13339,1,0,0:0:0:0:
320,192,13565,128,0,14467:0:0:0:0:
64,192,13565,1,0,0:0:0:0:
192,192,13791,1,0,0:0:0:0:
64,192,14016,1,0,0:0:0:0:
448,192,14016,1,0,0:0:0:0:
448,192,14467,128,0,14693:0:0:0:0:
192,192,14467,1,0,0:0:0:0:
320,192,14693,1,0,0:0:0:0:
64,192,14919,128,0,15031:0:0:0:0:
192,192,14919,1,0,0:0:0:0:
64,192,15144,128,0,15370:0:0:0:0:
320,192,15370,1,0,0:0:0:0:
448,192,15370,128,0,15821:0:0:0:0:
64,192,15595,1,0,0:0:0:0:
320,192,15821,128,0,16272:0:0:0:0:
192,192,15821,1,0,0:0:0:0:
448,192,16046,1,0,0:0:0:0:
192,192,16272,128,0,16723:0:0:0:0:
64,192,16272,1,0,0:0:0:0:
320,192,16498,1,0,0:0:0:0:
64,192,16723,128,0,17174:0:0:0:0:
448,192,16723,1,0,0:0:0:0:
192,192,16949,1,0,0:0:0:0:
448,192,17174,128,0,17625:0:0:0:0:
320,192,17174,1,0,0:0:0:0:
64,192,17400,1,0,0:0:0:0:
192,192,17625,1,0,0:0:0:0:
320,192,17625,1,0,0:0:0:0:
192,192,17851,1,0,0:0:0:0:
320,192,18077,1,0,0:0:0:0:
448,192,18077,1,0,0:0:0:0:
320,192,18302,1,0,0:0:0:0:
192,192,18302,1,0,0:0:0:0:
64,192,18528,1,0,0:0:0:0:
192,192,18528,1,0,0:0:0:0:
320,192,18753,1,0,0:0:0:0:
448,192,18753,1,0,0:0:0:0:
192,192,18979,1,0,0:0:0:0:
448,192,18979,128,0,20784:0:0:0:0:
64,192,18979,128,0,19205:0:0:0:0:
320,192,19205,128,0,19430:0:0:0:0:
192,192,19430,128,0,19656:0:0:0:0:
64,192,19430,1,0,0:0:0:0:
64,192,19656,128,0,19881:0:0:0:0:
192,192,19881,128,0,20107:0:0:0:0:
320,192,19881,1,0,0:0:0:0:
320,192,20107,128,0,20332:0:0:0:0:
64,192,20332,128,0,20558:0:0:0:0:
192,192,20332,1,0,0:0:0:0:
320,192,20558,128,0,20784:0:0:0:0:
64,192,20784,128,0,22137:0:0:0:0:
192,192,20784,128,0,21009:0:0:0:0:
448,192,21009,128,0,21235:0:0:0:0:
320,192,21235,128,0,21460:0:0:0:0:
192,192,21235,1,0,0:0:0:0:
192,192,21460,128,0,21686:0:0:0:0:
320,192,21686,128,0,21912:0:0:0:0:
448,192,21686,1,0,0:0:0:0:
192,192,21912,128,0,22137:0:0:0:0:
448,192,22137,128,0,22363:0:0:0:0:
320,192,22137,1,0,0:0:0:0:
192,192,22363,128,0,22588:0:0:0:0:
448,192,22588,128,0,25295:0:0:0:0:
64,192,22588,128,0,23039:0:0:0:0:
320,192,22588,1,0,0:0:0:0:
192,192,23039,128,0,23265:0:0:0:0:
320,192,23265,128,0,23491:0:0:0:0:
64,192,23491,128,0,23716:0:0:0:0:
192,192,23716,128,0,23942:0:0:0:0:
320,192,23942,128,0,24167:0:0:0:0:
64,192,24167,128,0,24393:0:0:0:0:
320,192,24393,128,0,24618:0:0:0:0:
192,192,24618,128,0,24844:0:0:0:0:
64,192,24844,128,0,25070:0:0:0:0:
320,192,25070,128,0,25295:0:0:0:0:
192,192,25295,1,0,0:0:0:0:
64,192,25295,128,0,25634:0:0:0:0:
192,192,25521,128,0,25634:0:0:0:0:
320,192,25634,1,0,0:0:0:0:
448,192,25634,1,0,0:0:0:0:
64,192,25746,1,0,0:0:0:0:
192,192,25746,1,0,0:0:0:0:
320,192,25972,1,0,0:0:0:0:
448,192,25972,1,0,0:0:0:0:
448,192,26198,1,0,0:0:0:0:
64,192,26198,1,0,0:0:0:0:
192,192,26198,1,0,0:0:0:0:
320,192,26649,1,0,0:0:0:0:
448,192,26649,1,0,0:0:0:0:
192,192,26649,1,0,0:0:0:0:
64,192,26874,128,0,27325:0:0:0:0:
448,192,27100,128,0,27325:0:0:0:0:
320,192,27325,128,0,27438:0:0:0:0:
320,192,27551,128,0,28002:0:0:0:0:
64,192,27551,1,0,0:0:0:0:
192,192,27777,128,0,28002:0:0:0:0:
64,192,28002,128,0,28453:0:0:0:0:
448,192,28002,1,0,0:0:0:0:
448,192,28453,128,0,28679:0:0:0:0:
320,192,28453,1,0,0:0:0:0:
192,192,28679,128,0,29130:0:0:0:0:
64,192,28905,1,0,0:0:0:0:
320,192,29130,128,0,29581:0:0:0:0:
448,192,29130,128,0,29356:0:0:0:0:
192,192,29356,1,0,0:0:0:0:
64,192,29356,1,0,0:0:0:0:
64,192,29581,1,0,0:0:0:0:
192,192,29807,128,0,30032:0:0:0:0:
448,192,29807,1,0,0:0:0:0:
320,192,30032,1,0,0:0:0:0:
448,192,30258,1,0,0:0:0:0:
64,192,30258,1,0,0:0:0:0:
320,192,30484,128,0,30709:0:0:0:0:
64,192,30709,128,0,30822:0:0:0:0:
192,192,30709,1,0,0:0:0:0:
64,192,30935,128,0,31160:0:0:0:0:
448,192,31160,128,0,31386:0:0:0:0:
320,192,31160,1,0,0:0:0:0:
192,192,31386,128,0,31611:0:0:0:0:
320,192,31611,128,0,31724:0:0:0:0:
64,192,31611,1,0,0:0:0:0:
320,192,31837,128,0,32063:0:0:0:0:
64,192,32063,128,0,32288:0:0:0:0:
192,192,32063,1,0,0:0:0:0:
448,192,32288,128,0,32965:0:0:0:0:
192,192,32514,1,0,0:0:0:0:
320,192,32739,1,0,0:0:0:0:
192,192,32965,128,0,33416:0:0:0:0:
64,192,32965,1,0,0:0:0:0:
320,192,33191,1,0,0:0:0:0:
64,192,33416,128,0,33867:0:0:0:0:
448,192,33416,1,0,0:0:0:0:
448,192,33642,1,0,0:0:0:0:
192,192,33867,1,0,0:0:0:0:
320,192,33867,1,0,0:0:0:0:
448,192,34093,128,0,34206:0:0:0:0:
448,192,34318,128,0,34544:0:0:0:0:
192,192,34318,1,0,0:0:0:0:
64,192,34544,1,0,0:0:0:0:
192,192,34770,128,0,34882:0:0:0:0:
320,192,34770,1,0,0:0:0:0:
192,192,34995,128,0,35221:0:0:0:0:
448,192,35221,128,0,35672:0:0:0:0:
320,192,35446,1,0,0:0:0:0:
64,192,35672,1,0,0:0:0:0:
192,192,35672,1,0,0:0:0:0:
320,192,35898,128,0,36123:0:0:0:0:
64,192,36123,128,0,36574:0:0:0:0:
192,192,36123,1,0,0:0:0:0:
320,192,36349,1,0,0:0:0:0:
448,192,36574,128,0,36687:0:0:0:0:
192,192,36574,1,0,0:0:0:0:
448,192,36800,128,0,37025:0:0:0:0:
320,192,37025,128,0,37477:0:0:0:0:
64,192,37025,1,0,0:0:0:0:
448,192,37251,1,0,0:0:0:0:
192,192,37477,128,0,37928:0:0:0:0:
64,192,37477,1,0,0:0:0:0:
448,192,37702,128,0,37928:0:0:0:0:
64,192,37928,128,0,38153:0:0:0:0:
320,192,38153,128,0,38605:0:0:0:0:
192,192,38379,128,0,38605:0:0:0:0:
64,192,38379,1,0,0:0:0:0:
448,192,38605,128,0,39281:0:0:0:0:
320,192,38830,128,0,39281:0:0:0:0:
192,192,39281,5,0,0:0:0:0:
64,192,39281,1,0,0:0:0:0:
192,192,39507,1,0,0:0:0:0:
320,192,39732,1,0,0:0:0:0:
448,192,39732,1,0,0:0:0:0:
64,192,39958,128,0,40184:0:0:0:0:
192,192,40184,128,0,40409:0:0:0:0:
448,192,40184,1,0,0:0:0:0:
320,192,40409,128,0,40635:0:0:0:0:
448,192,40635,128,0,41086:0:0:0:0:
64,192,40635,1,0,0:0:0:0:
192,192,40635,1,0,0:0:0:0:
64,192,41086,1,0,0:0:0:0:
320,192,41086,1,0,0:0:0:0:
192,192,41311,128,0,41763:0:0:0:0:
320,192,41537,128,0,41763:0:0:0:0:
64,192,41763,128,0,41988:0:0:0:0:
192,192,41988,1,0,0:0:0:0:
320,192,41988,1,0,0:0:0:0:
448,192,42214,128,0,42327:0:0:0:0:
448,192,42439,128,0,42891:0:0:0:0:
320,192,42439,1,0,0:0:0:0:
64,192,42891,128,0,43003:0:0:0:0:
192,192,42891,1,0,0:0:0:0:
64,192,43116,128,0,43567:0:0:0:0:
320,192,43342,1,0,0:0:0:0:
192,192,43567,128,0,44244:0:0:0:0:
320,192,43793,128,0,44244:0:0:0:0:
448,192,43793,1,0,0:0:0:0:
448,192,44244,128,0,44695:0:0:0:0:
320,192,44470,1,0,0:0:0:0:
64,192,44695,1,0,0:0:0:0:
192,192,44695,1,0,0:0:0:0:
320,192,44921,128,0,45146:0:0:0:0:
192,192,45146,128,0,45485:0:0:0:0:
64,192,45146,1,0,0:0:0:0:
448,192,45485,128,0,45823:0:0:0:0:
320,192,45598,1,0,0:0:0:0:
64,192,45823,128,0,46049:0:0:0:0:
320,192,46049,128,0,46274:0:0:0:0:
448,192,46049,1,0,0:0:0:0:
192,192,46274,128,0,46500:0:0:0:0:
448,192,46500,128,0,46951:0:0:0:0:
64,192,46500,1,0,0:0:0:0:
320,192,46725,1,0,0:0:0:0:
64,192,46951,128,0,47327:0:0:0:0:
192,192,46951,1,0,0:0:0:0:
320,192,47177,1,0,0:0:0:0:
192,192,47327,128,0,47628:0:0:0:0:
448,192,47402,1,0,0:0:0:0:
320,192,47628,128,0,47853:0:0:0:0:
448,192,47853,128,0,48304:0:0:0:0:
192,192,47853,1,0,0:0:0:0:
64,192,48304,1,0,0:0:0:0:
192,192,48304,1,0,0:0:0:0:
320,192,48530,1,0,0:0:0:0:
320,192,48756,1,0,0:0:0:0:
64,192,48981,128,0,49094:0:0:0:0:
64,192,49207,128,0,49432:0:0:0:0:
448,192,49207,1,0,0:0:0:0:
320,192,49432,128,0,49658:0:0:0:0:
192,192,49658,128,0,49884:0:0:0:0:
64,192,49658,1,0,0:0:0:0:
448,192,49884,128,0,50109:0:0:0:0:
320,192,50109,1,0,0:0:0:0:
192,192,50109,1,0,0:0:0:0:
320,192,50335,128,0,50786:0:0:0:0:
64,192,50560,128,0,50786:0:0:0:0:
192,192,50786,128,0,51237:0:0:0:0:
320,192,51011,1,0,0:0:0:0:
448,192,51011,1,0,0:0:0:0:
448,192,51237,128,0,51350:0:0:0:0:
64,192,51463,128,0,52365:0:0:0:0:
192,192,51463,1,0,0:0:0:0:
320,192,51688,1,0,0:0:0:0:
448,192,51914,1,0,0:0:0:0:
192,192,51914,128,0,52365:0:0:0:0:
448,192,52365,128,0,52591:0:0:0:0:
320,192,52591,128,0,52816:0:0:0:0:
192,192,52816,128,0,53042:0:0:0:0:
448,192,52816,1,0,0:0:0:0:
64,192,53042,128,0,53718:0:0:0:0:
320,192,53267,128,0,53718:0:0:0:0:
192,192,53718,1,0,0:0:0:0:
448,192,53718,1,0,0:0:0:0:
192,192,54170,128,0,54621:0:0:0:0:
64,192,54170,1,0,0:0:0:0:
448,192,54395,1,0,0:0:0:0:
320,192,54395,1,0,0:0:0:0:
320,192,54621,128,0,54846:0:0:0:0:
448,192,54621,1,0,0:0:0:0:
64,192,54846,1,0,0:0:0:0:
192,192,54846,128,0,54959:0:0:0:0:
320,192,54959,128,0,55072:0:0:0:0:
448,192,55072,1,0,0:0:0:0:
64,192,55072,128,0,55523:0:0:0:0:
192,192,55297,128,0,55523:0:0:0:0:
320,192,55523,1,0,0:0:0:0:
448,192,55523,1,0,0:0:0:0:
320,192,55749,128,0,55861:0:0:0:0:
192,192,55861,128,0,55974:0:0:0:0:
448,192,55974,128,0,56425:0:0:0:0:
320,192,55974,128,0,56200:0:0:0:0:
64,192,56200,1,0,0:0:0:0:
64,192,56425,1,0,0:0:0:0:
192,192,56425,1,0,0:0:0:0:
192,192,56651,128,0,56764:0:0:0:0:
320,192,56764,128,0,56877:0:0:0:0:
64,192,56877,128,0,57328:0:0:0:0:
192,192,56877,128,0,57102:0:0:0:0:
448,192,57102,1,0,0:0:0:0:
320,192,57328,1,0,0:0:0:0:
448,192,57328,1,0,0:0:0:0:
192,192,57553,128,0,57666:0:0:0:0:
64,192,57666,128,0,57779:0:0:0:0:
320,192,57779,128,0,58004:0:0:0:0:
192,192,58004,128,0,58230:0:0:0:0:
64,192,58230,128,0,58456:0:0:0:0:
320,192,58230,1,0,0:0:0:0:
448,192,58456,128,0,58568:0:0:0:0:
192,192,58568,128,0,58681:0:0:0:0:
320,192,58681,128,0,59132:0:0:0:0:
64,192,58681,128,0,58907:0:0:0:0:
448,192,58907,128,0,59132:0:0:0:0:
192,192,59132,1,0,0:0:0:0:
64,192,59132,1,0,0:0:0:0:
64,192,59358,128,0,59471:0:0:0:0:
192,192,59471,128,0,59584:0:0:0:0:
448,192,59584,128,0,60035:0:0:0:0:
320,192,59584,128,0,59809:0:0:0:0:
192,192,59809,128,0,60035:0:0:0:0:
320,192,60035,1,0,0:0:0:0:
64,192,60035,1,0,0:0:0:0:
320,192,60260,128,0,60373:0:0:0:0:
448,192,60373,128,0,60486:0:0:0:0:
64,192,60486,128,0,60937:0:0:0:0:
192,192,60486,128,0,60711:0:0:0:0:
320,192,60711,128,0,61163:0:0:0:0:
448,192,60937,1,0,0:0:0:0:
192,192,60937,1,0,0:0:0:0:
192,192,61163,128,0,61275:0:0:0:0:
320,192,61275,128,0,61388:0:0:0:0:
64,192,61388,128,0,61727:0:0:0:0:
448,192,61388,1,0,0:0:0:0:
192,192,61727,128,0,62065:0:0:0:0:
448,192,61839,1,0,0:0:0:0:
320,192,62065,128,0,62290:0:0:0:0:
64,192,62290,1,0,0:0:0:0:
448,192,62290,128,0,62967:0:0:0:0:
192,192,62516,128,0,62967:0:0:0:0:
64,192,62742,1,0,0:0:0:0:
320,192,62967,128,0,63193:0:0:0:0:
64,192,63193,128,0,63644:0:0:0:0:
448,192,63193,1,0,0:0:0:0:
192,192,63418,1,0,0:0:0:0:
320,192,63644,1,0,0:0:0:0:
448,192,63644,1,0,0:0:0:0:
448,192,63870,1,0,0:0:0:0:
64,192,64095,128,0,64434:0:0:0:0:
192,192,64095,1,0,0:0:0:0:
448,192,64434,128,0,64772:0:0:0:0:
320,192,64546,1,0,0:0:0:0:
192,192,64772,128,0,64997:0:0:0:0:
320,192,64997,128,0,65110:0:0:0:0:
64,192,64997,1,0,0:0:0:0:
320,192,65223,128,0,65449:0:0:0:0:
64,192,65449,128,0,65900:0:0:0:0:
448,192,65449,1,0,0:0:0:0:
192,192,65674,128,0,65900:0:0:0:0:
448,192,65900,128,0,66351:0:0:0:0:
320,192,65900,1,0,0:0:0:0:
64,192,66125,1,0,0:0:0:0:
320,192,66351,1,0,0:0:0:0:
192,192,66351,1,0,0:0:0:0:
64,192,66577,128,0,66689:0:0:0:0:
64,192,66802,128,0,67028:0:0:0:0:
448,192,66802,1,0,0:0:0:0:
192,192,67028,128,0,67253:0:0:0:0:
320,192,67253,128,0,67479:0:0:0:0:
64,192,67253,1,0,0:0:0:0:
448,192,67479,128,0,67704:0:0:0:0:
64,192,67704,128,0,68607:0:0:0:0:
320,192,67704,128,0,67930:0:0:0:0:
192,192,67930,128,0,68156:0:0:0:0:
448,192,68156,128,0,68381:0:0:0:0:
320,192,68381,128,0,68607:0:0:0:0:
448,192,68607,1,0,0:0:0:0:
192,192,68607,128,0,68832:0:0:0:0:
64,192,68832,1,0,0:0:0:0:
448,192,68832,1,0,0:0:0:0:
320,192,68945,1,0,0:0:0:0:
64,192,69058,1,0,0:0:0:0:
192,192,69058,1,0,0:0:0:0:
192,192,69284,1,0,0:0:0:0:
320,192,69284,1,0,0:0:0:0:
320,192,69509,128,0,69735:0:0:0:0:
448,192,69509,128,0,69735:0:0:0:0:
64,192,69735,1,0,0:0:0:0:
192,192,69735,1,0,0:0:0:0:
448,192,69960,128,0,70299:0:0:0:0:
320,192,69960,128,0,70299:0:0:0:0:
192,192,70411,1,0,0:0:0:0:
64,192,70411,128,0,70637:0:0:0:0:
192,192,70637,128,0,70863:0:0:0:0:
320,192,70637,1,0,0:0:0:0:
320,192,70863,128,0,71088:0:0:0:0:
448,192,70863,1,0,0:0:0:0:
448,192,71088,128,0,71314:0:0:0:0:
64,192,71314,128,0,71765:0:0:0:0:
192,192,71314,128,0,71539:0:0:0:0:
448,192,71539,128,0,71765:0:0:0:0:
192,192,71765,128,0,72216:0:0:0:0:
320,192,71765,128,0,71990:0:0:0:0:
64,192,71990,128,0,72216:0:0:0:0:
320,192,72216,128,0,72667:0:0:0:0:
448,192,72216,128,0,72442:0:0:0:0:
192,192,72442,128,0,72667:0:0:0:0:
448,192,72667,128,0,72893:0:0:0:0:
64,192,72667,128,0,72893:0:0:0:0:
320,192,72893,1,0,0:0:0:0:
192,192,73118,128,0,73344:0:0:0:0:
64,192,73118,128,0,73344:0:0:0:0:
320,192,73344,1,0,0:0:0:0:
448,192,73344,1,0,0:0:0:0:
192,192,73570,128,0,73908:0:0:0:0:
64,192,73570,128,0,73908:0:0:0:0:
320,192,74021,1,0,0:0:0:0:
448,192,74021,128,0,74246:0:0:0:0:
320,192,74246,128,0,74472:0:0:0:0:
192,192,74246,1,0,0:0:0:0:
192,192,74472,128,0,74697:0:0:0:0:
64,192,74472,1,0,0:0:0:0:
64,192,74697,128,0,74923:0:0:0:0:
448,192,74923,128,0,75374:0:0:0:0:
320,192,74923,128,0,75149:0:0:0:0:
64,192,75149,128,0,75374:0:0:0:0:
320,192,75374,128,0,75825:0:0:0:0:
192,192,75374,128,0,75600:0:0:0:0:
64,192,75600,128,0,75713:0:0:0:0:
64,192,75825,128,0,76277:0:0:0:0:
448,192,75825,128,0,76051:0:0:0:0:
320,192,76051,128,0,76277:0:0:0:0:
192,192,76277,128,0,76502:0:0:0:0:
448,192,76277,128,0,76502:0:0:0:0:
64,192,76502,1,0,0:0:0:0:
320,192,76728,1,0,0:0:0:0:
448,192,76728,1,0,0:0:0:0:
448,192,76953,1,0,0:0:0:0:
64,192,77179,128,0,77404:0:0:0:0:
320,192,77179,1,0,0:0:0:0:
192,192,77404,1,0,0:0:0:0:
448,192,77630,128,0,77856:0:0:0:0:
320,192,77630,1,0,0:0:0:0:
64,192,77856,1,0,0:0:0:0:
320,192,78081,128,0,78532:0:0:0:0:
448,192,78081,1,0,0:0:0:0:
64,192,78307,1,0,0:0:0:0:
192,192,78532,128,0,78983:0:0:0:0:
448,192,78532,1,0,0:0:0:0:
320,192,78758,1,0,0:0:0:0:
64,192,78983,1,0,0:0:0:0:
448,192,78983,128,0,79435:0:0:0:0:
320,192,79209,128,0,79435:0:0:0:0:
192,192,79435,1,0,0:0:0:0:
64,192,79435,1,0,0:0:0:0:
64,192,79660,1,0,0:0:0:0:
448,192,79886,128,0,79999:0:0:0:0:
320,192,79886,1,0,0:0:0:0:
448,192,80111,128,0,80337:0:0:0:0:
64,192,80337,128,0,80788:0:0:0:0:
192,192,80337,128,0,80563:0:0:0:0:
448,192,80563,1,0,0:0:0:0:
192,192,80788,128,0,81239:0:0:0:0:
320,192,80788,128,0,81014:0:0:0:0:
64,192,81014,1,0,0:0:0:0:
320,192,81239,128,0,81690:0:0:0:0:
448,192,81239,128,0,81465:0:0:0:0:
192,192,81465,1,0,0:0:0:0:
448,192,81690,128,0,82142:0:0:0:0:
64,192,81690,128,0,81916:0:0:0:0:
320,192,81916,1,0,0:0:0:0:
64,192,82142,128,0,82593:0:0:0:0:
192,192,82142,1,0,0:0:0:0:
448,192,82367,1,0,0:0:0:0:
320,192,82593,1,0,0:0:0:0:
192,192,82593,1,0,0:0:0:0:
448,192,82818,5,0,0:0:0:0:
192,192,82818,128,0,83044:0:0:0:0:
64,192,83044,5,0,0:0:0:0:
448,192,83044,1,0,0:0:0:0:
320,192,83157,1,0,0:0:0:0:
64,192,83270,1,0,0:0:0:0:
192,192,83270,1,0,0:0:0:0:
320,192,83495,1,0,0:0:0:0:
448,192,83495,1,0,0:0:0:0:
192,192,83721,5,0,0:0:0:0:
64,192,83721,1,0,0:0:0:0:
320,192,83833,5,0,0:0:0:0:
448,192,83833,1,0,0:0:0:0:
192,192,83946,128,0,84172:0:0:0:0:
64,192,83946,128,0,84172:0:0:0:0:
448,192,84172,1,0,0:0:0:0:
320,192,84172,1,0,0:0:0:0:
64,192,84397,128,0,84736:0:0:0:0:
192,192,84397,128,0,84736:0:0:0:0:
320,192,84849,1,0,0:0:0:0:
448,192,84849,128,0,85074:0:0:0:0:
320,192,85074,128,0,85300:0:0:0:0:
192,192,85074,1,0,0:0:0:0:
192,192,85300,128,0,85525:0:0:0:0:
64,192,85300,1,0,0:0:0:0:
64,192,85525,128,0,85751:0:0:0:0:
448,192,85751,128,0,86202:0:0:0:0:
320,192,85751,128,0,85976:0:0:0:0:
64,192,85976,128,0,86202:0:0:0:0:
320,192,86202,128,0,86653:0:0:0:0:
192,192,86202,128,0,86428:0:0:0:0:
448,192,86428,128,0,86653:0:0:0:0:
192,192,86653,128,0,87104:0:0:0:0:
64,192,86653,128,0,86879:0:0:0:0:
320,192,86879,128,0,87104:0:0:0:0:
64,192,87104,128,0,87330:0:0:0:0:
448,192,87104,128,0,87330:0:0:0:0:
192,192,87330,1,0,0:0:0:0:
320,192,87556,128,0,87781:0:0:0:0:
448,192,87556,128,0,87781:0:0:0:0:
192,192,87781,1,0,0:0:0:0:
64,192,87781,1,0,0:0:0:0:
320,192,88007,128,0,88345:0:0:0:0:
448,192,88007,128,0,88345:0:0:0:0:
192,192,88458,1,0,0:0:0:0:
64,192,88458,128,0,88683:0:0:0:0:
192,192,88683,128,0,88909:0:0:0:0:
320,192,88683,1,0,0:0:0:0:
320,192,88909,128,0,89135:0:0:0:0:
448,192,88909,1,0,0:0:0:0:
448,192,89135,128,0,89360:0:0:0:0:
64,192,89360,128,0,89811:0:0:0:0:
192,192,89360,128,0,89586:0:0:0:0:
448,192,89586,128,0,89811:0:0:0:0:
192,192,89811,128,0,90263:0:0:0:0:
320,192,89811,128,0,90037:0:0:0:0:
64,192,90037,128,0,90263:0:0:0:0:
320,192,90263,128,0,90714:0:0:0:0:
448,192,90263,128,0,90488:0:0:0:0:
192,192,90488,128,0,90714:0:0:0:0:
448,192,90714,128,0,90939:0:0:0:0:
64,192,90714,128,0,90939:0:0:0:0:
320,192,90939,1,0,0:0:0:0:
192,192,91165,1,0,0:0:0:0:
64,192,91165,1,0,0:0:0:0:
64,192,91390,1,0,0:0:0:0:
320,192,91616,1,0,0:0:0:0:
448,192,91616,128,0,91729:0:0:0:0:
448,192,91842,128,0,92067:0:0:0:0:
64,192,92067,128,0,92293:0:0:0:0:
192,192,92067,1,0,0:0:0:0:
320,192,92293,1,0,0:0:0:0:
192,192,92518,128,0,92969:0:0:0:0:
64,192,92518,1,0,0:0:0:0:
448,192,92744,1,0,0:0:0:0:
320,192,92969,128,0,93872:0:0:0:0:
64,192,92969,1,0,0:0:0:0:
192,192,93195,1,0,0:0:0:0:
448,192,93421,1,0,0:0:0:0:
64,192,93421,128,0,93872:0:0:0:0:
448,192,93872,128,0,94097:0:0:0:0:
192,192,93872,1,0,0:0:0:0:
320,192,94097,1,0,0:0:0:0:
64,192,94323,128,0,94436:0:0:0:0:
192,192,94323,1,0,0:0:0:0:
64,192,94549,128,0,94774:0:0:0:0:
448,192,94774,128,0,95225:0:0:0:0:
320,192,94774,128,0,95000:0:0:0:0:
64,192,95000,1,0,0:0:0:0:
320,192,95225,128,0,95676:0:0:0:0:
192,192,95225,128,0,95451:0:0:0:0:
448,192,95451,1,0,0:0:0:0:
192,192,95676,128,0,96128:0:0:0:0:
64,192,95676,128,0,95902:0:0:0:0:
320,192,95902,1,0,0:0:0:0:
64,192,96128,128,0,96579:0:0:0:0:
448,192,96128,128,0,96353:0:0:0:0:
192,192,96353,1,0,0:0:0:0:
448,192,96579,128,0,97030:0:0:0:0:
320,192,96579,128,0,96804:0:0:0:0:
64,192,96804,1,0,0:0:0:0:
192,192,97030,1,0,0:0:0:0:
320,192,97030,1,0,0:0:0:0:
192,192,97256,1,0,0:0:0:0:
320,192,97481,1,0,0:0:0:0:
448,192,97481,1,0,0:0:0:0:
320,192,97707,1,0,0:0:0:0:
192,192,97707,1,0,0:0:0:0:
64,192,97932,1,0,0:0:0:0:
192,192,97932,1,0,0:0:0:0:
320,192,98158,1,0,0:0:0:0:
448,192,98158,1,0,0:0:0:0:
192,192,98383,1,0,0:0:0:0:
448,192,98383,128,0,100188:0:0:0:0:
64,192,98383,128,0,98609:0:0:0:0:
320,192,98609,128,0,98835:0:0:0:0:
192,192,98835,128,0,99060:0:0:0:0:
64,192,98835,1,0,0:0:0:0:
64,192,99060,128,0,99286:0:0:0:0:
192,192,99286,128,0,99511:0:0:0:0:
320,192,99286,1,0,0:0:0:0:
320,192,99511,128,0,99737:0:0:0:0:
64,192,99737,128,0,99963:0:0:0:0:
192,192,99737,1,0,0:0:0:0:
320,192,99963,128,0,100188:0:0:0:0:
64,192,100188,128,0,101542:0:0:0:0:
192,192,100188,128,0,100414:0:0:0:0:
448,192,100414,128,0,100639:0:0:0:0:
320,192,100639,128,0,100865:0:0:0:0:
192,192,100639,1,0,0:0:0:0:
192,192,100865,128,0,101090:0:0:0:0:
320,192,101090,128,0,101316:0:0:0:0:
448,192,101090,1,0,0:0:0:0:
192,192,101316,128,0,101542:0:0:0:0:
448,192,101542,128,0,101767:0:0:0:0:
320,192,101542,1,0,0:0:0:0:
192,192,101767,128,0,101993:0:0:0:0:
448,192,101993,128,0,102895:0:0:0:0:
64,192,101993,128,0,102444:0:0:0:0:
320,192,101993,1,0,0:0:0:0:
192,192,102218,1,0,0:0:0:0:
192,192,102444,1,0,0:0:0:0:
320,192,102444,1,0,0:0:0:0:
320,192,102669,1,0,0:0:0:0:
64,192,102895,128,0,103121:0:0:0:0:
192,192,102895,1,0,0:0:0:0:
192,192,103121,128,0,103346:0:0:0:0:
448,192,103121,1,0,0:0:0:0:
320,192,103346,128,0,103572:0:0:0:0:
64,192,103346,1,0,0:0:0:0:
448,192,103572,128,0,107407:0:0:0:0:
64,192,103572,128,0,107407:0:0:0:0:
192,192,103572,128,0,107407:0:0:0:0:
