osu file format v14

[General]
AudioFilename: audio.ogg
AudioLeadIn: 0
PreviewTime: 69396
Countdown: 0
SampleSet: Soft
StackLeniency: 0.7
Mode: 3
LetterboxInBreaks: 0
SpecialStyle: 0
WidescreenStoryboard: 1

[Editor]
DistanceSpacing: 0.3
BeatDivisor: 4
GridSize: 32
TimelineZoom: 1.8

[Metadata]
Title:DAN DAN Kokoro Hikareteku (TV Size)
TitleUnicode:DAN DAN 心魅かれてく (TV Size)
Artist:FIELD OF VIEW
ArtistUnicode:FIELD OF VIEW
Creator:Kibitz
Version:Normal
Source:DRAGON BALL GT
Tags:anime japanese dbgt dragonball 1996 op opening 1 one j-rock jrock rock ドラゴンボール ジーティー toei animation pan パン son goku 孫 そん 悟空 ごくう future trunks 未み来らいのトランクス フィールド・オブ・ビュー 浅岡雄也 Asaoka Yuuya Oda Takashi 小田孝 Kohashi Takuto 小橋琢人 Niitsu Kenji 新津健二 Abe Jun 安部潤 Akira Toriyama 鳥山明
BeatmapID:4522920
BeatmapSetID:2147193

[Difficulty]
HPDrainRate:7
CircleSize:4
OverallDifficulty:7
ApproachRate:5
SliderMultiplier:1.4
SliderTickRate:1

[Events]
//Background and Video events
0,0,"pan bg.jpg",0,0
Video,-460,"video.mp4"
//Break Periods
//Storyboard Layer 0 (Background)
//Storyboard Layer 1 (Fail)
//Storyboard Layer 2 (Pass)
//Storyboard Layer 3 (Foreground)
//Storyboard Layer 4 (Overlay)
//Storyboard Sound Samples

[TimingPoints]
933,451.161741484322,4,2,1,70,1,0
4542,-100,4,2,1,70,0,1
18979,-100,4,2,1,70,0,0
69509,-100,4,2,1,70,0,1
83044,-100,4,2,1,70,0,0
83946,-100,4,2,1,70,0,1
98383,-100,4,2,1,70,0,0

[HitObjects]
64,192,707,5,0,0:0:0:0:
192,192,820,1,0,0:0:0:0:
320,192,933,1,0,0:0:0:0:
448,192,933,128,0,2737:0:0:0:0:
64,192,1158,1,0,0:0:0:0:
192,192,1384,1,0,0:0:0:0:
64,192,1835,1,0,0:0:0:0:
192,192,2060,1,0,0:0:0:0:
320,192,2286,1,0,0:0:0:0:
192,192,2512,1,0,0:0:0:0:
64,192,2737,1,0,0:0:0:0:
320,192,2963,128,0,3188:0:0:0:0:
192,192,3188,128,0,3414:0:0:0:0:
320,192,3414,128,0,3639:0:0:0:0:
64,192,3639,128,0,3865:0:0:0:0:
192,192,3639,1,0,0:0:0:0:
448,192,3865,128,0,4091:0:0:0:0:
320,192,3865,1,0,0:0:0:0:
64,192,4091,128,0,4316:0:0:0:0:
192,192,4091,1,0,0:0:0:0:
448,192,4316,128,0,4542:0:0:0:0:
320,192,4316,1,0,0:0:0:0:
64,192,4542,1,0,0:0:0:0:
192,192,4542,128,0,4767:0:0:0:0:
192,192,4993,128,0,5219:0:0:0:0:
64,192,4993,1,0,0:0:0:0:
448,192,5444,128,0,5670:0:0:0:0:
192,192,5444,1,0,0:0:0:0:
320,192,5670,128,0,5895:0:0:0:0:
192,192,5895,128,0,6121:0:0:0:0:
448,192,5895,1,0,0:0:0:0:
64,192,6121,128,0,6346:0:0:0:0:
448,192,6346,128,0,6798:0:0:0:0:
320,192,6346,1,0,0:0:0:0:
64,192,6572,1,0,0:0:0:0:
320,192,6798,128,0,7249:0:0:0:0:
192,192,6798,1,0,0:0:0:0:
448,192,7023,1,0,0:0:0:0:
192,192,7249,128,0,7700:0:0:0:0:
64,192,7249,1,0,0:0:0:0:
320,192,7474,1,0,0:0:0:0:
64,192,7700,128,0,8151:0:0:0:0:
448,192,7700,1,0,0:0:0:0:
192,192,7926,1,0,0:0:0:0:
320,192,8151,128,0,8377:0:0:0:0:
448,192,8151,1,0,0:0:0:0:
320,192,8602,128,0,8828:0:0:0:0:
448,192,8602,1,0,0:0:0:0:
64,192,9053,128,0,9279:0:0:0:0:
320,192,9053,1,0,0:0:0:0:
192,192,9279,128,0,9505:0:0:0:0:
320,192,9505,128,0,9730:0:0:0:0:
64,192,9505,1,0,0:0:0:0:
448,192,9730,128,0,9956:0:0:0:0:
64,192,9956,128,0,10407:0:0:0:0:
192,192,9956,1,0,0:0:0:0:
448,192,10181,1,0,0:0:0:0:
192,192,10407,128,0,10858:0:0:0:0:
320,192,10407,1,0,0:0:0:0:
64,192,10632,1,0,0:0:0:0:
320,192,10858,128,0,11309:0:0:0:0:
448,192,10858,1,0,0:0:0:0:
192,192,11084,1,0,0:0:0:0:
448,192,11309,128,0,11760:0:0:0:0:
64,192,11309,1,0,0:0:0:0:
320,192,11535,1,0,0:0:0:0:
192,192,11760,1,0,0:0:0:0:
64,192,11760,1,0,0:0:0:0:
64,192,12212,128,0,12437:0:0:0:0:
448,192,12212,1,0,0:0:0:0:
192,192,12437,128,0,12663:0:0:0:0:
320,192,12663,128,0,13114:0:0:0:0:
64,192,12663,1,0,0:0:0:0:
448,192,13114,128,0,13565:0:0:0:0:
64,192,13114,1,0,0:0:0:0:
192,192,13339,1,0,0:0:0:0:
64,192,13565,128,0,14467:0:0:0:0:
320,192,13565,1,0,0:0:0:0:
192,192,13791,1,0,0:0:0:0:
448,192,14016,1,0,0:0:0:0:
448,192,14467,128,0,14693:0:0:0:0:
320,192,14467,1,0,0:0:0:0:
192,192,14693,1,0,0:0:0:0:
320,192,14919,128,0,15144:0:0:0:0:
64,192,14919,1,0,0:0:0:0:
192,192,15144,128,0,15370:0:0:0:0:
64,192,15370,128,0,15821:0:0:0:0:
320,192,15370,1,0,0:0:0:0:
448,192,15595,1,0,0:0:0:0:
320,192,15821,128,0,16272:0:0:0:0:
192,192,15821,1,0,0:0:0:0:
64,192,16046,1,0,0:0:0:0:
192,192,16272,128,0,16723:0:0:0:0:
448,192,16272,1,0,0:0:0:0:
320,192,16498,1,0,0:0:0:0:
448,192,16723,128,0,17174:0:0:0:0:
64,192,16723,1,0,0:0:0:0:
192,192,16949,1,0,0:0:0:0:
64,192,17174,128,0,17625:0:0:0:0:
320,192,17174,1,0,0:0:0:0:
448,192,17625,1,0,0:0:0:0:
192,192,17851,1,0,0:0:0:0:
448,192,18077,128,0,18528:0:0:0:0:
320,192,18077,1,0,0:0:0:0:
64,192,18302,1,0,0:0:0:0:
192,192,18528,128,0,18979:0:0:0:0:
448,192,18753,1,0,0:0:0:0:
320,192,18979,128,0,20784:0:0:0:0:
64,192,18979,1,0,0:0:0:0:
448,192,19205,1,0,0:0:0:0:
192,192,19430,1,0,0:0:0:0:
64,192,19656,1,0,0:0:0:0:
448,192,19881,1,0,0:0:0:0:
192,192,20107,1,0,0:0:0:0:
448,192,20332,1,0,0:0:0:0:
64,192,20558,1,0,0:0:0:0:
448,192,20784,128,0,22588:0:0:0:0:
192,192,20784,1,0,0:0:0:0:
320,192,21009,1,0,0:0:0:0:
64,192,21235,1,0,0:0:0:0:
192,192,21460,1,0,0:0:0:0:
64,192,21686,1,0,0:0:0:0:
320,192,21912,1,0,0:0:0:0:
64,192,22137,1,0,0:0:0:0:
320,192,22363,1,0,0:0:0:0:
192,192,22588,1,0,0:0:0:0:
64,192,22588,128,0,25295:0:0:0:0:
320,192,23039,1,0,0:0:0:0:
448,192,23265,1,0,0:0:0:0:
192,192,23491,1,0,0:0:0:0:
320,192,23716,1,0,0:0:0:0:
192,192,23942,1,0,0:0:0:0:
448,192,24167,1,0,0:0:0:0:
192,192,24393,1,0,0:0:0:0:
320,192,24618,1,0,0:0:0:0:
448,192,24844,1,0,0:0:0:0:
320,192,25070,5,0,0:0:0:0:
192,192,25295,1,0,0:0:0:0:
448,192,25295,1,0,0:0:0:0:
320,192,25634,1,0,0:0:0:0:
192,192,25746,1,0,0:0:0:0:
64,192,25746,1,0,0:0:0:0:
64,192,25972,1,0,0:0:0:0:
448,192,26198,5,0,0:0:0:0:
320,192,26198,1,0,0:0:0:0:
192,192,26649,1,0,0:0:0:0:
320,192,26649,1,0,0:0:0:0:
64,192,26874,128,0,27325:0:0:0:0:
320,192,27325,128,0,27551:0:0:0:0:
192,192,27551,128,0,27777:0:0:0:0:
448,192,27551,1,0,0:0:0:0:
64,192,27777,128,0,28002:0:0:0:0:
320,192,28002,128,0,28453:0:0:0:0:
64,192,28453,128,0,28679:0:0:0:0:
448,192,28453,1,0,0:0:0:0:
192,192,28679,128,0,29130:0:0:0:0:
320,192,29130,128,0,29807:0:0:0:0:
64,192,29356,1,0,0:0:0:0:
192,192,29356,1,0,0:0:0:0:
448,192,29807,128,0,30258:0:0:0:0:
192,192,30258,1,0,0:0:0:0:
64,192,30258,1,0,0:0:0:0:
320,192,30484,128,0,30709:0:0:0:0:
64,192,30709,128,0,30935:0:0:0:0:
192,192,30935,128,0,31160:0:0:0:0:
448,192,31160,128,0,31386:0:0:0:0:
64,192,31160,1,0,0:0:0:0:
320,192,31386,128,0,31611:0:0:0:0:
64,192,31611,128,0,31837:0:0:0:0:
192,192,31837,128,0,32063:0:0:0:0:
320,192,32063,128,0,32288:0:0:0:0:
64,192,32063,1,0,0:0:0:0:
448,192,32288,128,0,32965:0:0:0:0:
192,192,32514,1,0,0:0:0:0:
64,192,32965,128,0,33416:0:0:0:0:
320,192,32965,1,0,0:0:0:0:
320,192,33416,128,0,33867:0:0:0:0:
192,192,33867,1,0,0:0:0:0:
64,192,33867,1,0,0:0:0:0:
448,192,34093,128,0,34318:0:0:0:0:
64,192,34318,128,0,34770:0:0:0:0:
320,192,34770,128,0,34995:0:0:0:0:
448,192,34770,1,0,0:0:0:0:
192,192,34995,128,0,35672:0:0:0:0:
320,192,35221,1,0,0:0:0:0:
64,192,35672,1,0,0:0:0:0:
448,192,35672,1,0,0:0:0:0:
320,192,35898,128,0,36123:0:0:0:0:
64,192,36123,128,0,36574:0:0:0:0:
320,192,36574,128,0,36800:0:0:0:0:
448,192,36574,1,0,0:0:0:0:
192,192,36800,128,0,37025:0:0:0:0:
64,192,37025,128,0,37477:0:0:0:0:
320,192,37251,1,0,0:0:0:0:
448,192,37477,128,0,37928:0:0:0:0:
192,192,37477,1,0,0:0:0:0:
320,192,37928,128,0,38153:0:0:0:0:
192,192,38153,128,0,38605:0:0:0:0:
448,192,38379,1,0,0:0:0:0:
64,192,38605,128,0,39281:0:0:0:0:
448,192,38830,128,0,39281:0:0:0:0:
320,192,39281,1,0,0:0:0:0:
192,192,39281,1,0,0:0:0:0:
320,192,39732,1,0,0:0:0:0:
64,192,39958,128,0,40184:0:0:0:0:
192,192,40184,128,0,40409:0:0:0:0:
448,192,40184,1,0,0:0:0:0:
320,192,40409,128,0,40635:0:0:0:0:
448,192,40635,128,0,41086:0:0:0:0:
64,192,40635,1,0,0:0:0:0:
192,192,41086,1,0,0:0:0:0:
320,192,41086,1,0,0:0:0:0:
64,192,41311,128,0,41537:0:0:0:0:
320,192,41537,128,0,41763:0:0:0:0:
192,192,41763,128,0,41988:0:0:0:0:
448,192,41988,1,0,0:0:0:0:
64,192,41988,1,0,0:0:0:0:
320,192,42214,128,0,42439:0:0:0:0:
448,192,42439,128,0,42891:0:0:0:0:
64,192,42891,128,0,43116:0:0:0:0:
320,192,42891,1,0,0:0:0:0:
192,192,43116,128,0,43567:0:0:0:0:
320,192,43567,128,0,44244:0:0:0:0:
64,192,43793,1,0,0:0:0:0:
192,192,43793,1,0,0:0:0:0:
448,192,44244,128,0,44695:0:0:0:0:
192,192,44695,1,0,0:0:0:0:
64,192,44695,1,0,0:0:0:0:
320,192,44921,128,0,45146:0:0:0:0:
448,192,45146,128,0,45598:0:0:0:0:
192,192,45485,1,0,0:0:0:0:
320,192,45598,1,0,0:0:0:0:
64,192,45598,128,0,45823:0:0:0:0:
448,192,45823,128,0,46049:0:0:0:0:
192,192,46049,128,0,46274:0:0:0:0:
320,192,46274,128,0,46500:0:0:0:0:
448,192,46500,128,0,46951:0:0:0:0:
64,192,46500,1,0,0:0:0:0:
320,192,46951,128,0,47402:0:0:0:0:
192,192,47289,1,0,0:0:0:0:
448,192,47402,1,0,0:0:0:0:
64,192,47402,128,0,47628:0:0:0:0:
192,192,47628,128,0,47853:0:0:0:0:
320,192,47853,128,0,48304:0:0:0:0:
448,192,47853,1,0,0:0:0:0:
64,192,48304,1,0,0:0:0:0:
192,192,48304,1,0,0:0:0:0:
448,192,48530,1,0,0:0:0:0:
192,192,48756,1,0,0:0:0:0:
64,192,48981,128,0,49207:0:0:0:0:
320,192,49207,1,0,0:0:0:0:
448,192,49207,128,0,49432:0:0:0:0:
192,192,49432,128,0,49658:0:0:0:0:
320,192,49658,128,0,49884:0:0:0:0:
64,192,49884,1,0,0:0:0:0:
192,192,50109,1,0,0:0:0:0:
448,192,50109,1,0,0:0:0:0:
320,192,50335,128,0,50786:0:0:0:0:
64,192,50560,1,0,0:0:0:0:
192,192,50786,128,0,51237:0:0:0:0:
320,192,51011,1,0,0:0:0:0:
448,192,51237,1,0,0:0:0:0:
64,192,51463,128,0,52365:0:0:0:0:
192,192,51688,1,0,0:0:0:0:
320,192,51914,1,0,0:0:0:0:
448,192,51914,1,0,0:0:0:0:
448,192,52365,128,0,52591:0:0:0:0:
320,192,52591,128,0,52816:0:0:0:0:
192,192,52816,128,0,53042:0:0:0:0:
448,192,52816,1,0,0:0:0:0:
64,192,53042,128,0,53718:0:0:0:0:
320,192,53267,1,0,0:0:0:0:
448,192,53718,1,0,0:0:0:0:
192,192,53718,1,0,0:0:0:0:
448,192,54170,128,0,54395:0:0:0:0:
64,192,54395,1,0,0:0:0:0:
192,192,54395,1,0,0:0:0:0:
320,192,54621,1,0,0:0:0:0:
448,192,54621,1,0,0:0:0:0:
192,192,54846,1,0,0:0:0:0:
320,192,54959,1,0,0:0:0:0:
448,192,55072,1,0,0:0:0:0:
64,192,55072,128,0,55523:0:0:0:0:
448,192,55297,1,0,0:0:0:0:
192,192,55523,1,0,0:0:0:0:
320,192,55523,1,0,0:0:0:0:
448,192,55749,1,0,0:0:0:0:
320,192,55861,1,0,0:0:0:0:
192,192,55974,128,0,56425:0:0:0:0:
64,192,56200,1,0,0:0:0:0:
320,192,56425,1,0,0:0:0:0:
448,192,56425,1,0,0:0:0:0:
64,192,56651,1,0,0:0:0:0:
192,192,56764,1,0,0:0:0:0:
320,192,56877,128,0,57328:0:0:0:0:
192,192,57102,1,0,0:0:0:0:
64,192,57328,1,0,0:0:0:0:
448,192,57328,1,0,0:0:0:0:
192,192,57553,1,0,0:0:0:0:
320,192,57666,1,0,0:0:0:0:
448,192,57779,128,0,58230:0:0:0:0:
64,192,58004,1,0,0:0:0:0:
192,192,58230,1,0,0:0:0:0:
320,192,58230,1,0,0:0:0:0:
64,192,58456,1,0,0:0:0:0:
320,192,58568,1,0,0:0:0:0:
192,192,58681,128,0,59132:0:0:0:0:
448,192,58907,1,0,0:0:0:0:
64,192,59132,1,0,0:0:0:0:
320,192,59132,1,0,0:0:0:0:
448,192,59358,1,0,0:0:0:0:
192,192,59471,1,0,0:0:0:0:
320,192,59584,128,0,60035:0:0:0:0:
64,192,59809,1,0,0:0:0:0:
192,192,60035,1,0,0:0:0:0:
448,192,60035,1,0,0:0:0:0:
320,192,60260,1,0,0:0:0:0:
192,192,60373,1,0,0:0:0:0:
64,192,60486,128,0,60937:0:0:0:0:
320,192,60711,1,0,0:0:0:0:
448,192,60937,1,0,0:0:0:0:
192,192,60937,1,0,0:0:0:0:
320,192,61163,1,0,0:0:0:0:
64,192,61275,1,0,0:0:0:0:
448,192,61388,128,0,61727:0:0:0:0:
320,192,61727,128,0,62065:0:0:0:0:
64,192,61839,1,0,0:0:0:0:
192,192,62065,128,0,62290:0:0:0:0:
448,192,62290,1,0,0:0:0:0:
64,192,62290,128,0,62742:0:0:0:0:
320,192,62742,1,0,0:0:0:0:
448,192,62742,128,0,62967:0:0:0:0:
192,192,62967,128,0,63193:0:0:0:0:
320,192,63193,128,0,63644:0:0:0:0:
64,192,63418,1,0,0:0:0:0:
192,192,63644,1,0,0:0:0:0:
448,192,63644,1,0,0:0:0:0:
320,192,64095,128,0,64434:0:0:0:0:
192,192,64095,1,0,0:0:0:0:
448,192,64434,128,0,64772:0:0:0:0:
64,192,64546,1,0,0:0:0:0:
192,192,64772,128,0,64997:0:0:0:0:
320,192,64997,1,0,0:0:0:0:
448,192,64997,1,0,0:0:0:0:
320,192,65223,128,0,65449:0:0:0:0:
448,192,65449,128,0,65900:0:0:0:0:
64,192,65449,1,0,0:0:0:0:
192,192,65674,128,0,65900:0:0:0:0:
320,192,65900,1,0,0:0:0:0:
64,192,65900,128,0,66351:0:0:0:0:
448,192,66351,1,0,0:0:0:0:
192,192,66351,1,0,0:0:0:0:
320,192,66577,128,0,66802:0:0:0:0:
192,192,66802,128,0,67028:0:0:0:0:
64,192,67028,128,0,67253:0:0:0:0:
448,192,67253,128,0,67479:0:0:0:0:
320,192,67253,1,0,0:0:0:0:
64,192,67479,128,0,68607:0:0:0:0:
320,192,67704,1,0,0:0:0:0:
448,192,67704,1,0,0:0:0:0:
192,192,67930,1,0,0:0:0:0:
448,192,68156,1,0,0:0:0:0:
320,192,68381,5,0,0:0:0:0:
192,192,68607,1,0,0:0:0:0:
320,192,68945,1,0,0:0:0:0:
64,192,69058,1,0,0:0:0:0:
192,192,69058,1,0,0:0:0:0:
192,192,69284,1,0,0:0:0:0:
320,192,69284,1,0,0:0:0:0:
320,192,69509,128,0,69735:0:0:0:0:
448,192,69509,1,0,0:0:0:0:
320,192,69960,128,0,70186:0:0:0:0:
448,192,69960,1,0,0:0:0:0:
64,192,70411,128,0,70637:0:0:0:0:
320,192,70411,1,0,0:0:0:0:
192,192,70637,128,0,70863:0:0:0:0:
320,192,70863,128,0,71088:0:0:0:0:
64,192,70863,1,0,0:0:0:0:
448,192,71088,128,0,71314:0:0:0:0:
64,192,71314,128,0,71765:0:0:0:0:
192,192,71314,1,0,0:0:0:0:
448,192,71539,1,0,0:0:0:0:
192,192,71765,128,0,72216:0:0:0:0:
320,192,71765,1,0,0:0:0:0:
64,192,71990,1,0,0:0:0:0:
320,192,72216,128,0,72667:0:0:0:0:
448,192,72216,1,0,0:0:0:0:
192,192,72442,1,0,0:0:0:0:
448,192,72667,128,0,73118:0:0:0:0:
64,192,72667,1,0,0:0:0:0:
320,192,72893,1,0,0:0:0:0:
192,192,73118,128,0,73344:0:0:0:0:
64,192,73118,1,0,0:0:0:0:
192,192,73570,128,0,73795:0:0:0:0:
64,192,73570,1,0,0:0:0:0:
448,192,74021,128,0,74246:0:0:0:0:
192,192,74021,1,0,0:0:0:0:
320,192,74246,128,0,74472:0:0:0:0:
192,192,74472,128,0,74697:0:0:0:0:
448,192,74472,1,0,0:0:0:0:
64,192,74697,128,0,74923:0:0:0:0:
448,192,74923,128,0,75374:0:0:0:0:
320,192,74923,1,0,0:0:0:0:
64,192,75149,1,0,0:0:0:0:
320,192,75374,128,0,75825:0:0:0:0:
192,192,75374,1,0,0:0:0:0:
448,192,75600,1,0,0:0:0:0:
192,192,75825,128,0,76277:0:0:0:0:
64,192,75825,1,0,0:0:0:0:
320,192,76051,1,0,0:0:0:0:
64,192,76277,128,0,76728:0:0:0:0:
448,192,76277,1,0,0:0:0:0:
192,192,76502,1,0,0:0:0:0:
448,192,76728,1,0,0:0:0:0:
320,192,76728,1,0,0:0:0:0:
320,192,77179,128,0,77630:0:0:0:0:
64,192,77179,1,0,0:0:0:0:
192,192,77630,128,0,78081:0:0:0:0:
448,192,77630,1,0,0:0:0:0:
64,192,77856,1,0,0:0:0:0:
448,192,78081,128,0,78532:0:0:0:0:
320,192,78081,1,0,0:0:0:0:
192,192,78307,1,0,0:0:0:0:
64,192,78532,128,0,78983:0:0:0:0:
320,192,78532,1,0,0:0:0:0:
320,192,78983,1,0,0:0:0:0:
448,192,78983,1,0,0:0:0:0:
192,192,79209,1,0,0:0:0:0:
64,192,79435,1,0,0:0:0:0:
448,192,79435,1,0,0:0:0:0:
320,192,79660,1,0,0:0:0:0:
192,192,79886,128,0,80337:0:0:0:0:
448,192,79886,1,0,0:0:0:0:
64,192,80111,1,0,0:0:0:0:
320,192,80337,128,0,80788:0:0:0:0:
448,192,80337,1,0,0:0:0:0:
192,192,80563,1,0,0:0:0:0:
64,192,80788,128,0,81239:0:0:0:0:
448,192,80788,1,0,0:0:0:0:
192,192,81014,1,0,0:0:0:0:
448,192,81239,128,0,81690:0:0:0:0:
320,192,81239,1,0,0:0:0:0:
64,192,81465,1,0,0:0:0:0:
320,192,81690,128,0,82142:0:0:0:0:
192,192,81690,1,0,0:0:0:0:
64,192,81916,1,0,0:0:0:0:
192,192,82142,128,0,82593:0:0:0:0:
448,192,82142,1,0,0:0:0:0:
320,192,82367,1,0,0:0:0:0:
64,192,82593,1,0,0:0:0:0:
448,192,82593,1,0,0:0:0:0:
320,192,82818,1,0,0:0:0:0:
64,192,83044,128,0,83270:0:0:0:0:
448,192,83044,1,0,0:0:0:0:
192,192,83270,128,0,83495:0:0:0:0:
320,192,83495,128,0,83721:0:0:0:0:
448,192,83721,128,0,83946:0:0:0:0:
192,192,83946,128,0,84172:0:0:0:0:
64,192,83946,1,0,0:0:0:0:
64,192,84397,1,0,0:0:0:0:
192,192,84397,128,0,84623:0:0:0:0:
192,192,84849,1,0,0:0:0:0:
448,192,84849,128,0,85074:0:0:0:0:
320,192,85074,128,0,85300:0:0:0:0:
448,192,85300,1,0,0:0:0:0:
192,192,85300,128,0,85525:0:0:0:0:
64,192,85525,128,0,85751:0:0:0:0:
320,192,85751,1,0,0:0:0:0:
448,192,85751,128,0,86202:0:0:0:0:
64,192,85976,1,0,0:0:0:0:
192,192,86202,1,0,0:0:0:0:
320,192,86202,128,0,86653:0:0:0:0:
448,192,86428,1,0,0:0:0:0:
64,192,86653,1,0,0:0:0:0:
192,192,86653,128,0,87104:0:0:0:0:
320,192,86879,1,0,0:0:0:0:
448,192,87104,1,0,0:0:0:0:
64,192,87104,128,0,87556:0:0:0:0:
448,192,87556,1,0,0:0:0:0:
320,192,87556,128,0,87781:0:0:0:0:
448,192,88007,1,0,0:0:0:0:
320,192,88007,128,0,88232:0:0:0:0:
320,192,88458,1,0,0:0:0:0:
64,192,88458,128,0,88683:0:0:0:0:
192,192,88683,128,0,88909:0:0:0:0:
64,192,88909,1,0,0:0:0:0:
320,192,88909,128,0,89135:0:0:0:0:
448,192,89135,128,0,89360:0:0:0:0:
192,192,89360,1,0,0:0:0:0:
64,192,89360,128,0,89811:0:0:0:0:
448,192,89586,1,0,0:0:0:0:
320,192,89811,1,0,0:0:0:0:
192,192,89811,128,0,90263:0:0:0:0:
64,192,90037,1,0,0:0:0:0:
448,192,90263,1,0,0:0:0:0:
320,192,90263,128,0,90714:0:0:0:0:
192,192,90488,1,0,0:0:0:0:
64,192,90714,1,0,0:0:0:0:
448,192,90714,128,0,91165:0:0:0:0:
320,192,91165,1,0,0:0:0:0:
192,192,91165,1,0,0:0:0:0:
448,192,91616,1,0,0:0:0:0:
64,192,91616,128,0,91842:0:0:0:0:
192,192,91842,128,0,92067:0:0:0:0:
64,192,92067,1,0,0:0:0:0:
320,192,92067,128,0,92518:0:0:0:0:
64,192,92518,1,0,0:0:0:0:
448,192,92518,128,0,92969:0:0:0:0:
192,192,92744,1,0,0:0:0:0:
320,192,92969,1,0,0:0:0:0:
64,192,92969,128,0,93872:0:0:0:0:
192,192,93195,1,0,0:0:0:0:
448,192,93421,1,0,0:0:0:0:
320,192,93872,1,0,0:0:0:0:
448,192,93872,128,0,94097:0:0:0:0:
192,192,94097,1,0,0:0:0:0:
64,192,94323,1,0,0:0:0:0:
320,192,94323,128,0,94549:0:0:0:0:
192,192,94549,128,0,94774:0:0:0:0:
64,192,94774,128,0,95225:0:0:0:0:
320,192,94774,1,0,0:0:0:0:
448,192,95000,1,0,0:0:0:0:
192,192,95225,1,0,0:0:0:0:
320,192,95225,128,0,95676:0:0:0:0:
64,192,95451,1,0,0:0:0:0:
448,192,95676,1,0,0:0:0:0:
192,192,95676,128,0,96128:0:0:0:0:
320,192,95902,1,0,0:0:0:0:
64,192,96128,1,0,0:0:0:0:
448,192,96128,128,0,96579:0:0:0:0:
192,192,96353,1,0,0:0:0:0:
320,192,96579,1,0,0:0:0:0:
64,192,96579,128,0,97030:0:0:0:0:
192,192,96804,1,0,0:0:0:0:
320,192,97030,1,0,0:0:0:0:
448,192,97030,1,0,0:0:0:0:
192,192,97256,1,0,0:0:0:0:
64,192,97481,1,0,0:0:0:0:
448,192,97481,1,0,0:0:0:0:
320,192,97707,1,0,0:0:0:0:
448,192,97707,1,0,0:0:0:0:
64,192,97932,1,0,0:0:0:0:
192,192,97932,1,0,0:0:0:0:
192,192,98158,1,0,0:0:0:0:
320,192,98158,1,0,0:0:0:0:
320,192,98383,1,0,0:0:0:0:
448,192,98383,128,0,100188:0:0:0:0:
192,192,98609,1,0,0:0:0:0:
64,192,98835,1,0,0:0:0:0:
320,192,98835,1,0,0:0:0:0:
64,192,99060,1,0,0:0:0:0:
320,192,99286,1,0,0:0:0:0:
192,192,99511,1,0,0:0:0:0:
320,192,99737,1,0,0:0:0:0:
64,192,99737,1,0,0:0:0:0:
320,192,99963,1,0,0:0:0:0:
64,192,100188,128,0,101993:0:0:0:0:
192,192,100188,1,0,0:0:0:0:
320,192,100414,1,0,0:0:0:0:
448,192,100639,1,0,0:0:0:0:
192,192,100639,1,0,0:0:0:0:
448,192,100865,1,0,0:0:0:0:
192,192,101090,1,0,0:0:0:0:
320,192,101316,1,0,0:0:0:0:
192,192,101542,1,0,0:0:0:0:
448,192,101542,1,0,0:0:0:0:
192,192,101767,1,0,0:0:0:0:
320,192,101993,1,0,0:0:0:0:
448,192,101993,128,0,102895:0:0:0:0:
192,192,102218,1,0,0:0:0:0:
320,192,102444,1,0,0:0:0:0:
64,192,102444,128,0,102895:0:0:0:0:
320,192,102895,1,0,0:0:0:0:
192,192,102895,128,0,103121:0:0:0:0:
64,192,103121,128,0,103346:0:0:0:0:
448,192,103121,1,0,0:0:0:0:
320,192,103346,128,0,103572:0:0:0:0:
192,192,103346,1,0,0:0:0:0:
448,192,103572,128,0,107407:0:0:0:0:
64,192,103572,128,0,107407:0:0:0:0:
