osu file format v14

[General]
AudioFilename: audio.ogg
AudioLeadIn: 0
PreviewTime: 69396
Countdown: 0
SampleSet: Soft
StackLeniency: 0.7
Mode: 3
LetterboxInBreaks: 0
SpecialStyle: 0
WidescreenStoryboard: 0

[Editor]
DistanceSpacing: 0.3
BeatDivisor: 4
GridSize: 32
TimelineZoom: 0.9999999

[Metadata]
Title:DAN DAN Kokoro Hikareteku (TV Size)
TitleUnicode:DAN DAN 心魅かれてく (TV Size)
Artist:FIELD OF VIEW
ArtistUnicode:FIELD OF VIEW
Creator:Kibitz
Version:Easy
Source:DRAGON BALL GT
Tags:anime japanese dbgt dragonball 1996 op opening 1 one j-rock jrock rock ドラゴンボール ジーティー toei animation pan パン son goku 孫 そん 悟空 ごくう future trunks 未み来らいのトランクス フィールド・オブ・ビュー 浅岡雄也 Asaoka Yuuya Oda Takashi 小田孝 Kohashi Takuto 小橋琢人 Niitsu Kenji 新津健二 Abe Jun 安部潤 Akira Toriyama 鳥山明
BeatmapID:4522921
BeatmapSetID:2147193

[Difficulty]
HPDrainRate:6
CircleSize:4
OverallDifficulty:6
ApproachRate:5
SliderMultiplier:1.4
SliderTickRate:1

[Events]
//Background and Video events
0,0,"pan bg.jpg",0,0
Video,-460,"video.mp4"
//Break Periods
//Storyboard Layer 0 (Background)
//Storyboard Layer 1 (Fail)
//Storyboard Layer 2 (Pass)
//Storyboard Layer 3 (Foreground)
//Storyboard Layer 4 (Overlay)
//Storyboard Sound Samples

[TimingPoints]
933,451.161741484322,4,2,1,70,1,0
4542,-100,4,2,1,70,0,1
18979,-100,4,2,1,70,0,0
69509,-100,4,2,1,70,0,1
83044,-100,4,2,1,70,0,0
83946,-100,4,2,1,70,0,1
98383,-100,4,2,1,70,0,0

[HitObjects]
192,192,707,5,0,0:0:0:0:
320,192,933,1,0,0:0:0:0:
448,192,933,128,0,2286:0:0:0:0:
64,192,1384,1,0,0:0:0:0:
192,192,1835,1,0,0:0:0:0:
320,192,2286,1,0,0:0:0:0:
448,192,2737,1,0,0:0:0:0:
64,192,2963,1,0,0:0:0:0:
320,192,3188,1,0,0:0:0:0:
192,192,3414,1,0,0:0:0:0:
64,192,3639,128,0,4091:0:0:0:0:
448,192,3639,1,0,0:0:0:0:
320,192,4091,128,0,4542:0:0:0:0:
192,192,4542,1,0,0:0:0:0:
64,192,4542,1,0,0:0:0:0:
64,192,4993,1,0,0:0:0:0:
192,192,4993,1,0,0:0:0:0:
448,192,5444,1,0,0:0:0:0:
320,192,5670,1,0,0:0:0:0:
64,192,5895,1,0,0:0:0:0:
192,192,6121,1,0,0:0:0:0:
320,192,6346,1,0,0:0:0:0:
448,192,6346,1,0,0:0:0:0:
192,192,6798,1,0,0:0:0:0:
320,192,6798,1,0,0:0:0:0:
64,192,7249,1,0,0:0:0:0:
192,192,7249,1,0,0:0:0:0:
64,192,7700,128,0,8151:0:0:0:0:
192,192,7700,1,0,0:0:0:0:
320,192,8151,1,0,0:0:0:0:
448,192,8151,1,0,0:0:0:0:
448,192,8602,1,0,0:0:0:0:
320,192,8602,1,0,0:0:0:0:
64,192,9053,1,0,0:0:0:0:
192,192,9279,1,0,0:0:0:0:
448,192,9505,1,0,0:0:0:0:
320,192,9730,1,0,0:0:0:0:
64,192,9956,1,0,0:0:0:0:
192,192,9956,1,0,0:0:0:0:
192,192,10407,1,0,0:0:0:0:
320,192,10407,1,0,0:0:0:0:
320,192,10858,1,0,0:0:0:0:
448,192,10858,1,0,0:0:0:0:
448,192,11309,128,0,11760:0:0:0:0:
320,192,11309,1,0,0:0:0:0:
192,192,11760,1,0,0:0:0:0:
64,192,11760,1,0,0:0:0:0:
320,192,12212,1,0,0:0:0:0:
192,192,12437,1,0,0:0:0:0:
64,192,12663,128,0,13114:0:0:0:0:
448,192,13114,128,0,13565:0:0:0:0:
192,192,13565,128,0,14467:0:0:0:0:
320,192,14467,1,0,0:0:0:0:
64,192,14919,1,0,0:0:0:0:
192,192,15144,1,0,0:0:0:0:
320,192,15370,1,0,0:0:0:0:
448,192,15370,128,0,15821:0:0:0:0:
64,192,15821,128,0,16272:0:0:0:0:
320,192,16272,128,0,16723:0:0:0:0:
192,192,16723,128,0,17174:0:0:0:0:
64,192,17174,128,0,17625:0:0:0:0:
448,192,17174,1,0,0:0:0:0:
320,192,17625,1,0,0:0:0:0:
192,192,18077,128,0,18528:0:0:0:0:
320,192,18528,128,0,18979:0:0:0:0:
448,192,18979,128,0,20784:0:0:0:0:
64,192,18979,1,0,0:0:0:0:
320,192,19430,1,0,0:0:0:0:
64,192,19881,1,0,0:0:0:0:
320,192,20332,1,0,0:0:0:0:
192,192,20784,1,0,0:0:0:0:
64,192,20784,128,0,22137:0:0:0:0:
448,192,21235,1,0,0:0:0:0:
192,192,21686,1,0,0:0:0:0:
320,192,22137,1,0,0:0:0:0:
448,192,22588,128,0,23039:0:0:0:0:
64,192,22588,1,0,0:0:0:0:
320,192,23039,1,0,0:0:0:0:
192,192,23491,1,0,0:0:0:0:
64,192,23942,1,0,0:0:0:0:
448,192,24393,1,0,0:0:0:0:
320,192,24844,1,0,0:0:0:0:
192,192,25295,1,0,0:0:0:0:
320,192,25521,1,0,0:0:0:0:
64,192,25746,1,0,0:0:0:0:
448,192,25972,1,0,0:0:0:0:
192,192,26198,1,0,0:0:0:0:
64,192,26198,128,0,26649:0:0:0:0:
320,192,26649,1,0,0:0:0:0:
448,192,26649,1,0,0:0:0:0:
192,192,27100,128,0,27551:0:0:0:0:
64,192,27551,1,0,0:0:0:0:
448,192,27551,1,0,0:0:0:0:
320,192,28002,128,0,28453:0:0:0:0:
192,192,28453,1,0,0:0:0:0:
64,192,28453,1,0,0:0:0:0:
64,192,28905,128,0,29356:0:0:0:0:
320,192,29356,1,0,0:0:0:0:
448,192,29356,1,0,0:0:0:0:
448,192,29807,128,0,30258:0:0:0:0:
320,192,30258,1,0,0:0:0:0:
64,192,30258,1,0,0:0:0:0:
192,192,30709,128,0,31160:0:0:0:0:
448,192,31160,1,0,0:0:0:0:
320,192,31160,1,0,0:0:0:0:
64,192,31611,128,0,32063:0:0:0:0:
448,192,32063,1,0,0:0:0:0:
192,192,32063,1,0,0:0:0:0:
320,192,32514,128,0,32965:0:0:0:0:
192,192,32965,1,0,0:0:0:0:
64,192,32965,128,0,33416:0:0:0:0:
448,192,33416,128,0,33867:0:0:0:0:
320,192,33867,1,0,0:0:0:0:
192,192,33867,1,0,0:0:0:0:
64,192,34318,128,0,34770:0:0:0:0:
320,192,34770,1,0,0:0:0:0:
448,192,34770,1,0,0:0:0:0:
192,192,35221,128,0,35672:0:0:0:0:
448,192,35672,1,0,0:0:0:0:
64,192,35672,1,0,0:0:0:0:
64,192,36123,128,0,36574:0:0:0:0:
320,192,36574,1,0,0:0:0:0:
448,192,36574,1,0,0:0:0:0:
192,192,36800,1,0,0:0:0:0:
320,192,37025,128,0,37477:0:0:0:0:
64,192,37477,1,0,0:0:0:0:
448,192,37477,1,0,0:0:0:0:
192,192,37928,128,0,38379:0:0:0:0:
448,192,38379,1,0,0:0:0:0:
320,192,38379,1,0,0:0:0:0:
64,192,38830,128,0,39281:0:0:0:0:
448,192,39281,1,0,0:0:0:0:
192,192,39281,1,0,0:0:0:0:
320,192,39732,1,0,0:0:0:0:
192,192,39958,128,0,40635:0:0:0:0:
448,192,40184,1,0,0:0:0:0:
64,192,40635,1,0,0:0:0:0:
192,192,41086,1,0,0:0:0:0:
320,192,41086,1,0,0:0:0:0:
448,192,41311,128,0,41988:0:0:0:0:
64,192,41537,1,0,0:0:0:0:
320,192,41988,1,0,0:0:0:0:
64,192,41988,1,0,0:0:0:0:
192,192,42214,1,0,0:0:0:0:
320,192,42439,128,0,42891:0:0:0:0:
448,192,42891,1,0,0:0:0:0:
64,192,42891,1,0,0:0:0:0:
320,192,43116,1,0,0:0:0:0:
192,192,43342,128,0,43793:0:0:0:0:
320,192,43793,128,0,44244:0:0:0:0:
64,192,43793,1,0,0:0:0:0:
448,192,44244,128,0,44695:0:0:0:0:
192,192,44695,1,0,0:0:0:0:
64,192,44695,1,0,0:0:0:0:
320,192,44921,1,0,0:0:0:0:
448,192,45146,128,0,45598:0:0:0:0:
64,192,45598,128,0,46049:0:0:0:0:
192,192,45598,1,0,0:0:0:0:
320,192,46049,128,0,46500:0:0:0:0:
192,192,46500,128,0,46951:0:0:0:0:
448,192,46500,1,0,0:0:0:0:
64,192,46951,128,0,47402:0:0:0:0:
448,192,47402,128,0,47853:0:0:0:0:
320,192,47402,1,0,0:0:0:0:
192,192,47853,128,0,48304:0:0:0:0:
64,192,48304,1,0,0:0:0:0:
448,192,48304,1,0,0:0:0:0:
320,192,48756,128,0,49207:0:0:0:0:
192,192,49207,1,0,0:0:0:0:
64,192,49207,1,0,0:0:0:0:
448,192,49432,1,0,0:0:0:0:
192,192,49658,128,0,50109:0:0:0:0:
320,192,50109,1,0,0:0:0:0:
64,192,50109,1,0,0:0:0:0:
448,192,50335,128,0,50786:0:0:0:0:
320,192,50786,128,0,51237:0:0:0:0:
192,192,51237,1,0,0:0:0:0:
64,192,51463,128,0,51914:0:0:0:0:
320,192,51914,1,0,0:0:0:0:
448,192,51914,1,0,0:0:0:0:
192,192,52365,128,0,52816:0:0:0:0:
448,192,52816,1,0,0:0:0:0:
64,192,52816,1,0,0:0:0:0:
320,192,53042,128,0,53718:0:0:0:0:
192,192,53267,1,0,0:0:0:0:
64,192,53718,1,0,0:0:0:0:
448,192,53718,1,0,0:0:0:0:
448,192,54170,128,0,54621:0:0:0:0:
64,192,54621,128,0,55072:0:0:0:0:
192,192,54621,1,0,0:0:0:0:
320,192,55072,1,0,0:0:0:0:
448,192,55072,1,0,0:0:0:0:
192,192,55297,128,0,55749:0:0:0:0:
64,192,55749,1,0,0:0:0:0:
448,192,55974,128,0,56425:0:0:0:0:
192,192,56425,1,0,0:0:0:0:
64,192,56425,1,0,0:0:0:0:
320,192,56651,1,0,0:0:0:0:
64,192,56877,128,0,57328:0:0:0:0:
192,192,57328,1,0,0:0:0:0:
448,192,57328,1,0,0:0:0:0:
320,192,57553,1,0,0:0:0:0:
192,192,57779,128,0,58230:0:0:0:0:
320,192,58230,128,0,58681:0:0:0:0:
448,192,58230,1,0,0:0:0:0:
64,192,58681,1,0,0:0:0:0:
192,192,58681,1,0,0:0:0:0:
448,192,58907,128,0,59358:0:0:0:0:
192,192,59358,1,0,0:0:0:0:
320,192,59584,1,0,0:0:0:0:
64,192,59809,128,0,60260:0:0:0:0:
448,192,60260,1,0,0:0:0:0:
192,192,60486,1,0,0:0:0:0:
320,192,60711,128,0,61163:0:0:0:0:
64,192,61163,1,0,0:0:0:0:
448,192,61388,128,0,61839:0:0:0:0:
64,192,61839,128,0,62290:0:0:0:0:
192,192,61839,1,0,0:0:0:0:
320,192,62290,128,0,62742:0:0:0:0:
448,192,62290,1,0,0:0:0:0:
64,192,62742,1,0,0:0:0:0:
192,192,62742,128,0,63193:0:0:0:0:
448,192,63193,1,0,0:0:0:0:
320,192,63418,1,0,0:0:0:0:
64,192,63644,1,0,0:0:0:0:
192,192,63644,1,0,0:0:0:0:
448,192,64095,128,0,64546:0:0:0:0:
320,192,64095,1,0,0:0:0:0:
64,192,64546,128,0,64997:0:0:0:0:
192,192,64546,1,0,0:0:0:0:
448,192,64997,1,0,0:0:0:0:
320,192,65223,1,0,0:0:0:0:
64,192,65449,1,0,0:0:0:0:
192,192,65449,128,0,65900:0:0:0:0:
320,192,65900,128,0,66351:0:0:0:0:
448,192,65900,1,0,0:0:0:0:
64,192,66351,1,0,0:0:0:0:
192,192,66351,1,0,0:0:0:0:
448,192,66577,1,0,0:0:0:0:
64,192,66802,1,0,0:0:0:0:
192,192,67028,1,0,0:0:0:0:
448,192,67253,128,0,67704:0:0:0:0:
320,192,67253,1,0,0:0:0:0:
64,192,67704,128,0,69058:0:0:0:0:
192,192,67704,1,0,0:0:0:0:
448,192,68607,1,0,0:0:0:0:
448,192,69058,5,0,0:0:0:0:
320,192,69284,1,0,0:0:0:0:
192,192,69509,5,0,0:0:0:0:
64,192,69509,1,0,0:0:0:0:
64,192,69960,1,0,0:0:0:0:
192,192,69960,1,0,0:0:0:0:
448,192,70411,1,0,0:0:0:0:
320,192,70637,1,0,0:0:0:0:
64,192,70863,1,0,0:0:0:0:
192,192,71088,1,0,0:0:0:0:
320,192,71314,1,0,0:0:0:0:
448,192,71314,1,0,0:0:0:0:
320,192,71765,1,0,0:0:0:0:
192,192,71765,1,0,0:0:0:0:
192,192,72216,1,0,0:0:0:0:
64,192,72216,1,0,0:0:0:0:
64,192,72667,128,0,73118:0:0:0:0:
192,192,72667,1,0,0:0:0:0:
320,192,73118,1,0,0:0:0:0:
448,192,73118,1,0,0:0:0:0:
448,192,73570,1,0,0:0:0:0:
320,192,73570,1,0,0:0:0:0:
64,192,74021,1,0,0:0:0:0:
192,192,74246,1,0,0:0:0:0:
448,192,74472,1,0,0:0:0:0:
320,192,74697,1,0,0:0:0:0:
192,192,74923,1,0,0:0:0:0:
64,192,74923,1,0,0:0:0:0:
192,192,75374,1,0,0:0:0:0:
320,192,75374,1,0,0:0:0:0:
64,192,75600,1,0,0:0:0:0:
320,192,75825,1,0,0:0:0:0:
448,192,75825,1,0,0:0:0:0:
448,192,76277,128,0,76728:0:0:0:0:
320,192,76277,1,0,0:0:0:0:
192,192,76728,1,0,0:0:0:0:
64,192,76728,1,0,0:0:0:0:
64,192,77179,128,0,77630:0:0:0:0:
192,192,77179,1,0,0:0:0:0:
448,192,77630,128,0,78081:0:0:0:0:
320,192,77630,1,0,0:0:0:0:
192,192,78081,128,0,78532:0:0:0:0:
64,192,78081,1,0,0:0:0:0:
320,192,78532,128,0,78983:0:0:0:0:
448,192,78532,1,0,0:0:0:0:
192,192,78983,1,0,0:0:0:0:
64,192,78983,1,0,0:0:0:0:
448,192,79209,1,0,0:0:0:0:
320,192,79435,1,0,0:0:0:0:
64,192,79435,1,0,0:0:0:0:
192,192,79886,128,0,80337:0:0:0:0:
448,192,79886,1,0,0:0:0:0:
320,192,80337,128,0,80788:0:0:0:0:
64,192,80337,1,0,0:0:0:0:
448,192,80788,128,0,81239:0:0:0:0:
192,192,80788,1,0,0:0:0:0:
64,192,81239,128,0,81690:0:0:0:0:
320,192,81239,1,0,0:0:0:0:
320,192,81690,128,0,82142:0:0:0:0:
192,192,81690,1,0,0:0:0:0:
192,192,82142,128,0,82593:0:0:0:0:
64,192,82142,1,0,0:0:0:0:
320,192,82593,1,0,0:0:0:0:
448,192,82593,1,0,0:0:0:0:
64,192,82818,1,0,0:0:0:0:
320,192,83044,1,0,0:0:0:0:
448,192,83044,128,0,83495:0:0:0:0:
64,192,83495,128,0,83946:0:0:0:0:
320,192,83946,5,0,0:0:0:0:
448,192,83946,1,0,0:0:0:0:
448,192,84397,1,0,0:0:0:0:
320,192,84397,1,0,0:0:0:0:
64,192,84849,1,0,0:0:0:0:
192,192,85074,1,0,0:0:0:0:
448,192,85300,1,0,0:0:0:0:
320,192,85525,1,0,0:0:0:0:
192,192,85751,1,0,0:0:0:0:
64,192,85751,1,0,0:0:0:0:
192,192,86202,1,0,0:0:0:0:
320,192,86202,1,0,0:0:0:0:
64,192,86428,1,0,0:0:0:0:
320,192,86653,1,0,0:0:0:0:
448,192,86653,1,0,0:0:0:0:
448,192,87104,128,0,87556:0:0:0:0:
320,192,87104,1,0,0:0:0:0:
192,192,87556,1,0,0:0:0:0:
64,192,87556,1,0,0:0:0:0:
64,192,88007,1,0,0:0:0:0:
192,192,88007,1,0,0:0:0:0:
448,192,88458,1,0,0:0:0:0:
320,192,88683,1,0,0:0:0:0:
64,192,88909,1,0,0:0:0:0:
192,192,89135,1,0,0:0:0:0:
320,192,89360,1,0,0:0:0:0:
448,192,89360,1,0,0:0:0:0:
320,192,89811,1,0,0:0:0:0:
192,192,89811,1,0,0:0:0:0:
192,192,90263,1,0,0:0:0:0:
64,192,90263,1,0,0:0:0:0:
64,192,90714,128,0,91165:0:0:0:0:
192,192,90714,1,0,0:0:0:0:
320,192,91165,1,0,0:0:0:0:
448,192,91165,1,0,0:0:0:0:
192,192,91616,1,0,0:0:0:0:
448,192,91616,1,0,0:0:0:0:
320,192,91842,1,0,0:0:0:0:
64,192,92067,128,0,92518:0:0:0:0:
192,192,92067,1,0,0:0:0:0:
320,192,92518,128,0,92969:0:0:0:0:
448,192,92518,1,0,0:0:0:0:
192,192,92969,128,0,93872:0:0:0:0:
64,192,92969,1,0,0:0:0:0:
320,192,93421,1,0,0:0:0:0:
64,192,93872,1,0,0:0:0:0:
448,192,93872,128,0,94323:0:0:0:0:
192,192,94323,1,0,0:0:0:0:
320,192,94323,1,0,0:0:0:0:
64,192,94549,1,0,0:0:0:0:
320,192,94774,128,0,95225:0:0:0:0:
448,192,94774,1,0,0:0:0:0:
192,192,95225,128,0,95676:0:0:0:0:
64,192,95225,1,0,0:0:0:0:
448,192,95676,128,0,96128:0:0:0:0:
320,192,95676,1,0,0:0:0:0:
192,192,96128,1,0,0:0:0:0:
64,192,96128,128,0,96579:0:0:0:0:
320,192,96579,128,0,97030:0:0:0:0:
448,192,96579,1,0,0:0:0:0:
64,192,97030,1,0,0:0:0:0:
192,192,97030,1,0,0:0:0:0:
448,192,97481,128,0,97932:0:0:0:0:
64,192,97481,1,0,0:0:0:0:
320,192,97932,128,0,98383:0:0:0:0:
192,192,97932,1,0,0:0:0:0:
64,192,98383,128,0,100188:0:0:0:0:
448,192,98383,1,0,0:0:0:0:
192,192,98835,1,0,0:0:0:0:
448,192,99286,1,0,0:0:0:0:
192,192,99737,1,0,0:0:0:0:
320,192,100188,1,0,0:0:0:0:
448,192,100188,128,0,101993:0:0:0:0:
192,192,100639,1,0,0:0:0:0:
64,192,101090,1,0,0:0:0:0:
320,192,101542,1,0,0:0:0:0:
192,192,101993,128,0,102895:0:0:0:0:
64,192,101993,1,0,0:0:0:0:
320,192,102444,1,0,0:0:0:0:
448,192,102895,1,0,0:0:0:0:
320,192,103121,1,0,0:0:0:0:
192,192,103346,1,0,0:0:0:0:
64,192,103572,128,0,107407:0:0:0:0:
448,192,103572,128,0,107407:0:0:0:0:
