osu file format v14

[General]
AudioFilename: audio.mp3
AudioLeadIn: 0
PreviewTime: 16419
Countdown: 0
SampleSet: Soft
StackLeniency: 0.4
Mode: 0
LetterboxInBreaks: 0
WidescreenStoryboard: 0

[Editor]
Bookmarks: 16584,31584
DistanceSpacing: 1
BeatDivisor: 4
GridSize: 16
TimelineZoom: 1.38

[Metadata]
Title:moonlight
TitleUnicode:moonlight
Artist:FELT
ArtistUnicode:FELT
Creator:MokouSmoke
Version:Lunatic
Source:東方Project
Tags:舞花 Maika NAGI☆ PARTYBOX 博麗神社 ver 東方花映塚 ~ Phantasmagoria of Flower View Medicine Melancholy ポイズンボディ Forsaken Doll Poison Body Reitaisai13 ZUN touhou
BeatmapID:1574466
BeatmapSetID:747174

[Difficulty]
HPDrainRate:6
CircleSize:4.2
OverallDifficulty:7
ApproachRate:8.5
SliderMultiplier:2
SliderTickRate:1

[Events]
//Background and Video events
0,0,"maxresdefault.jpg",0,0
//Break Periods
//Storyboard Layer 0 (Background)
//Storyboard Layer 1 (Fail)
//Storyboard Layer 2 (Pass)
//Storyboard Layer 3 (Foreground)
//Storyboard Sound Samples

[TimingPoints]
-233,468.75,4,2,1,25,1,0
821,-100,4,2,1,28,0,0
938,-100,4,2,1,32,0,0
1056,-100,4,2,1,37,0,0
1173,-100,4,2,1,45,0,0
1290,-100,4,2,1,55,0,0
1407,-100,4,2,1,75,0,0
1524,-100,4,2,1,80,0,0
1642,-100,4,2,1,60,0,0
3282,-100,4,2,1,75,0,0
5157,-100,4,2,1,60,0,0
5392,-100,4,2,1,50,0,0
7032,-100,4,2,1,65,0,0
7501,-100,4,2,1,70,0,0
7970,-71.4285714285714,4,2,1,60,0,0
9142,-100,4,2,1,70,0,0
9786,-100,4,2,1,5,0,0
9845,-71.4285714285714,4,2,1,70,0,0
10079,-100,4,2,1,70,0,0
10782,-71.4285714285714,4,2,1,70,0,0
12423,-100,4,2,1,70,0,0
12599,-100,4,2,1,5,0,0
12657,-71.4285714285714,4,2,1,70,0,0
12892,-100,4,2,1,70,0,0
13067,-100,4,2,1,5,0,0
13126,-71.4285714285714,4,2,1,70,0,0
13243,-100,4,2,1,70,0,0
13536,-100,4,2,1,5,0,0
13595,-71.4285714285714,4,2,1,70,0,0
14532,-71.4285714285714,4,2,1,80,0,0
15001,-100,4,2,1,65,0,0
15470,-166.666666666667,4,2,1,50,0,0
16173,-250,4,2,1,70,0,0
16642,-100,4,2,1,70,0,0
18751,-71.4285714285714,4,2,1,70,0,0
18985,-100,4,2,1,70,0,0
20567,-100,4,2,1,5,0,0
20626,-71.4285714285714,4,2,1,70,0,0
20860,-100,4,2,1,70,0,0
22501,-71.4285714285714,4,2,1,70,0,0
22735,-100,4,2,1,70,0,0
22911,-100,4,2,1,5,0,0
22970,-71.4285714285714,4,2,1,70,0,0
23673,-100,4,2,1,70,0,0
23849,-100,4,2,1,5,0,0
23907,-71.4285714285714,4,2,1,70,0,0
24142,-100,4,2,1,70,0,0
24786,-100,4,2,1,5,0,0
24845,-71.4285714285714,4,2,1,70,0,0
25079,-100,4,2,1,70,0,0
25724,-100,4,2,1,5,0,0
25782,-71.4285714285714,4,2,1,70,0,0
26017,-100,4,2,1,70,0,0
26192,-100,4,2,1,5,0,0
26251,-71.4285714285714,4,2,1,70,0,0
26485,-100,4,2,1,70,0,0
27130,-100,4,2,1,5,0,0
27188,-71.4285714285714,4,2,1,70,0,0
27423,-100,4,2,1,70,0,0
27599,-100,4,2,1,5,0,0
27657,-71.4285714285714,4,2,1,70,0,0
27892,-100,4,2,1,70,0,0
28067,-100,4,2,1,5,0,0
28126,-71.4285714285714,4,2,1,70,0,0
28360,-100,4,2,1,70,0,0
28595,-71.4285714285714,4,2,1,70,0,0
30704,-200,4,2,1,70,0,0
31173,-38.7596899224806,4,2,1,70,0,0
31642,-125,4,2,1,60,0,0
42892,-71.4285714285714,4,2,1,70,0,0
43829,-71.4285714285714,4,2,1,80,0,0
44298,-71.4285714285714,4,2,1,90,0,0
44767,-250.000000000001,4,2,1,70,0,0
45938,-71.4285714285714,4,2,1,90,0,0
46290,-142.857142857143,4,2,1,90,0,0
46642,-71.4285714285714,4,2,1,80,0,1
58829,-71.4285714285714,4,2,1,60,0,1
59063,-71.4285714285714,4,2,1,75,0,1
59298,-71.4285714285714,4,2,1,90,0,1
59532,-71.4285714285714,4,2,1,100,0,1
59767,-71.4285714285714,4,2,1,90,0,0
60235,-50,4,2,1,90,0,0
60938,-71.4285714285714,4,2,1,90,0,0
61642,-71.4285714285714,4,2,1,80,0,1
73829,-71.4285714285714,4,2,1,50,0,1
74063,-71.4285714285714,4,2,1,65,0,1
74298,-71.4285714285714,4,2,1,80,0,1
74532,-71.4285714285714,4,2,1,95,0,1
74767,-71.4285714285714,4,2,1,80,0,1
75235,-50,4,2,1,80,0,1
75938,-71.4285714285714,4,2,1,80,0,1
76173,-71.4285714285714,4,2,1,80,0,1
76290,-142.857142857143,4,2,1,80,0,1
76642,-71.4285714285714,4,2,1,60,0,0

[Colours]
Combo1 : 219,100,100
Combo2 : 219,100,177
Combo3 : 100,207,219
Combo4 : 100,219,115

[HitObjects]
362,246,587,6,0,L|351:204,16,25
343,318,1642,6,0,P|290:345|230:344,1,100,0|0,0:1|0:0,0:0:0:0:
450,223,2110,2,0,P|449:272|429:318,1,100,0|0,0:1|0:0,0:0:0:0:
421,81,2579,2,0,P|463:106|493:146,1,100,0|0,0:1|0:0,0:0:0:0:
283,35,3048,1,0,0:0:0:0:
309,204,3282,6,0,P|330:158|331:108,1,100,0|0,0:1|0:0,0:0:0:0:
233,340,3751,2,0,P|281:332|312:294,1,100,0|0,0:1|0:0,0:0:0:0:
72,320,4220,2,0,P|96:362|144:365,1,100,0|0,0:1|0:0,0:0:0:0:
21,168,4688,2,0,P|0:213|0:263,2,100,0|0|0,0:1|0:0|0:0,0:0:0:0:
178,287,5392,6,0,P|123:263|85:217,1,100,0|0,0:1|0:0,0:0:0:0:
316,301,5860,2,0,P|277:331|230:345,1,100,0|0,0:1|0:0,0:0:0:0:
408,190,6329,2,0,P|415:238|404:286,1,100,0|0,0:1|0:0,0:0:0:0:
356,55,6798,1,0,0:0:0:0:
243,185,7032,6,0,P|299:166|341:123,1,100,0|0,0:1|0:0,0:0:0:0:
98,190,7501,2,0,P|126:231|180:242,1,100
20,65,7970,6,0,L|27:160,1,69.9999978637696,2|2,0:0|0:0,0:0:0:0:
41,344,8321,1,2,0:0:0:0:
41,344,8438,2,0,L|35:273,1,69.9999978637696,2|2,0:0|0:0,0:0:0:0:
33,239,8673,1,0,0:0:0:0:
174,173,8907,2,0,L|243:178,1,69.9999978637696,2|2,0:0|0:0,0:0:0:0:
317,198,9142,6,0,P|364:182|413:189,1,100,0|2,0:1|0:0,0:0:0:0:
142,266,9610,2,0,P|147:226|163:193,1,75,0|0,0:1|0:0,0:0:0:0:
174,173,9845,2,0,L|104:151,1,69.9999978637696,2|2,0:0|0:0,0:0:0:0:
56,240,10079,2,0,P|54:288|88:336,1,100,0|2,0:1|0:0,0:0:0:0:
22,144,10548,1,0,0:0:0:0:
174,173,10782,6,0,L|179:242,1,69.9999978637696,2|2,0:0|0:0,0:0:0:0:
351,105,11251,2,0,B|381:88|381:88|406:111,1,69.9999978637696,10|10,0:0|0:0,0:0:0:0:
125,26,11720,2,0,L|130:95,1,69.9999978637696,2|2,0:0|0:0,0:0:0:0:
429,195,12188,2,0,L|359:187,1,69.9999978637696,2|2,0:0|0:0,0:0:0:0:
285,157,12423,2,0,P|306:126|357:106,1,75
363,106,12657,2,0,L|380:37,1,69.9999978637696,2|2,0:0|0:0,0:0:0:0:
287,31,12892,6,0,P|252:46|193:51,1,75
190,47,13126,2,0,B|165:24|165:24|135:41,1,69.9999978637696,10|8,0:0|0:0,0:0:0:0:
187,141,13360,2,0,P|150:132|113:134,1,75
104,146,13595,2,0,L|25:152,1,69.9999978637696,2|2,0:0|0:0,0:0:0:0:
11,245,13829,1,0,0:0:0:0:
187,141,14063,2,0,B|248:104|248:104|301:148,1,139.999995727539,10|0,0:0|0:0,0:0:0:0:
366,341,14532,6,0,P|422:372|495:331,1,150,2|0,0:0|0:0,0:0:0:0:
438,198,15001,2,0,P|443:247|427:294,1,100
408,67,15470,2,0,P|411:97|407:127,1,59.9999981689454
350,11,15938,1,0,0:0:0:0:
249,89,16173,2,0,P|219:85|190:78,1,60,0|0,1:0|0:0,0:0:0:0:
32,167,16642,6,0,P|82:161|125:137,1,100,4|0,3:2|0:0,0:0:0:0:
74,348,17110,2,0,P|84:299|74:250,1,100,0|0,3:0|0:0,0:0:0:0:
258,363,17579,2,0,P|214:338|165:333,1,100,0|0,3:1|0:0,0:0:0:0:
328,193,18048,1,0,3:0:0:0:
190,77,18282,2,0,P|211:123|247:156,1,100,0|0,0:0|3:0,0:0:0:0:
467,143,18751,2,0,B|432:133|432:133|378:148,1,69.9999978637696,8|8,0:0|0:0,0:0:0:0:
328,192,18985,6,0,P|295:230|248:244,1,100,0|0,3:1|0:0,0:0:0:0:
471,303,19454,2,0,P|446:259|406:229,1,100,0|0,3:1|0:0,0:0:0:0:
247,156,19923,1,0,3:0:0:0:
262,328,20157,1,0,0:0:0:0:
28,268,20392,6,0,P|63:279|100:284,1,75,0|0,3:1|0:0,0:0:0:0:
122,274,20626,2,0,B|156:265|156:265|188:279,1,69.9999978637696,8|8,0:0|0:0,0:0:0:0:
262,328,20860,2,0,P|301:297|325:254,1,100,0|0,3:1|0:0,0:0:0:0:
80,188,21329,2,0,P|80:237|99:284,1,100,0|0,3:1|0:0,0:0:0:0:
165,363,21798,1,0,3:1:0:0:
265,184,22032,6,0,P|220:162|170:159,1,100,0|0,0:0|3:0,0:0:0:0:
446,126,22501,2,0,B|416:107|416:107|392:131,1,69.9999978637696,8|8,0:0|0:0,0:0:0:0:
334,177,22735,1,0,3:0:0:0:
334,177,22970,6,0,L|254:183,1,69.9999978637696,2|2,0:0|0:0,0:0:0:0:
252,194,23204,1,0,3:0:0:0:
202,136,23321,2,0,L|132:129,2,69.9999978637696,2|2|2,0:0|0:0|0:0,0:0:0:0:
179,211,23673,2,0,P|196:243|227:264,1,75,8|0,1:0|0:0,0:0:0:0:
252,269,23907,2,0,L|321:262,1,69.9999978637696,2|2,0:0|0:0,0:0:0:0:
419,253,24142,6,0,P|403:300|371:338,1,100,0|2,3:1|0:0,0:0:0:0:
381,93,24610,2,0,P|421:122|446:164,1,75,0|0,3:1|0:0,0:0:0:0:
443,166,24845,2,0,L|522:172,1,69.9999978637696,2|2,0:0|0:0,0:0:0:0:
498,85,25079,2,0,P|467:46|423:19,1,100,0|2,3:1|0:0,0:0:0:0:
475,262,25548,2,0,P|502:220|512:173,1,75,0|0,3:1|0:0,0:0:0:0:
512,171,25782,2,0,L|443:165,1,69.9999978637696,2|2,0:0|0:0,0:0:0:0:
354,177,26017,6,0,P|314:148|289:106,1,75,0|0,3:1|0:0,0:0:0:0:
299,103,26251,2,0,B|299:67|299:67|282:37,1,69.9999978637696,10|8,0:0|0:0,0:0:0:0:
205,94,26485,2,0,P|158:112|108:115,1,100,0|2,3:0|0:0,0:0:0:0:
142,303,26954,2,0,P|187:283|236:283,1,75,0|0,3:1|0:0,0:0:0:0:
237,290,27189,2,0,L|242:220,1,69.9999978637696,2|2,0:0|0:0,0:0:0:0:
276,131,27423,1,0,3:0:0:0:
472,190,27657,2,0,L|403:196,1,69.9999978637696,2|2,0:0|0:0,0:0:0:0:
390,109,27892,6,0,P|359:71|318:49,1,75,0|0,3:1|0:0,0:0:0:0:
318,44,28126,2,0,B|284:52|284:52|253:35,1,69.9999978637696,10|8,0:0|0:0,0:0:0:0:
166,23,28360,1,0,3:0:0:0:
166,23,28595,6,0,B|115:71,1,69.9999978637696,2|2,0:0|0:0,0:0:0:0:
91,155,28829,2,0,B|57:144|57:144|40:113,2,69.9999978637696,0|8|10,3:0|0:0|0:0,0:0:0:0:
309,66,29298,1,0,3:0:0:0:
314,224,29532,6,0,B|327:141,1,69.9999978637696,2|2,0:0|0:0,0:0:0:0:
309,66,29767,1,0,3:0:0:0:
273,302,30001,2,0,B|297:328|297:328|326:311,1,69.9999978637696,10|8,0:0|0:0,0:0:0:0:
314,224,30235,1,0,3:0:0:0:
309,66,30470,2,0,B|296:149,1,69.9999978637696,2|2,0:0|0:0,0:0:0:0:
314,224,30704,6,0,P|280:237|254:214,1,75,0|0,3:1|0:0,0:0:0:0:
255,214,31173,6,0,B|222:250|222:250|240:296|240:296|300:306|300:306|333:270|333:270|314:224,1,258.000003936768,10|0,1:1|0:1,0:1:0:0:
36,194,31642,6,0,P|77:201|127:196,1,80,2|0,0:2|0:0,0:0:0:0:
189,170,32110,2,0,P|225:186|254:214,1,80
269,293,32579,1,0,0:0:0:0:
269,293,33048,6,0,P|310:286|355:263,1,80,8|0,0:1|0:0,0:0:0:0:
405,218,33516,2,0,P|445:221|481:237,1,80,2|0,0:0|0:0,0:0:0:0:
512,311,33985,1,0,0:0:0:0:
512,311,34454,5,2,0:0:0:0:
434,294,34688,1,0,0:0:0:0:
375,240,34923,1,8,0:1:0:0:
351,163,35157,2,0,B|349:123|367:87|367:87|385:54|383:10,2,160,2|0|0,0:0|0:0|0:0,0:0:0:0:
351,163,36563,5,0,0:0:0:0:
292,217,36798,1,8,0:1:0:0:
214,234,37032,2,0,P|170:224|126:200,1,80,2|0,0:0|0:0,0:0:0:0:
127,288,37501,1,0,0:0:0:0:
80,352,37735,1,0,0:0:0:0:
7,384,37970,1,0,0:0:0:0:
7,384,38673,5,8,0:1:0:0:
150,322,39142,2,0,P|157:278|159:221,1,80,0|0,3:0|0:0,0:0:0:0:
262,297,39610,2,0,P|255:258|244:220,1,80,0|0,3:0|0:0,0:0:0:0:
359,235,40079,2,0,P|338:200|315:168,1,80,0|0,3:0|0:0,0:0:0:0:
429,144,40548,2,0,P|398:118|364:96,1,80,0|0,3:0|0:0,0:0:0:0:
463,34,41017,2,0,P|425:20|386:11,1,80,0|0,3:0|0:0,0:0:0:0:
301,35,41485,1,0,3:0:0:0:
278,121,41720,6,0,P|306:164|423:164,1,160,2|0,0:0|0:0,0:0:0:0:
489,205,42423,2,0,P|502:167|511:128,1,80,2|0,3:2|0:0,0:0:0:0:
463,34,42892,5,0,3:0:0:0:
429,144,43126,1,0,3:0:0:0:
359,235,43360,1,0,3:0:0:0:
262,297,43595,1,0,3:0:0:0:
80,318,43829,6,0,L|150:322,1,69.9999978637696,0|0,3:0|3:0,0:0:0:0:
262,297,44063,2,0,L|324:265,1,69.9999978637696,0|0,3:0|3:0,0:0:0:0:
404,183,44298,2,0,L|429:144,2,46.6666652425131,0|0|0,3:0|3:0|3:0,0:0:0:0:
467,50,44532,2,0,L|476:3,2,46.6666652425131,0|0|0,3:0|3:0|3:0,0:0:0:0:
384,105,44767,6,0,P|429:143|488:148,1,120,2|0,0:0|0:0,0:0:0:0:
488,148,45704,1,2,0:0:0:0:
256,115,45938,6,0,L|256:45,1,69.9999978637696,0|0,1:0|3:0,0:0:0:0:
256,264,46173,1,0,1:0:0:0:
222,194,46290,6,0,P|256:188|290:195,1,69.9999978637696,4|0,1:1|0:0,0:0:0:0:
255,338,46642,6,0,P|323:357|392:349,1,139.999995727539,4|2,3:2|0:0,0:0:0:0:
19,293,47110,2,0,P|85:275|155:281,1,139.999995727539,0|2,3:0|0:0,0:0:0:0:
256,45,47579,6,0,P|188:26|119:33,1,139.999995727539,0|2,3:0|0:0,0:0:0:0:
492,82,48048,2,0,P|425:101|356:95,1,139.999995727539,0|2,3:0|0:0,0:0:0:0:
256,195,48517,6,0,L|256:123,1,69.9999978637696,0|0,3:0|0:0,0:0:0:0:
156,95,48751,2,0,P|86:101|19:82,1,139.999995727539,2|0,0:0|3:0,0:0:0:0:
324,296,49220,2,0,P|255:308|187:295,1,139.999995727539,2|0,0:0|3:0,0:0:0:0:
492,82,49688,2,0,P|425:101|356:95,1,139.999995727539,2|0,0:0|3:0,0:0:0:0:
256,27,50157,1,2,0:0:0:0:
256,329,50392,6,0,L|256:259,1,69.9999978637696,0|0,3:0|0:0,0:0:0:0:
187,179,50626,2,0,P|255:166|323:178,1,139.999995727539,2|0,0:0|3:0,0:0:0:0:
396,329,51095,2,0,P|428:265|406:188,1,139.999995727539,2|0,0:0|3:0,0:0:0:0:
95,200,51563,2,0,P|83:267|115:328,1,139.999995727539,2|0,0:0|3:0,0:0:0:0:
171,117,52032,2,0,P|122:92|34:73,1,139.999995727539,2|0,0:0|3:0,0:0:0:0:
340,117,52501,2,0,P|404:86|472:73,1,139.999995727539,2|0,0:0|3:0,0:0:0:0:
171,117,52970,5,2,0:0:0:0:
367,239,53204,1,0,3:0:0:0:
341,117,53438,1,2,0:0:0:0:
145,239,53673,1,0,3:0:0:0:
171,117,53906,1,2,0:0:0:0:
150,353,54142,6,0,P|85:377|16:376,1,139.999995727539,0|2,3:0|0:0,0:0:0:0:
382,287,54610,2,0,P|314:274|245:287,1,139.999995727539,0|2,3:0|0:0,0:0:0:0:
362,31,55079,6,0,P|426:6|495:7,1,139.999995727539,0|2,3:0|0:0,0:0:0:0:
130,97,55548,2,0,P|197:109|266:96,1,139.999995727539,0|2,3:0|0:0,0:0:0:0:
256,341,56017,5,0,3:0:0:0:
54,283,56251,1,2,0:0:0:0:
256,228,56485,2,0,L|256:158,1,69.9999978637696,0|0,3:0|0:0,0:0:0:0:
256,43,56720,2,0,P|333:75|369:139,1,139.999995727539,2|0,0:0|3:0,0:0:0:0:
126,266,57188,2,0,P|116:183|153:120,1,139.999995727539,2|0,0:0|3:0,0:0:0:0:
264,320,57657,1,2,0:0:0:0:
372,134,57892,6,0,P|400:70|417:1,1,139.999995727539,0|2,3:0|0:0,0:0:0:0:
140,134,58360,2,0,P|111:70|95:1,1,139.999995727539,0|2,3:0|0:0,0:0:0:0:
256,333,58829,5,0,3:0:0:0:
256,192,59063,1,2,3:2:0:0:
256,51,59298,1,0,3:0:0:0:
197,295,59532,2,0,P|255:261|314:292,1,139.999995727539,2|0,3:2|0:0,0:0:0:0:
480,342,60001,5,0,3:0:0:0:
480,342,60118,1,0,3:0:0:0:
480,342,60235,2,0,B|498:288|498:288|460:250|460:250|406:264|406:264|411:298,1,200,4|0,1:1|0:0,0:0:0:0:
32,342,60704,2,0,B|14:288|14:288|52:250|52:250|106:264|106:264|101:298,1,200,4|4,0:1|3:1,0:0:0:0:
174,339,61056,1,8,3:0:0:0:
256,319,61173,6,0,L|268:219,1,69.9999978637696,4|8,1:1|0:3,0:0:0:0:
192,146,61407,2,0,L|183:216,1,69.9999978637696,4|0,0:3|3:0,0:0:0:0:
344,300,61642,6,0,P|413:295|480:313,1,139.999995727539,4|2,3:2|0:0,0:0:0:0:
84,315,62110,2,0,P|151:333|221:328,1,139.999995727539,0|2,3:0|0:0,0:0:0:0:
167,83,62579,6,0,P|98:88|31:70,1,139.999995727539,0|2,3:0|0:0,0:0:0:0:
290,247,63048,2,0,L|220:247,1,69.9999978637696,0|0,3:0|0:0,0:0:0:0:
127,297,63282,6,0,P|109:229|69:172,1,139.999995727539,2|0,0:0|3:0,0:0:0:0:
324,122,63751,2,0,P|256:137|188:122,1,139.999995727539,2|0,0:0|3:0,0:0:0:0:
385,296,64220,2,0,P|402:229|442:172,1,139.999995727539,2|0,0:0|3:0,0:0:0:0:
188,122,64688,1,2,0:0:0:0:
256,239,64923,1,0,3:0:0:0:
256,5,65157,1,2,0:0:0:0:
256,239,65392,6,0,L|256:309,1,69.9999978637696,0|0,3:0|0:0,0:0:0:0:
173,373,65626,2,0,P|103:367|36:346,1,139.999995727539,2|0,0:0|3:0,0:0:0:0:
173,175,66095,2,0,P|163:105|139:40,1,139.999995727539,2|0,0:0|3:0,0:0:0:0:
324,278,66563,2,0,P|255:265|187:277,1,139.999995727539,2|0,0:0|3:0,0:0:0:0:
339,175,67032,2,0,P|348:105|372:40,1,139.999995727539,2|0,0:0|3:0,0:0:0:0:
339,373,67501,2,0,P|408:367|475:346,1,139.999995727539,2|0,0:0|3:0,0:0:0:0:
173,373,67970,5,2,0:0:0:0:
324,278,68204,1,0,3:0:0:0:
364,144,68438,1,2,0:0:0:0:
188,278,68673,1,0,3:0:0:0:
148,144,68907,1,2,0:0:0:0:
324,278,69142,6,0,P|393:282|457:309,1,139.999995727539,0|2,3:0|0:0,0:0:0:0:
57,234,69610,2,0,P|119:267|188:278,1,139.999995727539,0|2,3:0|0:0,0:0:0:0:
324,106,70079,6,0,P|393:101|457:74,1,139.999995727539,0|2,3:0|0:0,0:0:0:0:
56,149,70547,2,0,P|118:116|187:106,1,139.999995727539,0|2,3:0|0:0,0:0:0:0:
324,278,71017,5,0,3:0:0:0:
296,90,71251,1,2,0:0:0:0:
147,207,71485,1,0,3:0:0:0:
377,121,71720,6,0,P|374:53|321:8,1,139.999995727539,2|0,0:0|3:0,0:0:0:0:
256,332,72188,2,0,P|317:363|382:340,1,139.999995727539,2|0,0:0|3:0,0:0:0:0:
134,122,72657,2,0,P|76:159|63:225,1,69.9999978637696,2|0,0:0|0:0,0:0:0:0:
80,263,72892,6,0,P|140:294|204:272,1,139.999995727539,0|2,3:0|0:0,0:0:0:0:
432,263,73360,2,0,P|372:294|308:272,1,139.999995727539,0|2,3:0|0:0,0:0:0:0:
147,207,73829,5,0,3:0:0:0:
365,207,74063,1,2,3:2:0:0:
80,263,74298,1,0,3:0:0:0:
432,263,74532,1,2,3:2:0:0:
194,119,74767,6,0,P|255:90|318:116,1,139.999995727539,2|0,0:0|0:0,0:0:0:0:
368,211,75118,1,0,0:0:0:0:
368,211,75235,2,0,B|367:176|367:176|422:169|422:169|455:211|455:211|432:263,1,200,2|0,0:0|0:0,0:0:0:0:
80,262,75704,2,0,B|56:211|56:211|89:169|89:169|144:176|144:176|143:211,1,200,2|0,0:0|3:0,0:0:0:0:
256,379,76173,5,4,0:1:0:0:
290,279,76290,2,0,P|256:273|221:279,1,69.9999978637696,4|0,0:1|0:0,0:0:0:0:
80,263,76642,5,4,0:0:0:0:
