osu file format v14

[General]
AudioFilename: Inside.mp3
AudioLeadIn: 0
PreviewTime: 59523
Countdown: 0
SampleSet: Soft
StackLeniency: 0.7
Mode: 0
LetterboxInBreaks: 0
WidescreenStoryboard: 1

[Editor]
Bookmarks: 33592,59523
DistanceSpacing: 2
BeatDivisor: 4
GridSize: 8
TimelineZoom: 1.9

[Metadata]
Title:inside
TitleUnicode:inside
Artist:FELT
ArtistUnicode:FELT
Creator:- Milhofo -
Version:Aya
Source:東方文花帖 ~ Shoot the Bullet
Tags:Ground Snow NAGI☆ レトロスペクティブ京都 Retrospective Kyoto Comiket 83 touhou project instrumental
BeatmapID:894455
BeatmapSetID:412299

[Difficulty]
HPDrainRate:6.5
CircleSize:4.5
OverallDifficulty:7
ApproachRate:8.5
SliderMultiplier:1.7
SliderTickRate:1

[Events]
//Background and Video events
0,0,"TouhouAya.jpg",0,0
//Break Periods
//Storyboard Layer 0 (Background)
//Storyboard Layer 1 (Fail)
//Storyboard Layer 2 (Pass)
//Storyboard Layer 3 (Foreground)
//Storyboard Layer 4 (Overlay)
//Storyboard Sound Samples

[TimingPoints]
1160,540.540540540541,4,2,2,40,1,0
3187,-133.333333333333,4,2,2,40,0,0
4403,-133.333333333333,4,2,4,20,0,0
4538,-133.333333333333,4,2,2,40,0,0
8727,-133.333333333333,4,2,4,20,0,0
8997,-200,4,2,2,40,0,0
9268,-133.333333333333,4,2,2,40,0,0
13051,-133.333333333333,4,2,4,20,0,0
13187,-133.333333333333,4,2,2,40,0,0
17376,-200,4,2,4,20,0,0
17646,-133.333333333333,4,2,2,40,0,0
18187,-133.333333333333,4,2,2,35,0,0
18727,-133.333333333333,4,2,2,30,0,0
19268,-133.333333333333,4,2,2,25,0,0
19808,-133.333333333333,4,2,2,20,0,0
20078,-133.333333333333,4,2,2,10,0,0
20619,-133.333333333333,4,2,2,40,0,0
21700,-133.333333333333,4,2,4,20,0,0
21970,-133.333333333333,4,2,2,40,0,0
23322,-100,4,2,2,40,0,0
23727,-133.333333333333,4,2,2,5,0,0
23862,-100,4,2,2,40,0,0
24268,-133.333333333333,4,2,2,5,0,0
24403,-100,4,2,2,40,0,0
24943,-133.333333333333,4,2,2,40,0,0
26024,-133.333333333333,4,2,4,20,0,0
26295,-133.333333333333,4,2,2,40,0,0
28187,-200,4,2,2,40,0,0
28457,-133.333333333333,4,2,2,40,0,0
32376,-133.333333333333,4,2,2,5,0,0
32511,-133.333333333333,4,2,2,40,0,0
43862,-133.333333333333,4,2,2,25,0,0
44403,-133.333333333333,4,2,2,40,0,0
46024,-133.333333333333,4,2,2,25,0,0
46565,-133.333333333333,4,2,2,40,0,0
59523,540.540540540541,4,2,1,70,1,1
59523,-90.9090909090909,4,2,1,70,0,1
60063,-90.9090909090909,4,2,3,70,0,1
60333,-90.9090909090909,4,2,1,70,0,1
64387,-90.9090909090909,4,2,3,70,0,1
64658,-90.9090909090909,4,2,1,70,0,1
68712,-90.9090909090909,4,2,3,70,0,1
68982,-90.9090909090909,4,2,1,70,0,1
71955,-90.9090909090909,4,2,3,70,0,1
72090,-90.9090909090909,4,2,1,70,0,1
73036,-90.9090909090909,4,2,3,70,0,1
73306,-90.9090909090909,4,2,1,70,0,1
76685,-90.9090909090909,4,2,1,70,0,0
76820,-90.9090909090909,4,2,1,70,0,1
77360,-90.9090909090909,4,2,3,70,0,1
77631,-90.9090909090909,4,2,1,70,0,1
81685,-90.9090909090909,4,2,3,70,0,1
81955,-90.9090909090909,4,2,1,70,0,1
86009,-90.9090909090909,4,2,3,70,0,1
86279,-90.9090909090909,4,2,1,70,0,1
89252,-90.9090909090909,4,2,3,70,0,1
89387,-90.9090909090909,4,2,1,70,0,1
90333,-90.9090909090909,4,2,3,70,0,1
90604,-90.9090909090909,4,2,1,70,0,1
93306,-90.9090909090909,4,2,1,65,0,1
93441,-90.9090909090909,4,2,1,60,0,1
93577,-90.9090909090909,4,2,1,55,0,1
93847,-90.9090909090909,4,2,1,55,0,1
94127,540.540540540541,4,2,2,40,1,0
94127,-133.333333333333,4,2,2,40,0,0
98436,689.655172413793,4,2,2,40,1,0
98436,-133.333333333333,4,2,2,40,0,0
99083,526.315789473684,4,2,2,40,1,0
99083,-117.647058823529,4,2,2,40,0,0
99618,521.739130434783,4,2,2,40,1,0
99618,-111.111111111111,4,2,2,40,0,0
100255,487.80487804878,4,2,2,40,1,0
100255,-200,4,2,2,40,0,0
101451,750,4,2,2,40,1,0
101451,-133.333333333333,4,2,2,40,0,0
106701,-100,4,2,2,5,0,0

[Colours]
Combo1 : 128,0,255
Combo2 : 234,74,79
Combo3 : 0,128,192
Combo4 : 255,128,0

[HitObjects]
104,112,3322,6,0,P|144:136|232:120,1,127.500004863739,10|0,0:0|0:0,0:0:0:0:
264,48,4132,1,8,0:0:0:0:
360,216,4403,2,0,L|360:72,1,127.500004863739,8|0,0:0|0:0,0:0:0:0:
439,304,5484,6,0,P|391:336|311:320,1,127.500004863739
235,170,6565,1,0,0:0:0:0:
133,330,6835,2,0,L|133:198,1,127.500004863739
193,89,7646,6,0,P|257:82|309:118,1,127.500004863739,8|0,0:0|0:0,0:0:0:0:
235,170,8457,1,8,0:0:0:0:
360,188,8727,1,8,0:0:0:0:
307,115,8997,6,0,P|314:81|327:62,1,42.5
395,119,9538,1,0,0:0:0:0:
199,261,9808,2,0,P|205:219|237:189,1,63.7500024318696
333,302,10349,1,0,0:0:0:0:
273,252,10619,2,0,B|301:214|359:212|392:248|392:248|415:217|457:215,1,191.250007295609
387,159,11700,1,0,0:0:0:0:
464,308,11970,6,0,P|412:340|340:327,1,127.500004863739,10|0,0:0|0:0,0:0:0:0:
309,258,12781,1,8,0:0:0:0:
428,109,13051,2,0,P|369:165|306:167,1,127.500004863739,8|0,0:0|0:0,0:0:0:0:
153,18,14132,6,0,P|102:63|103:121,1,127.500004863739
285,257,15214,1,0,0:0:0:0:
181,96,15484,2,0,L|180:230,1,127.500004863739
253,328,16295,6,0,P|315:328|360:273,1,127.500004863739,12|0,0:0|0:0,0:0:0:0:
354,195,17105,1,8,0:0:0:0:
404,348,17376,1,8,0:0:0:0:
286,258,17646,2,0,P|246:253|204:271,1,63.7500024318696
162,304,18187,5,0,0:0:0:0:
155,322,18727,1,0,0:0:0:0:
146,341,19268,1,0,0:0:0:0:
137,363,19808,2,0,L|173:282,1,63.7500024318696
298,78,20619,6,0,P|322:112|299:213,1,127.500004863739,10|0,0:0|0:0,0:0:0:0:
235,236,21430,1,8,0:0:0:0:
144,67,21700,1,8,0:0:0:0:
49,195,21970,2,0,P|106:221|171:194,1,127.500004863739
110,137,22781,5,0,0:0:0:0:
293,260,23322,2,0,P|353:224|359:143,1,127.5
249,71,23862,2,0,P|244:133|286:179,1,127.5
404,101,24403,2,0,P|363:93|323:106,1,85,0|8,0:0|0:0,0:0:0:0:
217,15,24943,5,8,0:0:0:0:
189,153,25214,1,0,0:0:0:0:
266,158,25484,1,0,0:0:0:0:
323,107,25754,1,8,0:0:0:0:
142,47,26024,5,8,0:0:0:0:
255,28,26295,1,0,0:0:0:0:
246,103,26565,1,0,0:0:0:0:
189,153,26835,1,0,0:0:0:0:
59,72,27105,5,0,0:0:0:0:
28,242,27376,1,0,0:0:0:0:
100,265,27646,1,0,0:0:0:0:
168,230,27916,1,0,0:0:0:0:
213,50,28187,6,0,P|233:73|239:98,1,42.5
168,230,28727,1,0,0:0:0:0:
151,116,28997,1,0,0:0:0:0:
294,171,29268,6,0,P|308:206|307:235,1,63.7500024318696,10|0,0:0|0:0,0:0:0:0:
275,309,29808,1,0,0:0:0:0:
150,219,30078,2,0,P|122:275|126:345,1,127.500004863739,8|0,0:0|0:0,0:0:0:0:
308,200,31160,1,0,0:0:0:0:
266,333,31430,6,0,B|239:352|239:352|194:357,1,63.7500024318696
172,186,31970,2,0,P|206:153|251:138,1,95.6250036478044
328,138,32511,1,0,0:0:0:0:
328,138,33051,5,0,0:0:0:0:
252,233,33322,1,0,0:0:0:0:
294,65,33592,6,0,P|329:58|369:68,1,63.7500024318696,12|0,0:0|0:0,0:0:0:0:
435,178,34132,1,0,0:0:0:0:
294,65,34403,1,0,0:0:0:0:
245,200,34673,1,0,0:0:0:0:
391,97,34943,1,0,0:0:0:0:
239,122,35214,1,0,0:0:0:0:
366,212,35484,2,0,P|329:257|258:276,1,127.500004863739,0|0,2:0|2:0,2:0:0:0:
239,122,36565,1,0,0:0:0:0:
441,147,37105,5,0,0:0:0:0:
313,147,37376,1,0,0:0:0:0:
371,302,37646,1,0,0:0:0:0:
223,198,37916,6,0,P|199:237|192:265,1,63.7500024318696
305,341,38457,1,0,0:0:0:0:
130,306,38727,1,0,0:0:0:0:
275,257,38997,1,0,0:0:0:0:
121,169,39268,1,0,0:0:0:0:
194,254,39538,1,0,0:0:0:0:
273,129,39808,2,0,P|330:131|376:183,1,127.500004863739
275,257,40889,1,0,0:0:0:0:
409,168,41430,5,0,0:0:0:0:
275,257,41700,1,0,0:0:0:0:
242,76,41970,1,0,0:0:0:0:
409,168,42241,6,0,P|434:224|423:296,1,127.500004863739,2|0,0:0|0:0,0:0:0:0:
205,223,43322,1,0,0:0:0:0:
351,121,43862,1,0,0:0:0:0:
287,271,44403,2,0,P|296:221|260:146,1,127.500004863739
21,81,45484,1,0,0:0:0:0:
92,240,46024,1,0,0:0:0:0:
236,115,46565,6,0,P|282:103|360:138,1,127.500004863739,2|0,0:0|0:0,0:0:0:0:
264,343,47646,2,0,P|252:296|287:218,1,127.500004863739
491,316,48727,2,0,P|444:327|366:292,1,127.500004863739
460,86,49808,2,0,P|472:132|436:210,1,127.500004863739
229,226,50889,6,0,P|208:270|231:348,1,127.500004863739,2|0,0:0|0:0,0:0:0:0:
358,222,51700,1,0,0:0:0:0:
278,337,51970,2,0,P|252:294|254:269,1,63.7500024318696
298,162,52511,1,0,0:0:0:0:
156,50,53051,6,0,P|145:81|147:131,1,63.7500024318696
175,235,53592,2,0,P|186:204|184:154,1,63.7500024318696
52,101,54132,1,0,0:0:0:0:
81,185,54403,1,0,0:0:0:0:
218,92,54673,2,0,P|260:85|296:95,1,63.7500024318696
420,200,55214,5,6,0:0:0:0:
420,71,56835,5,0,0:0:0:0:
206,263,57376,1,0,0:0:0:0:
79,187,58457,6,0,L|140:222,1,63.7500024318696
206,263,58997,1,0,0:0:0:0:
229,137,59268,1,0,0:0:0:0:
140,317,59523,6,0,P|177:344|227:345,1,93.5000028533936,2|0,0:0|0:0,0:0:0:0:
281,299,59928,1,0,0:0:0:0:
255,332,60063,1,8,0:0:0:0:
298,118,60333,1,2,0:0:0:0:
298,118,60468,1,0,0:0:0:0:
298,118,60604,2,0,L|281:178,1,46.7500014266968,8|0,0:0|0:0,0:0:0:0:
168,86,61144,1,0,2:0:0:0:
182,64,61279,1,0,0:0:0:0:
197,88,61414,1,0,0:0:0:0:
274,337,61685,2,0,L|239:285,1,46.7500014266968,2|0,0:0|0:0,0:0:0:0:
201,228,61955,5,8,0:0:0:0:
407,205,62225,1,0,0:0:0:0:
165,306,62495,1,2,0:0:0:0:
302,39,62766,1,8,0:0:0:0:
387,286,63036,1,0,0:0:0:0:
257,126,63306,2,0,L|257:176,1,46.7500014266968,8|0,0:0|0:0,0:0:0:0:
335,224,63577,2,0,L|335:174,1,46.7500014266968,2|0,0:0|0:0,0:0:0:0:
326,65,63847,6,0,P|288:38|237:37,1,93.5000028533936,2|0,0:0|0:0,0:0:0:0:
179,91,64252,1,0,0:0:0:0:
207,59,64387,1,8,0:0:0:0:
378,212,64658,1,2,0:0:0:0:
378,212,64793,1,0,0:0:0:0:
378,212,64928,2,0,L|341:178,1,46.7500014266968,8|0,0:0|0:0,0:0:0:0:
450,89,65468,1,0,0:0:0:0:
446,61,65604,1,0,0:0:0:0:
424,78,65739,1,0,0:0:0:0:
290,287,66009,2,0,L|323:227,1,46.7500014266968,2|0,0:0|0:0,0:0:0:0:
354,173,66279,5,8,0:0:0:0:
148,156,66550,1,0,0:0:0:0:
303,366,66820,1,2,0:0:0:0:
263,69,67090,1,8,0:0:0:0:
60,214,67360,1,0,0:0:0:0:
222,330,67631,2,0,L|222:274,1,46.7500014266968,8|0,0:0|0:0,0:0:0:0:
295,225,67901,2,0,L|295:290,1,46.7500014266968,2|0,0:0|0:0,0:0:0:0:
355,366,68171,6,0,P|390:336|403:287,1,93.5000028533936,2|0,0:0|0:0,0:0:0:0:
365,216,68577,1,0,0:0:0:0:
388,250,68712,1,8,0:0:0:0:
179,167,68982,1,2,0:0:0:0:
179,167,69117,1,0,0:0:0:0:
179,167,69252,2,0,L|226:188,1,46.7500014266968,8|0,0:0|0:0,0:0:0:0:
330,97,69793,1,0,0:0:0:0:
312,76,69928,1,0,0:0:0:0:
302,101,70063,1,0,0:0:0:0:
221,328,70333,6,0,P|277:356|318:349,1,93.5000028533936,2|8,0:0|0:0,0:0:0:0:
360,288,70739,1,2,0:0:0:0:
342,326,70874,1,0,0:0:0:0:
337,108,71144,1,2,0:0:0:0:
337,108,71279,1,0,0:0:0:0:
337,108,71414,6,0,L|394:95,1,46.7500014266968,8|0,0:0|0:0,0:0:0:0:
499,109,71685,2,0,L|442:122,1,46.7500014266968
384,214,71955,2,0,L|406:157,1,46.7500014266968,8|0,0:0|0:0,0:0:0:0:
399,53,72225,2,0,L|377:110,1,46.7500014266968,2|0,0:0|0:0,0:0:0:0:
305,184,72495,6,0,P|246:206|195:182,1,93.5000028533936,2|0,0:0|0:0,0:0:0:0:
171,128,72901,1,0,0:0:0:0:
187,166,73036,1,8,0:0:0:0:
363,304,73306,1,2,0:0:0:0:
363,304,73441,1,0,0:0:0:0:
363,304,73577,2,0,L|320:267,1,46.7500014266968,8|0,0:0|0:0,0:0:0:0:
192,311,74117,1,0,0:0:0:0:
213,328,74252,1,0,0:0:0:0:
219,300,74387,1,0,0:0:0:0:
194,34,74658,6,0,P|223:67|225:122,1,93.5000028533936,2|8,0:0|0:0,0:0:0:0:
208,182,75063,1,2,0:0:0:0:
158,232,75198,1,0,0:0:0:0:
298,54,75468,1,2,0:0:0:0:
303,124,75604,1,0,0:0:0:0:
285,191,75739,2,0,P|257:243|222:266,1,93.5000028533936,8|0,0:0|0:0,0:0:0:0:
62,138,76279,1,8,0:0:0:0:
239,308,76550,2,0,L|226:246,1,46.7500014266968,2|8,0:0|0:0,0:0:0:0:
228,104,76820,6,0,P|273:77|316:82,1,93.5000028533936,2|0,0:0|0:0,0:0:0:0:
377,133,77225,1,0,0:0:0:0:
349,101,77360,1,8,0:0:0:0:
334,331,77631,1,2,0:0:0:0:
334,331,77766,1,0,0:0:0:0:
334,331,77901,2,0,L|342:277,1,46.7500014266968,8|0,0:0|0:0,0:0:0:0:
438,183,78441,1,0,0:0:0:0:
458,201,78577,1,0,0:0:0:0:
435,216,78712,1,0,0:0:0:0:
203,314,78982,2,0,L|138:289,1,46.7500014266968,2|0,0:0|0:0,0:0:0:0:
81,264,79252,5,8,0:0:0:0:
222,87,79523,1,0,0:0:0:0:
296,357,79793,1,2,0:0:0:0:
24,192,80063,1,8,0:0:0:0:
302,156,80333,1,0,0:0:0:0:
159,330,80604,2,0,L|184:281,1,46.7500014266968,8|0,0:0|0:0,0:0:0:0:
159,199,80874,2,0,L|184:150,1,46.7500014266968,2|0,0:0|0:0,0:0:0:0:
157,66,81144,6,0,P|214:67|254:94,1,93.5000028533936,2|0,0:0|0:0,0:0:0:0:
265,166,81550,1,0,0:0:0:0:
265,123,81685,1,8,0:0:0:0:
469,31,81955,1,2,0:0:0:0:
469,31,82090,1,0,0:0:0:0:
469,31,82225,2,0,L|416:58,1,46.7500014266968,8|0,0:0|0:0,0:0:0:0:
472,185,82766,1,0,0:0:0:0:
467,212,82901,1,0,0:0:0:0:
445,194,83036,1,0,0:0:0:0:
222,75,83306,2,0,L|274:75,1,46.7500014266968,2|0,0:0|0:0,0:0:0:0:
353,75,83577,5,8,0:0:0:0:
212,273,83847,1,0,0:0:0:0:
80,25,84117,1,2,0:0:0:0:
337,210,84387,1,8,0:0:0:0:
68,292,84658,1,0,0:0:0:0:
184,87,84928,2,0,L|231:108,1,46.7500014266968,8|0,0:0|0:0,0:0:0:0:
265,188,85198,2,0,L|312:209,1,46.7500014266968,2|0,0:0|0:0,0:0:0:0:
450,212,85468,6,0,P|475:164|452:94,1,93.5000028533936,2|0,0:0|0:0,0:0:0:0:
414,63,85874,1,0,0:0:0:0:
446,89,86009,1,8,0:0:0:0:
226,106,86279,1,2,0:0:0:0:
226,106,86414,1,0,0:0:0:0:
226,106,86550,2,0,L|284:105,1,46.7500014266968,8|0,0:0|0:0,0:0:0:0:
154,30,87090,1,0,0:0:0:0:
127,38,87225,1,0,0:0:0:0:
146,55,87360,1,0,0:0:0:0:
232,279,87631,6,0,P|203:324|157:343,1,93.5000028533936,2|8,0:0|0:0,0:0:0:0:
86,321,88036,1,2,0:0:0:0:
122,341,88171,1,0,0:0:0:0:
328,279,88441,1,2,0:0:0:0:
328,279,88577,1,0,0:0:0:0:
328,279,88712,6,0,L|310:333,1,46.7500014266968,8|0,0:0|0:0,0:0:0:0:
219,327,88982,2,0,L|237:273,1,46.7500014266968
240,188,89252,2,0,L|184:222,1,46.7500014266968,8|0,0:0|0:0,0:0:0:0:
111,243,89523,2,0,L|150:295,1,46.7500014266968,2|0,0:0|0:0,0:0:0:0:
219,327,89793,6,0,P|279:298|301:254,1,93.5000028533936,2|0,0:0|0:0,0:0:0:0:
289,193,90198,1,0,0:0:0:0:
298,234,90333,1,8,0:0:0:0:
171,59,90604,1,2,0:0:0:0:
171,59,90739,1,0,0:0:0:0:
171,59,90874,2,0,L|213:117,1,46.7500014266968,8|0,0:0|0:0,0:0:0:0:
331,52,91414,1,0,0:0:0:0:
307,56,91550,1,0,0:0:0:0:
320,75,91685,1,2,0:0:0:0:
371,279,91955,6,0,P|315:304|261:294,1,93.5000028533936,0|8,0:0|0:0,0:0:0:0:
222,244,92360,1,2,0:0:0:0:
246,278,92495,1,0,0:0:0:0:
324,24,92766,5,2,0:0:0:0:
351,88,92901,1,0,0:0:0:0:
340,157,93036,2,0,L|294:201,1,46.7500014266968,8|0,0:0|0:0,0:0:0:0:
213,201,93306,5,0,0:0:0:0:
186,265,93441,1,8,0:0:0:0:
197,334,93576,2,0,L|243:378,1,46.7500014266968,8|0,0:0|0:0,0:0:0:0:
326,341,93847,5,8,0:3:0:0:
393,227,94127,6,0,B|306:194|240:240|240:240|216:208|264:176|240:144,1,255.000009727478,4|0,0:0|0:0,0:0:0:0:
474,169,95748,1,0,0:0:0:0:
475,271,96018,1,0,0:0:0:0:
386,325,96289,2,0,B|373:330|373:330|365:260|288:253,1,127.500004863739
92,335,97370,2,0,B|78:291|165:265|152:221,1,127.500004863739
75,121,98436,6,0,B|101:128|101:128|104:153|131:174,1,63.7500024318696
271,109,99083,6,0,B|258:88|258:88|222:113|192:101,1,72.2500013780594
81,219,99618,6,0,B|108:236|142:225|142:225|164:234,1,76.4999976654053
271,109,100255,6,0,B|271:135|256:167|256:192,1,85
256,192,101451,6,0,L|256:203,2,7.9687503039837
256,192,101732,12,0,106701,0:0:0:0:
