osu file format v14

[General]
AudioFilename: Inside.mp3
AudioLeadIn: 0
PreviewTime: 59523
Countdown: 0
SampleSet: Normal
StackLeniency: 0.7
Mode: 0
LetterboxInBreaks: 0
WidescreenStoryboard: 1

[Editor]
Bookmarks: 59523
DistanceSpacing: 1.8
BeatDivisor: 4
GridSize: 8
TimelineZoom: 1.8

[Metadata]
Title:inside
TitleUnicode:inside
Artist:FELT
ArtistUnicode:FELT
Creator:- Milhofo -
Version:Advanced
Source:東方文花帖 ~ Shoot the Bullet
Tags:Ground Snow NAGI☆ レトロスペクティブ京都 Retrospective Kyoto Comiket 83 touhou project instrumental
BeatmapID:895328
BeatmapSetID:412299

[Difficulty]
HPDrainRate:4
CircleSize:3
OverallDifficulty:4.5
ApproachRate:5.5
SliderMultiplier:1.2
SliderTickRate:1

[Events]
//Background and Video events
0,0,"TouhouAya.jpg",0,0
//Break Periods
//Storyboard Layer 0 (Background)
//Storyboard Layer 1 (Fail)
//Storyboard Layer 2 (Pass)
//Storyboard Layer 3 (Foreground)
//Storyboard Layer 4 (Overlay)
//Storyboard Sound Samples

[TimingPoints]
1160,540.540540540541,4,1,0,100,1,0
3322,-111.111111111111,4,2,2,40,0,0
4403,-111.111111111111,4,2,4,40,0,0
4538,-111.111111111111,4,2,2,40,0,0
13051,-111.111111111111,4,2,4,40,0,0
13187,-111.111111111111,4,2,2,40,0,0
21700,-111.111111111111,4,2,4,40,0,0
21970,-111.111111111111,4,2,2,40,0,0
26024,-111.111111111111,4,2,4,40,0,0
26160,-111.111111111111,4,2,2,40,0,0
59523,540.540540540541,4,2,1,70,1,1
59523,-100,4,2,1,70,0,1
76685,-100,4,2,1,70,0,0
76820,-100,4,2,1,70,0,1
94127,540.540540540541,4,2,2,40,1,0
94127,-111.111111111111,4,2,2,40,0,0
98436,689.655172413793,4,2,2,40,1,0
98436,-111.111111111111,4,2,2,40,0,0
99083,526.315789473684,4,2,2,40,1,0
99083,-111.111111111111,4,2,2,40,0,0
99618,521.739130434783,4,2,2,40,1,0
99618,-111.111111111111,4,2,2,40,0,0
100255,487.80487804878,4,2,2,40,1,0
100255,-111.111111111111,4,2,2,40,0,0
101451,750,4,2,2,40,1,0
101451,-111.111111111111,4,2,2,40,0,0
106701,-100,4,2,2,5,0,0

[Colours]
Combo1 : 128,0,255
Combo2 : 234,74,79
Combo3 : 0,128,192
Combo4 : 255,128,0

[HitObjects]
322,67,3322,6,0,P|354:107|354:171,1,107.999996704102,10|0,0:0|0:0,0:0:0:0:
287,215,4132,1,8,0:0:0:0:
287,215,4403,2,0,P|269:262|289:323,1,107.999996704102,8|0,0:0|0:0,0:0:0:0:
447,261,5484,6,0,P|467:154|382:86,1,215.999993408203
309,105,6835,1,0,0:0:0:0:
218,252,7376,1,0,0:0:0:0:
143,295,7646,6,0,P|86:290|48:245,1,107.999996704102,8|0,0:0|0:0,0:0:0:0:
37,169,8457,1,8,0:0:0:0:
182,76,8997,2,0,P|219:74|244:83,1,53.9999983520508
288,150,9538,1,0,0:0:0:0:
288,150,9808,6,0,L|288:214,2,53.9999983520508
340,80,10619,2,0,P|362:39|475:108,1,215.999993408203
420,165,11970,6,0,P|405:220|424:280,1,107.999996704102,10|0,0:0|0:0,0:0:0:0:
487,326,12781,1,8,0:0:0:0:
487,326,13051,2,0,P|431:357|366:346,1,107.999996704102,8|0,0:0|0:0,0:0:0:0:
235,274,14132,2,0,P|152:292|231:348,1,215.999993408203
300,332,15484,2,0,L|390:269,1,107.999996704102
475,268,16295,6,0,P|491:232|479:152,1,107.999996704102,12|0,0:0|0:0,0:0:0:0:
399,171,17105,2,0,P|325:192|280:174,1,107.999996704102,8|0,0:0|0:0,0:0:0:0:
240,118,17916,1,0,0:0:0:0:
240,118,18187,2,0,P|276:63|326:38,1,107.999996704102
480,86,19268,2,0,P|443:140|393:165,1,107.999996704102
149,190,20619,6,0,P|145:247|189:305,1,107.999996704102,10|0,0:0|0:0,0:0:0:0:
252,314,21430,1,8,0:0:0:0:
252,314,21700,1,8,0:0:0:0:
300,242,21970,2,0,P|379:221|416:229,1,107.999996704102
483,258,22781,5,0,0:0:0:0:
336,346,23322,2,0,P|255:345|222:321,1,107.999996704102
308,176,24403,1,0,0:0:0:0:
451,282,24943,5,8,0:0:0:0:
451,282,25214,2,0,P|431:317|406:330,1,53.9999983520508
336,346,25754,1,8,0:0:0:0:
249,342,26024,2,0,P|207:326|183:302,2,53.9999983520508,8|0|0,0:0|0:0|0:0,0:0:0:0:
336,346,26835,1,0,0:0:0:0:
391,279,27105,5,0,0:0:0:0:
391,279,27376,2,0,L|391:209,1,53.9999983520508
354,146,27916,1,0,0:0:0:0:
290,86,28187,2,0,L|238:40,1,53.9999983520508
170,84,28727,2,0,L|210:119,1,53.9999983520508
254,195,29268,6,0,P|195:207|139:170,1,107.999996704102,10|0,0:0|0:0,0:0:0:0:
97,121,30078,1,8,0:0:0:0:
239,23,30619,2,0,P|265:57|265:126,1,107.999996704102
204,178,31430,5,0,0:0:0:0:
130,334,31970,2,0,P|176:356|243:342,1,107.999996704102
305,192,33051,1,0,0:0:0:0:
305,192,33322,1,0,0:0:0:0:
305,278,33592,5,12,0:0:0:0:
471,234,34132,2,0,L|471:299,2,53.9999983520508
471,147,34943,1,0,0:0:0:0:
437,65,35214,1,0,0:0:0:0:
437,65,35484,2,0,P|385:48|320:53,1,107.999996704102
192,151,36565,1,0,0:0:0:0:
299,285,37105,5,0,0:0:0:0:
217,313,37376,2,0,P|169:316|145:306,1,53.9999983520508
104,251,37916,5,0,0:0:0:0:
186,99,38457,2,0,L|186:36,2,53.9999983520508
186,185,39268,1,0,0:0:0:0:
258,230,39538,1,0,0:0:0:0:
258,230,39808,2,0,P|314:197|377:196,1,107.999996704102
366,365,40889,5,0,0:0:0:0:
195,335,41430,1,0,0:0:0:0:
148,262,41700,2,0,P|137:220|144:188,1,53.9999983520508
161,127,42241,6,0,P|197:86|255:77,1,107.999996704102,2|0,0:0|0:0,0:0:0:0:
374,194,43322,2,0,P|337:234|279:243,1,107.999996704102
127,178,44403,6,0,P|109:234|118:285,1,107.999996704102
267,365,45484,2,0,P|285:309|276:258,1,107.999996704102
214,100,46565,6,0,L|328:149,1,107.999996704102,2|0,0:0|0:0,0:0:0:0:
395,294,47646,2,0,L|281:245,1,107.999996704102
123,261,48727,6,0,P|130:323|163:361,1,107.999996704102
295,251,49808,2,0,P|287:188|254:150,1,107.999996704102
123,262,50889,5,2,0:0:0:0:
42,109,51430,2,0,P|36:70|39:46,2,53.9999983520508
124,79,52241,1,0,0:0:0:0:
124,79,52511,1,0,0:0:0:0:
38,229,53051,5,0,0:0:0:0:
110,277,53322,2,0,P|141:279|171:273,1,53.9999983520508
223,213,53862,1,0,0:0:0:0:
223,213,54132,2,0,P|249:214|275:224,1,53.9999983520508
337,284,54673,1,0,0:0:0:0:
176,347,55214,5,6,0:0:0:0:
360,80,56835,5,0,0:0:0:0:
437,234,57376,1,0,0:0:0:0:
163,239,58457,6,0,L|191:180,1,53.9999983520508
283,190,58997,2,0,L|255:249,1,53.9999983520508
210,315,59523,6,0,P|137:323|85:285,1,120,2|0,0:0|0:0,0:0:0:0:
59,200,60333,1,2,0:0:0:0:
59,200,60604,2,0,L|59:147,2,30,8|0|0,0:0|0:0|0:0,0:0:0:0:
149,58,61144,2,0,P|134:96|135:124,1,60
188,207,61685,5,2,0:0:0:0:
296,212,61955,2,0,L|353:173,1,60,8|0,0:0|0:0,0:0:0:0:
429,245,62495,1,2,0:0:0:0:
429,245,62766,2,0,L|372:284,1,60,8|0,0:0|0:0,0:0:0:0:
288,336,63306,1,0,0:0:0:0:
224,129,63847,6,0,P|153:93|97:98,1,120,2|0,0:0|0:0,0:0:0:0:
18,144,64658,1,2,0:0:0:0:
18,144,64928,2,0,L|18:183,2,30,8|0|0,0:0|0:0|0:0,0:0:0:0:
105,287,65468,2,0,P|131:262|142:222,1,60
105,137,66009,5,2,0:0:0:0:
193,75,66279,2,0,L|226:142,1,60,8|0,0:0|0:0,0:0:0:0:
303,187,66820,1,2,0:0:0:0:
303,187,67090,2,0,L|339:110,1,60,8|0,0:0|0:0,0:0:0:0:
309,25,67631,1,0,0:0:0:0:
182,199,68171,6,0,P|205:270|248:296,1,120,2|0,0:0|0:0,0:0:0:0:
348,305,68982,1,2,0:0:0:0:
358,199,69252,2,0,L|311:199,2,30,8|0|0,0:0|0:0|0:0,0:0:0:0:
372,90,69793,1,0,0:0:0:0:
459,153,70063,1,0,0:0:0:0:
459,153,70333,6,0,P|420:193|342:193,1,120,2|0,0:0|0:0,0:0:0:0:
278,126,71144,1,2,0:0:0:0:
278,126,71414,2,0,P|196:118|142:139,1,120,8|0,0:0|0:0,0:0:0:0:
35,304,72495,6,0,P|83:333|144:327,1,120,2|0,0:0|0:0,0:0:0:0:
206,238,73306,2,0,P|261:217|317:234,1,120,2|0,0:0|0:0,0:0:0:0:
386,319,74117,2,0,P|356:339|322:343,2,60,0|0|2,0:0|0:0|0:0,0:0:0:0:
445,228,74928,1,8,0:0:0:0:
445,228,75198,2,0,L|445:162,1,60,0|2,0:0|0:0,0:0:0:0:
360,100,75739,6,0,L|361:166,1,60,8|0,0:0|0:0,0:0:0:0:
304,251,76279,2,0,L|264:182,1,60,8|2,0:0|0:0,0:0:0:0:
203,116,76820,6,0,P|138:105|84:131,1,120,2|0,0:0|0:0,0:0:0:0:
47,225,77631,1,2,0:0:0:0:
47,225,77901,2,0,L|47:273,2,30,8|0|0,0:0|0:0|0:0,0:0:0:0:
155,352,78441,2,0,P|180:312|183:279,1,60
227,200,78982,5,2,0:0:0:0:
153,120,79252,2,0,P|147:83|153:49,1,60,8|0,0:0|0:0,0:0:0:0:
249,17,79793,1,2,0:0:0:0:
249,17,80063,2,0,P|280:37|300:65,1,60,8|0,0:0|0:0,0:0:0:0:
350,147,80604,1,0,0:0:0:0:
188,289,81144,6,0,P|127:303|55:275,1,120,2|0,0:0|0:0,0:0:0:0:
21,192,81955,1,2,0:0:0:0:
21,192,82225,2,0,L|21:144,2,30,8|0|0,0:0|0:0|0:0,0:0:0:0:
130,64,82766,2,0,P|175:49|199:52,1,60
290,80,83306,5,2,0:0:0:0:
381,137,83577,2,0,L|345:195,1,60,8|0,0:0|0:0,0:0:0:0:
435,253,84117,1,2,0:0:0:0:
435,253,84387,2,0,L|371:289,1,60,8|0,0:0|0:0,0:0:0:0:
286,331,84928,1,0,0:0:0:0:
182,140,85468,6,0,P|199:83|261:41,1,120,2|0,0:0|0:0,0:0:0:0:
351,24,86279,1,2,0:0:0:0:
417,109,86550,2,0,L|465:109,2,30,8|0|0,0:0|0:0|0:0,0:0:0:0:
461,208,87090,1,0,0:0:0:0:
409,302,87360,1,0,0:0:0:0:
409,302,87631,6,0,P|358:262|352:196,1,120,2|0,0:0|0:0,0:0:0:0:
424,133,88441,1,2,0:0:0:0:
424,133,88712,2,0,P|411:75|363:41,1,120,8|0,0:0|0:0,0:0:0:0:
220,202,89793,6,0,P|157:214|97:178,1,120,2|0,0:0|0:0,0:0:0:0:
77,86,90604,1,2,0:0:0:0:
77,86,90874,2,0,L|153:57,1,60,8|0,0:0|0:0,0:0:0:0:
240,73,91414,2,0,L|265:114,2,30
310,225,91955,5,0,0:0:0:0:
244,311,92225,2,0,L|181:295,2,60,8|0|2,0:0|0:0|0:0,0:0:0:0:
352,322,93036,2,0,P|396:293|410:246,1,90,8|8,0:0|0:0,0:0:0:0:
403,205,93577,2,0,L|379:134,1,60,8|8,0:0|0:3,0:0:0:0:
284,136,94127,6,0,P|236:187|99:142,1,215.999993408203,4|0,0:0|0:0,0:0:0:0:
229,35,95748,1,0,0:0:0:0:
315,28,96018,1,0,0:0:0:0:
390,71,96289,2,0,P|418:113|330:246,1,215.999993408203
59,179,98436,6,0,P|61:232|70:253,1,53.9999983520508
129,305,99083,6,0,P|157:263|160:239,1,53.9999983520508
144,171,99618,6,0,P|149:130|162:104,1,53.9999983520508
262,41,100255,6,0,P|317:57|348:118,1,107.999996704102
256,192,101451,12,0,106701,0:0:0:0:
