osu file format v14

[General]
AudioFilename: audio.mp3
AudioLeadIn: 0
PreviewTime: 153634
Countdown: 0
SampleSet: Soft
StackLeniency: 0.7
Mode: 0
LetterboxInBreaks: 0
WidescreenStoryboard: 0

[Editor]
DistanceSpacing: 1.8
BeatDivisor: 8
GridSize: 4
TimelineZoom: 3.199999

[Metadata]
Title:from now on & Memories
TitleUnicode:from now on & Memories
Artist:FELT
ArtistUnicode:FELT
Creator:Zekk
Version:Expert
Source:東方神霊廟 ~ Ten Desires.
Tags:古きユアンシェン seiga kaku c95 pure heart 舞花 maika NAGI☆ touhou project Video Game Japanese 東方Project ZUN Team Shanghai Alice Comiket 95 TH13 Desire Drive Old Yuanxian TD 上海アリス幻樂団 太田 順也 霍青娥 pop and
BeatmapID:3349333
BeatmapSetID:1641015

[Difficulty]
HPDrainRate:6
CircleSize:4.4
OverallDifficulty:9
ApproachRate:9.4
SliderMultiplier:1.84
SliderTickRate:1

[Events]
//Background and Video events
0,0,"memories.jpg",0,0
//Break Periods
//Storyboard Layer 0 (Background)
//Storyboard Layer 1 (Fail)
//Storyboard Layer 2 (Pass)
//Storyboard Layer 3 (Foreground)
//Storyboard Layer 4 (Overlay)
//Storyboard Sound Samples

[TimingPoints]
7583,594.059405940594,4,2,1,35,1,0
7583,-166.666666666667,4,2,2,35,0,0
26593,-166.666666666667,4,2,2,45,0,0
45602,-166.666666666667,4,2,2,45,0,0
64167,-100,4,2,2,45,0,0
64612,-100,4,2,2,55,0,0
83622,-100,4,2,1,35,0,0
84810,-125,4,2,1,35,0,0
102634,300,4,2,1,45,1,0
102634,-200,4,2,1,45,0,0
112234,-147.058823529412,4,2,1,55,0,0
123034,-147.058823529412,4,2,1,65,0,0
132634,-133.333333333333,4,2,1,65,0,0
149434,-117.647058823529,4,2,1,73,0,0
161434,-166.666666666667,4,2,1,65,0,0
177034,-166.666666666667,4,2,1,70,0,0
177934,-105.263157894737,4,2,1,70,0,0
196234,-133.333333333333,4,2,1,65,0,0
201034,-100,4,2,1,75,0,0
208234,-125,4,2,1,65,0,0
209434,-87.719298245614,4,2,1,85,0,1
228634,-833.333333333333,4,2,1,40,0,0
231484,-250,4,2,1,40,0,0
237184,-133.333333333333,4,2,1,65,0,0
237484,-105.263157894737,4,2,1,65,0,0
238234,-111.111111111111,4,2,1,75,0,0
247834,-133.333333333333,4,2,1,75,0,0
265834,-1000,4,2,1,75,0,0
270634,-1000,4,2,1,55,0,0
279034,-133.333333333333,4,2,1,55,0,0
288634,-87.719298245614,4,2,1,85,0,1
307834,-333.333333333333,4,2,1,65,0,0

[Colours]
Combo1 : 255,94,55
Combo2 : 173,255,95
Combo3 : 17,254,176
Combo4 : 255,88,100

[HitObjects]
349,371,6395,5,2,2:0:0:0:
349,371,6692,1,2,2:0:0:0:
293,283,6989,5,2,2:0:0:0:
326,211,7286,1,2,2:0:0:0:
413,167,7583,6,0,P|407:111|356:80,1,110.4,2|0,2:0|2:0,2:0:0:0:
286,134,8474,1,0,2:0:0:0:
228,28,8771,5,2,2:0:0:0:
186,89,9068,1,2,2:0:0:0:
127,185,9365,5,2,2:0:0:0:
127,185,9662,1,2,2:0:0:0:
4,73,9959,6,0,B|63:70|61:89|122:86,1,110.4,2|0,2:0|2:0,2:0:0:0:
65,7,10850,1,0,2:0:0:0:
201,72,11147,5,2,2:0:0:0:
201,72,11444,1,2,2:0:0:0:
300,24,11741,5,2,2:0:0:0:
379,76,12038,1,2,2:0:0:0:
486,45,12335,6,0,B|485:93|468:104|461:163,1,110.4,2|0,2:0|2:0,2:0:0:0:
487,222,13226,1,0,2:0:0:0:
387,169,13523,5,2,2:0:0:0:
347,232,13820,1,2,2:0:0:0:
442,335,14117,5,2,2:0:0:0:
442,335,14414,1,2,2:0:0:0:
341,317,14711,6,0,P|287:331|231:339,1,110.4,2|0,2:0|2:0,2:0:0:0:
154,384,15602,1,0,2:0:0:0:
198,266,15899,5,2,2:0:0:0:
198,266,16196,1,2,2:0:0:0:
126,198,16494,5,2,2:0:0:0:
156,125,16791,1,2,2:0:0:0:
84,58,17088,6,0,B|107:106|149:97|169:65|113:76,1,110.4,2|0,2:0|2:0,2:0:0:0:
68,146,17979,1,0,2:0:0:0:
126,198,18276,5,2,2:0:0:0:
152,268,18573,1,2,2:0:0:0:
76,339,18870,5,2,2:0:0:0:
76,339,19167,1,2,2:0:0:0:
172,384,19464,6,0,P|219:358|289:355,1,110.4,2|0,2:0|2:0,2:0:0:0:
346,380,20355,1,0,2:0:0:0:
320,280,20652,5,2,2:0:0:0:
320,280,20949,1,2,2:0:0:0:
394,210,21246,5,2,2:0:0:0:
359,146,21543,1,2,2:0:0:0:
261,88,21840,6,0,P|271:40|335:23,1,110.4,2|0,2:0|2:0,2:0:0:0:
374,79,22731,1,0,2:0:0:0:
512,3,23028,5,2,2:0:0:0:
443,35,23325,1,2,2:0:0:0:
460,161,23622,5,2,2:0:0:0:
460,161,23919,1,2,2:0:0:0:
380,112,24216,6,0,P|333:130|269:144,1,110.4,2|0,2:0|2:0,2:0:0:0:
355,203,25107,1,0,2:0:0:0:
224,301,25404,5,2,2:0:0:0:
259,236,25701,1,2,2:0:0:0:
386,345,25998,5,2,2:0:0:0:
276,384,26295,1,2,2:0:0:0:
144,307,26593,6,0,B|96:300|90:326|19:317,1,110.4,6|2,3:2|2:0,2:0:0:0:
137,220,27484,1,0,2:0:0:0:
8,147,27781,5,2,2:0:0:0:
51,245,28078,1,2,2:0:0:0:
148,113,28375,5,10,0:2:0:0:
82,72,28672,1,10,3:2:0:0:
204,206,28969,6,0,P|243:188|327:172,1,110.4,2|2,3:2|3:2,2:0:0:0:
362,227,29860,1,0,2:0:0:0:
446,73,30157,5,2,2:0:0:0:
379,104,30454,1,2,2:0:0:0:
472,220,30751,5,8,0:2:0:0:
326,159,31048,1,2,2:0:0:0:
362,357,31345,6,0,B|378:303|355:298|371:228,1,110.4,2|2,3:2|2:0,2:0:0:0:
445,328,32236,1,0,2:0:0:0:
291,298,32533,5,2,2:0:0:0:
202,342,32830,1,2,2:0:0:0:
198,167,33127,5,10,0:2:0:0:
198,167,33276,1,8,0:2:0:0:
262,207,33424,1,8,0:2:0:0:
108,247,33721,6,0,P|62:255|-14:293,1,110.4,2|2,3:2|2:0,2:0:0:0:
41,183,34612,1,0,2:0:0:0:
161,329,34909,5,2,3:2:0:0:
203,267,35206,1,0,2:0:0:0:
287,153,35503,5,10,0:2:0:0:
377,257,35800,1,10,0:2:0:0:
291,345,36097,6,0,B|351:343|341:361|422:355,1,110.4,2|2,3:2|2:0,2:0:0:0:
482,380,36989,1,0,2:0:0:0:
395,265,37286,5,2,2:0:0:0:
440,158,37583,1,2,2:0:0:0:
300,69,37880,5,8,0:2:0:0:
330,140,38177,1,10,0:2:0:0:
485,24,38474,6,0,P|445:43|371:57,1,110.4,2|2,3:2|3:2,2:0:0:0:
330,140,39365,1,0,2:0:0:0:
191,20,39662,5,2,2:0:0:0:
263,59,39959,1,2,2:0:0:0:
113,188,40256,5,10,0:2:0:0:
75,92,40553,1,10,0:2:0:0:
36,212,40850,6,0,B|98:205|92:222|168:215,1,110.4,2|2,3:2|2:0,2:0:0:0:
182,296,41741,1,0,2:0:0:0:
279,190,42038,5,2,2:0:0:0:
219,228,42335,1,2,2:0:0:0:
366,355,42632,5,10,0:2:0:0:
366,355,42781,1,8,0:2:0:0:
295,279,42929,1,10,0:2:0:0:
396,284,43226,6,0,P|446:257|516:245,1,110.4,2|2,3:2|2:0,2:0:0:0:
377,172,44117,1,0,2:0:0:0:
498,127,44414,5,10,0:2:0:0:
446,214,44711,1,10,0:2:0:0:
354,93,45008,5,10,0:2:0:0:
420,52,45305,1,10,0:2:0:0:
279,195,45602,6,0,P|243:180|214:173,1,55.1999983154297,2|2,3:2|2:0,2:0:0:0:
167,219,46196,1,2,0:0:0:0:
167,219,46494,1,2,2:0:0:0:
56,53,46791,5,2,2:0:0:0:
142,93,47088,1,2,2:0:0:0:
0,206,47385,5,10,3:2:0:0:
50,203,47533,1,10,3:2:0:0:
83,165,47682,1,10,3:2:0:0:
145,340,47979,6,0,P|143:308|132:272,1,55.1999983154297,2|0,3:2|2:0,2:0:0:0:
161,216,48573,1,2,3:2:0:0:
64,296,48870,1,2,2:0:0:0:
211,278,49167,5,2,2:0:0:0:
307,349,49464,1,2,2:0:0:0:
382,287,49761,5,10,3:2:0:0:
512,217,50058,1,10,0:2:0:0:
310,164,50355,6,0,P|304:142|303:99,1,55.1999983154297,2|0,3:2|2:0,2:0:0:0:
359,31,50949,1,2,2:0:0:0:
416,81,51246,1,2,2:0:0:0:
246,20,51543,6,0,P|218:31|185:35,1,55.1999999999999,2|2,2:0|2:0,2:0:0:0:
71,139,52137,1,10,3:2:0:0:
45,72,52286,1,8,3:2:0:0:
93,18,52434,1,10,3:2:0:0:
216,177,52731,6,0,P|224:206|229:248,1,55.1999983154297,2|2,3:2|2:0,2:0:0:0:
158,341,53325,1,2,2:0:0:0:
123,276,53622,1,2,0:0:0:0:
307,234,53919,5,2,3:2:0:0:
270,353,54216,1,2,2:0:0:0:
381,186,54513,5,10,3:2:0:0:
440,336,54810,1,10,0:2:0:0:
498,132,55107,6,0,P|471:157|400:176,1,110.4,2|2,3:2|2:0,2:0:0:0:
351,115,55998,1,2,2:0:0:0:
440,0,56295,6,0,P|430:38|411:68,1,55.1999999999999,2|2,2:0|2:0,2:0:0:0:
254,187,56890,2,0,P|242:162|236:135,1,55.1999983154297,10|2,0:2|2:0,2:0:0:0:
305,12,57484,6,0,P|267:30|235:36,1,55.1999983154297,2|2,3:2|0:2,2:0:0:0:
145,16,58078,1,2,3:2:0:0:
182,82,58375,1,2,2:0:0:0:
174,168,58672,5,2,2:0:0:0:
294,120,58969,1,2,2:0:0:0:
91,154,59266,5,10,3:2:0:0:
302,225,59563,1,10,3:2:0:0:
85,293,59860,6,0,P|117:287|153:272,1,55.1999983154297,2|0,3:2|2:0,2:0:0:0:
237,383,60454,1,2,2:0:0:0:
205,317,60751,1,2,0:0:0:0:
304,220,61048,6,0,P|298:251|288:279,1,55.1999983154297,2|2,2:0|2:0,2:0:0:0:
428,378,61642,1,10,3:2:0:0:
470,318,61791,1,8,3:2:0:0:
420,264,61939,1,10,3:2:0:0:
489,169,62236,6,0,P|493:197|501:222,1,55.1999983154297,2|2,3:2|2:0,2:0:0:0:
379,135,62830,1,2,0:0:0:0:
431,84,63127,1,2,0:0:0:0:
285,31,63424,1,10,0:0:0:0:
306,103,63721,1,10,0:0:0:0:
386,5,64018,1,2,0:0:0:0:
269,115,64167,6,0,P|250:111|229:104,5,23,0|0|0|0|0|0,3:0|3:0|3:0|3:0|3:0|3:0,0:0:0:0:
215,82,64612,6,0,P|172:103|115:111,1,92,2|0,3:2|2:0,2:0:0:0:
0,175,65058,2,0,P|45:183|86:203,1,92,0|0,3:0|2:0,2:0:0:0:
138,277,65503,1,0,3:0:0:0:
53,113,65800,5,10,0:2:0:0:
53,113,66395,6,0,P|66:75|61:-4,1,92,2|2,3:2|3:2,2:0:0:0:
143,88,66840,1,0,3:0:0:0:
143,88,66989,2,0,B|210:96|215:57|306:68,1,138,2|0,3:2|3:0,2:0:0:0:
361,21,67731,1,0,3:0:0:0:
361,21,67880,2,0,P|368:57|391:90,1,46,0|0,3:0|2:0,2:0:0:0:
496,176,68177,6,0,P|424:182|366:218,1,138,10|0,2:2|2:0,2:0:0:0:
300,245,68696,1,0,3:0:0:0:
310,259,68771,1,2,3:2:0:0:
371,65,69068,1,2,2:0:0:0:
214,171,69365,6,0,B|153:169|164:212|39:210,1,138,2|0,3:2|3:0,2:0:0:0:
28,132,70107,1,0,3:0:0:0:
28,132,70256,2,0,P|18:170|1:202,1,46,0|0,3:0|2:0,2:0:0:0:
174,343,70553,6,0,P|195:282|129:227,1,138,10|0,2:0|2:0,2:0:0:0:
47,306,71147,2,0,P|77:297|117:278,1,46,2|0,3:2|3:0,2:0:0:0:
151,230,71444,1,2,3:2:0:0:
151,230,71593,1,0,3:2:0:0:
266,311,71741,6,0,B|312:317|350:272|350:272|326:326|359:365,1,184,2|2,3:2|2:0,2:0:0:0:
413,313,72484,1,0,3:0:0:0:
337,241,72632,2,0,P|337:212|362:189,1,46,2|0,3:2|0:0,2:0:0:0:
512,122,72929,6,0,B|446:123|456:86|376:84,1,138,10|0,0:2|2:0,2:0:0:0:
290,32,73449,1,0,3:0:0:0:
290,32,73523,2,0,P|313:24|347:3,1,46,2|0,3:2|2:0,2:0:0:0:
210,141,73820,2,0,P|230:151|252:159,1,46,2|0,3:2|2:0,2:0:0:0:
129,32,74117,6,0,P|87:30|45:84,1,92,2|0,3:2|2:0,2:0:0:0:
50,61,74563,2,0,P|63:112|65:190,1,92,0|0,3:0|2:0,2:0:0:0:
9,198,75008,1,0,3:0:0:0:
9,198,75305,6,0,B|81:185|79:232|154:211,1,138,10|0,0:2|2:0,2:0:0:0:
222,312,75899,2,0,P|218:289|209:268,1,46,2|0,3:2|2:0,2:0:0:0:
131,314,76196,1,2,3:2:0:0:
131,314,76345,1,0,3:0:0:0:
301,384,76494,6,0,P|331:350|340:274,1,92,2|0,3:2|2:0,2:0:0:0:
304,233,76939,2,0,P|327:260|390:281,1,92,0|0,3:0|3:0,2:0:0:0:
439,240,77385,1,0,3:0:0:0:
439,240,77682,6,0,B|467:178|418:166|448:90,1,138,10|0,2:2|2:0,2:0:0:0:
357,41,78201,1,0,3:0:0:0:
357,41,78276,2,0,P|313:78|232:93,1,138,2|0,3:2|2:0,2:0:0:0:
135,55,78870,6,0,P|149:86|153:145,1,92,2|0,3:2|2:0,2:0:0:0:
216,177,79315,2,0,P|187:218|129:233,1,92,0|0,3:0|3:0,2:0:0:0:
78,265,79761,1,0,3:0:0:0:
78,265,80058,6,0,P|124:272|212:320,1,138,10|0,2:2|2:0,2:0:0:0:
322,384,80652,2,0,P|311:349|308:309,1,46,2|0,3:2|3:0,2:0:0:0:
245,384,80949,1,2,3:2:0:0:
245,384,81097,1,10,3:2:0:0:
269,280,81246,6,0,P|272:246|303:197,1,92,2|0,3:2|2:0,2:0:0:0:
246,147,81692,2,0,P|291:125|350:132,1,92,2|0,2:0|3:0,2:0:0:0:
432,258,82137,1,2,3:2:0:0:
432,258,82434,6,0,B|417:193|465:199|424:85,1,138,10|0,0:2|2:0,2:0:0:0:
499,23,83028,2,0,P|476:37|443:38,1,46,2|0,3:2|2:0,2:0:0:0:
377,73,83325,2,0,P|354:68|335:56,1,46,2|0,3:2|2:0,2:0:0:0:
247,1,83622,5,2,2:0:0:0:
250,81,83919,1,2,2:0:0:0:
184,47,84216,1,2,2:0:0:0:
267,162,84513,1,2,2:0:0:0:
160,137,84810,6,0,P|127:153|83:163,1,73.6,2|2,2:0|2:0,2:0:0:0:
2,243,85404,2,0,P|37:251|70:267,1,73.6,2|2,2:0|2:0,2:0:0:0:
169,351,85998,6,0,P|193:306|291:316,1,147.2,2|2,2:0|2:0,2:0:0:0:
345,361,86890,1,2,2:0:0:0:
411,224,87187,5,2,2:0:0:0:
456,312,87484,1,2,2:0:0:0:
497,192,87781,1,2,2:0:0:0:
337,260,88078,1,2,2:0:0:0:
406,146,88375,6,0,P|407:99|346:7,1,147.2,2|0,2:0|2:0,2:0:0:0:
489,84,89266,1,2,2:0:0:0:
348,24,89563,5,2,2:0:0:0:
449,0,89860,1,2,2:0:0:0:
301,102,90157,1,2,2:0:0:0:
466,169,90454,1,2,2:0:0:0:
285,110,90751,6,0,P|226:121|144:178,1,147.2,2|0,2:0|2:0,2:0:0:0:
49,64,91642,2,0,P|75:81|105:89,1,36.8,2|0,2:0|2:0,2:0:0:0:
153,167,91939,6,0,P|173:159|184:152,8,18.4,2|2|2|2|2|2|2|2|2,2:0|2:0|2:0|2:0|2:0|2:0|2:0|2:0|2:0,2:0:0:0:
52,257,92830,1,2,2:0:0:0:
196,235,93127,6,0,B|271:222|269:267|346:252,1,147.2,2|0,2:0|2:0,2:0:0:0:
246,377,94018,2,0,P|236:356|232:314,1,36.8,2|0,2:0|2:0,2:0:0:0:
162,307,94315,6,0,P|120:326|76:336,1,73.6,2|2,2:0|2:0,2:0:0:0:
56,161,94909,1,2,2:0:0:0:
172,225,95206,1,2,2:0:0:0:
131,10,95503,6,0,B|154:81|113:84|138:160,1,147.2,2|0,2:0|2:0,2:0:0:0:
64,53,96395,1,2,2:0:0:0:
206,112,96692,6,0,P|219:109|232:102,6,18.4,0|0|0|0|0|0|0,2:0|2:0|2:0|2:0|2:0|2:0|2:0,2:0:0:0:
321,29,97286,1,2,2:0:0:0:
311,106,97434,1,2,2:0:0:0:
295,184,97583,1,2,2:0:0:0:
453,360,97880,5,2,2:0:0:0:
453,360,98078,1,2,2:0:0:0:
453,360,98177,2,0,P|429:314|333:312,1,147.2,2|0,2:0|2:0,2:0:0:0:
236,370,99068,1,2,2:0:0:0:
290,237,99365,1,2,2:0:0:0:
187,291,99662,1,2,2:0:0:0:
317,378,99959,1,2,2:0:0:0:
187,291,100256,6,0,B|108:303|121:258|35:279,1,147.2,2|2,3:2|2:0,2:0:0:0:
188,167,101444,1,2,2:0:0:0:
258,377,102634,6,0,P|260:333|271:282,1,92,2|2,3:2|2:0,2:0:0:0:
383,174,103084,2,0,P|351:207|297:221,1,92,2|2,2:0|2:0,2:0:0:0:
202,243,103534,2,0,B|147:240|159:225|100:224,1,92,2|2,2:0|2:0,2:0:0:0:
56,268,103984,1,2,2:0:0:0:
276,170,105034,6,0,P|285:117|252:83,1,92,2|2,2:0|2:0,2:0:0:0:
111,43,105484,2,0,P|139:68|201:89,1,92,2|2,2:0|2:0,2:0:0:0:
324,31,105934,2,0,B|381:35|374:20|425:24,1,92,2|2,2:0|2:0,2:0:0:0:
201,207,106534,1,2,2:0:0:0:
427,384,106834,6,0,P|443:321|362:270,1,161,2|0,2:0|2:0,2:0:0:0:
354,276,107434,6,0,B|309:274|313:287|251:284,1,92,2|0,2:0|2:0,2:0:0:0:
183,352,107884,2,0,P|130:347|99:310,1,92,2|2,2:0|2:0,2:0:0:0:
138,243,108284,2,0,P|123:200|118:148,1,92,2|2,2:0|2:0,2:0:0:0:
34,240,109159,1,2,2:0:0:0:
56,24,109834,6,0,P|49:68|74:114,1,92,2|2,2:0|2:0,2:0:0:0:
160,183,110284,2,0,B|206:185|201:169|252:172,1,92,2|0,2:0|2:0,2:0:0:0:
326,121,110734,2,0,P|351:135|383:148,1,46,2|0,2:0|2:0,2:0:0:0:
474,215,111034,6,0,P|420:221|378:248,2,92,2|2|0,2:0|2:0|2:0,2:0:0:0:
402,178,111709,1,0,3:0:0:0:
406,200,111784,1,0,3:0:0:0:
411,222,111859,2,0,L|406:251,3,23,0|0|0|0,3:0|3:0|3:0|3:0,2:0:0:0:
470,313,112159,5,8,3:0:0:0:
470,313,112234,2,0,B|417:303|407:329|337:311,1,125.12,8|0,3:0|2:0,2:0:0:0:
208,375,112684,2,0,P|182:328|218:258,1,125.12,2|0,2:0|2:0,2:0:0:0:
269,191,113134,2,0,P|251:161|238:122,1,62.5599999999999,2|0,2:0|2:0,2:0:0:0:
313,57,113434,1,2,2:0:0:0:
313,57,113734,1,2,2:0:0:0:
363,106,113884,1,2,2:0:0:0:
438,47,114034,6,0,P|462:61|499:74,1,62.5599999999999,2|0,2:0|2:0,2:0:0:0:
429,187,114334,2,0,P|399:197|372:212,1,62.5599999999999,2|0,2:0|2:0,2:0:0:0:
512,384,114634,6,0,P|520:344|485:264,1,125.12,2|0,2:0|2:0,2:0:0:0:
354,308,115084,2,0,B|297:297|291:327|218:313,1,125.12,2|0,2:0|2:0,2:0:0:0:
165,271,115534,1,2,2:0:0:0:
92,316,115684,1,2,2:0:0:0:
89,209,115834,5,2,2:0:0:0:
177,264,115984,1,2,2:0:0:0:
79,133,116134,5,2,2:0:0:0:
162,86,116284,1,2,2:0:0:0:
61,123,116434,6,0,L|-17:96,1,62.5599999999999,2|0,2:0|2:0,2:0:0:0:
219,153,116734,2,0,L|297:126,1,62.5599999999999,2|0,2:0|2:0,2:0:0:0:
359,49,117034,6,0,P|402:50|451:110,1,125.12,2|0,2:0|2:0,2:0:0:0:
381,190,117484,2,0,B|361:252|382:251|364:323,1,125.12,2|0,2:0|2:0,2:0:0:0:
494,375,117934,2,0,P|462:367|423:349,1,62.5599999999999,2|0,2:0|2:0,2:0:0:0:
290,271,118234,2,0,P|243:277|173:327,1,125.12,2|0,2:0|2:0,2:0:0:0:
138,384,118684,1,2,2:0:0:0:
61,283,118834,2,0,L|73:335,2,31.28,0|0|0,3:0|3:0|3:0,2:0:0:0:
181,168,119134,5,2,3:2:0:0:
150,234,119284,1,2,2:0:0:0:
20,146,119434,6,0,P|81:123|133:72,1,125.12,2|0,2:0|2:0,2:0:0:0:
233,12,119884,2,0,P|207:67|196:140,1,125.12,2|0,2:0|2:0,2:0:0:0:
202,244,120334,2,0,P|161:204|113:176,1,93.8399999999999,2|0,2:0|2:0,2:0:0:0:
130,184,120634,6,0,P|91:205|87:285,1,125.12,2|0,2:0|2:0,2:0:0:0:
50,367,121084,1,2,2:0:0:0:
177,323,121234,5,2,3:2:0:0:
264,384,121384,1,0,2:0:0:0:
401,291,121534,5,2,3:2:0:0:
466,253,121684,1,0,2:0:0:0:
64,346,123034,6,0,P|68:327|74:304,3,31.28,2|2|2|2,3:2|2:0|2:0|2:0,2:0:0:0:
184,219,123409,2,0,P|180:200|174:177,3,31.28,2|2|2|2,2:0|3:2|2:0|2:0,2:0:0:0:
423,58,125284,5,2,2:0:0:0:
423,58,125359,1,2,2:0:0:0:
423,58,125434,2,0,P|408:72|376:81,3,31.28,2|2|2|2,3:2|2:0|2:0|2:0,2:0:0:0:
276,134,125809,2,0,P|258:129|232:116,3,31.28,2|2|2|2,2:0|3:2|2:0|2:0,2:0:0:0:
101,28,127534,5,2,2:0:0:0:
131,96,127684,1,2,2:0:0:0:
28,209,127834,6,0,P|50:198|76:182,3,31.28,2|2|2|2,3:2|2:0|2:0|2:0,2:0:0:0:
205,96,128209,2,0,P|218:103|232:110,3,31.28,2|2|2|2,2:0|3:2|2:0|2:0,2:0:0:0:
404,210,128734,6,0,P|354:204|306:269,1,125.12,0|0,3:0|2:0,2:0:0:0:
232,342,129184,2,0,P|182:348|134:283,1,125.12,0|0,3:0|2:0,2:0:0:0:
243,182,129634,5,2,2:0:0:0:
217,252,129784,1,2,2:0:0:0:
124,169,129934,2,0,B|121:129|131:127|118:59,1,93.8399999999999,2|0,2:0|2:0,2:0:0:0:
120,75,130234,6,0,P|144:86|162:89,3,31.28,2|2|2|2,3:2|2:0|2:0|2:0,2:0:0:0:
0,168,130609,2,0,P|14:163|28:156,3,31.28,2|2|2|2,2:0|3:2|2:0|2:0,2:0:0:0:
199,246,130984,5,2,2:0:0:0:
124,169,131134,2,0,L|112:244,1,62.5599999999999,0|0,3:0|2:0,2:0:0:0:
67,288,131359,1,2,2:0:0:0:
66,299,131434,2,0,L|80:340,1,31.28,2|0,2:0|2:0,2:0:0:0:
0,254,131584,1,0,3:0:0:0:
478,25,132634,6,0,P|456:37|424:47,4,34.5000000000001,2|2|2|2|2,3:2|2:0|2:0|2:0|2:0,2:0:0:0:
321,143,133084,1,2,3:2:0:0:
321,143,133159,1,2,0:2:0:0:
173,26,133534,1,2,2:0:0:0:
173,26,133984,5,0,3:0:0:0:
232,267,134284,1,0,3:0:0:0:
34,118,134584,6,0,P|84:145|149:159,1,103.5,2|0,2:0|2:0,2:0:0:0:
190,121,134884,1,2,2:0:0:0:
58,220,135034,6,0,P|64:249|72:268,4,34.5000000000001,2|2|2|2|2,3:2|2:0|2:0|2:0|2:0,2:0:0:0:
203,384,135484,1,2,3:2:0:0:
203,384,135559,1,2,0:2:0:0:
371,123,135934,2,0,P|414:166|391:251,1,138,8|0,2:1|2:0,2:0:0:0:
275,104,136384,5,0,3:0:0:0:
275,104,136459,1,0,3:0:0:0:
275,104,136534,2,0,P|251:114|212:120,1,34.5000000000001,0|0,3:0|3:0,2:0:0:0:
156,166,136684,2,0,P|139:160|123:153,1,34.5000000000001,0|0,1:0|2:0,2:0:0:0:
238,231,136834,1,2,2:1:0:0:
101,135,136984,6,0,P|65:151|6:159,1,69.0000000000002,0|0,3:0|3:0,2:0:0:0:
161,49,137284,1,0,3:0:0:0:
36,157,137434,6,0,P|84:145|142:225,1,138,2|0,3:2|2:0,2:0:0:0:
96,258,137809,1,2,2:0:0:0:
92,267,137884,2,0,L|101:310,1,34.5000000000001,2|2,2:0|3:2,2:0:0:0:
60,384,138334,6,0,P|117:337|186:355,1,138,2|0,3:2|2:0,2:0:0:0:
281,384,138784,2,0,B|354:393|348:355|428:360,1,138,2|0,3:2|2:0,2:0:0:0:
291,237,139234,5,2,2:0:0:0:
318,305,139384,1,2,2:0:0:0:
418,180,139534,6,0,P|411:220|396:260,1,69.0000000000002,2|0,2:0|2:0,2:0:0:0:
199,154,139834,6,0,P|196:94|280:63,1,138,2|0,3:2|2:0,2:0:0:0:
327,122,140284,2,0,B|402:119|394:154|490:142,1,138,2|0,3:2|2:0,2:0:0:0:
376,31,140734,5,0,3:2:0:0:
199,154,140884,1,2,1:0:0:0:
363,195,141034,5,0,3:0:0:0:
257,57,141184,1,8,1:0:0:0:
327,122,141334,5,8,3:0:0:0:
210,235,141534,5,2,3:0:0:0:
165,222,141634,5,2,3:0:0:0:
120,216,141734,5,2,3:0:0:0:
74,217,141834,5,2,3:0:0:0:
107,127,141934,5,0,1:0:0:0:
107,127,142009,2,0,L|98:97,2,17.2500006580353,2|0|2,1:3|1:3|1:3,1:3:0:0:
29,70,142159,5,2,1:3:0:0:
29,70,142234,2,0,B|97:79|95:33|180:50,1,138,4|2,2:0|3:2,2:0:0:0:
222,92,142684,1,2,2:0:0:0:
290,16,142834,1,8,2:1:0:0:
290,16,143284,6,0,P|320:63|411:73,1,138,2|0,3:2|2:0,2:0:0:0:
283,227,143734,1,2,3:2:0:0:
313,157,143884,1,2,2:0:0:0:
283,227,144034,1,8,2:1:0:0:
283,227,144334,6,0,P|250:240|201:248,1,69.0000000000002,2|0,2:0|2:0,2:0:0:0:
83,332,144634,6,0,P|139:330|197:393,1,138,0|2,3:0|3:2,2:0:0:0:
107,248,145084,2,0,B|97:172|131:183|115:104,1,138,2|0,2:0|2:0,2:0:0:0:
56,77,145534,1,2,2:0:0:0:
199,113,145684,6,0,P|237:88|334:62,1,138,2|0,3:2|2:0,2:0:0:0:
412,102,146134,2,0,P|440:122|488:142,1,69.0000000000002,2|0,3:2|2:0,2:0:0:0:
319,162,146434,2,0,P|301:201|356:285,1,138,8|2,2:1|2:0,2:0:0:0:
481,366,147034,6,0,P|448:354|407:328,1,69.0000000000002,0|0,3:0|2:0,2:0:0:0:
275,248,147334,2,0,P|245:265|212:276,1,69.0000000000002,2|0,3:2|2:0,2:0:0:0:
447,162,147634,1,2,3:2:0:0:
408,240,147784,1,0,2:0:0:0:
318,149,147934,2,0,P|320:109|346:78,1,69.0000000000002,2|0,3:2|2:0,2:0:0:0:
212,275,148234,6,0,P|209:220|140:141,1,138,2|2,3:1|3:1,2:0:0:0:
62,132,148684,1,0,3:0:0:0:
62,132,148759,1,0,3:0:0:0:
62,132,148834,2,0,P|22:152|-5:158,1,69.0000000000002,2|0,3:1|2:0,2:0:0:0:
186,55,149134,2,0,P|152:45|122:29,1,69.0000000000002,2|0,3:1|2:0,2:0:0:0:
272,194,149434,6,0,B|351:184|348:216|434:205,1,156.400000000001,4|0,2:1|3:0,2:0:0:0:
297,286,149884,1,0,2:0:0:0:
377,128,150034,1,2,3:1:0:0:
490,257,150184,1,0,3:0:0:0:
263,176,150334,5,2,3:1:0:0:
454,132,150484,1,0,2:1:0:0:
231,27,150634,5,6,3:1:0:0:
297,62,150784,1,0,2:0:0:0:
187,105,150934,5,0,3:0:0:0:
321,59,151084,1,0,2:0:0:0:
360,255,151234,5,2,3:1:0:0:
174,194,151384,1,0,2:0:0:0:
229,320,151534,5,0,3:1:0:0:
426,193,151684,1,0,2:0:0:0:
202,342,151834,6,0,P|163:334|120:318,1,78.2000000000003,4|0,3:0|2:0,2:0:0:0:
0,178,152134,2,0,P|39:170|82:154,1,78.2000000000003,0|0,3:0|2:0,2:0:0:0:
113,66,152434,5,8,3:0:0:0:
246,180,152584,1,8,3:0:0:0:
238,35,152734,1,8,3:0:0:0:
129,236,152884,1,8,3:0:0:0:
256,384,154234,5,4,2:1:0:0:
345,202,156634,5,2,2:0:0:0:
137,29,159034,5,2,2:0:0:0:
424,198,160234,5,2,2:0:0:0:
247,332,160534,1,2,2:0:0:0:
212,208,160834,5,2,2:0:0:0:
104,125,161134,1,2,2:0:0:0:
5,332,161434,6,0,P|44:290|101:290,1,110.4,2|0,2:0|2:0,2:0:0:0:
160,356,161884,1,2,2:0:0:0:
105,281,162034,6,0,B|165:269|157:299|230:276,1,110.4,2|0,2:0|2:0,2:0:0:0:
321,207,162634,6,0,P|323:141|286:107,1,110.4,2|0,2:0|2:0,2:0:0:0:
400,203,163084,1,2,2:0:0:0:
271,96,163234,6,0,P|207:121|146:136,1,110.4,2|0,2:0|2:0,2:0:0:0:
48,6,163834,5,2,3:2:0:0:
48,6,163984,1,0,3:0:0:0:
92,62,164134,2,0,P|85:93|65:130,1,55.1999999999999,2|0,2:3|2:0,2:0:0:0:
3,223,164434,6,0,P|32:209|75:200,1,55.1999999999999,2|0,2:3|2:0,2:0:0:0:
9,144,164734,1,0,2:0:0:0:
129,223,164884,6,0,P|167:219|230:260,1,110.4,2|2,2:0|2:0,2:0:0:0:
282,351,165484,2,0,P|303:345|347:325,1,55.1999999999999,2|2,2:0|2:3,2:0:0:0:
391,219,165784,2,0,P|382:238|369:285,1,55.1999999999999,2|2,2:0|2:3,2:0:0:0:
438,334,166084,1,0,2:0:0:0:
293,258,166234,6,0,P|271:202|297:151,1,110.4,2|2,2:0|2:3,2:0:0:0:
375,107,166684,2,0,P|402:122|432:133,1,55.1999999999999,0|2,2:0|2:3,2:0:0:0:
311,30,166984,2,0,P|284:45|254:56,1,55.1999999999999,2|2,2:0|2:3,2:0:0:0:
192,134,167284,6,0,B|144:127|139:158|69:143,2,110.4,2|2|2,2:0|2:0|2:0,2:0:0:0:
6,305,168184,2,0,P|55:298|99:353,1,110.4,2|0,2:0|2:0,2:0:0:0:
219,281,168634,5,2,3:2:0:0:
201,374,168784,2,0,P|253:352|328:344,1,110.399996630859,0|0,3:0|2:0,2:0:0:0:
392,379,169234,2,0,P|417:352|390:272,1,110.399996630859,2|0,2:1|2:0,2:0:0:0:
405,284,169834,5,2,3:2:0:0:
453,224,169984,2,0,B|448:177|478:176|457:95,1,110.4,0|0,3:2|2:0,2:0:0:0:
377,55,170434,2,0,P|343:84|264:98,1,110.4,2|0,2:1|2:0,2:0:0:0:
237,40,170884,1,2,2:3:0:0:
156,100,171034,6,0,B|164:161|140:154|142:220,1,110.4,2|0,3:1|3:0,2:0:0:0:
72,254,171484,1,0,2:0:0:0:
72,254,171634,2,0,P|100:282|124:289,1,55.1999999999999,0|0,3:0|2:0,2:0:0:0:
203,343,171934,2,0,P|239:331|259:309,1,55.1999999999999,2|0,3:1|2:0,2:0:0:0:
351,269,172234,6,0,P|416:271|442:318,1,110.4,2|0,3:1|3:0,2:0:0:0:
372,356,172684,1,0,2:0:0:0:
205,158,172834,5,2,3:1:0:0:
186,254,172984,1,0,3:0:0:0:
339,93,173134,5,0,3:0:0:0:
368,182,173284,1,0,3:0:0:0:
204,27,173434,5,6,3:1:0:0:
256,192,173509,12,2,174709,2:0:0:0:
435,171,177034,5,8,3:0:0:0:
392,177,177109,1,2,2:0:0:0:
353,158,177184,1,2,2:0:0:0:
333,120,177259,1,2,2:0:0:0:
254,23,177409,5,2,2:0:0:0:
211,17,177484,1,2,2:0:0:0:
172,36,177559,1,2,2:0:0:0:
152,74,177634,1,2,2:0:0:0:
249,201,177784,5,8,3:0:0:0:
174,272,177934,2,0,B|90:257|95:298|-6:275,1,174.8,8|8,2:0|3:0,2:0:0:0:
108,200,178384,1,0,2:0:0:0:
17,368,178534,1,8,2:0:0:0:
193,289,178684,1,2,3:2:0:0:
223,293,178759,1,0,3:0:0:0:
254,303,178834,1,0,3:0:0:0:
178,108,178984,2,0,L|189:156,1,43.6999999999999,8|0,3:0|2:0,2:0:0:0:
249,201,179134,6,0,P|295:191|364:166,1,87.3999999999999,8|2,2:0|2:0,2:0:0:0:
476,3,179434,5,8,3:0:0:0:
428,22,179509,1,2,2:0:0:0:
407,69,179584,1,2,2:0:0:0:
422,118,179659,1,2,2:0:0:0:
467,200,179809,5,2,2:0:0:0:
509,234,179884,1,2,2:0:0:0:
512,289,179959,1,2,2:0:0:0:
473,328,180034,1,2,2:0:0:0:
371,276,180184,6,0,P|392:270|413:264,1,43.6999999999999,8|0,3:0|2:0,2:0:0:0:
296,370,180334,5,10,2:0:0:0:
358,178,180484,1,2,3:2:0:0:
358,178,180559,1,0,3:0:0:0:
358,178,180634,5,8,3:0:0:0:
202,319,180784,2,0,P|189:279|178:214,1,87.3999999999999,2|8,2:0|2:0,2:0:0:0:
15,206,181084,1,2,3:2:0:0:
22,213,181159,1,0,3:0:0:0:
22,212,181234,2,0,P|29:169|42:127,1,87.3999999999999,2|8,3:0|3:0,2:0:0:0:
82,102,181459,1,2,3:0:0:0:
82,102,181534,6,0,P|111:117|135:121,1,43.6999999999999,2|0,3:0|2:0,2:0:0:0:
239,180,181684,2,0,P|270:170|289:155,1,43.6999999999999,2|0,3:0|3:0,2:0:0:0:
385,22,181834,6,0,P|444:16|481:101,1,131.1,4|0,3:2|2:0,2:0:0:0:
485,68,182134,1,2,2:0:0:0:
396,174,182284,5,10,3:0:0:0:
396,174,182359,2,0,B|421:268|371:263|392:360,1,174.8,2|0,2:0|2:0,2:0:0:0:
511,337,182734,6,0,P|460:277|388:287,1,131.1,12|0,2:0|2:0,2:0:0:0:
285,361,183034,5,8,3:0:0:0:
346,254,183184,1,8,3:0:0:0:
285,361,183334,6,0,B|236:356|248:339|176:335,1,87.3999999999999,8|0,2:0|2:0,2:0:0:0:
132,353,183559,1,0,3:0:0:0:
111,365,183634,1,0,3:0:0:0:
210,221,183784,1,8,3:0:0:0:
84,271,183934,6,0,B|37:272|49:289|0:294,1,87.3999999999999,8|0,2:0|2:0,2:0:0:0:
143,144,184234,5,8,3:0:0:0:
158,104,184309,1,2,2:0:0:0:
142,64,184384,1,2,2:0:0:0:
104,44,184459,1,2,2:0:0:0:
62,52,184534,2,0,P|41:62|-2:72,1,43.6999999999999,8|2,2:0|2:0,2:0:0:0:
210,221,184684,5,8,3:0:0:0:
253,222,184759,1,2,2:0:0:0:
296,231,184834,1,0,3:0:0:0:
337,246,184909,1,0,3:0:0:0:
375,268,184984,1,8,3:0:0:0:
443,86,185134,6,0,P|409:102|343:115,1,87.3999999999999,8|0,2:0|2:0,2:0:0:0:
324,92,185359,1,0,3:0:0:0:
324,92,185434,5,8,3:0:0:0:
459,272,185584,1,0,3:0:0:0:
266,146,185734,1,0,3:0:0:0:
362,344,185884,6,0,L|377:290,1,43.6999999999999,0|0,3:0|2:0,2:0:0:0:
232,93,186034,2,0,L|243:135,1,43.6999999999999,8|0,2:0|2:0,2:0:0:0:
159,318,186184,5,2,3:0:0:0:
129,322,186259,1,2,3:0:0:0:
96,332,186334,1,2,3:0:0:0:
117,144,186484,5,2,3:0:0:0:
117,144,186559,1,2,3:0:0:0:
117,144,186634,1,8,3:0:0:0:
117,100,186709,1,2,2:0:0:0:
113,56,186784,1,2,2:0:0:0:
103,14,186859,1,2,2:0:0:0:
8,220,187009,5,2,2:0:0:0:
58,217,187084,1,2,2:0:0:0:
109,225,187159,1,2,2:0:0:0:
157,242,187234,1,2,2:0:0:0:
282,357,187384,5,8,3:0:0:0:
343,288,187534,2,0,B|331:229|371:238|354:154,1,131.099996499252,10|0,2:0|0:0,2:0:0:0:
348,132,187834,1,8,3:0:0:0:
441,294,187984,1,8,3:0:0:0:
264,186,188134,1,8,2:0:0:0:
439,210,188284,5,2,3:2:0:0:
469,206,188359,1,0,3:0:0:0:
501,195,188434,5,0,3:0:0:0:
393,35,188584,2,0,L|404:89,1,43.6999999999999,8|0,3:0|2:0,2:0:0:0:
348,132,188734,6,0,P|303:123|246:102,1,87.3999999999999,8|2,2:0|2:0,2:0:0:0:
107,20,189034,5,8,3:0:0:0:
64,15,189109,1,2,2:0:0:0:
27,37,189184,1,2,2:0:0:0:
18,81,189259,1,2,2:0:0:0:
129,282,189409,5,2,2:0:0:0:
128,229,189484,1,2,2:0:0:0:
114,179,189559,1,2,2:0:0:0:
111,127,189634,1,2,2:0:0:0:
15,277,189784,6,0,L|70:267,1,43.6999999999999,8|0,3:0|2:0,2:0:0:0:
248,162,189934,1,2,3:0:0:0:
215,152,190009,1,2,3:0:0:0:
180,150,190084,1,0,3:0:0:0:
27,37,190234,6,0,P|31:65|37:79,1,43.6999999999999,0|0,3:0|2:0,2:0:0:0:
151,276,190384,1,0,3:0:0:0:
193,288,190459,1,0,3:0:0:0:
239,291,190534,1,0,3:0:0:0:
43,185,190684,1,0,3:0:0:0:
304,356,190834,5,0,3:0:0:0:
343,372,190909,1,0,3:0:0:0:
384,359,190984,1,0,3:0:0:0:
408,323,191059,1,0,3:0:0:0:
384,294,191134,5,2,3:0:0:0:
427,267,191209,1,2,3:0:0:0:
475,283,191284,1,2,3:0:0:0:
494,330,191359,1,2,3:0:0:0:
429,362,191434,6,0,B|414:278|470:277|441:181,1,174.8,6|8,3:1|2:0,2:0:0:0:
315,117,191884,5,8,3:0:0:0:
275,98,191959,1,0,3:0:0:0:
233,106,192034,1,0,3:0:0:0:
201,136,192109,1,0,3:0:0:0:
193,178,192184,1,8,2:0:0:0:
124,263,192334,5,0,3:0:0:0:
84,282,192409,1,0,3:0:0:0:
42,274,192484,1,0,3:0:0:0:
10,244,192559,1,0,3:0:0:0:
2,202,192634,2,0,P|12:177|26:150,1,43.6999999999999,8|0,3:0|2:0,2:0:0:0:
162,319,192784,2,0,P|152:293|144:264,1,43.6999999999999,8|0,3:0|2:0,2:0:0:0:
61,375,192934,5,8,2:0:0:0:
248,238,193084,1,8,2:0:0:0:
98,132,193234,6,0,P|104:152|112:173,1,43.6999999999999,10|0,2:0|2:0,2:0:0:0:
312,355,193384,1,0,3:0:0:0:
333,319,193459,1,0,3:0:0:0:
313,281,193534,1,8,2:0:0:0:
194,151,193684,1,0,3:0:0:0:
185,110,193759,1,0,3:0:0:0:
216,81,193834,6,0,P|242:94|272:102,1,43.6999999999999,8|2,3:0|2:0,2:0:0:0:
443,233,193984,2,0,P|424:243|404:251,1,43.6999999999999,2|2,2:0|2:0,2:0:0:0:
301,24,194134,1,10,2:0:0:0:
194,312,194284,5,8,3:0:0:0:
154,328,194359,1,0,3:0:0:0:
111,322,194434,1,0,3:0:0:0:
78,294,194509,1,0,3:0:0:0:
66,252,194584,1,8,2:0:0:0:
255,98,194734,6,0,P|249:141|235:182,1,87.3999999999999,8|0,3:0|3:0,2:0:0:0:
194,201,194959,1,8,2:0:0:0:
182,203,195034,6,0,L|133:189,1,43.6999999999999,8|2,3:2|2:0,2:0:0:0:
351,344,195184,2,0,L|400:330,1,43.6999999999999,2|2,2:0|2:0,2:0:0:0:
251,384,195334,5,8,3:0:0:0:
230,346,195409,1,10,2:0:0:0:
234,303,195484,1,2,3:0:0:0:
260,269,195559,1,10,2:0:0:0:
321,226,195634,6,0,L|363:238,1,43.6999999999999,8|0,3:0|2:0,2:0:0:0:
130,372,195784,2,0,L|87:384,1,43.6999999999999,2|0,2:3|2:0,2:0:0:0:
247,154,195934,5,2,2:3:0:0:
244,132,196009,1,2,2:3:0:0:
241,110,196084,1,2,2:3:0:0:
238,88,196159,1,2,2:3:0:0:
235,66,196234,6,0,P|157:65|102:95,1,138,4|2,2:0|2:3,2:0:0:0:
46,49,196684,1,2,2:0:0:0:
120,167,196834,1,2,2:3:0:0:
120,167,197134,1,0,2:0:0:0:
65,225,197284,2,0,B|85:304|41:298|67:375,1,138,2|0,2:0|2:0,2:0:0:0:
222,278,197734,6,0,P|193:269|147:243,1,69.0000000000002,2|2,2:3|2:0,2:0:0:0:
322,310,198034,2,0,P|309:282|297:230,1,69.0000000000002,2|0,2:3|2:0,2:0:0:0:
261,380,198334,1,2,2:0:0:0:
261,380,198634,6,0,P|330:343|395:336,1,138,2|2,2:0|2:3,2:0:0:0:
477,369,199084,1,2,2:0:0:0:
412,261,199234,2,0,P|427:227|443:167,1,69.0000000000002,2|0,2:3|2:0,2:0:0:0:
299,245,199534,1,0,3:0:0:0:
451,186,199684,6,0,P|456:125|380:88,1,138,2|0,3:2|2:0,2:0:0:0:
260,22,200134,2,0,P|274:64|295:98,1,69.0000000000002,2|0,2:0|3:0,2:0:0:0:
147,199,200434,2,0,P|157:166|173:135,1,69.0000000000002,2|0,2:3|2:0,2:0:0:0:
101,50,200734,1,2,2:0:0:0:
101,50,201034,6,0,P|56:47|3:137,1,138,4|0,3:0|2:0,2:0:0:0:
0,113,201334,1,8,3:0:0:0:
147,199,201484,1,8,2:0:0:0:
5,292,201634,6,0,P|11:251|38:187,1,92,8|8,3:0|3:0,2:0:0:0:
169,104,201934,2,0,P|202:124|270:148,1,92,8|0,2:0|2:0,2:0:0:0:
336,355,202234,6,0,P|385:298|498:302,1,184,8|8,3:0|3:0,2:0:0:0:
251,143,202684,1,8,2:0:0:0:
352,50,202834,5,8,3:0:0:0:
270,233,202984,1,8,3:0:0:0:
455,170,203134,2,0,P|420:162|354:136,1,92,4|4,3:0|3:0,2:0:0:0:
182,250,203434,6,0,P|137:260|94:277,1,92,12|8,2:0|3:0,2:0:0:0:
0,166,203734,2,0,P|5:102|92:80,1,138,8|0,2:0|2:0,2:0:0:0:
65,72,204034,5,8,3:0:0:0:
249,206,204184,1,4,3:0:0:0:
183,30,204334,2,0,P|171:77|142:141,1,92,8|0,2:0|2:0,2:0:0:0:
342,240,204634,6,0,P|324:197|313:152,1,92,8|0,2:0|2:0,2:0:0:0:
282,342,204934,1,8,3:0:0:0:
441,205,205084,1,4,3:0:0:0:
282,342,205234,6,0,P|240:324|186:312,1,92,4|4,3:0|3:0,2:0:0:0:
6,202,205534,2,0,P|50:192|93:173,1,92,12|0,3:0|2:0,2:0:0:0:
241,0,205834,6,0,P|232:45|224:119,1,92,2|0,3:1|2:0,2:0:0:0:
161,66,206059,2,0,P|186:104|233:162,1,92,2|0,1:0|2:0,2:0:0:0:
152,134,206284,1,2,2:1:0:0:
302,212,206434,6,0,P|346:191|415:175,1,92,8|4,3:0|3:0,2:0:0:0:
185,352,206734,2,0,P|229:373|298:389,1,92,8|4,3:0|3:0,2:0:0:0:
161,238,207034,1,0,1:0:0:0:
52,383,207184,2,0,P|-1:322|54:234,1,184,2|8,2:0|2:0,2:0:0:0:
128,45,207634,6,0,P|137:95|158:148,1,92,0|8,2:0|3:0,2:0:0:0:
303,7,207934,1,4,3:0:0:0:
266,96,208084,1,4,3:0:0:0:
497,109,208234,6,0,P|427:79|346:68,1,147.2,12|2,2:0|3:0,2:0:0:0:
423,1,208684,1,0,3:0:0:0:
285,116,208834,6,0,L|298:172,2,36.8,0|0|0,3:0|3:0|3:0,2:0:0:0:
431,201,209134,5,2,3:2:0:0:
427,226,209209,1,2,3:2:0:0:
423,251,209284,1,2,3:2:0:0:
419,277,209359,1,2,3:2:0:0:
414,302,209434,2,0,P|355:316|255:374,1,157.32,6|0,1:0|2:0,2:0:0:0:
270,361,209734,1,10,2:0:0:0:
307,199,209884,1,2,3:2:0:0:
318,153,209959,1,0,3:0:0:0:
285,116,210034,1,4,3:0:0:0:
118,236,210184,1,2,3:2:0:0:
180,0,210334,6,0,P|226:23|277:37,1,104.88,10|2,2:0|0:0,2:0:0:0:
90,147,210634,1,4,3:0:0:0:
219,258,210784,1,2,3:2:0:0:
232,212,210859,1,0,3:2:0:0:
193,176,210934,1,8,3:2:0:0:
32,322,211084,1,2,2:0:0:0:
199,347,211234,6,0,P|249:360|296:384,1,104.88,6|0,3:0|2:0,2:0:0:0:
447,246,211534,2,0,P|429:204|416:139,1,104.88,10|0,2:0|2:0,2:0:0:0:
211,92,211834,6,0,P|133:98|88:190,1,157.31999807959,6|0,1:0|0:0,2:0:0:0:
84,189,212134,1,10,0:0:0:0:
296,384,212284,1,2,3:2:0:0:
301,338,212359,1,0,3:2:0:0:
266,309,212434,1,4,3:0:0:0:
72,381,212584,1,2,2:0:0:0:
174,175,212734,6,0,P|169:232|153:283,1,104.88,10|0,2:0|2:0,2:0:0:0:
358,159,213034,1,4,3:0:0:0:
164,77,213184,1,2,3:2:0:0:
157,30,213259,1,0,3:2:0:0:
189,0,213334,5,8,2:0:0:0:
358,159,213484,1,0,3:0:0:0:
358,159,213559,1,0,3:0:0:0:
358,159,213634,2,0,P|396:171|470:206,1,104.88,6|0,3:0|2:0,2:0:0:0:
264,338,213934,2,0,P|214:354|166:376,1,104.88,10|0,2:0|2:0,2:0:0:0:
19,22,214234,6,0,P|60:107|177:97,1,209.76,6|8,1:0|2:0,2:0:0:0:
301,9,214684,1,0,3:0:0:0:
301,9,214759,1,0,3:0:0:0:
301,9,214834,1,6,3:0:0:0:
237,174,214984,1,0,2:0:0:0:
381,97,215134,2,0,P|433:113|493:147,1,104.88,10|0,2:0|2:0,2:0:0:0:
298,353,215434,6,0,P|295:273|368:220,1,157.32,6|0,3:0|2:0,2:0:0:0:
348,224,215734,2,0,P|394:248|444:263,1,104.88,10|0,2:0|2:0,2:0:0:0:
213,384,216034,2,0,P|201:332|181:284,1,104.88,6|0,3:0|2:0,2:0:0:0:
33,168,216334,2,0,P|21:219|1:267,1,104.88,10|0,2:0|2:0,2:0:0:0:
235,20,216634,5,6,3:0:0:0:
172,209,216784,1,8,3:0:0:0:
332,76,216934,6,0,P|304:85|281:92,1,52.44,8|2,2:0|2:1,2:0:0:0:
168,128,217084,2,0,P|140:136|117:143,1,52.44,2|0,2:0|2:1,2:0:0:0:
297,264,217234,5,6,3:0:0:0:
258,180,217384,1,8,3:0:0:0:
465,318,217534,5,8,2:0:0:0:
426,234,217684,1,0,3:0:0:0:
252,362,217834,5,6,3:0:0:0:
149,328,217984,1,8,3:0:0:0:
47,343,218134,1,12,2:0:0:0:
252,362,218284,1,0,3:0:0:0:
366,0,218434,5,6,3:0:0:0:
258,180,218584,1,8,3:0:0:0:
366,0,218734,1,12,2:0:0:0:
151,104,219034,6,0,P|110:127|28:145,1,104.88,6|0,1:0|2:0,2:0:0:0:
185,0,219334,1,10,2:0:0:0:
325,97,219484,1,2,2:0:0:0:
171,223,219634,1,6,3:0:0:0:
365,340,219784,1,2,0:0:0:0:
258,180,219934,1,10,0:0:0:0:
81,353,220084,6,0,P|123:363|186:392,1,104.88,2|4,2:0|3:0,2:0:0:0:
425,202,220384,2,0,P|377:224|326:236,1,104.88,2|8,2:0|2:0,2:0:0:0:
136,138,220684,2,0,P|131:59|222:30,1,157.32,2|0,2:0|2:0,2:0:0:0:
191,23,220984,2,0,P|231:45|297:57,1,104.88,2|8,2:0|2:0,2:0:0:0:
159,237,221284,1,2,2:0:0:0:
288,56,221434,6,0,P|214:48|151:131,1,157.31999807959,6|0,1:0|2:0,2:0:0:0:
136,138,221734,1,10,0:0:0:0:
256,242,221884,1,0,3:0:0:0:
256,242,221959,1,0,3:0:0:0:
256,242,222034,1,6,3:0:0:0:
346,188,222184,1,2,2:0:0:0:
419,263,222334,1,10,2:0:0:0:
152,337,222484,6,0,P|81:301|6:280,1,157.32,2|0,2:0|2:0,2:0:0:0:
6,280,222784,2,0,P|28:229|38:166,1,104.88,2|8,1:2|2:0,2:0:0:0:
236,0,223084,2,0,P|257:51|267:114,1,104.88,6|4,1:2|3:0,2:0:0:0:
149,242,223384,1,4,3:0:0:0:
248,358,223534,2,0,P|265:308|276:257,1,104.88,8|0,2:0|2:0,2:0:0:0:
456,161,223834,6,0,P|377:162|257:89,1,209.76,6|8,1:0|2:0,2:0:0:0:
450,252,224284,1,0,3:0:0:0:
460,269,224359,1,0,3:0:0:0:
468,284,224434,2,0,P|464:337|436:395,1,104.88,6|0,3:0|2:0,2:0:0:0:
351,186,224734,2,0,P|319:227|276:256,1,104.88,8|0,2:0|2:0,2:0:0:0:
4,384,225034,6,0,P|51:313|182:319,1,209.76,6|8,1:0|2:0,2:0:0:0:
25,187,225484,1,0,3:0:0:0:
9,146,225559,1,0,3:0:0:0:
28,105,225634,1,6,3:0:0:0:
187,226,225784,1,0,2:0:0:0:
150,0,225934,6,0,P|142:49|113:121,1,104.88,8|0,2:0|2:0,2:0:0:0:
399,291,226234,6,0,P|396:209|336:154,1,157.32,6|0,3:0|2:0,2:0:0:0:
345,158,226534,1,8,3:0:0:0:
149,303,226684,1,8,2:0:0:0:
231,78,226834,5,8,3:0:0:0:
263,151,226984,1,4,3:0:0:0:
242,383,227134,6,0,P|253:333|276:273,1,104.88,10|0,2:0|2:0,2:0:0:0:
48,176,227434,6,0,P|97:189|156:215,1,104.88,6|0,3:0|2:0,2:0:0:0:
302,17,227734,1,8,2:0:0:0:
104,110,227884,1,0,3:0:0:0:
82,67,227959,1,0,3:0:0:0:
102,23,228034,1,6,3:0:0:0:
313,208,228184,1,8,3:0:0:0:
96,341,228334,1,8,2:0:0:0:
96,341,228634,6,0,P|130:281|231:276,1,176.64,6|2,2:1|2:0,2:0:0:0:
354,384,231484,2,0,P|367:330|392:279,1,110.4,2|2,2:0|2:0,2:0:0:0:
503,134,232384,2,0,P|477:149|421:163,1,73.6,2|0,2:0|2:0,2:0:0:0:
305,244,232834,2,0,P|262:229|231:202,1,73.6,2|2,2:0|2:0,2:0:0:0:
158,65,233434,6,0,P|81:72|54:135,1,147.2,2|2,2:0|2:0,2:0:0:0:
237,260,234709,2,0,B|248:187|202:196|221:115,1,147.2,2|2,0:0|0:0,0:0:0:0:
88,313,235834,6,0,P|142:323|192:345,1,110.4,2|2,2:0|2:0,2:0:0:0:
410,371,236884,5,8,3:0:0:0:
430,323,236959,1,8,3:0:0:0:
391,286,237034,1,4,3:0:0:0:
197,171,237184,2,0,P|165:186|120:198,1,69.0000000000002,8|0,2:0|2:0,2:0:0:0:
342,51,237484,6,0,P|355:80|342:142,1,87.3999999999999,8|2,3:0|2:0,2:0:0:0:
193,269,237784,1,8,3:0:0:0:
286,340,237934,1,4,3:0:0:0:
286,340,238234,6,0,P|208:352|113:393,1,165.6,8|0,3:0|2:0,2:0:0:0:
0,294,238684,2,0,P|-14:234|83:181,1,165.6,12|0,2:0|2:0,2:0:0:0:
165,110,239134,2,0,P|160:71|131:15,1,82.8000000000001,8|0,2:0|2:0,2:0:0:0:
212,227,239434,5,8,3:0:0:0:
282,198,239584,2,0,P|320:214|360:224,1,82.8000000000001,8|0,3:0|2:0,2:0:0:0:
484,48,239884,6,0,P|401:38|339:108,1,165.6,8|8,2:0|3:0,2:0:0:0:
212,227,240334,1,8,3:0:0:0:
126,179,240484,1,4,3:0:0:0:
78,258,240634,5,0,3:0:0:0:
198,143,240784,2,0,P|211:109|223:49,1,82.8000000000001,0|0,3:0|3:0,2:0:0:0:
0,287,241084,6,0,P|62:286|165:354,1,165.6,12|8,2:0|3:0,2:0:0:0:
269,335,241534,2,0,P|337:379|419:383,1,165.6,8|8,2:0|3:0,2:0:0:0:
383,249,241984,2,0,P|389:208|400:168,1,82.8000000000001,8|0,2:0|2:0,2:0:0:0:
274,71,242284,6,0,P|236:87|196:98,1,82.8000000000001,8|0,2:0|2:0,2:0:0:0:
118,314,242584,1,8,3:0:0:0:
168,236,242734,1,8,3:0:0:0:
107,171,242884,1,4,3:0:0:0:
9,222,243034,6,0,B|44:305|-3:298|23:388,1,165.6,8|8,3:0|3:0,2:0:0:0:
278,350,243484,2,0,P|199:324|117:313,1,165.6,12|8,2:0|3:0,2:0:0:0:
374,86,243934,2,0,P|390:166|422:243,1,165.6,8|8,2:0|3:0,2:0:0:0:
243,243,244384,6,0,P|246:196|334:161,1,124.2,8|0,3:0|2:0,2:0:0:0:
306,155,244684,2,0,P|342:175|389:183,1,82.8000000000001,8|0,2:0|2:0,2:0:0:0:
358,282,244984,5,8,3:0:0:0:
288,81,245134,1,8,3:0:0:0:
358,282,245284,1,4,3:0:0:0:
215,155,245434,6,0,P|165:172|114:180,1,82.8000000000001,0|8,3:0|3:0,2:0:0:0:
223,248,245734,1,8,3:0:0:0:
47,102,245884,6,0,B|72:192|21:180|52:275,1,165.6,12|8,2:0|3:0,2:0:0:0:
142,384,246334,6,0,P|127:345|123:304,1,82.8000000000001,8|0,2:0|2:0,2:0:0:0:
8,200,246634,1,0,3:0:0:0:
188,240,246784,6,0,B|257:214|279:273|379:234,1,165.6,12|8,2:0|3:0,2:0:0:0:
238,159,247234,1,10,2:0:0:0:
346,325,247384,1,4,3:0:0:0:
206,335,247534,5,6,3:0:0:0:
368,233,247684,1,0,2:0:0:0:
174,240,247834,6,0,P|120:220|13:202,1,138,6|0,3:1|2:0,2:0:0:0:
131,144,248284,1,2,3:0:0:0:
76,78,248434,2,0,P|88:44|113:8,1,69.0000000000002,10|0,2:0|2:0,2:0:0:0:
186,56,248734,2,0,P|222:43|265:37,1,69.0000000000002,0|0,2:0|3:0,2:0:0:0:
336,97,249034,6,0,P|395:93|455:31,1,138,2|0,2:0|2:0,2:0:0:0:
387,7,249484,1,2,3:2:0:0:
442,120,249634,2,0,B|456:194|419:184|434:274,1,138,10|0,2:0|2:0,2:0:0:0:
308,289,250084,5,0,3:0:0:0:
308,289,250159,1,0,3:0:0:0:
308,289,250234,2,0,P|240:306|164:341,1,138.000005264282,2|0,3:2|2:0,2:0:0:0:
235,226,250684,1,2,3:2:0:0:
363,352,250834,1,8,2:0:0:0:
363,352,251134,5,0,2:0:0:0:
308,289,251284,2,0,P|312:230|393:174,1,138,0|2,3:0|3:2,2:0:0:0:
444,212,251734,1,0,2:0:0:0:
444,212,251884,1,0,3:0:0:0:
300,132,252034,6,0,P|249:119|204:94,1,103.5,10|0,2:0|2:0,2:0:0:0:
204,94,252334,2,0,P|203:46|255:20,1,103.5,6|0,2:0|2:0,2:0:0:0:
320,35,252634,5,2,3:2:0:0:
91,184,253084,1,2,3:2:0:0:
215,273,253234,2,0,P|201:230|195:204,1,69.0000000000002,10|0,2:0|2:0,2:0:0:0:
77,349,253534,2,0,P|119:365|147:372,1,69.0000000000002,0|0,2:0|3:0,2:0:0:0:
281,384,253834,6,0,P|328:362|433:348,1,138,2|0,2:0|2:0,2:0:0:0:
480,379,254284,1,2,3:2:0:0:
358,278,254434,2,0,P|329:260|286:224,1,69.0000000000002,8|0,2:0|3:0,2:0:0:0:
358,278,254734,1,2,2:0:0:0:
163,384,255034,6,0,B|147:320|184:326|161:243,1,138,2|0,3:2|2:0,2:0:0:0:
242,299,255484,1,0,3:0:0:0:
93,273,255634,6,0,P|61:283|5:288,1,69.0000000000002,10|0,2:0|2:0,2:0:0:0:
312,209,255934,1,0,2:0:0:0:
232,204,256084,2,0,P|266:208|299:218,1,69.0000000000002,0|2,3:0|2:0,2:0:0:0:
110,186,256384,6,0,P|105:128|159:87,1,103.5,8|0,2:0|2:0,2:0:0:0:
132,95,256684,1,2,3:2:0:0:
232,204,256834,2,0,P|266:199|299:189,1,69.0000000000002,8|0,2:0|3:0,2:0:0:0:
354,286,257134,2,0,P|338:319|326:367,1,69.0000000000002,8|0,3:0|2:0,2:0:0:0:
207,364,257434,6,0,B|150:354|144:385|60:365,1,138,6|0,2:0|2:0,2:0:0:0:
247,270,257884,1,0,3:0:0:0:
69,367,258034,6,0,P|103:357|134:342,1,69.0000000000002,10|0,2:0|2:0,2:0:0:0:
127,209,258334,1,0,2:0:0:0:
94,271,258484,1,0,3:0:0:0:
6,229,258634,6,0,P|8:145|84:121,1,138,2|0,2:0|2:0,2:0:0:0:
127,209,259084,1,0,3:0:0:0:
123,64,259234,6,0,P|134:90|139:139,1,69.0000000000002,10|0,2:0|3:0,2:0:0:0:
236,248,259534,2,0,P|248:216|252:181,1,69.0000000000002,2|0,2:0|2:0,2:0:0:0:
299,80,259834,6,0,P|355:82|433:145,1,138,2|0,3:2|2:0,2:0:0:0:
490,190,260284,2,0,P|518:251|510:319,1,138,2|0,3:2|2:0,2:0:0:0:
424,375,260734,2,0,P|386:358|280:343,1,138,2|0,2:0|2:0,2:0:0:0:
376,263,261184,1,2,3:2:0:0:
248,179,261334,6,0,P|256:219|271:257,1,69.0000000000002,2|0,2:0|3:0,2:0:0:0:
161,348,261634,2,0,P|122:334|81:328,1,69.0000000000002,8|0,2:0|2:0,2:0:0:0:
20,237,261934,2,0,P|11:170|56:134,1,103.5,6|0,2:0|2:0,2:0:0:0:
31,145,262234,6,0,B|29:76|74:82|43:-14,1,138,2|0,3:2|2:0,2:0:0:0:
140,117,262684,1,0,3:0:0:0:
49,11,262834,6,0,P|76:37|117:44,1,69.0000000000002,10|0,2:0|2:0,2:0:0:0:
224,127,263134,2,0,P|261:121|291:92,1,69.0000000000002,2|0,2:0|2:0,2:0:0:0:
388,25,263434,6,0,P|447:24|485:88,1,138,2|2,2:0|2:0,2:0:0:0:
416,144,263884,1,0,3:0:0:0:
439,234,264034,5,8,3:0:0:0:
285,101,264184,1,8,3:0:0:0:
416,144,264334,6,0,P|380:161|333:172,1,69.0000000000002,4|0,3:0|2:0,2:0:0:0:
230,254,264634,6,0,P|296:247|338:322,1,138,0|2,3:0|2:0,2:0:0:0:
385,379,265084,1,2,3:2:0:0:
274,324,265234,6,0,P|307:315|337:298,1,69.0000000000002,8|0,2:0|2:0,2:0:0:0:
152,384,265534,5,8,3:0:0:0:
37,316,265684,1,4,3:0:0:0:
145,252,265834,6,0,B|165:140|96:157|121:35,1,220.8,4|6,3:1|2:1,2:0:0:0:
349,384,270634,5,2,2:0:0:0:
178,118,271834,5,2,2:0:0:0:
458,237,273034,5,2,2:0:0:0:
159,384,274234,5,2,2:0:0:0:
306,129,275434,5,2,2:0:0:0:
35,239,276634,5,2,2:0:0:0:
295,384,277834,5,2,2:0:0:0:
156,263,279034,6,0,B|146:193|185:202|163:102,1,138,10|2,2:3|2:3,2:0:0:0:
107,79,279484,1,2,2:0:0:0:
240,166,279634,2,0,P|270:160|313:136,1,69.0000000000002,2|2,2:3|2:0,2:0:0:0:
364,93,279934,1,2,2:3:0:0:
290,234,280084,6,0,P|295:268|314:314,1,69.0000026321412,2|2,2:0|0:3,2:0:0:0:
416,377,280384,2,0,P|422:361|425:344,1,34.5000013160706,2|0,2:3|2:0,2:0:0:0:
400,279,280534,1,2,0:3:0:0:
447,219,280684,6,0,P|466:248|475:282,1,69.0000000000002,2|2,0:0|0:3,2:0:0:0:
341,322,280984,2,0,P|332:356|313:385,1,69.0000026321412,2|2,0:2|0:3,2:0:0:0:
207,266,281284,2,0,B|143:256|148:286|63:268,1,138,2|0,2:0|2:0,2:0:0:0:
197,143,281734,5,2,2:3:0:0:
197,143,281884,1,0,2:0:0:0:
138,93,282034,2,0,P|111:89|62:90,1,69.0000000000002,2|2,2:3|2:0,2:0:0:0:
221,31,282334,1,2,2:3:0:0:
282,76,282484,6,0,P|309:80|358:79,1,69.0000000000002,2|2,2:0|2:3,2:0:0:0:
462,0,282784,2,0,P|445:21|421:64,1,69.0000000000002,2|2,2:0|2:3,2:0:0:0:
451,190,283084,2,0,P|434:159|413:132,1,69.0000000000002,2|2,2:0|2:3,2:0:0:0:
328,207,283384,2,0,P|312:256|346:334,1,138,2|0,2:0|2:0,2:0:0:0:
421,364,283834,6,0,B|351:355|360:381|273:366,2,138,2|2|2,2:0|2:3|2:3,2:0:0:0:
216,287,284734,1,2,2:3:0:0:
355,192,285034,6,0,P|351:124|326:60,2,138,2|2|2,2:0|2:3|2:3,2:0:0:0:
207,367,285934,1,2,2:3:0:0:
47,200,286234,6,0,P|54:172|85:126,1,69.0000000000002,2|0,3:1|2:0,2:0:0:0:
23,75,286534,2,0,P|62:60|117:54,1,69.0000000000002,0|0,3:0|2:0,2:0:0:0:
168,0,286834,2,0,P|201:23|227:54,1,69.0000000000002,0|0,3:0|2:0,2:0:0:0:
279,145,287134,2,0,P|263:176|233:216,1,69.0000000000002,0|0,3:0|2:0,2:0:0:0:
93,384,287434,1,0,3:0:0:0:
30,212,287584,1,0,3:0:0:0:
158,303,287734,5,10,2:0:0:0:
203,300,287809,1,10,2:0:0:0:
247,287,287884,1,10,2:0:0:0:
291,274,287959,1,10,2:0:0:0:
337,272,288034,1,2,2:0:0:0:
337,272,288634,6,0,P|408:239|485:223,1,157.32,6|0,1:0|2:0,2:0:0:0:
485,222,288934,1,10,2:0:0:0:
360,129,289084,1,2,3:2:0:0:
374,88,289159,1,0,3:0:0:0:
344,47,289234,1,4,3:0:0:0:
224,252,289384,1,2,3:2:0:0:
16,26,289534,6,0,P|60:53|110:69,1,104.88,10|2,2:0|2:0,2:0:0:0:
220,0,289834,1,6,3:0:0:0:
102,192,289984,6,0,P|111:244|139:307,1,104.88,2|8,3:2|3:2,2:0:0:0:
331,375,290284,1,2,3:2:0:0:
366,339,290359,1,0,3:0:0:0:
350,289,290434,2,0,P|303:276|247:252,1,104.88,6|0,3:0|2:0,2:0:0:0:
121,34,290734,2,0,P|168:21|224:-3,1,104.88,10|0,2:0|2:0,2:0:0:0:
287,29,290959,1,0,2:0:0:0:
287,29,291034,6,0,P|308:104|245:172,1,157.32,6|0,1:0|2:0,2:0:0:0:
264,164,291334,1,10,2:0:0:0:
45,9,291484,1,2,3:2:0:0:
31,50,291559,1,0,3:2:0:0:
61,88,291634,1,4,3:0:0:0:
264,164,291784,1,2,2:0:0:0:
66,327,291934,2,0,P|79:279|91:193,1,104.88,10|0,2:0|2:0,2:0:0:0:
252,69,292234,5,6,3:0:0:0:
344,143,292384,2,0,P|357:191|369:277,1,104.88,2|8,2:0|2:0,2:0:0:0:
169,377,292684,1,0,3:0:0:0:
169,377,292759,1,0,3:0:0:0:
169,377,292834,2,0,P|221:359|286:348,1,104.88,6|0,3:0|2:0,2:0:0:0:
467,273,293134,2,0,P|415:262|366:245,1,104.88,10|0,2:0|2:0,2:0:0:0:
252,69,293434,6,0,P|158:69|100:171,1,209.76,6|8,1:0|2:0,2:0:0:0:
269,349,293884,1,0,3:0:0:0:
269,349,293959,1,0,3:0:0:0:
269,349,294034,2,0,P|260:290|226:220,1,104.88,6|0,3:0|2:0,2:0:0:0:
99,158,294334,2,0,P|51:182|-14:202,1,104.88,10|0,2:0|2:0,2:0:0:0:
235,30,294634,6,0,P|314:28|354:122,1,157.32,6|0,3:0|2:0,2:0:0:0:
356,86,294934,2,0,P|336:139|305:194,1,104.88,10|0,2:0|2:0,2:0:0:0:
439,384,295234,2,0,P|393:351|336:323,1,104.88,6|0,3:0|2:0,2:0:0:0:
198,190,295534,2,0,P|151:214|108:244,1,104.88,10|0,2:0|2:0,2:0:0:0:
88,93,295834,5,6,3:0:0:0:
210,296,295984,1,8,3:0:0:0:
60,265,296134,6,0,P|91:252|120:236,1,52.44,8|2,2:0|2:1,2:0:0:0:
198,190,296284,2,0,P|221:177|245:168,1,52.44,2|0,2:0|2:1,2:0:0:0:
310,3,296434,5,6,3:0:0:0:
283,86,296584,1,8,3:0:0:0:
406,228,296734,5,8,2:0:0:0:
433,145,296884,1,0,3:0:0:0:
156,381,297034,5,6,3:0:0:0:
277,280,297184,1,8,3:0:0:0:
300,213,297259,1,8,3:0:0:0:
245,167,297334,1,12,2:0:0:0:
107,243,297484,1,0,3:0:0:0:
64,0,297634,5,6,3:0:0:0:
309,127,297784,1,8,3:0:0:0:
64,0,297934,1,12,2:0:0:0:
107,243,298234,6,0,P|120:189|142:131,1,104.88,6|0,1:0|2:0,2:0:0:0:
251,0,298534,1,10,2:0:0:0:
49,97,298684,1,2,3:2:0:0:
49,97,298759,1,0,3:2:0:0:
49,97,298834,1,6,3:0:0:0:
252,254,298984,1,2,0:0:0:0:
173,65,299134,1,10,0:0:0:0:
365,353,299284,6,0,P|411:364|475:390,1,104.88,2|4,2:0|3:0,2:0:0:0:
149,267,299584,2,0,P|100:286|49:298,1,104.88,2|8,2:0|2:0,2:0:0:0:
358,16,299884,5,2,3:0:0:0:
351,29,299959,1,0,3:0:0:0:
343,42,300034,2,0,P|331:79|315:161,1,104.88,4|2,3:0|2:0,2:0:0:0:
149,267,300334,2,0,P|133:216|123:165,1,104.88,8|2,2:0|2:0,2:0:0:0:
306,379,300634,6,0,P|356:312|451:323,1,157.31999807959,6|0,1:0|2:0,2:0:0:0:
424,308,300934,1,10,0:0:0:0:
244,146,301084,1,0,3:0:0:0:
235,190,301159,1,0,3:0:0:0:
261,227,301234,1,6,3:0:0:0:
343,42,301384,1,2,2:0:0:0:
123,165,301534,1,10,2:0:0:0:
384,362,301684,6,0,P|391:322|424:233,1,104.88,2|4,2:0|3:0,2:0:0:0:
208,88,301984,2,0,P|215:128|248:217,1,104.88,2|8,1:2|2:0,2:0:0:0:
108,354,302284,2,0,P|56:365|8:384,1,104.88,6|4,1:2|3:0,2:0:0:0:
123,165,302584,1,4,3:0:0:0:
0,133,302734,2,0,B|7:173|24:214|40:262,1,104.88,8|0,2:0|2:0,2:0:0:0:
307,108,303034,6,0,P|271:17|141:27,1,209.76,6|8,1:0|2:0,2:0:0:0:
327,218,303484,1,0,3:0:0:0:
337,225,303559,1,0,3:0:0:0:
348,234,303634,2,0,P|395:217|454:203,1,104.88,6|0,3:0|2:0,2:0:0:0:
242,352,303934,2,0,P|195:369|136:383,1,104.88,8|0,2:0|2:0,2:0:0:0:
21,236,304234,6,0,P|6:154|110:92,1,209.76,6|8,1:0|2:0,2:0:0:0:
192,231,304684,1,0,3:0:0:0:
237,235,304759,1,0,3:0:0:0:
272,205,304834,1,6,3:0:0:0:
74,353,304984,1,0,2:0:0:0:
272,205,305134,6,0,P|322:212|391:239,1,104.88,8|0,2:0|2:0,2:0:0:0:
512,0,305434,6,0,P|462:52|349:46,1,157.32,6|0,1:0|2:0,2:0:0:0:
380,60,305734,1,8,3:0:0:0:
474,258,305884,1,8,2:0:0:0:
512,140,306034,5,8,3:0:0:0:
373,229,306184,1,4,3:0:0:0:
271,25,306334,6,0,P|290:70|312:145,1,104.88,10|0,2:0|2:0,2:0:0:0:
155,258,306634,6,0,P|110:241|32:221,1,104.88,6|0,3:0|2:0,2:0:0:0:
189,98,306934,1,8,2:0:0:0:
294,355,307084,1,0,3:0:0:0:
326,322,307159,1,0,3:0:0:0:
311,273,307234,1,6,3:0:0:0:
91,344,307384,1,8,3:0:0:0:
33,344,307459,1,8,3:0:0:0:
5,295,307534,1,8,2:0:0:0:
273,49,307834,5,6,0:0:0:0:
