osu file format v14

[General]
AudioFilename: audio.mp3
AudioLeadIn: 0
PreviewTime: 210152
Countdown: 0
SampleSet: Normal
StackLeniency: 0.7
Mode: 1
LetterboxInBreaks: 0
WidescreenStoryboard: 1

[Editor]
Bookmarks: 45659,64669,83679,102689,155852,197852,238502,249452,271052,309752
DistanceSpacing: 1.7
BeatDivisor: 8
GridSize: 32
TimelineZoom: 2.4

[Metadata]
Title:from now on & Memories
TitleUnicode:從今往後 & 回憶
Artist:FELT
ArtistUnicode:FELT
Creator:Bedwyr Aorta
Version:Oni
Source:東方Project
Tags:Pure Heart
BeatmapID:1910031
BeatmapSetID:914483

[Difficulty]
HPDrainRate:6
CircleSize:5
OverallDifficulty:5
ApproachRate:5
SliderMultiplier:1.4
SliderTickRate:1

[Events]
//Background and Video events
0,0,"beautiful-artwork-seiga-kaku.jpg",0,0
//Break Periods
2,230452,237302
//Storyboard Layer 0 (Background)
//Storyboard Layer 1 (Fail)
//Storyboard Layer 2 (Pass)
//Storyboard Layer 3 (Foreground)
//Storyboard Sound Samples

[TimingPoints]
6452,594.059405940594,4,1,0,40,1,8
6452,-83.3333333333333,4,1,0,40,0,0
44471,-80.6451612903226,4,1,0,41,0,0
44768,-78.125,4,1,0,42,0,0
45065,-75.7575757575758,4,1,0,43,0,0
45362,-73.5294117647059,4,1,0,44,0,0
45659,-71.4285714285714,4,1,0,45,0,0
64075,-69.4444444444444,4,1,0,46,0,0
64224,-67.5675675675676,4,1,0,47,0,0
64372,-65.7894736842105,4,1,0,48,0,0
64521,-64.1025641025641,4,1,0,49,0,0
64669,-62.5,4,1,0,50,0,0
84867,-83.3333333333333,4,1,0,40,0,0
101427,-83.3333333333333,4,1,0,5,0,0
103877,-25,4,1,0,5,0,0
104177,-83.3333333333333,4,1,0,45,0,0
104252,600,4,1,0,45,1,0
104252,-76.9230769230769,4,1,0,45,0,0
113777,-66.6666666666667,4,1,0,50,0,0
114052,-66.6666666666667,4,1,0,5,0,0
115052,-66.2251655629139,4,1,0,5,0,0
116252,-65.7894736842105,4,1,0,5,0,0
117452,-65.359477124183,4,1,0,5,0,0
118652,-64.9350649350649,4,1,0,5,0,0
119852,-64.5161290322581,4,1,0,5,0,0
121052,-64.1025641025641,4,1,0,5,0,0
122252,-63.6942675159236,4,1,0,5,0,0
123452,-63.2911392405063,4,1,0,5,0,0
124552,-62.5,4,1,0,55,0,0
148952,-61.7283950617284,4,1,0,56,0,0
149252,-60.9756097560976,4,1,0,57,0,0
149552,-60.2409638554217,4,1,0,58,0,0
149852,-59.5238095238095,4,1,0,59,0,0
150152,-58.8235294117647,4,1,0,60,0,0
150452,-58.1395348837209,4,1,0,61,0,0
150752,-57.4712643678161,4,1,0,62,0,0
151052,-57.1428571428571,4,1,0,63,0,0
155852,-60.6060606060606,4,1,0,60,0,0
175277,-60.6060606060606,4,1,0,5,0,0
176252,-61.3496932515337,4,1,0,5,0,0
178577,-61.3496932515337,4,1,0,58,0,0
178652,-62.5,4,1,0,58,0,0
198152,-64.5161290322581,4,1,0,55,0,0
198452,-66.6666666666667,4,1,0,55,0,0
202652,-65.7894736842105,4,1,0,56,0,0
202952,-64.9350649350649,4,1,0,57,0,0
203102,-64.5161290322581,4,1,0,57,0,0
203252,-64.1025641025641,4,1,0,58,0,0
203402,-63.6942675159236,4,1,0,58,0,0
203552,-63.2911392405063,4,1,0,59,0,0
203852,-62.5,4,1,0,60,0,0
204002,-62.111801242236,4,1,0,60,0,0
204152,-61.7283950617284,4,1,0,61,0,0
204302,-61.3496932515337,4,1,0,61,0,0
204452,-60.9756097560976,4,1,0,62,0,0
204602,-60.6060606060606,4,1,0,62,0,0
204752,-60.2409638554217,4,1,0,63,0,0
204902,-59.8802395209581,4,1,0,63,0,0
205052,-59.5238095238095,4,1,0,64,0,0
205352,-58.8235294117647,4,1,0,65,0,0
205502,-58.4795321637427,4,1,0,65,0,0
205652,-58.1395348837209,4,1,0,66,0,0
205952,-57.4712643678161,4,1,0,67,0,0
206252,-56.8181818181818,4,1,0,68,0,0
206402,-56.4971751412429,4,1,0,68,0,0
206552,-56.1797752808989,4,1,0,69,0,0
206702,-55.8659217877095,4,1,0,69,0,0
206852,-55.5555555555556,4,1,0,70,0,0
207002,-55.2486187845304,4,1,0,70,0,0
207152,-54.9450549450549,4,1,0,70,0,0
207302,-54.6448087431694,4,1,0,70,0,0
207452,-54.3478260869565,4,1,0,70,0,0
207602,-54.054054054054,4,1,0,70,0,0
207902,-53.475935828877,4,1,0,70,0,0
208052,-53.1914893617021,4,1,0,70,0,0
208202,-52.9100529100529,4,1,0,70,0,0
208352,-52.6315789473684,4,1,0,70,0,0
208502,-52.3560209424084,4,1,0,70,0,0
208652,-52.0833333333333,4,1,0,70,0,0
209102,-51.5463917525773,4,1,0,70,0,0
209402,-51.2820512820513,4,1,0,70,0,0
209552,-51.0204081632653,4,1,0,70,0,0
209852,-50.761421319797,4,1,0,70,0,0
210152,-50.5050505050505,4,1,0,70,0,0
210452,-50.251256281407,4,1,0,70,0,0
211052,-50,4,1,0,75,0,1
230252,-50,4,1,0,75,0,0
230327,-83.3333333333333,4,1,0,30,0,0
238427,-62.5,4,1,0,60,0,0
248852,-62.111801242236,4,1,0,61,0,0
249002,-61.7283950617284,4,1,0,61,0,0
249152,-61.3496932515337,4,1,0,62,0,0
249302,-60.9756097560976,4,1,0,62,0,0
249452,-60.6060606060606,4,1,0,63,0,0
267677,-60.6060606060606,4,1,0,5,0,0
270977,-60.6060606060606,4,1,0,60,0,0
287852,-60.2409638554217,4,1,0,61,0,0
288152,-59.1715976331361,4,1,0,62,0,0
288452,-58.1395348837209,4,1,0,63,0,0
288752,-57.1428571428571,4,1,0,64,0,0
289052,-56.1797752808989,4,1,0,65,0,0
289202,-55.5555555555556,4,1,0,66,0,0
289352,-54.9450549450549,4,1,0,67,0,0
289427,-54.3478260869565,4,1,0,68,0,0
289502,-53.763440860215,4,1,0,69,0,0
289577,-53.1914893617021,4,1,0,70,0,0
290252,-50,4,1,0,75,0,1
309452,-50,4,1,0,75,0,0
309677,-55.5555555555556,4,1,0,5,0,0
313052,-62.5,4,1,0,5,0,0
315452,-71.4285714285714,4,1,0,5,0,0
317852,-83.3333333333333,4,1,0,5,0,0
320252,-100,4,1,0,5,0,0
322652,-125,4,1,0,5,0,0
325052,-166.666666666667,4,1,0,5,0,0
327452,-250,4,1,0,5,0,0
328577,-66.6666666666667,4,1,0,40,0,0

[HitObjects]
256,192,6452,5,0,0:0:0:0:
256,192,6749,1,0,0:0:0:0:
256,192,7046,1,8,0:0:0:0:
256,192,7343,1,0,0:0:0:0:
256,192,8828,1,0,0:0:0:0:
256,192,9125,1,8,0:0:0:0:
256,192,9422,1,8,0:0:0:0:
256,192,9719,1,0,0:0:0:0:
256,192,11204,1,0,0:0:0:0:
256,192,11501,1,0,0:0:0:0:
256,192,11798,1,8,0:0:0:0:
256,192,12095,1,0,0:0:0:0:
256,192,13580,1,0,0:0:0:0:
256,192,13877,1,8,0:0:0:0:
256,192,14174,1,8,0:0:0:0:
256,192,14471,1,0,0:0:0:0:
256,192,15956,1,0,0:0:0:0:
256,192,16253,1,0,0:0:0:0:
256,192,16551,1,8,0:0:0:0:
256,192,16848,1,0,0:0:0:0:
256,192,18333,1,0,0:0:0:0:
256,192,18630,1,8,0:0:0:0:
256,192,18927,1,8,0:0:0:0:
256,192,19224,1,0,0:0:0:0:
256,192,20709,1,0,0:0:0:0:
256,192,21006,1,0,0:0:0:0:
256,192,21303,1,8,0:0:0:0:
256,192,21600,1,0,0:0:0:0:
256,192,23085,1,0,0:0:0:0:
256,192,23382,1,8,0:0:0:0:
256,192,23679,1,8,0:0:0:0:
256,192,23976,1,0,0:0:0:0:
256,192,25461,1,0,0:0:0:0:
256,192,25758,1,0,0:0:0:0:
256,192,26055,1,8,0:0:0:0:
256,192,26352,1,0,0:0:0:0:
256,192,26650,1,0,0:0:0:0:
256,192,26947,1,8,0:0:0:0:
256,192,27095,1,8,0:0:0:0:
256,192,27244,1,8,0:0:0:0:
256,192,27541,1,0,0:0:0:0:
256,192,27838,1,8,0:0:0:0:
256,192,28432,1,8,0:0:0:0:
256,192,28580,1,0,0:0:0:0:
256,192,28729,1,8,0:0:0:0:
256,192,29026,1,0,0:0:0:0:
256,192,29323,1,8,0:0:0:0:
256,192,29471,1,8,0:0:0:0:
256,192,29620,1,0,0:0:0:0:
256,192,29917,1,0,0:0:0:0:
256,192,30214,1,8,0:0:0:0:
256,192,30808,1,8,0:0:0:0:
256,192,31402,1,0,0:0:0:0:
256,192,31699,1,8,0:0:0:0:
256,192,31996,1,8,0:0:0:0:
256,192,32293,1,0,0:0:0:0:
256,192,32590,1,8,0:0:0:0:
256,192,33184,1,8,0:0:0:0:
256,192,33333,1,8,0:0:0:0:
256,192,33481,1,0,0:0:0:0:
256,192,33778,1,0,0:0:0:0:
256,192,34075,1,8,0:0:0:0:
256,192,34224,1,8,0:0:0:0:
256,192,34372,1,8,0:0:0:0:
256,192,34669,1,0,0:0:0:0:
256,192,34966,1,0,0:0:0:0:
256,192,35560,1,8,0:0:0:0:
256,192,35857,1,8,0:0:0:0:
256,192,36154,1,0,0:0:0:0:
256,192,36303,1,0,0:0:0:0:
256,192,36452,1,0,0:0:0:0:
256,192,36749,1,8,0:0:0:0:
256,192,37046,1,0,0:0:0:0:
256,192,37343,1,8,0:0:0:0:
256,192,37937,1,8,0:0:0:0:
256,192,38085,1,0,0:0:0:0:
256,192,38234,1,8,0:0:0:0:
256,192,38531,1,0,0:0:0:0:
256,192,38828,1,8,0:0:0:0:
256,192,38976,1,8,0:0:0:0:
256,192,39125,1,0,0:0:0:0:
256,192,39422,1,0,0:0:0:0:
256,192,39719,1,8,0:0:0:0:
256,192,40313,1,8,0:0:0:0:
256,192,40907,1,0,0:0:0:0:
256,192,41204,1,0,0:0:0:0:
256,192,41501,1,8,0:0:0:0:
256,192,41798,1,0,0:0:0:0:
256,192,42095,1,8,0:0:0:0:
256,192,42689,1,8,0:0:0:0:
256,192,42838,1,8,0:0:0:0:
256,192,42986,1,0,0:0:0:0:
256,192,43283,1,0,0:0:0:0:
256,192,43580,1,8,0:0:0:0:
256,192,43877,1,0,0:0:0:0:
256,192,44471,1,12,0:0:0:0:
256,192,44768,1,12,0:0:0:0:
256,192,45065,1,4,0:0:0:0:
256,192,45362,1,4,0:0:0:0:
256,192,45659,1,12,0:0:0:0:
256,192,45956,1,0,0:0:0:0:
256,192,46253,1,8,0:0:0:0:
256,192,46551,1,0,0:0:0:0:
256,192,46699,1,0,0:0:0:0:
256,192,46848,1,8,0:0:0:0:
256,192,47145,1,0,0:0:0:0:
256,192,47442,1,8,0:0:0:0:
256,192,47590,1,0,0:0:0:0:
256,192,47739,1,8,0:0:0:0:
256,192,48036,1,0,0:0:0:0:
256,192,48333,1,8,0:0:0:0:
256,192,48481,1,8,0:0:0:0:
256,192,48630,1,0,0:0:0:0:
256,192,48927,1,8,0:0:0:0:
256,192,49224,1,8,0:0:0:0:
256,192,49521,1,0,0:0:0:0:
256,192,49818,1,8,0:0:0:0:
256,192,49966,1,8,0:0:0:0:
256,192,50115,1,8,0:0:0:0:
256,192,50412,1,0,0:0:0:0:
256,192,50709,1,0,0:0:0:0:
256,192,50857,1,0,0:0:0:0:
256,192,51006,1,8,0:0:0:0:
256,192,51303,1,0,0:0:0:0:
256,192,51600,1,0,0:0:0:0:
256,192,51749,1,8,0:0:0:0:
256,192,51897,1,0,0:0:0:0:
256,192,52194,1,8,0:0:0:0:
256,192,52343,1,8,0:0:0:0:
256,192,52491,1,8,0:0:0:0:
256,192,52788,1,0,0:0:0:0:
256,192,53085,1,0,0:0:0:0:
256,192,53382,1,8,0:0:0:0:
256,192,53679,1,0,0:0:0:0:
256,192,53828,1,0,0:0:0:0:
256,192,53976,1,8,0:0:0:0:
256,192,54273,1,0,0:0:0:0:
256,192,54570,1,8,0:0:0:0:
256,192,54719,1,0,0:0:0:0:
256,192,54867,1,8,0:0:0:0:
256,192,55016,1,8,0:0:0:0:
256,192,55164,1,0,0:0:0:0:
256,192,55461,1,0,0:0:0:0:
256,192,55758,1,8,0:0:0:0:
256,192,56055,1,0,0:0:0:0:
256,192,56204,1,0,0:0:0:0:
256,192,56352,1,8,0:0:0:0:
256,192,56650,1,0,0:0:0:0:
256,192,56947,1,8,0:0:0:0:
256,192,57095,1,0,0:0:0:0:
256,192,57244,1,8,0:0:0:0:
256,192,57541,1,0,0:0:0:0:
256,192,57838,1,8,0:0:0:0:
256,192,57986,1,8,0:0:0:0:
256,192,58135,1,0,0:0:0:0:
256,192,58432,1,8,0:0:0:0:
256,192,58729,1,8,0:0:0:0:
256,192,59026,1,0,0:0:0:0:
256,192,59323,1,8,0:0:0:0:
256,192,59471,1,8,0:0:0:0:
256,192,59620,1,8,0:0:0:0:
256,192,59917,1,0,0:0:0:0:
256,192,60214,1,0,0:0:0:0:
256,192,60362,1,0,0:0:0:0:
256,192,60511,1,8,0:0:0:0:
256,192,60808,1,0,0:0:0:0:
256,192,61105,1,0,0:0:0:0:
256,192,61253,1,8,0:0:0:0:
256,192,61402,1,0,0:0:0:0:
256,192,61699,1,8,0:0:0:0:
256,192,61848,1,8,0:0:0:0:
256,192,61996,1,8,0:0:0:0:
256,192,62293,1,0,0:0:0:0:
256,192,62590,1,0,0:0:0:0:
256,192,62887,1,8,0:0:0:0:
256,192,63184,1,0,0:0:0:0:
256,192,63333,1,0,0:0:0:0:
256,192,63481,5,8,0:0:0:0:
256,192,63778,1,0,0:0:0:0:
256,192,64075,1,8,0:0:0:0:
256,192,64224,1,0,0:0:0:0:
256,192,64372,1,0,0:0:0:0:
256,192,64521,1,0,0:0:0:0:
256,192,64669,5,12,0:0:0:0:
256,192,64966,1,8,0:0:0:0:
256,192,65115,1,8,0:0:0:0:
256,192,65263,1,0,0:0:0:0:
256,192,65412,1,0,0:0:0:0:
256,192,65560,1,8,0:0:0:0:
256,192,65857,1,0,0:0:0:0:
256,192,66006,1,8,0:0:0:0:
256,192,66154,1,0,0:0:0:0:
256,192,66452,1,8,0:0:0:0:
256,192,66749,1,8,0:0:0:0:
256,192,66897,1,8,0:0:0:0:
256,192,67046,1,0,0:0:0:0:
256,192,67343,1,8,0:0:0:0:
256,192,67491,1,0,0:0:0:0:
256,192,67640,1,8,0:0:0:0:
256,192,67788,1,8,0:0:0:0:
256,192,67937,1,0,0:0:0:0:
256,192,68234,1,8,0:0:0:0:
256,192,68382,1,0,0:0:0:0:
256,192,68531,1,8,0:0:0:0:
256,192,68828,1,8,0:0:0:0:
256,192,69125,1,0,0:0:0:0:
256,192,69273,1,0,0:0:0:0:
256,192,69422,1,8,0:0:0:0:
256,192,69719,1,8,0:0:0:0:
256,192,69867,1,8,0:0:0:0:
256,192,70016,1,0,0:0:0:0:
256,192,70164,1,0,0:0:0:0:
256,192,70313,1,8,0:0:0:0:
256,192,70610,1,0,0:0:0:0:
256,192,70758,1,8,0:0:0:0:
256,192,70907,1,0,0:0:0:0:
256,192,71204,1,8,0:0:0:0:
256,192,71501,1,8,0:0:0:0:
256,192,71650,1,8,0:0:0:0:
256,192,71798,1,0,0:0:0:0:
256,192,72095,1,8,0:0:0:0:
256,192,72244,1,0,0:0:0:0:
256,192,72392,1,8,0:0:0:0:
256,192,72541,1,8,0:0:0:0:
256,192,72689,1,0,0:0:0:0:
256,192,72986,1,8,0:0:0:0:
256,192,73135,1,0,0:0:0:0:
256,192,73283,1,8,0:0:0:0:
256,192,73580,1,8,0:0:0:0:
256,192,73877,1,0,0:0:0:0:
256,192,74026,1,0,0:0:0:0:
256,192,74174,1,8,0:0:0:0:
256,192,74471,1,0,0:0:0:0:
256,192,74620,1,0,0:0:0:0:
256,192,74768,1,8,0:0:0:0:
256,192,74917,1,8,0:0:0:0:
256,192,75065,1,0,0:0:0:0:
256,192,75362,1,8,0:0:0:0:
256,192,75511,1,0,0:0:0:0:
256,192,75659,1,8,0:0:0:0:
256,192,75956,1,8,0:0:0:0:
256,192,76253,1,0,0:0:0:0:
256,192,76402,1,0,0:0:0:0:
256,192,76551,1,8,0:0:0:0:
256,192,76848,1,0,0:0:0:0:
256,192,76996,1,8,0:0:0:0:
256,192,77145,1,0,0:0:0:0:
256,192,77293,1,0,0:0:0:0:
256,192,77442,1,8,0:0:0:0:
256,192,77739,1,0,0:0:0:0:
256,192,77887,1,8,0:0:0:0:
256,192,78036,1,0,0:0:0:0:
256,192,78333,1,8,0:0:0:0:
256,192,78630,1,8,0:0:0:0:
256,192,78778,1,8,0:0:0:0:
256,192,78927,1,0,0:0:0:0:
256,192,79224,1,0,0:0:0:0:
256,192,79373,1,0,0:0:0:0:
256,192,79521,1,8,0:0:0:0:
256,192,79670,1,8,0:0:0:0:
256,192,79818,1,0,0:0:0:0:
256,192,80115,1,8,0:0:0:0:
256,192,80264,1,0,0:0:0:0:
256,192,80412,1,8,0:0:0:0:
256,192,80709,1,8,0:0:0:0:
256,192,80857,1,8,0:0:0:0:
256,192,81006,1,0,0:0:0:0:
256,192,81155,1,0,0:0:0:0:
256,192,81304,1,8,0:0:0:0:
256,192,81601,1,0,0:0:0:0:
256,192,81749,1,0,0:0:0:0:
256,192,81898,1,8,0:0:0:0:
256,192,82195,1,8,0:0:0:0:
256,192,82492,1,0,0:0:0:0:
256,192,82640,1,8,0:0:0:0:
256,192,82789,1,0,0:0:0:0:
256,192,83086,1,8,0:0:0:0:
256,192,83234,1,0,0:0:0:0:
256,192,83383,1,8,0:0:0:0:
256,192,83531,1,8,0:0:0:0:
256,192,83680,1,0,0:0:0:0:
256,192,84867,5,0,0:0:0:0:
256,192,85164,1,8,0:0:0:0:
256,192,85461,1,8,0:0:0:0:
256,192,85758,1,0,0:0:0:0:
256,192,87243,1,0,0:0:0:0:
256,192,87540,1,0,0:0:0:0:
256,192,87837,1,8,0:0:0:0:
256,192,88134,1,0,0:0:0:0:
256,192,89619,1,0,0:0:0:0:
256,192,89916,1,8,0:0:0:0:
256,192,90213,1,8,0:0:0:0:
256,192,90510,1,0,0:0:0:0:
256,192,91995,1,0,0:0:0:0:
256,192,92292,1,0,0:0:0:0:
256,192,92589,1,8,0:0:0:0:
256,192,92886,1,0,0:0:0:0:
416,128,94372,1,0,0:0:0:0:
416,128,94669,1,8,0:0:0:0:
416,128,94966,1,8,0:0:0:0:
416,128,95263,1,0,0:0:0:0:
416,128,96749,1,0,0:0:0:0:
416,128,97046,1,0,0:0:0:0:
416,128,97343,1,8,0:0:0:0:
416,128,97640,1,0,0:0:0:0:
416,128,99125,1,0,0:0:0:0:
416,128,99422,1,8,0:0:0:0:
416,128,99719,1,8,0:0:0:0:
416,128,100016,1,0,0:0:0:0:
256,192,101501,12,0,102689,0:0:0:0:
256,192,104252,5,4,0:0:0:0:
256,192,104702,1,8,0:0:0:0:
256,192,105152,1,0,0:0:0:0:
256,192,106652,1,0,0:0:0:0:
256,192,107102,1,8,0:0:0:0:
256,192,107552,1,8,0:0:0:0:
256,192,109052,5,0,0:0:0:0:
256,192,109502,1,8,0:0:0:0:
256,192,109914,1,0,0:0:0:0:
256,192,111452,1,0,0:0:0:0:
256,192,111902,1,8,0:0:0:0:
256,192,112352,1,8,0:0:0:0:
256,192,113252,1,0,0:0:0:0:
256,192,113777,1,12,0:0:0:0:
256,192,114052,12,0,123452,0:0:0:0:
256,192,124652,5,0,0:0:0:0:
256,192,124802,1,8,0:0:0:0:
256,192,124952,1,8,0:0:0:0:
256,192,125102,1,0,0:0:0:0:
256,192,127052,1,0,0:0:0:0:
256,192,127202,1,8,0:0:0:0:
256,192,127352,1,8,0:0:0:0:
256,192,127502,1,0,0:0:0:0:
256,192,129452,1,0,0:0:0:0:
256,192,129602,1,8,0:0:0:0:
256,192,129752,1,8,0:0:0:0:
256,192,129902,1,0,0:0:0:0:
256,192,130352,1,0,0:0:0:0:
256,192,130802,1,0,0:0:0:0:
256,192,131852,1,0,0:0:0:0:
256,192,132002,1,8,0:0:0:0:
256,192,132152,1,8,0:0:0:0:
256,192,132302,1,0,0:0:0:0:
256,192,132752,1,0,0:0:0:0:
256,192,133202,1,0,0:0:0:0:
256,192,134252,1,0,0:0:0:0:
256,192,134402,1,8,0:0:0:0:
256,192,134552,1,8,0:0:0:0:
256,192,134702,1,0,0:0:0:0:
256,192,135152,1,8,0:0:0:0:
256,192,135602,1,0,0:0:0:0:
256,192,135902,1,0,0:0:0:0:
256,192,136652,1,0,0:0:0:0:
256,192,136802,1,8,0:0:0:0:
256,192,136952,1,8,0:0:0:0:
256,192,137102,1,0,0:0:0:0:
256,192,137552,1,8,0:0:0:0:
256,192,138002,1,0,0:0:0:0:
256,192,138152,1,8,0:0:0:0:
256,192,138302,1,0,0:0:0:0:
256,192,138602,1,8,0:0:0:0:
256,192,138752,1,8,0:0:0:0:
256,192,138902,1,8,0:0:0:0:
256,192,139052,1,0,0:0:0:0:
256,192,139202,1,8,0:0:0:0:
256,192,139352,1,8,0:0:0:0:
256,192,139502,1,0,0:0:0:0:
256,192,139952,1,0,0:0:0:0:
256,192,140402,1,0,0:0:0:0:
256,192,140552,1,8,0:0:0:0:
256,192,140702,1,0,0:0:0:0:
256,192,141152,1,8,0:0:0:0:
256,192,141452,1,0,0:0:0:0:
256,192,141602,1,8,0:0:0:0:
256,192,141752,1,8,0:0:0:0:
256,192,141902,1,0,0:0:0:0:
256,192,142352,1,0,0:0:0:0:
256,192,142502,1,8,0:0:0:0:
256,192,142652,1,0,0:0:0:0:
256,192,142802,1,0,0:0:0:0:
256,192,142952,1,8,0:0:0:0:
256,192,143102,1,8,0:0:0:0:
256,192,143252,1,0,0:0:0:0:
256,192,143352,1,0,0:0:0:0:
256,192,143452,1,8,0:0:0:0:
256,192,143552,1,8,0:0:0:0:
256,192,143652,1,0,0:0:0:0:
256,192,143752,1,8,0:0:0:0:
256,192,143852,1,0,0:0:0:0:
256,192,144002,1,0,0:0:0:0:
256,192,144152,1,0,0:0:0:0:
256,192,144452,1,8,0:0:0:0:
256,192,144902,1,0,0:0:0:0:
256,192,145352,1,0,0:0:0:0:
256,192,145652,1,8,0:0:0:0:
256,192,146252,1,0,0:0:0:0:
256,192,146402,1,0,0:0:0:0:
256,192,146552,1,0,0:0:0:0:
256,192,146852,1,8,0:0:0:0:
256,192,147302,1,0,0:0:0:0:
256,192,147752,1,0,0:0:0:0:
256,192,148052,1,8,0:0:0:0:
256,192,148652,1,0,0:0:0:0:
256,192,148952,1,0,0:0:0:0:
256,192,149252,1,8,0:0:0:0:
256,192,149552,1,8,0:0:0:0:
256,192,149852,1,0,0:0:0:0:
256,192,150152,1,0,0:0:0:0:
256,192,150452,1,8,0:0:0:0:
256,192,150752,1,8,0:0:0:0:
256,192,151052,1,0,0:0:0:0:
256,192,151202,1,0,0:0:0:0:
256,192,151352,1,8,0:0:0:0:
256,192,151502,1,0,0:0:0:0:
256,192,151652,1,8,0:0:0:0:
256,192,151802,1,8,0:0:0:0:
256,192,151952,1,0,0:0:0:0:
256,192,152102,1,8,0:0:0:0:
256,192,152252,1,0,0:0:0:0:
256,192,152402,1,0,0:0:0:0:
256,192,152552,1,8,0:0:0:0:
256,192,152702,1,0,0:0:0:0:
256,192,152852,1,8,0:0:0:0:
256,192,153002,1,8,0:0:0:0:
256,192,153152,1,0,0:0:0:0:
256,192,153302,1,8,0:0:0:0:
256,192,153452,1,0,0:0:0:0:
256,192,153752,1,0,0:0:0:0:
256,192,154052,1,8,0:0:0:0:
256,192,154127,1,8,0:0:0:0:
256,192,154202,1,8,0:0:0:0:
256,192,154352,1,8,0:0:0:0:
256,192,154502,1,8,0:0:0:0:
256,192,154652,1,0,0:0:0:0:
256,192,155852,1,12,0:0:0:0:
256,192,156152,1,0,0:0:0:0:
256,192,156302,1,8,0:0:0:0:
256,192,156602,1,8,0:0:0:0:
256,192,156752,1,0,0:0:0:0:
256,192,157052,1,0,0:0:0:0:
256,192,157202,1,8,0:0:0:0:
256,192,157502,1,8,0:0:0:0:
256,192,157652,1,0,0:0:0:0:
256,192,157952,1,8,0:0:0:0:
256,192,158252,1,0,0:0:0:0:
256,192,158552,1,0,0:0:0:0:
256,192,158702,1,8,0:0:0:0:
256,192,159002,1,8,0:0:0:0:
256,192,159152,1,0,0:0:0:0:
256,192,159452,1,0,0:0:0:0:
256,192,159602,1,8,0:0:0:0:
256,192,160052,1,0,0:0:0:0:
256,192,160352,1,0,0:0:0:0:
256,192,160652,1,8,0:0:0:0:
256,192,161252,1,0,0:0:0:0:
256,192,161552,1,8,0:0:0:0:
256,192,161852,1,8,0:0:0:0:
256,192,162152,1,0,0:0:0:0:
256,192,162452,1,8,0:0:0:0:
256,192,162752,1,0,0:0:0:0:
256,192,163052,1,0,0:0:0:0:
256,192,163502,1,0,0:0:0:0:
256,192,163652,1,8,0:0:0:0:
256,192,164252,1,0,0:0:0:0:
256,192,164702,1,0,0:0:0:0:
256,192,164852,1,8,0:0:0:0:
256,192,165452,1,0,0:0:0:0:
256,192,165602,1,0,0:0:0:0:
256,192,165902,1,0,0:0:0:0:
256,192,166052,1,8,0:0:0:0:
256,192,166352,1,8,0:0:0:0:
256,192,166502,1,0,0:0:0:0:
256,192,166652,1,0,0:0:0:0:
256,192,166802,1,8,0:0:0:0:
256,192,167102,1,0,0:0:0:0:
256,192,167252,1,8,0:0:0:0:
256,192,167552,1,8,0:0:0:0:
256,192,167702,1,0,0:0:0:0:
256,192,167852,1,0,0:0:0:0:
256,192,168152,1,0,0:0:0:0:
256,192,168302,1,8,0:0:0:0:
256,192,168452,1,8,0:0:0:0:
256,192,168602,1,0,0:0:0:0:
256,192,168752,1,0,0:0:0:0:
256,192,168902,1,8,0:0:0:0:
256,192,169202,1,8,0:0:0:0:
256,192,169352,1,0,0:0:0:0:
256,192,169502,1,8,0:0:0:0:
256,192,169802,1,0,0:0:0:0:
256,192,169952,1,8,0:0:0:0:
256,192,170102,1,8,0:0:0:0:
256,192,170252,1,0,0:0:0:0:
256,192,170702,1,0,0:0:0:0:
256,192,170852,1,8,0:0:0:0:
256,192,171302,1,8,0:0:0:0:
256,192,171452,1,0,0:0:0:0:
256,192,171902,1,0,0:0:0:0:
256,192,172052,1,8,0:0:0:0:
256,192,172502,1,8,0:0:0:0:
256,192,172652,1,0,0:0:0:0:
256,192,172952,1,0,0:0:0:0:
256,192,173252,1,0,0:0:0:0:
256,192,173552,1,0,0:0:0:0:
256,192,173852,1,8,0:0:0:0:
256,192,174152,1,8,0:0:0:0:
256,192,174452,1,0,0:0:0:0:
256,192,174602,1,0,0:0:0:0:
256,192,174752,1,0,0:0:0:0:
256,192,174902,1,0,0:0:0:0:
256,192,175052,1,8,0:0:0:0:
256,192,175352,12,0,178352,0:0:0:0:
256,192,178652,5,0,0:0:0:0:
256,192,178802,1,8,0:0:0:0:
256,192,178952,1,8,0:0:0:0:
256,192,179102,1,0,0:0:0:0:
256,192,179402,1,0,0:0:0:0:
256,192,179552,1,8,0:0:0:0:
256,192,179852,1,0,0:0:0:0:
256,192,180152,1,8,0:0:0:0:
256,192,180302,1,8,0:0:0:0:
256,192,180602,1,0,0:0:0:0:
256,192,180752,1,8,0:0:0:0:
256,192,181052,1,0,0:0:0:0:
256,192,181202,1,8,0:0:0:0:
256,192,181352,1,8,0:0:0:0:
256,192,181502,1,0,0:0:0:0:
256,192,181802,1,0,0:0:0:0:
256,192,181952,1,8,0:0:0:0:
256,192,182252,1,0,0:0:0:0:
256,192,182552,1,8,0:0:0:0:
256,192,182702,1,8,0:0:0:0:
256,192,183002,1,0,0:0:0:0:
256,192,183152,1,8,0:0:0:0:
256,192,183452,1,0,0:0:0:0:
256,192,183602,1,8,0:0:0:0:
256,192,183752,1,8,0:0:0:0:
256,192,183902,1,0,0:0:0:0:
256,192,184352,1,8,0:0:0:0:
256,192,184652,1,0,0:0:0:0:
256,192,184802,1,0,0:0:0:0:
256,192,184952,1,8,0:0:0:0:
256,192,185102,1,8,0:0:0:0:
256,192,185402,1,0,0:0:0:0:
256,192,185552,1,8,0:0:0:0:
256,192,185852,1,0,0:0:0:0:
256,192,186152,1,8,0:0:0:0:
256,192,186302,1,0,0:0:0:0:
256,192,186602,1,0,0:0:0:0:
256,192,186752,1,8,0:0:0:0:
256,192,187052,1,0,0:0:0:0:
256,192,187202,1,0,0:0:0:0:
256,192,187352,1,8,0:0:0:0:
256,192,187502,1,8,0:0:0:0:
256,192,187652,1,8,0:0:0:0:
256,192,187802,1,0,0:0:0:0:
256,192,187877,1,0,0:0:0:0:
256,192,187952,1,8,0:0:0:0:
256,192,188252,5,0,0:0:0:0:
256,192,188402,1,8,0:0:0:0:
256,192,188552,1,8,0:0:0:0:
256,192,188702,1,0,0:0:0:0:
256,192,189002,1,0,0:0:0:0:
256,192,189152,1,8,0:0:0:0:
256,192,189452,1,0,0:0:0:0:
256,192,189602,1,0,0:0:0:0:
256,192,189752,1,8,0:0:0:0:
256,192,189902,1,8,0:0:0:0:
256,192,190202,1,0,0:0:0:0:
256,192,190352,1,8,0:0:0:0:
256,192,190652,1,0,0:0:0:0:
256,192,190802,1,8,0:0:0:0:
256,192,190952,1,8,0:0:0:0:
256,192,191102,1,0,0:0:0:0:
256,192,191402,1,0,0:0:0:0:
256,192,191552,1,8,0:0:0:0:
256,192,191852,1,0,0:0:0:0:
256,192,192002,1,0,0:0:0:0:
256,192,192152,1,8,0:0:0:0:
256,192,192302,1,8,0:0:0:0:
256,192,192452,1,8,0:0:0:0:
256,192,192527,1,8,0:0:0:0:
256,192,192602,1,0,0:0:0:0:
256,192,192752,1,8,0:0:0:0:
256,192,193052,1,0,0:0:0:0:
256,192,193202,1,8,0:0:0:0:
256,192,193352,1,8,0:0:0:0:
256,192,193502,1,0,0:0:0:0:
256,192,193802,1,8,0:0:0:0:
256,192,193952,1,0,0:0:0:0:
256,192,194252,1,0,0:0:0:0:
256,192,194402,1,0,0:0:0:0:
256,192,194702,1,8,0:0:0:0:
256,192,194852,1,0,0:0:0:0:
256,192,195002,1,8,0:0:0:0:
256,192,195077,1,8,0:0:0:0:
256,192,195152,1,8,0:0:0:0:
256,192,195302,1,8,0:0:0:0:
256,192,195452,1,0,0:0:0:0:
256,192,195602,1,8,0:0:0:0:
256,192,195752,1,8,0:0:0:0:
256,192,195902,1,0,0:0:0:0:
256,192,196202,1,8,0:0:0:0:
256,192,196352,1,0,0:0:0:0:
256,192,196652,1,0,0:0:0:0:
256,192,196802,1,8,0:0:0:0:
256,192,196952,1,0,0:0:0:0:
256,192,197102,1,8,0:0:0:0:
256,192,197252,1,0,0:0:0:0:
256,192,197402,1,0,0:0:0:0:
256,192,197552,1,8,0:0:0:0:
256,192,197627,1,8,0:0:0:0:
256,192,197702,1,8,0:0:0:0:
256,192,197777,1,8,0:0:0:0:
256,192,197852,1,8,0:0:0:0:
256,192,198152,1,0,0:0:0:0:
256,192,198452,1,8,0:0:0:0:
256,192,198902,1,8,0:0:0:0:
256,192,199352,1,0,0:0:0:0:
256,192,199652,1,8,0:0:0:0:
256,192,200252,1,8,0:0:0:0:
256,192,200552,1,0,0:0:0:0:
256,192,200852,1,8,0:0:0:0:
256,192,201302,1,0,0:0:0:0:
256,192,201752,1,0,0:0:0:0:
256,192,202052,1,8,0:0:0:0:
256,192,202652,1,0,0:0:0:0:
256,192,202952,1,0,0:0:0:0:
256,192,203102,1,8,0:0:0:0:
256,192,203252,1,0,0:0:0:0:
256,192,203402,1,0,0:0:0:0:
256,192,203552,1,8,0:0:0:0:
256,192,203852,1,0,0:0:0:0:
256,192,204002,1,0,0:0:0:0:
256,192,204152,1,8,0:0:0:0:
256,192,204302,1,8,0:0:0:0:
256,192,204452,1,0,0:0:0:0:
256,192,204602,1,0,0:0:0:0:
256,192,204752,1,8,0:0:0:0:
256,192,204902,1,0,0:0:0:0:
256,192,205052,1,0,0:0:0:0:
256,192,205352,1,0,0:0:0:0:
256,192,205502,1,8,0:0:0:0:
256,192,205652,1,0,0:0:0:0:
256,192,205952,1,8,0:0:0:0:
256,192,206252,1,0,0:0:0:0:
256,192,206402,1,0,0:0:0:0:
256,192,206552,1,8,0:0:0:0:
256,192,206702,1,8,0:0:0:0:
256,192,206852,1,0,0:0:0:0:
256,192,207002,1,0,0:0:0:0:
256,192,207152,1,8,0:0:0:0:
256,192,207302,1,8,0:0:0:0:
256,192,207452,1,0,0:0:0:0:
256,192,207677,1,0,0:0:0:0:
256,192,207902,1,8,0:0:0:0:
256,192,208052,1,0,0:0:0:0:
256,192,208202,1,0,0:0:0:0:
256,192,208352,1,8,0:0:0:0:
256,192,208502,1,8,0:0:0:0:
256,192,208652,1,0,0:0:0:0:
256,192,209102,1,8,0:0:0:0:
256,192,209402,1,8,0:0:0:0:
256,192,209552,1,0,0:0:0:0:
256,192,209627,1,0,0:0:0:0:
256,192,209702,1,0,0:0:0:0:
256,192,209852,1,12,0:0:0:0:
256,192,210152,1,8,0:0:0:0:
256,192,210377,1,0,0:0:0:0:
256,192,210452,1,0,0:0:0:0:
256,192,210602,1,0,0:0:0:0:
256,192,210752,1,8,0:0:0:0:
256,192,210902,1,8,0:0:0:0:
256,192,211052,1,4,0:0:0:0:
256,192,211352,1,8,0:0:0:0:
256,192,211502,1,8,0:0:0:0:
256,192,211652,1,0,0:0:0:0:
256,192,211802,1,0,0:0:0:0:
256,192,211952,1,8,0:0:0:0:
256,192,212252,1,0,0:0:0:0:
256,192,212402,1,8,0:0:0:0:
256,192,212552,1,0,0:0:0:0:
256,192,212702,1,0,0:0:0:0:
256,192,212852,1,8,0:0:0:0:
256,192,213002,1,8,0:0:0:0:
256,192,213152,1,0,0:0:0:0:
256,192,213452,1,0,0:0:0:0:
256,192,213752,1,8,0:0:0:0:
256,192,213902,1,8,0:0:0:0:
256,192,214052,1,0,0:0:0:0:
256,192,214202,1,8,0:0:0:0:
256,192,214352,1,0,0:0:0:0:
256,192,214652,1,8,0:0:0:0:
256,192,214802,1,8,0:0:0:0:
256,192,214952,1,0,0:0:0:0:
256,192,215102,1,0,0:0:0:0:
256,192,215252,1,8,0:0:0:0:
256,192,215402,1,8,0:0:0:0:
256,192,215552,1,0,0:0:0:0:
256,192,215852,1,0,0:0:0:0:
256,192,216152,1,8,0:0:0:0:
256,192,216302,1,8,0:0:0:0:
256,192,216452,1,0,0:0:0:0:
256,192,216602,1,0,0:0:0:0:
256,192,216752,1,8,0:0:0:0:
256,192,217052,1,0,0:0:0:0:
256,192,217202,1,0,0:0:0:0:
256,192,217352,1,8,0:0:0:0:
256,192,217502,1,8,0:0:0:0:
256,192,217652,1,0,0:0:0:0:
256,192,217802,1,8,0:0:0:0:
256,192,217952,1,0,0:0:0:0:
256,192,218252,1,0,0:0:0:0:
256,192,218402,1,0,0:0:0:0:
256,192,218552,1,8,0:0:0:0:
256,192,218702,1,0,0:0:0:0:
256,192,218777,1,0,0:0:0:0:
256,192,218852,1,8,0:0:0:0:
256,192,219002,1,0,0:0:0:0:
256,192,219152,1,8,0:0:0:0:
256,192,219452,1,0,0:0:0:0:
256,192,219602,1,8,0:0:0:0:
256,192,219752,1,8,0:0:0:0:
256,192,219902,1,0,0:0:0:0:
256,192,219977,1,0,0:0:0:0:
256,192,220052,1,8,0:0:0:0:
256,192,220202,1,8,0:0:0:0:
256,192,220352,1,8,0:0:0:0:
256,192,220652,1,4,0:0:0:0:
256,192,220952,1,0,0:0:0:0:
256,192,221102,1,8,0:0:0:0:
256,192,221252,1,0,0:0:0:0:
256,192,221402,1,0,0:0:0:0:
256,192,221552,1,8,0:0:0:0:
256,192,221852,1,8,0:0:0:0:
256,192,222002,1,0,0:0:0:0:
256,192,222152,1,8,0:0:0:0:
256,192,222302,1,8,0:0:0:0:
256,192,222452,1,0,0:0:0:0:
256,192,222602,1,0,0:0:0:0:
256,192,222752,1,8,0:0:0:0:
256,192,223052,1,0,0:0:0:0:
256,192,223352,1,0,0:0:0:0:
256,192,223502,1,0,0:0:0:0:
256,192,223652,1,8,0:0:0:0:
256,192,223802,1,8,0:0:0:0:
256,192,223952,1,0,0:0:0:0:
256,192,224252,1,0,0:0:0:0:
256,192,224402,1,8,0:0:0:0:
256,192,224552,1,8,0:0:0:0:
256,192,224702,1,0,0:0:0:0:
256,192,224852,1,8,0:0:0:0:
256,192,225002,1,0,0:0:0:0:
256,192,225152,1,0,0:0:0:0:
256,192,225452,1,0,0:0:0:0:
256,192,225752,1,0,0:0:0:0:
256,192,225902,1,8,0:0:0:0:
256,192,226052,1,8,0:0:0:0:
256,192,226202,1,0,0:0:0:0:
256,192,226352,1,8,0:0:0:0:
256,192,226652,1,8,0:0:0:0:
256,192,226802,1,0,0:0:0:0:
256,192,226952,1,0,0:0:0:0:
256,192,227102,1,8,0:0:0:0:
256,192,227252,1,8,0:0:0:0:
256,192,227402,1,0,0:0:0:0:
256,192,227552,1,8,0:0:0:0:
256,192,227852,1,0,0:0:0:0:
256,192,228152,1,0,0:0:0:0:
256,192,228302,1,8,0:0:0:0:
256,192,228377,1,8,0:0:0:0:
256,192,228452,1,0,0:0:0:0:
256,192,228602,1,0,0:0:0:0:
256,192,228752,1,8,0:0:0:0:
256,192,229052,1,0,0:0:0:0:
256,192,229202,1,8,0:0:0:0:
256,192,229277,1,8,0:0:0:0:
256,192,229352,1,0,0:0:0:0:
256,192,229502,1,8,0:0:0:0:
256,192,229652,1,8,0:0:0:0:
256,192,229802,1,0,0:0:0:0:
256,192,229952,1,8,0:0:0:0:
256,192,230252,1,4,0:0:0:0:
256,192,238502,5,0,0:0:0:0:
256,192,238652,1,0,0:0:0:0:
256,192,238802,1,12,0:0:0:0:
256,192,239102,1,8,0:0:0:0:
256,192,239402,1,0,0:0:0:0:
256,192,239552,1,0,0:0:0:0:
256,192,239852,1,0,0:0:0:0:
256,192,240152,1,0,0:0:0:0:
256,192,240302,1,12,0:0:0:0:
256,192,240602,1,0,0:0:0:0:
256,192,240752,1,12,0:0:0:0:
256,192,241052,1,0,0:0:0:0:
256,192,241202,1,0,0:0:0:0:
256,192,241502,1,12,0:0:0:0:
256,192,241802,1,8,0:0:0:0:
256,192,241952,1,8,0:0:0:0:
256,192,242102,1,0,0:0:0:0:
256,192,242252,1,0,0:0:0:0:
256,192,242552,1,0,0:0:0:0:
256,192,242702,1,12,0:0:0:0:
256,192,243002,1,0,0:0:0:0:
256,192,243152,1,12,0:0:0:0:
256,192,243452,1,0,0:0:0:0:
256,192,243602,1,12,0:0:0:0:
256,192,243902,1,12,0:0:0:0:
256,192,244202,1,8,0:0:0:0:
256,192,244352,1,8,0:0:0:0:
256,192,244502,1,0,0:0:0:0:
256,192,244652,1,0,0:0:0:0:
256,192,244952,1,0,0:0:0:0:
256,192,245102,1,12,0:0:0:0:
256,192,245402,1,0,0:0:0:0:
256,192,245552,1,12,0:0:0:0:
256,192,245852,1,8,0:0:0:0:
256,192,246002,1,0,0:0:0:0:
256,192,246152,1,0,0:0:0:0:
256,192,246302,1,12,0:0:0:0:
256,192,246602,1,8,0:0:0:0:
256,192,246752,1,8,0:0:0:0:
256,192,246902,1,0,0:0:0:0:
256,192,247052,1,0,0:0:0:0:
256,192,247352,1,0,0:0:0:0:
256,192,247502,1,12,0:0:0:0:
256,192,247802,1,0,0:0:0:0:
256,192,247952,1,12,0:0:0:0:
256,192,248252,1,0,0:0:0:0:
256,192,248402,1,12,0:0:0:0:
256,192,248702,1,0,0:0:0:0:
256,192,248852,1,12,0:0:0:0:
256,192,249002,1,0,0:0:0:0:
256,192,249152,1,0,0:0:0:0:
256,192,249302,1,0,0:0:0:0:
256,192,249452,1,12,0:0:0:0:
256,192,249902,1,0,0:0:0:0:
256,192,250052,1,8,0:0:0:0:
256,192,250502,1,0,0:0:0:0:
256,192,250802,1,0,0:0:0:0:
256,192,251102,1,0,0:0:0:0:
256,192,251252,1,8,0:0:0:0:
256,192,251402,1,0,0:0:0:0:
256,192,251852,1,0,0:0:0:0:
256,192,252302,1,0,0:0:0:0:
256,192,252452,1,8,0:0:0:0:
256,192,252902,1,0,0:0:0:0:
256,192,253202,1,0,0:0:0:0:
256,192,253502,1,0,0:0:0:0:
256,192,253652,1,8,0:0:0:0:
256,192,253802,1,0,0:0:0:0:
256,192,254252,1,4,0:0:0:0:
256,192,254702,1,0,0:0:0:0:
256,192,254852,1,8,0:0:0:0:
256,192,255302,1,0,0:0:0:0:
256,192,255602,1,0,0:0:0:0:
256,192,255902,1,0,0:0:0:0:
256,192,256052,1,8,0:0:0:0:
256,192,256202,1,0,0:0:0:0:
256,192,256652,1,0,0:0:0:0:
256,192,257102,1,0,0:0:0:0:
256,192,257252,1,8,0:0:0:0:
256,192,257702,1,0,0:0:0:0:
256,192,258002,1,8,0:0:0:0:
256,192,258302,1,0,0:0:0:0:
256,192,258452,1,8,0:0:0:0:
256,192,258602,1,0,0:0:0:0:
256,192,258752,1,0,0:0:0:0:
256,192,259052,1,4,0:0:0:0:
256,192,259502,1,0,0:0:0:0:
256,192,259652,1,8,0:0:0:0:
256,192,260102,1,0,0:0:0:0:
256,192,260402,1,0,0:0:0:0:
256,192,260702,1,0,0:0:0:0:
256,192,260852,1,8,0:0:0:0:
256,192,261002,1,0,0:0:0:0:
256,192,261452,1,0,0:0:0:0:
256,192,261902,1,0,0:0:0:0:
256,192,262052,1,8,0:0:0:0:
256,192,262502,1,0,0:0:0:0:
256,192,262802,1,0,0:0:0:0:
256,192,263102,1,0,0:0:0:0:
256,192,263252,1,8,0:0:0:0:
256,192,263402,1,0,0:0:0:0:
256,192,263852,1,4,0:0:0:0:
256,192,264302,1,0,0:0:0:0:
256,192,264452,1,8,0:0:0:0:
256,192,264902,1,0,0:0:0:0:
256,192,265202,1,0,0:0:0:0:
256,192,265502,1,0,0:0:0:0:
256,192,265652,1,8,0:0:0:0:
256,192,265802,1,8,0:0:0:0:
256,192,265952,1,0,0:0:0:0:
256,192,266252,1,4,0:0:0:0:
256,192,266702,1,0,0:0:0:0:
256,192,266852,1,8,0:0:0:0:
256,192,267152,1,0,0:0:0:0:
256,192,267302,1,0,0:0:0:0:
256,192,267452,1,8,0:0:0:0:
256,192,267752,12,0,270752,0:0:0:0:
256,192,271052,5,4,0:0:0:0:
256,192,271352,1,0,0:0:0:0:
256,192,271502,1,8,0:0:0:0:
256,192,271802,1,8,0:0:0:0:
256,192,271952,1,0,0:0:0:0:
256,192,272252,1,0,0:0:0:0:
256,192,272402,1,8,0:0:0:0:
256,192,272702,1,8,0:0:0:0:
256,192,272852,1,0,0:0:0:0:
256,192,273152,1,8,0:0:0:0:
256,192,273452,1,0,0:0:0:0:
256,192,273752,1,0,0:0:0:0:
256,192,273902,1,8,0:0:0:0:
256,192,274202,1,8,0:0:0:0:
256,192,274352,1,0,0:0:0:0:
256,192,274652,1,0,0:0:0:0:
256,192,274802,1,8,0:0:0:0:
256,192,275252,1,0,0:0:0:0:
256,192,275552,1,0,0:0:0:0:
256,192,275852,1,8,0:0:0:0:
256,192,276452,1,0,0:0:0:0:
256,192,276752,1,8,0:0:0:0:
256,192,277052,1,8,0:0:0:0:
256,192,277352,1,0,0:0:0:0:
256,192,277652,1,8,0:0:0:0:
256,192,277952,1,0,0:0:0:0:
256,192,278252,1,0,0:0:0:0:
256,192,278702,1,0,0:0:0:0:
256,192,278852,1,8,0:0:0:0:
256,192,279452,1,0,0:0:0:0:
256,192,279902,1,0,0:0:0:0:
256,192,280052,1,8,0:0:0:0:
256,192,280652,1,0,0:0:0:0:
256,192,280802,1,0,0:0:0:0:
256,192,281102,1,0,0:0:0:0:
256,192,281252,1,8,0:0:0:0:
256,192,281552,1,8,0:0:0:0:
256,192,281702,1,0,0:0:0:0:
256,192,281852,1,0,0:0:0:0:
256,192,282002,1,8,0:0:0:0:
256,192,282302,1,0,0:0:0:0:
256,192,282452,1,8,0:0:0:0:
256,192,282752,1,8,0:0:0:0:
256,192,282902,1,0,0:0:0:0:
256,192,283052,1,0,0:0:0:0:
256,192,283352,1,0,0:0:0:0:
256,192,283502,1,8,0:0:0:0:
256,192,283652,1,8,0:0:0:0:
256,192,283802,1,0,0:0:0:0:
256,192,283952,1,0,0:0:0:0:
256,192,284102,1,8,0:0:0:0:
256,192,284402,1,8,0:0:0:0:
256,192,284552,1,0,0:0:0:0:
256,192,284702,1,8,0:0:0:0:
256,192,285002,1,0,0:0:0:0:
256,192,285152,1,8,0:0:0:0:
256,192,285302,1,8,0:0:0:0:
256,192,285452,1,0,0:0:0:0:
256,192,285902,1,0,0:0:0:0:
256,192,286052,1,8,0:0:0:0:
256,192,286502,1,8,0:0:0:0:
256,192,286652,1,0,0:0:0:0:
256,192,287102,1,0,0:0:0:0:
256,192,287252,1,8,0:0:0:0:
256,192,287702,1,8,0:0:0:0:
256,192,287852,1,0,0:0:0:0:
256,192,288152,1,0,0:0:0:0:
256,192,288452,1,0,0:0:0:0:
256,192,288752,1,0,0:0:0:0:
256,192,289052,1,8,0:0:0:0:
256,192,289202,1,8,0:0:0:0:
256,192,289352,1,0,0:0:0:0:
256,192,289427,1,0,0:0:0:0:
256,192,289502,1,0,0:0:0:0:
256,192,289577,1,0,0:0:0:0:
256,192,290252,1,12,0:0:0:0:
256,192,290552,1,8,0:0:0:0:
256,192,290702,1,8,0:0:0:0:
256,192,290852,1,0,0:0:0:0:
256,192,291002,1,0,0:0:0:0:
256,192,291152,1,8,0:0:0:0:
256,192,291452,1,0,0:0:0:0:
256,192,291602,1,8,0:0:0:0:
256,192,291752,1,0,0:0:0:0:
256,192,291902,1,0,0:0:0:0:
256,192,292052,1,8,0:0:0:0:
256,192,292202,1,8,0:0:0:0:
256,192,292352,1,0,0:0:0:0:
256,192,292652,1,0,0:0:0:0:
256,192,292952,1,8,0:0:0:0:
256,192,293102,1,8,0:0:0:0:
256,192,293252,1,0,0:0:0:0:
256,192,293402,1,8,0:0:0:0:
256,192,293552,1,0,0:0:0:0:
256,192,293852,1,8,0:0:0:0:
256,192,294002,1,8,0:0:0:0:
256,192,294152,1,0,0:0:0:0:
256,192,294302,1,0,0:0:0:0:
256,192,294452,1,8,0:0:0:0:
256,192,294602,1,8,0:0:0:0:
256,192,294752,1,0,0:0:0:0:
256,192,295052,1,0,0:0:0:0:
256,192,295352,1,8,0:0:0:0:
256,192,295502,1,8,0:0:0:0:
256,192,295652,1,0,0:0:0:0:
256,192,295802,1,0,0:0:0:0:
256,192,295952,1,8,0:0:0:0:
256,192,296252,1,0,0:0:0:0:
256,192,296402,1,0,0:0:0:0:
256,192,296552,1,8,0:0:0:0:
256,192,296702,1,8,0:0:0:0:
256,192,296852,1,0,0:0:0:0:
256,192,297002,1,8,0:0:0:0:
256,192,297152,1,0,0:0:0:0:
256,192,297452,1,0,0:0:0:0:
256,192,297602,1,0,0:0:0:0:
256,192,297752,1,8,0:0:0:0:
256,192,297902,1,0,0:0:0:0:
256,192,297977,1,0,0:0:0:0:
256,192,298052,1,8,0:0:0:0:
256,192,298202,1,0,0:0:0:0:
256,192,298352,1,8,0:0:0:0:
256,192,298502,1,8,0:0:0:0:
256,192,298652,1,0,0:0:0:0:
256,192,298802,1,8,0:0:0:0:
256,192,298877,1,8,0:0:0:0:
256,192,298952,1,8,0:0:0:0:
256,192,299102,1,0,0:0:0:0:
256,192,299177,1,0,0:0:0:0:
256,192,299252,1,8,0:0:0:0:
256,192,299402,1,8,0:0:0:0:
256,192,299552,1,0,0:0:0:0:
256,192,299852,1,4,0:0:0:0:
256,192,300152,1,0,0:0:0:0:
256,192,300302,1,8,0:0:0:0:
256,192,300452,1,0,0:0:0:0:
256,192,300602,1,0,0:0:0:0:
256,192,300752,1,8,0:0:0:0:
256,192,301052,1,8,0:0:0:0:
256,192,301202,1,0,0:0:0:0:
256,192,301352,1,8,0:0:0:0:
256,192,301502,1,8,0:0:0:0:
256,192,301652,1,0,0:0:0:0:
256,192,301802,1,0,0:0:0:0:
256,192,301952,1,8,0:0:0:0:
256,192,302252,1,0,0:0:0:0:
256,192,302552,1,0,0:0:0:0:
256,192,302702,1,0,0:0:0:0:
256,192,302852,1,8,0:0:0:0:
256,192,303002,1,8,0:0:0:0:
256,192,303152,1,0,0:0:0:0:
256,192,303452,1,0,0:0:0:0:
256,192,303602,1,8,0:0:0:0:
256,192,303752,1,8,0:0:0:0:
256,192,303902,1,0,0:0:0:0:
256,192,304052,1,8,0:0:0:0:
256,192,304202,1,0,0:0:0:0:
256,192,304352,1,0,0:0:0:0:
256,192,304652,1,0,0:0:0:0:
256,192,304952,1,0,0:0:0:0:
256,192,305102,1,8,0:0:0:0:
256,192,305252,1,8,0:0:0:0:
256,192,305402,1,0,0:0:0:0:
256,192,305552,1,8,0:0:0:0:
256,192,305852,1,8,0:0:0:0:
256,192,306002,1,0,0:0:0:0:
256,192,306152,1,0,0:0:0:0:
256,192,306302,1,8,0:0:0:0:
256,192,306452,1,8,0:0:0:0:
256,192,306602,1,0,0:0:0:0:
256,192,306752,1,8,0:0:0:0:
256,192,307052,1,0,0:0:0:0:
256,192,307352,1,0,0:0:0:0:
256,192,307502,1,8,0:0:0:0:
256,192,307577,1,8,0:0:0:0:
256,192,307652,1,0,0:0:0:0:
256,192,307802,1,0,0:0:0:0:
256,192,307952,1,8,0:0:0:0:
256,192,308102,1,8,0:0:0:0:
256,192,308252,1,0,0:0:0:0:
256,192,308402,1,8,0:0:0:0:
256,192,308477,1,8,0:0:0:0:
256,192,308552,1,0,0:0:0:0:
256,192,308702,1,8,0:0:0:0:
256,192,308852,1,0,0:0:0:0:
256,192,308927,1,0,0:0:0:0:
256,192,309002,1,8,0:0:0:0:
256,192,309077,1,8,0:0:0:0:
256,192,309152,1,0,0:0:0:0:
256,192,309452,1,4,0:0:0:0:
256,192,309752,8,0,318902,0:0:0:0:
256,192,319052,12,0,328502,0:0:0:0:
256,192,328652,5,0,0:0:0:0:
