osu file format v14

[General]
AudioFilename: audio.mp3
AudioLeadIn: 0
PreviewTime: 73078
Countdown: 0
SampleSet: Soft
StackLeniency: 0.5
Mode: 0
LetterboxInBreaks: 0
WidescreenStoryboard: 1

[Editor]
Bookmarks: 79010
DistanceSpacing: 1.2
BeatDivisor: 4
GridSize: 8
TimelineZoom: 2.699999

[Metadata]
Title:crescent moon
TitleUnicode:crescent moon
Artist:FELT
ArtistUnicode:FELT
Creator:gary00737
Version:Extra
Source:東方心綺楼 ~ Hopeless Masquerade.
Tags:東方ボーカル [FELT-019] 19th Album Rebirth Story Ⅲ kanor walaowey DreaM117er m1223961117 Lobelia Abhor - matha - Petal MathaSAURUS 舞花 東方Project japanese pop Hata no Kokoro [_Abhor_] jpop j-pop [ Abhor ] 美歌 Mika Maika NAGI☆ Touhou Project Video Game 亡失のエモーション Boushitsu no Emotion lost emotion 秦のこころ -_Matha_-
BeatmapID:2510378
BeatmapSetID:1195435

[Difficulty]
HPDrainRate:6
CircleSize:4
OverallDifficulty:9
ApproachRate:9.2
SliderMultiplier:2.07
SliderTickRate:1

[Events]
//Background and Video events
0,0,"wallpaperbetter.com_1920x1080.jpg",0,0
//Break Periods
//Storyboard Layer 0 (Background)
//Storyboard Layer 1 (Fail)
//Storyboard Layer 2 (Pass)
//Storyboard Layer 3 (Foreground)
//Storyboard Layer 4 (Overlay)
//Storyboard Sound Samples

[TimingPoints]
0,320.855614973262,4,2,1,25,1,0
962,-200,4,2,1,25,0,0
11550,-166.666666666667,4,2,1,35,0,0
12834,-153.846153846154,4,2,1,35,0,0
14117,-142.857142857143,4,2,1,35,0,0
15401,-133.333333333333,4,2,1,35,0,0
16684,-125,4,2,1,35,0,0
19251,-117.647058823529,4,2,1,35,0,0
20454,-66.6666666666667,4,2,1,35,0,0
22780,-200,4,2,1,64,0,0
23021,-200,4,2,1,5,0,0
23101,-83.3333333333333,4,2,1,64,0,0
27834,-83.3333333333333,4,2,1,5,0,0
27914,-83.3333333333333,4,2,1,64,0,0
30802,-100,4,2,1,64,0,0
31042,-100,4,2,1,5,0,0
31122,-83.3333333333333,4,2,1,64,0,0
32005,-83.3333333333333,4,2,1,30,0,0
32967,-83.3333333333333,4,2,1,5,0,0
33048,-333.333333333333,4,2,1,34,0,0
33529,-200,4,2,1,34,0,0
33569,-200,4,2,1,5,0,0
33609,-200,4,2,1,34,0,0
33729,-200,4,2,1,5,0,0
33770,-200,4,2,1,34,0,0
33890,-200,4,2,1,5,0,0
33930,-200,4,2,1,34,0,0
34050,-200,4,2,1,5,0,0
34090,-200,4,2,1,34,0,0
34211,-200,4,2,1,5,0,0
34251,-200,4,2,1,34,0,0
34371,-200,4,2,1,5,0,0
34411,-200,4,2,1,34,0,0
34532,-200,4,2,1,5,0,0
34572,-200,4,2,1,34,0,0
34652,-133.333333333333,4,2,1,44,0,0
36898,-200,4,2,1,44,0,0
37139,-200,4,2,1,5,0,0
37219,-133.333333333333,4,2,1,44,0,0
39465,-200,4,2,1,44,0,0
39705,-200,4,2,1,5,0,0
39786,-133.333333333333,4,2,1,44,0,0
42032,-200,4,2,1,44,0,0
42272,-200,4,2,1,5,0,0
42352,-133.333333333333,4,2,1,44,0,0
43796,-100,4,2,1,44,0,0
43877,-100,4,2,1,5,0,0
43957,-133.333333333333,4,2,1,44,0,0
44197,-133.333333333333,4,2,1,5,0,0
44278,-80,4,2,1,44,0,0
44518,-80,4,2,1,5,0,0
44598,-133.333333333333,4,2,1,44,0,0
44839,-133.333333333333,4,2,1,5,0,0
44919,-100,4,2,1,54,0,0
48529,-100,4,2,1,5,0,0
48609,-100,4,2,1,54,0,0
49652,-100,4,2,1,5,0,0
49732,-200,4,2,1,54,0,0
49973,-200,4,2,1,5,0,0
50053,-100,4,2,1,54,0,0
50695,-133.333333333333,4,2,1,54,0,0
51096,-133.333333333333,4,2,1,5,0,0
51176,-100,4,2,1,54,0,0
51978,-200,4,2,1,54,0,0
53502,-200,4,2,1,5,0,0
53582,-100,4,2,1,54,0,0
53663,-100,4,2,1,5,0,0
53743,-100,4,2,1,54,0,0
54064,-200,4,2,1,54,0,0
54385,-133.333333333333,4,2,1,54,0,0
55187,-250,4,2,1,44,0,0
65374,-250,4,2,1,5,0,0
65454,-100,4,2,1,54,0,0
70588,-133.333333333333,4,2,1,54,0,0
71631,-133.333333333333,4,2,1,5,0,0
71711,-133.333333333333,4,2,1,54,0,0
72272,-133.333333333333,4,2,1,5,0,0
72352,-133.333333333333,4,2,1,54,0,0
75401,-200,4,2,1,64,0,0
75641,-200,4,2,1,5,0,0
75721,-83.3333333333333,4,2,1,64,0,1
83021,-83.3333333333333,4,2,1,5,0,1
83101,-83.3333333333333,4,2,1,64,0,1
83422,-200,4,2,1,64,0,1
83663,-200,4,2,1,5,0,1
83743,-83.3333333333333,4,2,1,64,0,1
84946,-83.3333333333333,4,2,1,5,0,1
85026,-83.3333333333333,4,2,1,64,0,1
85106,-83.3333333333333,4,2,1,5,0,1
85187,-83.3333333333333,4,2,1,64,0,1
85668,-200,4,2,1,64,0,1
85909,-200,4,2,1,5,0,0
85989,-83.3333333333333,4,2,1,64,0,1
91363,-83.3333333333333,4,2,1,5,0,1
91443,-83.3333333333333,4,2,1,64,0,1
92326,-83.3333333333333,4,2,1,5,0,1
92406,-83.3333333333333,4,2,1,64,0,1
92486,-83.3333333333333,4,2,1,5,0,1
92566,-83.3333333333333,4,2,1,64,0,1
93288,-83.3333333333333,4,2,1,5,0,1
93368,-83.3333333333333,4,2,1,64,0,1
94812,-83.3333333333333,4,2,1,64,0,1
96256,-200,4,2,1,34,0,0

[Colours]
Combo1 : 0,255,255
Combo2 : 170,0,0
Combo3 : 255,0,128
Combo4 : 217,0,217

[HitObjects]
458,278,962,6,0,L|463:212,1,51.75,2|0,0:0|0:0,0:0:0:0:
354,72,1283,6,0,L|357:123,1,51.75,4|0,0:3|0:0,0:0:0:0:
331,213,1604,1,0,0:0:0:0:
331,213,1764,2,0,P|283:247|232:235,1,103.5,2|0,0:0|0:0,0:0:0:0:
162,214,2245,1,0,0:0:0:0:
162,214,2406,2,0,L|165:265,1,51.75,2|0,0:0|0:0,0:0:0:0:
223,375,2727,2,0,L|226:323,2,51.75,0|2|0,0:0|0:0|0:0,0:0:0:0:
99,345,3208,2,0,L|151:342,1,51.75,2|0,0:0|0:0,0:0:0:0:
236,318,3529,2,0,L|287:321,1,51.75,2|0,0:0|0:0,0:0:0:0:
398,370,3850,6,0,L|394:318,1,51.75,2|0,0:0|0:0,0:0:0:0:
361,192,4171,1,0,0:0:0:0:
416,246,4331,2,0,B|377:243|377:243|352:257|352:257|303:253,1,103.5,2|0,0:0|0:0,0:0:0:0:
259,152,4812,1,0,0:0:0:0:
259,152,4973,2,0,L|256:203,1,51.75,2|0,0:0|0:0,0:0:0:0:
245,333,5294,1,0,0:0:0:0:
245,333,5454,2,0,L|242:282,1,51.75,2|0,0:0|0:0,0:0:0:0:
127,226,5775,2,0,L|178:229,1,51.75,2|0,0:0|0:0,0:0:0:0:
24,289,6096,2,0,L|75:286,1,51.75,2|0,0:0|0:0,0:0:0:0:
43,107,6417,6,0,L|49:214,1,103.5,2|0,0:0|0:0,0:0:0:0:
83,342,6899,2,0,L|86:291,1,51.75,2|0,0:0|0:0,0:0:0:0:
186,222,7219,2,0,L|135:219,1,51.75,2|0,0:0|0:0,0:0:0:0:
255,278,7540,2,0,L|362:271,1,103.5,2|0,0:0|0:0,0:0:0:0:
458,250,8021,2,0,L|455:301,1,51.75,2|0,0:0|0:0,0:0:0:0:
373,196,8342,1,0,0:0:0:0:
373,196,8502,2,0,L|376:247,1,51.75,2|0,0:0|0:0,0:0:0:0:
460,154,8823,1,2,0:0:0:0:
289,233,8983,5,2,0:0:0:0:
225,184,9144,1,0,0:0:0:0:
300,153,9304,1,0,0:0:0:0:
214,264,9465,2,0,P|160:259|106:257,1,103.5,2|0,0:0|0:0,0:0:0:0:
6,290,9946,1,0,0:0:0:0:
38,171,10106,2,0,L|41:222,1,51.75,2|0,0:0|0:0,0:0:0:0:
124,125,10427,1,0,0:0:0:0:
124,125,10588,2,0,L|121:176,1,51.75,2|0,0:0|0:0,0:0:0:0:
293,125,10909,1,0,0:0:0:0:
228,248,11069,2,0,L|177:245,2,51.75,2|0|2,0:0|0:0|0:0,0:0:0:0:
203,102,11550,5,4,3:0:0:0:
203,102,11711,1,0,3:0:0:0:
292,56,11871,6,0,P|306:89|300:125,1,62.0999981048585,2|0,0:3|3:0,0:0:0:0:
303,114,12112,2,0,P|336:100|372:106,1,62.0999981048585,2|0,0:3|3:0,0:0:0:0:
361,102,12352,1,0,0:0:0:0:
343,250,12513,2,0,L|347:169,1,62.0999981048585,2|0,3:0|0:0,0:0:0:0:
256,304,12834,6,0,L|252:223,1,67.274996920395,0|0,3:0|3:0,0:0:0:0:
99,231,13155,2,0,P|138:236|175:213,1,67.274996920395,2|0,0:3|3:0,0:0:0:0:
175,214,13395,2,0,P|191:178|181:136,1,67.274996920395,2|0,0:3|3:0,0:0:0:0:
182,136,13636,1,0,0:0:0:0:
95,71,13796,2,0,L|98:140,1,67.274996920395,2|0,3:0|3:0,0:0:0:0:
255,15,14117,6,0,L|251:87,1,72.4499977890015,0|0,3:0|3:0,0:0:0:0:
413,193,14438,2,0,L|409:120,1,72.4499977890015,2|0,0:3|3:0,0:0:0:0:
391,110,14679,1,2,0:3:0:0:
391,110,14759,2,0,L|389:73,1,36.2249988945008,0|0,0:0|3:0,0:0:0:0:
387,0,14919,1,0,0:0:0:0:
255,15,15080,1,2,3:0:0:0:
327,203,15240,1,2,0:3:0:0:
327,203,15320,1,2,0:3:0:0:
327,203,15401,5,0,3:0:0:0:
240,102,15561,1,0,3:0:0:0:
240,102,15641,1,0,0:0:0:0:
240,102,15721,2,0,L|242:140,1,38.8125014805794,2|0,0:3|0:0,0:0:0:0:
147,53,15882,5,0,3:0:0:0:
147,53,15962,2,0,L|151:130,1,77.6250029611589,2|0,0:3|3:0,0:0:0:0:
156,214,16203,1,0,0:0:0:0:
18,123,16363,1,2,3:0:0:0:
0,228,16524,1,2,3:0:0:0:
0,228,16604,1,2,0:3:0:0:
0,228,16684,5,0,3:0:0:0:
79,202,16844,1,0,3:0:0:0:
65,372,17005,2,0,L|70:283,1,82.8,2|0,0:3|3:0,0:0:0:0:
64,284,17245,1,2,0:3:0:0:
64,284,17326,2,0,L|108:281,1,41.4,0|0,0:0|3:0,0:0:0:0:
201,280,17486,1,0,0:0:0:0:
360,274,17647,1,2,3:0:0:0:
355,279,17807,1,0,0:0:0:0:
286,183,17967,6,0,L|287:141,2,41.4,0|0|0,3:0|0:0|3:0,0:0:0:0:
191,102,18288,2,0,L|195:184,1,82.8,2|0,0:3|3:0,0:0:0:0:
169,197,18529,1,2,0:3:0:0:
143,210,18609,1,0,0:0:0:0:
116,203,18689,1,0,3:0:0:0:
89,193,18770,1,0,0:0:0:0:
0,129,18930,2,0,L|4:211,1,82.8,2|0,3:0|3:0,0:0:0:0:
97,361,19251,6,0,B|115:321|115:321|98:280,1,87.97500167799,2|0,3:0|3:0,0:0:0:0:
136,48,19572,2,0,B|118:88|118:88|134:128,1,87.97500167799,2|0,0:3|3:0,0:0:0:0:
164,126,19812,1,2,0:3:0:0:
195,124,19893,1,2,0:0:0:0:
226,122,19973,1,0,3:0:0:0:
256,121,20053,1,2,3:2:0:0:
429,108,20213,1,2,3:2:0:0:
353,263,20374,1,2,3:2:0:0:
353,263,20454,6,0,L|356:195,2,38.8125014805794
256,192,20614,12,0,21978,0:0:0:0:
228,251,22780,6,0,L|233:162,1,77.625,12|0,0:0|0:0,0:0:0:0:
239,169,23101,6,0,L|232:293,1,124.199996209717,4|0,1:0|0:0,0:0:0:0:
320,198,23422,1,8,0:0:0:0:
135,278,23582,1,0,0:0:0:0:
353,272,23743,2,0,P|396:226|394:165,1,124.199996209717,0|0,1:0|1:0,0:0:0:0:
266,14,24064,1,8,0:0:0:0:
320,198,24224,1,0,0:0:0:0:
476,77,24385,6,0,P|399:85|342:90,1,124.199996209717,0|0,1:0|0:0,0:0:0:0:
77,85,24705,2,0,P|129:53|209:84,1,124.199996209717,8|0,0:0|0:0,0:0:0:0:
256,316,25026,1,0,1:0:0:0:
256,316,25106,2,0,L|259:253,1,62.0999981048585,8|0,0:0|0:0,0:0:0:0:
144,135,25347,2,0,L|151:259,1,124.199996209717,8|0,0:0|0:0,0:0:0:0:
467,322,25668,6,0,P|415:290|355:301,1,124.199996209717,4|0,1:3|0:0,0:0:0:0:
226,384,25989,2,0,L|233:260,1,124.199996209717,8|0,0:0|0:0,0:0:0:0:
191,71,26310,1,0,1:0:0:0:
421,217,26470,1,0,1:0:0:0:
379,29,26630,1,8,0:0:0:0:
164,164,26791,6,0,B|92:148|113:208|23:182,1,124.199996209717,0|0,1:0|1:0,0:0:0:0:
21,165,27032,1,8,0:0:0:0:
21,165,27112,1,0,0:0:0:0:
153,241,27272,2,0,L|146:365,1,124.199996209717,8|0,0:0|0:0,0:0:0:0:
139,378,27513,1,0,0:0:0:0:
139,378,27593,2,0,P|207:312|291:341,1,186.299994314575,0|0,1:0|0:0,0:0:0:0:
429,221,27914,6,0,P|381:262|312:251,1,124.199996209717,12|8,0:0|0:0,0:0:0:0:
298,234,28155,1,8,0:0:0:0:
298,234,28235,5,4,1:3:0:0:
232,93,28395,1,0,0:0:0:0:
38,226,28556,2,0,P|27:166|59:114,1,124.199996209717,8|0,0:0|0:0,0:0:0:0:
354,181,28877,2,0,L|347:305,1,124.199996209717,0|0,1:0|1:0,0:0:0:0:
228,86,29197,1,8,0:0:0:0:
469,146,29358,1,0,0:0:0:0:
232,196,29518,6,0,P|170:185|109:181,1,124.199996209717,0|0,1:0|0:0,0:0:0:0:
290,375,29839,2,0,B|324:354|333:313|333:313|309:250,1,124.199996209717,8|0,0:0|0:0,0:0:0:0:
232,96,30160,1,0,1:0:0:0:
201,101,30240,1,8,0:0:0:0:
170,103,30320,1,0,0:0:0:0:
326,183,30481,1,8,0:0:0:0:
192,20,30641,1,0,0:0:0:0:
38,217,30802,6,0,B|70:272|135:267|135:267|150:239|182:224,1,155.25,4|0,1:3|0:0,0:0:0:0:
169,239,31122,6,0,P|131:297|138:353,1,124.199996209717,8|0,0:0|0:0,0:0:0:0:
172,374,31363,1,8,0:0:0:0:
172,374,31443,1,0,1:0:0:0:
306,260,31604,1,8,0:0:0:0:
194,28,31764,1,0,1:0:0:0:
228,315,31925,1,8,0:0:0:0:
256,192,32005,12,0,32967,0:0:0:0:
214,190,33048,6,0,L|282:185,1,62.0999981048585
422,96,33529,6,0,L|420:120,1,12.9375,2|0,0:0|0:0,0:0:0:0:
418,100,33689,6,0,L|416:124,1,12.9375,2|0,0:0|0:0,0:0:0:0:
414,104,33850,6,0,L|412:128,1,12.9375,2|0,0:0|0:0,0:0:0:0:
410,108,34010,6,0,L|408:132,1,12.9375,2|0,0:0|0:0,0:0:0:0:
406,112,34171,6,0,L|404:136,1,12.9375,2|0,0:0|0:0,0:0:0:0:
402,116,34331,6,0,L|400:140,1,12.9375,2|0,0:0|0:0,0:0:0:0:
398,120,34491,6,0,L|396:144,1,12.9375,2|0,0:0|0:0,0:0:0:0:
394,124,34652,6,0,L|388:211,1,77.6250029611589,4|0,1:2|0:0,0:0:0:0:
332,266,34973,1,0,0:0:0:0:
336,270,35133,1,0,0:0:0:0:
340,274,35294,1,0,0:0:0:0:
422,281,35454,2,0,L|500:287,1,77.6250029611589,2|0,1:3|0:0,0:0:0:0:
343,277,35775,6,0,L|337:354,1,77.6250029611589,2|0,1:3|0:0,0:0:0:0:
307,195,36096,2,0,L|229:189,1,77.6250029611589,0|0,1:3|0:0,0:0:0:0:
96,230,36417,1,2,1:3:0:0:
99,233,36577,2,0,P|133:251|170:241,1,77.6250029611589,0|0,1:0|0:0,0:0:0:0:
182,126,36898,6,0,B|145:111|145:111|100:123,1,77.625,2|0,1:0|0:3,0:3:0:0:
104,124,37219,6,0,L|109:46,1,77.6250029611589,2|0,1:3|0:0,0:0:0:0:
113,42,37459,1,0,0:0:0:0:
117,38,37540,1,0,0:0:0:0:
190,128,37700,1,0,0:0:0:0:
186,132,37781,1,0,0:0:0:0:
182,136,37860,1,0,0:0:0:0:
260,141,38021,6,0,L|182:136,1,77.6250029611589,2|0,1:3|0:0,0:0:0:0:
100,128,38342,1,2,1:3:0:0:
178,279,38502,5,0,0:0:0:0:
225,208,38663,1,2,1:3:0:0:
55,196,38823,1,0,0:0:0:0:
93,273,38983,1,2,1:3:0:0:
186,132,39144,2,0,L|191:54,1,77.6250029611589,2|0,1:0|0:0,0:0:0:0:
96,132,39465,6,0,L|90:48,1,77.625,2|0,1:0|0:0,0:0:0:0:
83,49,39786,5,4,1:2:0:0:
271,136,40106,1,0,0:0:0:0:
275,134,40267,1,2,1:3:0:0:
279,132,40427,1,0,0:0:0:0:
214,216,40588,2,0,B|241:210|241:210|274:216|274:216|310:210,1,77.6250029611589,2|0,1:3|0:0,0:0:0:0:
366,151,40909,2,0,B|360:178|360:178|366:211|366:211|363:227,1,77.6250029611589,2|0,1:3|0:0,0:0:0:0:
431,303,41229,2,0,B|404:297|404:297|371:303|371:303|354:300,1,77.6250029611589,2|0,1:3|0:0,0:0:0:0:
290,213,41550,1,2,1:3:0:0:
279,368,41711,2,0,B|285:341|285:341|279:308|279:308|281:291,1,77.6250029611589,2|0,1:0|0:0,0:0:0:0:
296,132,42032,6,0,B|290:159|290:159|296:192|296:192|293:208,1,77.6250029611589,2|0,1:0|0:0,0:0:0:0:
290,213,42352,6,0,B|273:210|273:210|240:216|240:216|213:210,1,77.6250029611589,2|0,1:3|0:0,0:0:0:0:
209,206,42593,1,0,0:0:0:0:
205,202,42673,1,0,0:0:0:0:
125,127,42834,1,0,1:0:0:0:
125,127,42914,1,0,0:0:0:0:
125,127,42994,1,0,0:0:0:0:
81,241,43155,6,0,L|-3:235,1,77.625,2|0,1:3|0:0,0:0:0:0:
146,371,43475,2,0,L|140:287,1,77.625,2|0,1:3|0:0,0:0:0:0:
129,131,43796,6,0,L|132:182,1,51.75,2|0,1:3|0:0,0:0:0:0:
192,234,43957,6,0,B|260:216|239:274|322:253,1,116.437504441738,2|0,0:1|0:0,0:0:0:0:
301,256,44278,6,0,P|336:202|292:250,1,194.0625,2|0,0:1|0:0,0:0:0:0:
301,256,44598,6,0,B|369:238|348:296|431:275,1,116.437504441738,2|0,1:0|0:0,0:0:0:0:
420,278,44919,6,0,B|443:252|443:252|436:159,1,103.5,4|0,1:2|0:0,0:0:0:0:
451,61,45240,2,0,P|407:98|350:87,1,103.5,8|0,0:0|0:0,0:0:0:0:
352,85,45481,1,8,0:0:0:0:
352,85,45561,1,0,1:0:0:0:
290,4,45721,1,0,1:0:0:0:
199,84,45882,2,0,B|148:93|148:93|98:75,1,103.5,8|0,0:0|0:0,0:0:0:0:
0,153,46203,6,0,B|51:144|51:144|99:161,1,103.5,0|0,1:0|0:0,0:0:0:0:
191,206,46524,1,8,0:0:0:0:
115,279,46684,1,0,0:0:0:0:
116,264,46764,1,8,0:0:0:0:
118,249,46844,1,0,1:0:0:0:
42,322,47005,1,0,1:0:0:0:
229,355,47165,2,0,B|178:346|178:346|128:364,1,103.5,8|0,0:0|0:0,0:0:0:0:
340,267,47486,6,0,B|391:276|391:276|439:258,1,103.5,0|0,1:0|0:0,0:0:0:0:
467,247,47727,1,0,0:0:0:0:
467,247,47807,1,8,0:0:0:0:
394,126,47967,1,0,0:0:0:0:
383,149,48047,1,8,0:0:0:0:
382,175,48127,1,0,1:0:0:0:
465,164,48288,1,0,1:0:0:0:
452,23,48449,6,0,L|455:83,1,51.75,8|0,0:0|0:0,0:0:0:0:
467,247,48609,1,0,0:0:0:0:
334,271,48770,5,0,1:0:0:0:
461,168,48930,1,0,1:0:0:0:
280,48,49090,6,0,B|262:96|262:96|271:147,1,103.5,8|0,0:0|0:0,0:0:0:0:
294,172,49331,1,8,0:0:0:0:
294,172,49411,2,0,B|239:164|239:164|196:176|196:176|124:163,1,155.25,0|0,1:0|0:0,0:0:0:0:
136,171,49732,6,0,L|226:186,1,77.625,12|0,0:0|0:0,0:0:0:0:
363,212,50053,5,0,1:0:0:0:
360,223,50213,1,0,1:0:0:0:
357,234,50374,1,0,1:0:0:0:
255,321,50695,6,0,B|205:307|205:307|172:319|172:319|100:301|100:301|123:290|123:290|159:299,1,194.062507402897,12|0,0:0|0:0,0:0:0:0:
130,291,51176,6,0,B|142:275|142:275|135:189,1,103.5,8|0,0:0|0:0,0:0:0:0:
11,31,51497,2,0,B|-1:47|-1:47|6:133,1,103.5,8|0,0:0|0:0,0:0:0:0:
14,223,51818,1,0,1:0:0:0:
143,118,51978,6,0,B|117:115|117:115|95:128,2,51.75,12|0|0,0:0|1:0|1:0,0:0:0:0:
311,84,52620,5,12,1:2:0:0:
308,73,52780,1,12,1:2:0:0:
305,62,52941,1,12,1:2:0:0:
440,192,53262,6,0,P|397:186|363:182,1,77.625,4|0,1:2|0:0,0:0:0:0:
356,175,53582,6,0,P|330:178|304:181,1,51.75,8|0,0:0|0:0,0:0:0:0:
221,192,53743,1,0,1:0:0:0:
216,197,54064,6,0,L|177:193,3,25.875,0|0|0|0,3:0|3:0|3:0|3:0,0:0:0:0:
108,144,54385,5,0,3:0:0:0:
108,144,54465,1,0,3:0:0:0:
108,144,54545,2,0,L|104:183,1,38.8125014805794,12|0,1:2|3:0,0:0:0:0:
94,266,54705,1,4,1:0:0:0:
85,348,54866,6,0,B|91:321|91:321|85:288|85:288|87:271,1,77.6250029611589,8|0,1:2|0:0,0:0:0:0:
94,266,55187,6,0,B|164:253|140:308|225:288,1,124.2,2|0,0:0|0:0,0:0:0:0:
295,251,55828,2,0,P|289:292|286:333,1,82.8,2|0,0:0|0:0,0:0:0:0:
197,213,56470,5,0,0:0:0:0:
197,213,56631,2,0,P|193:171|188:130,1,82.8,2|0,0:0|0:0,0:0:0:0:
106,75,57112,2,0,P|64:78|23:83,1,82.8,2|2,0:0|0:0,0:0:0:0:
192,134,57754,6,0,B|262:121|238:176|323:156,1,124.2,2|0,0:0|0:0,0:0:0:0:
376,93,58395,1,2,0:0:0:0:
422,220,58716,1,2,0:0:0:0:
295,266,59037,6,0,P|253:269|212:274,2,82.8,0|2|0,0:0|0:0|0:0,0:0:0:0:
381,306,59999,1,2,0:0:0:0:
273,130,60320,6,0,B|203:117|227:172|142:152,1,124.2,2|0,0:0|0:0,0:0:0:0:
71,115,60962,2,0,P|76:156|79:197,1,82.8,2|2,0:0|0:0,0:0:0:0:
3,326,61604,6,0,P|-7:281|8:235,1,82.8,2|0,0:0|0:0,0:0:0:0:
157,244,62245,2,0,P|167:289|152:335,1,82.8,2|0,0:0|0:0,0:0:0:0:
11,154,62887,6,0,B|56:159|79:197|79:197|103:152|143:151,1,165.6,2|2,0:0|0:0,0:0:0:0:
279,241,63850,1,2,0:0:0:0:
269,113,64171,6,0,P|277:178|283:244,1,124.2,2|2,0:0|0:0,0:0:0:0:
279,241,64812,2,0,B|360:215|338:288|424:259,1,144.9,2|0,0:0|0:0,0:0:0:0:
427,256,65454,6,0,B|445:231|445:231|438:155,1,103.5,4|2,1:3|0:0,0:0:0:0:
280,42,65775,2,0,B|262:67|262:67|269:143,1,103.5,0|2,1:0|0:0,0:0:0:0:
415,261,66096,2,0,B|348:245|348:245|286:270|286:270|206:251,1,207,0|0,1:0|1:0,0:0:0:0:
87,157,66577,2,0,P|72:108|86:59,1,103.5,2|0,0:0|1:0,0:0:0:0:
220,257,66898,1,10,0:0:0:0:
224,261,67058,2,0,P|238:309|224:358,1,103.5,0|2,1:0|0:0,0:0:0:0:
273,144,67379,1,0,1:0:0:0:
157,310,67540,1,2,1:2:0:0:
154,108,67699,1,8,0:0:0:0:
154,108,68021,6,0,P|102:101|51:95,1,103.5,0|2,1:0|0:0,0:0:0:0:
273,144,68342,2,0,P|324:137|375:131,1,103.5,0|2,1:0|0:0,0:0:0:0:
199,381,68663,2,0,B|189:304|189:304|206:251|206:251|198:178,1,207,0|0,1:0|1:0,0:0:0:0:
355,48,69144,6,0,P|440:76|433:193,1,207,10|2,0:0|0:0,0:0:0:0:
303,330,69625,2,0,L|288:210,1,103.5,0|2,1:0|0:0,0:0:0:0:
439,319,69946,1,0,1:0:0:0:
375,131,70106,1,0,1:0:0:0:
187,195,70267,1,8,0:0:0:0:
181,197,70588,6,0,B|144:190|144:190|111:199|111:199|82:184|41:193,2,116.437504441738,0|0|0,1:0|1:0|1:0,0:0:0:0:
370,200,71229,1,10,0:0:0:0:
289,226,71390,1,0,0:0:0:0:
289,226,71470,2,0,B|278:189|278:189|295:154,1,77.6250029611589,2|0,1:2|0:0,0:0:0:0:
295,154,71711,5,2,1:2:0:0:
442,244,71871,1,0,1:0:0:0:
449,172,72032,5,8,0:0:0:0:
449,172,72112,2,0,B|460:209|460:209|443:244,1,77.6250029611589,0|0,1:0|0:0,0:0:0:0:
361,292,72352,5,0,1:0:0:0:
365,296,72433,1,0,0:0:0:0:
369,300,72513,1,8,0:0:0:0:
293,230,72673,1,2,1:2:0:0:
223,306,72834,1,8,0:0:0:0:
299,376,72994,1,2,1:2:0:0:
287,84,73155,5,12,0:0:0:0:
141,122,75401,6,0,B|166:116|166:116|191:120|191:120|233:112,1,77.625,0|0,1:0|0:0,0:0:0:0:
228,113,75721,6,0,P|195:179|217:236,1,124.199996209717,4|2,1:0|0:0,0:0:0:0:
397,177,76042,1,8,0:0:0:0:
192,38,76203,1,2,0:0:0:0:
409,169,76363,2,0,B|340:151|356:200|289:181,1,124.199996209717,0|2,1:0|1:2,0:0:0:0:
404,313,76684,1,8,0:0:0:0:
307,108,76844,5,2,0:0:0:0:
269,104,76924,1,2,0:0:0:0:
232,100,77004,1,2,1:2:0:0:
195,95,77084,1,2,0:0:0:0:
158,91,77164,1,2,0:0:0:0:
364,39,77326,1,8,0:0:0:0:
227,231,77486,1,2,0:0:0:0:
84,199,77647,5,0,1:0:0:0:
83,199,77727,2,0,P|85:168|88:137,1,62.0999981048585,8|0,0:0|0:0,0:0:0:0:
143,283,77967,1,8,0:0:0:0:
83,59,78128,1,8,0:0:0:0:
53,35,78208,1,8,0:0:0:0:
15,33,78288,6,0,P|7:101|3:164,1,124.199996209717,4|2,1:3|0:0,0:0:0:0:
0,355,78609,1,12,0:0:0:0:
263,287,78770,2,0,B|215:278|215:278|178:290|178:290|121:278,1,124.199996209717,2|0,0:0|1:0,0:0:0:0:
269,157,79090,1,2,1:2:0:0:
222,359,79251,1,12,0:0:0:0:
194,93,79411,6,0,P|255:56|316:73,1,124.199996209717,2|0,0:0|1:0,0:0:0:0:
303,65,79652,1,8,0:0:0:0:
303,65,79732,1,2,0:0:0:0:
427,265,79893,1,12,0:0:0:0:
351,166,80053,1,2,0:0:0:0:
346,202,80133,1,2,0:0:0:0:
342,240,80213,5,0,1:0:0:0:
197,103,80374,1,2,1:2:0:0:
257,275,80534,1,12,0:0:0:0:
50,92,80695,1,10,0:0:0:0:
80,68,80775,1,8,0:0:0:0:
118,66,80855,6,0,P|112:134|107:204,1,124.199996209717,4|2,1:3|0:0,0:0:0:0:
92,383,81176,1,8,0:0:0:0:
154,306,81336,1,2,0:0:0:0:
154,306,81417,1,2,0:0:0:0:
154,306,81497,2,0,B|95:285|95:285|36:304,1,124.199996209717,0|2,1:0|1:2,0:0:0:0:
272,290,81818,2,0,P|333:283|395:278,1,124.199996209717,8|2,0:0|0:0,0:0:0:0:
369,91,82139,5,0,1:0:0:0:
202,228,82299,2,0,B|181:287|181:287|204:356,1,124.199996209717,2|8,0:0|0:0,0:0:0:0:
287,200,82620,1,2,0:0:0:0:
55,71,82780,5,0,1:0:0:0:
55,71,82860,2,0,P|112:25|180:51,1,124.199996209717,8|0,0:0|0:0,0:0:0:0:
206,94,83101,6,0,P|201:155|194:217,1,124.199996209717,8|2,0:0|0:0,0:0:0:0:
285,382,83422,6,0,B|297:345|297:345|281:309,1,77.625,4|0,1:3|0:0,0:0:0:0:
274,297,83743,6,0,B|317:292|317:292|355:306|355:306|408:301,1,124.199996209717,12|2,0:0|0:0,0:0:0:0:
279,188,84064,1,0,1:0:0:0:
367,230,84224,1,10,0:0:0:0:
371,192,84304,1,2,0:0:0:0:
376,156,84384,1,0,1:0:0:0:
157,24,84545,1,14,0:0:0:0:
132,213,84705,5,2,1:2:0:0:
162,237,84785,1,8,0:0:0:0:
200,239,84866,2,0,P|196:205|194:170,1,62.0999981048585,2|0,1:2|0:0,0:0:0:0:
145,17,85026,2,0,P|142:47|139:78,1,62.0999981048585,14|0,1:2|0:0,0:0:0:0:
149,334,85187,5,10,1:2:0:0:
208,343,85267,1,8,0:0:0:0:
262,317,85347,1,10,1:2:0:0:
300,269,85427,1,8,0:0:0:0:
303,210,85507,1,10,1:2:0:0:
2,37,85668,6,0,P|5:77|8:118,1,77.625,8|0,1:2|0:0,0:0:0:0:
4,122,85989,6,0,B|-17:181|-17:181|6:250,1,124.199996209717,4|2,1:0|0:0,0:0:0:0:
211,189,86310,1,8,0:0:0:0:
2,354,86470,1,2,0:0:0:0:
73,181,86631,2,0,B|121:172|121:172|158:184|158:184|215:174,1,124.199996209717,0|2,1:0|1:2,0:0:0:0:
361,154,86951,1,8,0:0:0:0:
278,365,87112,1,2,0:0:0:0:
278,365,87192,1,0,0:0:0:0:
278,365,87272,6,0,P|255:302|282:240,1,124.199996209717,0|2,1:0|0:0,0:0:0:0:
364,31,87593,2,0,P|387:94|360:156,1,124.199996209717,8|2,0:0|0:0,0:0:0:0:
206,142,87914,2,0,P|247:146|297:153,2,62.0999981048585,0|8|0,1:0|0:0|0:0,0:0:0:0:
49,55,88235,1,8,0:0:0:0:
0,265,88395,1,8,0:0:0:0:
0,265,88475,1,8,0:0:0:0:
0,265,88556,6,0,P|61:257|123:251,1,124.199996209717,4|2,1:3|0:0,0:0:0:0:
339,305,88877,1,8,0:0:0:0:
206,142,89037,1,2,0:0:0:0:
236,118,89117,1,2,0:0:0:0:
274,116,89197,2,0,P|271:150|268:185,1,62.0999981048585,0|8,1:0|0:0,0:0:0:0:
210,300,89358,5,2,1:2:0:0:
210,300,89438,1,2,0:0:0:0:
210,300,89518,2,0,P|207:266|204:231,1,62.0999981048585,8|0,0:0|0:0,0:0:0:0:
128,68,89679,2,0,P|125:98|122:129,1,62.0999981048585,2|0,0:0|0:0,0:0:0:0:
60,286,89839,5,2,1:2:0:0:
90,310,89919,1,2,0:0:0:0:
128,312,89999,2,0,P|125:278|122:243,1,62.0999981048585,0|0,1:0|0:0,0:0:0:0:
319,127,90160,2,0,P|282:72|217:71,1,124.199996209717,8|2,0:0|0:0,0:0:0:0:
211,80,90401,1,0,0:0:0:0:
211,80,90481,6,0,P|208:110|205:141,1,62.0999981048585,0|8,1:0|0:0,0:0:0:0:
196,229,90641,1,2,1:2:0:0:
176,3,90802,1,12,0:0:0:0:
319,127,90962,1,8,0:0:0:0:
319,127,91042,1,8,0:0:0:0:
319,127,91122,6,0,B|376:117|376:117|432:139|432:139|509:128,1,186.299994314575,4|0,1:3|0:0,0:0:0:0:
505,120,91443,1,12,0:0:0:0:
245,177,91604,2,0,B|226:118|226:118|264:41,1,124.199996209717,2|0,0:0|1:0,0:0:0:0:
364,201,91925,5,2,1:2:0:0:
93,229,92085,2,0,P|158:164|265:194,1,186.299994314575,12|0,0:0|0:0,0:0:0:0:
257,181,92406,6,0,P|254:211|251:242,1,62.0999981048585,0|0,1:0|0:0,0:0:0:0:
7,264,92566,1,2,1:2:0:0:
9,233,92646,1,0,0:0:0:0:
13,202,92726,1,12,0:0:0:0:
79,365,92887,1,2,0:0:0:0:
142,140,93048,5,0,1:0:0:0:
146,144,93128,2,0,B|215:132|215:132|247:156|247:195,1,124.199996209717,8|0,0:0|0:0,0:0:0:0:
257,181,93368,2,0,P|248:250|241:340,1,124.199996209717,12|2,0:0|0:0,0:0:0:0:
440,182,93689,5,4,1:3:0:0:
173,219,93851,1,2,0:0:0:0:
325,334,94010,1,12,0:0:0:0:
369,76,94172,5,2,1:0:0:0:
67,289,94331,1,12,0:0:0:0:
112,32,94491,5,2,1:0:0:0:
447,172,94652,1,12,0:0:0:0:
42,133,94812,5,10,1:2:0:0:
42,133,95133,5,2,0:0:0:0:
66,177,95294,1,2,0:0:0:0:
112,199,95454,1,2,0:0:0:0:
163,192,95614,1,2,0:0:0:0:
200,155,95775,1,2,0:0:0:0:
208,105,95935,1,2,0:0:0:0:
186,59,96096,1,2,0:0:0:0:
155,302,96256,5,4,0:3:0:0:
