osu file format v14

[General]
AudioFilename: audio.mp3
AudioLeadIn: 0
PreviewTime: 139140
Countdown: 0
SampleSet: Soft
StackLeniency: 0.7
Mode: 0
LetterboxInBreaks: 0
WidescreenStoryboard: 0

[Editor]
Bookmarks: 3900,23153,55237,65504,119408,129675
DistanceSpacing: 0.4
BeatDivisor: 4
GridSize: 4
TimelineZoom: 1.8

[Metadata]
Title:crescent moon
TitleUnicode:crescent moon
Artist:FELT
ArtistUnicode:FELT
Creator:Kinshara
Version:Eclipse
Source:東方Project
Tags:touhou 舞花 maika NAGI☆ rebirth story III 3 hakurei shrine reitaisai 例大祭 13 rts13 亡失のエモーション the lost emotion 東方心綺楼 hopeless masquerade hata no kokoro meg pho hailie
BeatmapID:1013155
BeatmapSetID:474280

[Difficulty]
HPDrainRate:8.3
CircleSize:4.3
OverallDifficulty:8.3
ApproachRate:9.3
SliderMultiplier:1.8
SliderTickRate:1

[Events]
//Background and Video events
0,0,"crescent moon bg.jpg",0,0
//Break Periods
2,55437,64862
2,119608,129033
2,160677,165057
2,193846,203560
//Storyboard Layer 0 (Background)
//Storyboard Layer 1 (Fail)
//Storyboard Layer 2 (Pass)
//Storyboard Layer 3 (Foreground)
//Storyboard Sound Samples

[TimingPoints]
50,320.855614973262,4,2,1,100,1,0
1012,-200,4,2,1,60,0,0
1333,-125,4,2,1,90,0,0
1413,-125,4,2,1,60,0,0
20584,-125,4,2,1,30,0,0
22830,-125,4,2,90,60,0,0
23151,-100,4,2,2,100,0,1
23231,-100,4,2,2,100,0,0
25397,-125,4,2,2,100,0,0
25718,-100,4,2,2,100,0,0
28285,-100,4,2,2,100,0,1
28365,-100,4,2,2,100,0,0
30531,-125,4,2,2,100,0,0
33098,-125,4,2,3,20,0,0
33418,-66.6666666666667,4,2,3,20,0,0
34381,-50,4,2,3,40,0,0
34541,-50,4,2,3,20,0,0
34702,-125,4,2,2,70,0,0
36948,-66.6666666666667,4,2,2,70,0,0
37269,-125,4,2,2,70,0,0
39515,-66.6666666666667,4,2,2,70,0,0
39836,-125,4,2,2,70,0,0
42082,-66.6666666666667,4,2,2,70,0,0
42402,-125,4,2,2,70,0,0
44648,-66.6666666666667,4,2,2,70,0,0
44969,-100,4,2,2,80,0,0
47215,-50,4,2,2,80,0,0
47536,-100,4,2,2,80,0,0
49782,-50,4,2,2,80,0,0
50103,-100,4,2,2,80,0,0
50745,-200,4,2,2,90,0,0
51226,-125,4,2,2,80,0,0
52028,-125,4,2,2,90,0,0
52189,-125,4,2,2,80,0,0
53312,-200,4,2,2,90,0,0
53793,-125,4,2,2,80,0,0
54435,-100,4,2,2,80,0,0
54916,-200,4,2,2,100,0,0
55237,-200,4,2,2,60,0,0
65504,-125,4,2,2,80,0,0
66948,-125,4,2,2,90,0,0
67108,-125,4,2,2,80,0,0
67750,-200,4,2,2,80,0,0
68071,-125,4,2,2,80,0,0
69194,-66.6666666666667,4,2,2,90,0,0
69354,-125,4,2,2,80,0,0
70317,-200,4,2,2,90,0,0
70638,-125,4,2,2,90,0,0
75451,-200,4,2,90,40,0,0
75771,-90.9090909090909,4,2,2,100,0,1
80905,-66.6666666666667,4,2,2,100,0,1
81226,-90.9090909090909,4,2,2,100,0,1
83472,-200,4,2,2,100,0,1
83793,-90.9090909090909,4,2,2,100,0,1
85718,-200,4,2,2,100,0,1
85959,-90.9090909090909,4,2,2,100,0,0
86039,-90.9090909090909,4,2,2,100,0,1
91172,-66.6666666666667,4,2,2,100,0,1
91493,-90.9090909090909,4,2,2,100,0,1
94862,-90.9090909090909,4,2,2,100,0,0
98392,-90.9090909090909,4,2,1,70,0,0
98552,-200,4,2,2,70,0,0
98873,-125,4,2,2,70,0,0
101119,-66.6666666666667,4,2,2,70,0,0
101440,-125,4,2,2,70,0,0
103686,-66.6666666666667,4,2,2,70,0,0
103846,-100,4,2,2,70,0,0
104007,-125,4,2,2,70,0,0
108338,-125,4,2,2,80,0,0
109140,-100,4,2,2,80,0,0
114274,-100,4,2,2,80,0,0
114916,-200,4,2,2,90,0,0
115397,-125,4,2,2,80,0,0
116199,-125,4,2,2,90,0,0
116360,-125,4,2,2,80,0,0
117483,-200,4,2,2,90,0,0
117964,-125,4,2,2,80,0,0
118606,-100,4,2,2,80,0,0
119087,-200,4,2,2,60,0,0
129675,-125,4,2,2,80,0,0
131921,-200,4,2,2,80,0,0
132242,-125,4,2,2,80,0,0
133365,-66.6666666666667,4,2,2,90,0,0
133525,-125,4,2,2,80,0,0
134488,-200,4,2,2,80,0,0
134809,-125,4,2,2,80,0,0
139140,-125,4,2,2,30,0,0
139622,-200,4,2,90,40,0,0
139943,-90.9090909090909,4,2,2,100,0,1
145076,-66.6666666666667,4,2,2,100,0,1
145397,-90.9090909090909,4,2,2,100,0,1
147643,-200,4,2,2,100,0,1
147964,-90.9090909090909,4,2,2,100,0,1
149889,-200,4,2,2,100,0,1
150130,-90.9090909090909,4,2,2,100,0,0
150210,-90.9090909090909,4,2,2,100,0,1
155344,-66.6666666666667,4,2,2,100,0,1
155664,-90.9090909090909,4,2,2,100,0,1
159033,-125,4,2,2,100,0,0
159354,-125,4,2,2,60,0,0
165611,-200,4,2,2,60,0,0
167697,-200,4,2,1,60,0,0
167857,-200,4,2,2,60,0,0
170103,-500,4,2,2,70,0,0
170745,-100,4,2,2,100,0,1
170825,-100,4,2,2,100,0,0
175878,-166.666666666667,4,2,2,100,0,0
176199,-83.3333333333333,4,2,2,100,0,0
176520,-166.666666666667,4,2,2,100,0,0
176841,-83.3333333333333,4,2,2,100,0,0
177162,-166.666666666667,4,2,2,100,0,0
177483,-83.3333333333333,4,2,2,100,0,0
177804,-100,4,2,2,100,0,0
178124,-83.3333333333333,4,2,2,100,0,0
178445,-200,4,2,2,100,0,0
181012,-100,4,2,2,100,0,1
181092,-100,4,2,2,100,0,0
186146,-200,4,2,2,100,0,0
188713,-100,4,2,2,100,0,0
189515,-100,4,2,1,100,0,0
189836,-100,4,2,2,100,0,0
193525,-100,4,2,2,39,0,0
204114,-142.857142857143,4,2,1,60,0,0
211814,-142.857142857143,4,2,90,60,0,0
214060,-200,4,2,90,40,0,0
214381,-90.9090909090909,4,2,2,100,0,1
219515,-66.6666666666667,4,2,2,100,0,1
219836,-90.9090909090909,4,2,2,100,0,1
222082,-200,4,2,2,100,0,1
222402,-90.9090909090909,4,2,2,100,0,1
224328,-200,4,2,2,100,0,1
224568,-90.9090909090909,4,2,2,100,0,0
224648,-90.9090909090909,4,2,2,100,0,1
229782,-125,4,2,2,100,0,1
233472,-125,4,2,2,100,0,0
234595,-200,4,2,1,100,0,0
237001,-200,4,2,2,100,0,0
237162,-75.000000001875,4,2,2,100,0,0
237483,-100,4,2,2,100,0,1
237563,-100,4,2,2,100,0,0
239729,-125,4,2,2,100,0,0
240049,-100,4,2,2,100,0,0
242616,-100,4,2,2,100,0,1
242697,-100,4,2,2,100,0,0
244862,-125,4,2,2,100,0,0
245504,-100,4,2,2,100,0,0
247429,-66.6666666666667,4,2,2,100,0,0
247750,-125,4,2,2,100,0,1
247830,-125,4,2,2,100,0,0
255771,-125,4,2,2,70,0,0
256894,-125,4,2,2,50,0,0
257857,-200,4,2,2,40,0,0
258017,-200,4,2,90,40,0,0
259301,-200,4,2,90,30,0,0
260584,-200,4,2,90,20,0,0
261226,-200,4,2,90,10,0,0
261868,-200,4,2,90,5,0,0

[Colours]
Combo1 : 36,184,255
Combo2 : 255,74,165
Combo3 : 159,64,255

[HitObjects]
28,176,1012,6,0,L|104:172,1,67.5,2|0,0:0|0:0,0:0:0:0:
116,180,1333,6,0,P|122:215|126:251,1,72,2|0,0:0|0:0,0:0:0:0:
72,324,1654,1,0,0:0:0:0:
72,324,1814,2,0,P|134:289|205:283,1,144,2|0,0:0|0:0,0:0:0:0:
284,320,2295,1,0,0:0:0:0:
356,272,2456,6,0,P|362:236|366:200,1,72,2|0,0:0|0:0,0:0:0:0:
316,16,2777,2,0,P|295:84|293:156,1,144,2|2,0:0|0:0,0:0:0:0:
256,76,3258,2,0,L|176:80,1,72,2|0,0:0|0:0,0:0:0:0:
40,124,3579,2,0,L|120:128,1,72,2|0,0:0|0:0,0:0:0:0:
232,212,3900,6,0,P|196:205|160:200,1,72,2|0,0:0|0:0,0:0:0:0:
112,280,4221,1,0,0:0:0:0:
196,324,4381,2,0,P|267:318|329:283,1,144,2|0,0:0|0:0,0:0:0:0:
388,216,4862,1,0,0:0:0:0:
464,268,5023,6,0,L|460:348,1,72,2|0,0:0|0:0,0:0:0:0:
388,216,5344,2,0,P|367:147|366:75,1,144,2|2,0:0|0:0,0:0:0:0:
504,104,5825,2,0,P|501:139|497:175,1,72,2|0,0:0|0:0,0:0:0:0:
440,32,6146,1,2,0:0:0:0:
440,32,6467,6,0,L|284:40,1,144,2|0,0:0|0:0,0:0:0:0:
156,92,6948,2,0,P|191:98|226:103,1,72,2|0,0:0|0:0,0:0:0:0:
80,32,7269,1,0,0:0:0:0:
80,32,7429,1,0,0:0:0:0:
32,108,7590,6,0,P|39:143|48:178,1,72,2|0,0:0|0:0,0:0:0:0:
272,224,7910,2,0,P|210:189|139:183,1,144,2|2,0:0|0:0,0:0:0:0:
140,328,8392,2,0,P|175:323|210:316,1,72,2|0,0:0|0:0,0:0:0:0:
300,308,8713,2,0,P|335:312|370:319,1,72,2|0,0:0|0:0,0:0:0:0:
464,360,9033,6,0,P|443:291|441:219,1,144,2|0,0:0|0:0,0:0:0:0:
504,148,9515,2,0,P|507:112|511:76,1,72,2|0,0:0|0:0,0:0:0:0:
444,16,9836,1,0,0:0:0:0:
444,16,9996,1,0,0:0:0:0:
383,151,10156,6,0,P|379:115|376:80,1,72,2|0,0:0|0:0,0:0:0:0:
304,204,10477,2,0,P|275:181|248:158,1,72,2|0,0:0|0:0,0:0:0:0:
280,56,10798,1,2,0:0:0:0:
308,296,10959,2,0,P|236:303|170:278,1,144,2|2,0:0|0:0,0:0:0:0:
100,208,11600,5,2,0:0:0:0:
256,192,11681,12,0,20584,0:0:0:0:
0,140,22830,5,4,0:3:0:0:
16,124,23151,6,0,L|60:127,1,45,14|0,0:3|0:0,0:0:0:0:
172,208,23312,2,0,L|116:212,1,45,2|0,0:0|0:0,0:0:0:0:
128,40,23472,2,0,P|172:47|215:59,1,90,10|0,0:0|0:0,0:0:0:0:
336,180,23793,2,0,P|328:135|324:90,1,90,10|0,0:3|0:0,0:0:0:0:
480,68,24033,1,0,0:0:0:0:
480,68,24114,2,0,L|476:120,1,45,8|0,0:0|0:0,0:0:0:0:
432,204,24274,2,0,L|436:256,1,45,2|0,0:0|0:0,0:0:0:0:
372,332,24435,6,0,P|328:325|285:313,1,90,10|0,0:3|0:0,0:0:0:0:
72,292,24755,2,0,P|132:262|199:257,1,135,10|0,0:0|0:0,0:0:0:0:
128,212,25076,1,10,0:3:0:0:
128,212,25156,2,0,L|130:167,1,45,8|8,0:0|0:3,0:0:0:0:
52,76,25317,1,8,0:3:0:0:
52,76,25397,6,0,L|136:72,1,72,10|0,0:0|0:0,0:0:0:0:
256,116,25718,6,0,L|196:112,1,45,14|0,0:3|0:0,0:0:0:0:
420,84,25878,2,0,L|468:80,1,45,2|0,0:0|0:0,0:0:0:0:
348,160,26039,2,0,P|340:115|336:70,1,90,10|0,0:0|0:0,0:0:0:0:
492,0,26360,1,10,0:3:0:0:
444,176,26520,1,0,0:0:0:0:
444,176,26600,1,0,0:0:0:0:
444,176,26681,2,0,P|436:220|432:265,1,90,8|2,0:0|0:0,0:0:0:0:
500,372,27001,5,8,0:3:0:0:
500,372,27082,1,8,0:0:0:0:
500,372,27162,2,0,L|448:368,1,45,10|0,0:3|0:0,0:0:0:0:
279,356,27322,2,0,P|323:352|367:342,1,90,10|0,0:0|0:0,0:0:0:0:
200,288,27563,1,8,0:0:0:0:
200,288,27643,2,0,P|141:255|75:243,1,135,10|0,0:3|0:0,0:0:0:0:
12,296,27964,1,10,0:0:0:0:
104,152,28124,5,8,0:3:0:0:
104,152,28205,1,8,0:0:0:0:
104,152,28285,2,0,L|100:92,1,45,14|0,0:3|0:0,0:0:0:0:
204,8,28445,2,0,L|200:52,1,45,2|0,0:0|0:0,0:0:0:0:
268,208,28606,2,0,P|275:163|279:118,1,90,10|0,0:0|0:0,0:0:0:0:
412,16,28927,2,0,P|414:83|432:148,1,135,10|0,0:3|0:0,0:0:0:0:
488,260,29247,2,0,P|445:245|401:235,1,90,8|2,0:0|0:0,0:0:0:0:
248,312,29488,1,0,0:0:0:0:
248,312,29568,6,0,P|291:302|334:287,1,90,8|2,0:3|0:0,0:0:0:0:
140,284,29889,2,0,P|144:328|150:373,1,90,10|0,0:0|0:0,0:0:0:0:
220,196,30210,1,10,0:3:0:0:
220,196,30290,2,0,L|164:188,1,45,8|8,0:0|0:3,0:0:0:0:
68,92,30451,1,8,0:3:0:0:
68,92,30531,6,0,L|148:84,1,72,10|0,0:0|0:0,0:0:0:0:
364,120,30852,5,14,0:3:0:0:
364,120,31172,5,8,0:0:0:0:
284,32,31333,1,8,0:3:0:0:
248,28,31413,1,8,0:0:0:0:
212,24,31493,1,10,0:3:0:0:
264,196,31654,1,10,0:3:0:0:
344,108,31814,1,10,0:3:0:0:
176,20,31975,5,14,0:0:0:0:
176,20,33098,6,0,L|180:52,6,18,2|0|0|0|0|0|0,0:3|0:0|0:0|0:0|0:0|0:0|0:0,0:0:0:0:
104,108,33418,6,0,L|60:104,1,33.7500012874604,2|0,0:3|0:3,0:0:0:0:
228,160,33579,6,0,L|268:156,1,33.7500012874604,2|0,0:3|0:3,0:0:0:0:
128,216,33739,6,0,L|72:212,1,33.7500012874604,2|0,0:3|0:3,0:0:0:0:
268,260,33900,6,0,L|312:256,1,33.7500012874604,2|0,0:3|0:3,0:0:0:0:
172,332,34060,6,0,L|128:328,1,33.7500012874604,2|0,0:3|0:3,0:0:0:0:
308,368,34221,6,0,L|352:364,1,33.7500012874604,2|0,0:3|0:3,0:0:0:0:
424,280,34381,6,0,B|428:240|428:240|420:208|420:208|428:176|428:128|428:128|412:156,1,180,10|10,0:3|0:3,0:0:0:0:
480,36,34702,6,0,P|444:28|408:24,1,72,10|0,0:3|0:0,0:0:0:0:
328,76,35023,1,8,0:3:0:0:
200,56,35183,1,0,0:0:0:0:
316,52,35344,1,8,0:3:0:0:
192,152,35504,2,0,P|188:116|187:80,1,72,2|8,0:0|0:3,0:0:0:0:
244,248,35825,6,0,P|208:256|172:260,1,72,2|8,0:0|0:3,0:0:0:0:
52,172,36146,2,0,P|76:199|98:228,1,72,2|8,0:0|0:3,0:0:0:0:
80,376,36467,1,2,0:0:0:0:
80,376,36627,2,0,P|91:340|105:307,1,72,10|0,0:3|0:0,0:0:0:0:
164,172,36948,6,0,P|161:155|158:138,6,33.7500012874604,10|0|0|0|0|0|0,0:3|0:0|0:0|0:0|0:0|0:0|0:0,0:0:0:0:
180,40,37269,6,0,P|144:44|109:51,1,72,10|0,0:3|0:0,0:0:0:0:
76,68,37509,1,0,0:0:0:0:
76,68,37590,1,8,0:3:0:0:
248,112,37750,1,0,0:0:0:0:
284,116,37830,1,0,0:0:0:0:
320,120,37910,1,8,0:3:0:0:
452,80,38071,2,0,P|448:44|442:8,1,72,2|8,0:0|0:3,0:0:0:0:
400,164,38392,6,0,P|393:199|390:235,1,72,2|8,0:0|0:3,0:0:0:0:
288,284,38713,2,0,P|308:313|331:341,1,72,2|8,0:0|0:3,0:0:0:0:
360,364,38953,1,0,0:0:0:0:
360,364,39033,1,2,0:0:0:0:
304,192,39194,2,0,P|268:195|232:201,1,72,10|0,0:3|0:0,0:0:0:0:
152,276,39515,6,0,L|112:272,6,33.7500012874604,10|0|0|0|0|0|0,0:3|0:0|0:0|0:0|0:0|0:0|0:0,0:0:0:0:
24,324,39836,6,0,P|17:288|14:252,1,72,10|0,0:3|0:0,0:0:0:0:
72,112,40156,1,8,0:3:0:0:
80,196,40317,1,0,0:0:0:0:
64,88,40477,1,8,0:3:0:0:
160,156,40638,2,0,P|200:152|240:144,1,72,2|8,0:0|0:3,0:0:0:0:
312,216,40959,6,0,P|337:184|360:150,1,72,2|8,0:0|0:3,0:0:0:0:
460,144,41279,2,0,P|456:104|448:64,1,72,2|8,0:0|0:3,0:0:0:0:
328,12,41600,1,2,0:0:0:0:
241,74,41761,2,0,P|234:109|231:145,1,72,10|0,0:3|0:0,0:0:0:0:
312,216,42082,6,0,L|360:212,6,33.7500012874604,10|0|0|0|0|0|0,0:3|0:0|0:0|0:0|0:0|0:0|0:0,0:0:0:0:
364,328,42402,6,0,P|324:324|284:316,1,72,10|0,0:3|0:0,0:0:0:0:
260,304,42643,1,0,0:0:0:0:
260,304,42723,1,8,0:3:0:0:
152,256,42884,1,0,0:0:0:0:
148,292,42964,1,0,0:0:0:0:
144,328,43044,1,8,0:3:0:0:
32,380,43205,2,0,P|28:344|27:308,1,72,2|8,0:0|0:3,0:0:0:0:
80,152,43525,6,0,P|79:187|75:223,1,72,2|8,0:0|0:3,0:0:0:0:
8,88,43846,1,2,0:0:0:0:
168,76,44007,2,0,P|133:65|98:58,1,72,10|0,0:3|0:3,0:3:0:0:
184,180,44328,2,0,P|219:173|253:162,1,72,10|0,0:3|0:3,0:3:0:0:
336,112,44648,6,0,L|332:72,6,33.7500012874604,10|0|0|0|0|0|0,0:3|0:0|0:0|0:0|0:0|0:0|0:0,0:0:0:0:
428,160,44969,6,0,P|437:115|440:71,1,90,14|0,0:3|0:0,0:0:0:0:
324,0,45290,1,8,0:0:0:0:
192,104,45451,1,8,0:3:0:0:
192,104,45531,1,8,0:0:0:0:
192,104,45611,2,0,L|196:52,1,45,8|0,0:3|0:0,0:0:0:0:
56,40,45771,2,0,P|59:84|67:128,1,90,2|8,0:0|0:0,0:0:0:0:
136,260,46092,6,0,P|132:304|124:348,1,90,2|8,0:0|0:3,0:0:0:0:
48,176,46413,2,0,L|152:168,1,90,2|8,0:0|0:0,0:0:0:0:
312,224,46734,1,10,0:3:0:0:
312,224,46814,1,8,0:0:0:0:
312,224,46894,2,0,L|204:220,1,90,10|0,0:3|0:0,0:0:0:0:
244,108,47215,6,0,L|293:110,6,45,10|0|0|0|0|0|0,0:0|0:0|0:0|0:0|0:0|0:0|0:0,0:0:0:0:
392,160,47536,6,0,L|388:68,1,90,10|0,0:3|0:0,0:0:0:0:
312,28,47777,1,0,0:0:0:0:
312,28,47857,1,8,0:0:0:0:
492,88,48017,1,8,0:3:0:0:
492,88,48098,1,8,0:0:0:0:
492,88,48178,2,0,L|488:144,1,45,8|0,0:3|0:0,0:0:0:0:
472,312,48338,2,0,P|468:260|460:220,1,90,2|8,0:0|0:0,0:0:0:0:
292,292,48659,6,0,P|296:240|304:200,1,90,2|8,0:0|0:3,0:0:0:0:
388,70,48980,2,0,P|396:114|399:159,1,90,2|8,0:0|0:0,0:0:0:0:
384,336,49301,2,0,L|380:276,1,45,10|8,0:3|0:0,0:0:0:0:
303,202,49461,2,0,P|258:205|213:212,1,90,10|0,0:3|0:0,0:0:0:0:
44,268,49782,6,0,L|-12:264,6,45,10|0|0|0|0|0|0,0:0|0:0|0:0|0:0|0:0|0:0|0:0,0:0:0:0:
128,320,50103,5,8,0:3:0:0:
132,276,50263,1,8,0:3:0:0:
136,232,50424,1,8,0:3:0:0:
132,142,50745,6,0,L|136:232,1,90,14|0,0:0|0:0,0:0:0:0:
92,48,51226,6,0,L|172:44,1,72,10|0,0:3|0:0,0:0:0:0:
312,108,51547,2,0,L|236:104,1,72,10|0,0:3|0:0,0:0:0:0:
392,32,51868,1,10,0:3:0:0:
408,204,52028,1,14,0:0:0:0:
504,108,52189,1,8,0:3:0:0:
400,180,52349,2,0,L|404:96,1,72,10|0,0:0|0:0,0:0:0:0:
304,216,52670,5,8,0:3:0:0:
308,260,52831,1,8,0:3:0:0:
312,304,52991,1,8,0:3:0:0:
304,216,53312,6,0,L|307:126,1,90,14|8,0:0|0:0,0:0:0:0:
216,40,53793,6,0,L|220:112,1,72,10|0,0:3|0:0,0:0:0:0:
128,212,54114,2,0,L|132:128,1,72,10|0,0:3|0:0,0:0:0:0:
48,28,54435,5,8,0:3:0:0:
48,28,54515,1,8,0:3:0:0:
48,28,54595,2,0,L|52:84,1,45,10|0,0:0|0:0,0:0:0:0:
8,216,54755,2,0,L|4:156,1,45,10|0,0:0|0:0,0:0:0:0:
148,236,54916,6,0,L|144:304,1,67.5,10|0,0:3|0:0,0:0:0:0:
128,212,55237,5,2,0:0:0:0:
164,116,65504,6,0,L|92:112,1,72,14|0,0:3|0:0,0:0:0:0:
252,172,65825,2,0,L|324:168,1,72,8|0,0:3|0:0,0:0:0:0:
180,248,66146,2,0,L|108:244,1,72,8|0,0:3|0:0,0:0:0:0:
268,308,66467,2,0,L|340:304,1,72,8|0,0:3|0:0,0:0:0:0:
339,304,66707,1,0,0:0:0:0:
339,304,66787,5,10,0:3:0:0:
456,140,66948,2,0,L|452:220,1,72,12|10,0:0|0:3,0:0:0:0:
352,88,67269,1,0,0:0:0:0:
352,88,67429,2,0,L|348:4,1,72,10|0,0:3|0:0,0:0:0:0:
264,152,67750,6,0,L|268:240,1,67.5,10|0,0:3|0:0,0:0:0:0:
267,219,68071,6,0,L|344:216,1,72,14|0,0:3|0:0,0:0:0:0:
172,184,68392,2,0,L|100:187,1,72,8|0,0:3|0:0,0:0:0:0:
240,108,68713,2,0,L|311:104,1,72,8|0,0:3|0:0,0:0:0:0:
168,40,69033,1,8,0:3:0:0:
96,256,69194,6,0,L|104:113,1,135.000005149842,14|8,0:0|0:3,0:0:0:0:
0,216,69515,6,0,L|5:144,1,72,0|10,0:0|0:3,0:0:0:0:
103,121,69836,1,0,0:0:0:0:
196,216,69996,2,0,L|201:144,1,72,10|0,0:3|0:0,0:0:0:0:
264,280,70317,6,0,L|267:347,1,67.5,10|0,0:0|0:0,0:0:0:0:
428,228,70638,6,0,P|363:196|292:195,1,144,14|0,0:3|0:0,0:0:0:0:
364,316,71119,1,8,0:3:0:0:
376,163,71279,2,0,P|372:128|368:92,1,72,10|0,0:0|0:0,0:0:0:0:
292,56,71520,1,0,0:0:0:0:
292,56,71600,2,0,L|216:60,2,72,0|10|0,0:0|0:3|0:0,0:0:0:0:
128,92,72082,6,0,P|131:56|135:20,1,72,10|0,0:0|0:0,0:0:0:0:
116,212,72402,1,8,0:3:0:0:
116,212,72483,1,8,0:3:0:0:
116,212,72563,2,0,L|172:208,1,36,10|0,0:0|0:0,0:0:0:0:
36,148,72723,2,0,L|-4:144,1,36,10|0,0:0|0:0,0:0:0:0:
44,320,72884,2,0,L|40:276,1,36,10|0,0:0|0:0,0:0:0:0:
228,256,73044,2,0,L|224:296,1,36,10|0,0:0|0:0,0:0:0:0:
140,356,73205,5,14,0:0:0:0:
224,291,75451,6,0,L|291:287,1,67.5,12|0,0:3|0:0,0:0:0:0:
400,264,75771,6,0,L|396:332,1,49.5000015106202,14|0,0:3|0:0,0:0:0:0:
256,204,75932,2,0,L|252:152,1,49.5000015106202,2|0,0:0|0:0,0:0:0:0:
400,84,76092,2,0,P|396:133|387:181,1,99.0000030212403,10|0,0:0|0:0,0:0:0:0:
200,56,76413,2,0,L|312:64,1,99.0000030212403,10|0,0:3|0:0,0:0:0:0:
156,184,76654,1,0,0:0:0:0:
156,184,76734,2,0,L|100:188,1,49.5000015106202,8|0,0:0|0:0,0:0:0:0:
52,16,76894,2,0,L|101:12,1,49.5000015106202,2|0,0:0|0:0,0:0:0:0:
28,252,77055,6,0,P|18:203|14:154,1,99.0000030212403,8|2,0:3|0:0,0:0:0:0:
92,104,77295,1,0,0:0:0:0:
92,104,77376,2,0,L|190:96,1,99.0000030212403,8|0,0:0|0:0,0:0:0:0:
152,356,77697,1,10,0:3:0:0:
152,356,77777,2,0,L|96:348,1,49.5000015106202,8|8,0:0|0:3,0:0:0:0:
240,320,77938,1,8,0:3:0:0:
240,320,78017,2,0,P|292:324|352:340,1,99.0000030212403,10|0,0:0|0:0,0:0:0:0:
512,228,78338,6,0,P|440:247|366:250,1,148.50000453186,10|0,0:3|0:0,0:0:0:0:
284,192,78659,2,0,L|288:136,1,49.5000015106202,10|0,0:0|0:0,0:0:0:0:
440,112,78820,2,0,L|436:56,1,49.5000015106202,2|0,0:0|0:0,0:0:0:0:
336,32,78980,1,10,0:3:0:0:
176,160,79140,1,0,0:0:0:0:
176,160,79221,1,0,0:0:0:0:
176,160,79301,2,0,P|124:156|52:136,1,99.0000030212403,8|2,0:0|0:0,0:0:0:0:
256,48,79622,5,8,0:3:0:0:
256,48,79702,1,8,0:0:0:0:
256,48,79782,1,10,0:3:0:0:
400,140,79943,1,8,0:0:0:0:
252,284,80103,1,8,0:3:0:0:
252,284,80183,1,8,0:0:0:0:
252,284,80263,1,10,0:3:0:0:
296,152,80424,1,8,0:3:0:0:
460,256,80584,1,10,0:0:0:0:
299,352,80745,1,8,0:0:0:0:
299,352,80825,1,8,0:0:0:0:
299,352,80905,6,0,B|291:308|291:308|295:272|303:232|303:232|299:200|299:200|296:148,1,202.500007724762,6|0,0:3|0:0,0:0:0:0:
296,36,81226,5,10,0:0:0:0:
456,120,81386,2,0,L|452:172,1,49.5000015106202,2|0,0:0|0:0,0:0:0:0:
392,344,81547,2,0,P|384:295|380:245,1,99.0000030212403,8|2,0:3|0:0,0:0:0:0:
216,100,81868,2,0,P|208:148|204:198,1,99.0000030212403,10|0,0:0|0:0,0:0:0:0:
212,384,82108,1,0,0:0:0:0:
212,384,82189,6,0,L|156:380,1,49.5000015106202,10|0,0:3|0:0,0:0:0:0:
60,208,82349,2,0,L|120:204,1,49.5000015106202,2|0,0:0|0:0,0:0:0:0:
244,300,82509,2,0,P|194:296|145:288,1,99.0000030212403,8|2,0:0|0:0,0:0:0:0:
88,108,82830,1,8,0:3:0:0:
88,108,82910,1,8,0:0:0:0:
88,108,82991,2,0,L|140:104,1,49.5000015106202,8|0,0:3|0:0,0:0:0:0:
324,48,83151,2,0,P|262:10|185:2,1,148.50000453186,10|0,0:0|0:0,0:0:0:0:
224,168,83472,6,0,L|300:172,1,67.5,10|0,0:3|0:0,0:0:0:0:
376,128,83793,5,14,0:0:0:0:
324,312,83953,1,8,0:3:0:0:
504,188,84114,1,10,0:0:0:0:
344,276,84274,1,8,0:3:0:0:
352,324,84355,1,8,0:3:0:0:
360,372,84435,1,10,0:3:0:0:
464,108,84595,5,12,0:0:0:0:
240,272,84755,1,10,0:3:0:0:
192,264,84836,1,8,0:0:0:0:
144,256,84916,1,8,0:3:0:0:
76,40,85076,1,14,0:0:0:0:
240,120,85237,1,8,0:3:0:0:
288,116,85317,1,8,0:3:0:0:
336,112,85397,1,10,0:0:0:0:
432,268,85558,1,10,0:3:0:0:
240,272,85718,6,0,L|236:196,1,67.5,2|0,0:0|0:0,0:0:0:0:
243,70,86039,6,0,L|239:122,1,49.5000015106202,14|0,0:3|0:0,0:0:0:0:
56,208,86199,2,0,L|52:158,1,49.5000015106202,2|0,0:0|0:0,0:0:0:0:
136,52,86360,2,0,P|143:100|147:150,1,99.0000030212403,10|0,0:0|0:0,0:0:0:0:
140,344,86681,2,0,P|144:294|151:245,1,99.0000030212403,10|0,0:3|0:0,0:0:0:0:
236,204,86921,1,0,0:0:0:0:
236,204,87001,2,0,L|304:208,1,49.5000015106202,8|0,0:0|0:0,0:0:0:0:
496,160,87162,2,0,L|428:164,1,49.5000015106202,2|0,0:0|0:0,0:0:0:0:
300,312,87322,6,0,P|346:296|395:291,1,99.0000030212403,8|2,0:3|0:0,0:0:0:0:
484,356,87563,1,0,0:0:0:0:
487,359,87643,2,0,P|477:310|474:261,1,99.0000030212403,8|0,0:0|0:0,0:0:0:0:
499,110,87964,1,10,0:3:0:0:
499,110,88044,2,0,L|495:162,1,49.5000015106202,8|8,0:0|0:3,0:0:0:0:
309,171,88205,1,8,0:3:0:0:
309,170,88285,2,0,P|358:174|405:189,1,99.0000030212403,10|0,0:0|0:0,0:0:0:0:
231,220,88606,6,0,P|158:226|89:193,1,148.50000453186,10|0,0:3|0:0,0:0:0:0:
230,86,88927,2,0,L|233:135,1,49.5000015106202,10|0,0:0|0:0,0:0:0:0:
303,308,89087,2,0,L|307:259,1,49.5000015106202,2|0,0:0|0:0,0:0:0:0:
219,357,89247,1,2,0:0:0:0:
384,372,89407,1,0,0:0:0:0:
384,372,89488,1,0,0:0:0:0:
384,372,89568,2,0,P|434:370|482:358,1,99.0000030212403,8|2,0:0|0:0,0:0:0:0:
488,160,89889,5,8,0:3:0:0:
488,160,89969,1,8,0:0:0:0:
488,160,90049,1,10,0:3:0:0:
276,112,90210,1,8,0:0:0:0:
336,292,90370,1,8,0:3:0:0:
336,292,90451,1,8,0:0:0:0:
336,292,90531,1,10,0:3:0:0:
396,172,90691,1,10,0:3:0:0:
288,0,90852,1,10,0:0:0:0:
197,176,91012,1,8,0:0:0:0:
197,176,91092,1,8,0:0:0:0:
197,176,91172,6,0,B|245:184|277:184|277:184|317:168|365:164|365:164|417:176,1,202.500007724762,14|0,0:3|0:0,0:0:0:0:
488,220,91493,5,14,0:0:0:0:
496,84,91654,2,0,L|500:28,1,49.5000015106202,2|0,0:0|0:0,0:0:0:0:
352,256,91814,2,0,P|355:305|363:354,1,99.0000030212403,8|2,0:3|0:0,0:0:0:0:
256,100,92135,2,0,P|259:50|267:1,1,99.0000030212403,14|0,0:0|0:0,0:0:0:0:
384,16,92376,1,0,0:0:0:0:
384,16,92456,6,0,L|388:80,1,49.5000015106202,10|0,0:3|0:0,0:0:0:0:
491,170,92616,2,0,L|487:226,1,49.5000015106202,2|0,0:0|0:0,0:0:0:0:
279,188,92777,2,0,P|326:172|375:167,1,99.0000030212403,12|2,0:0|0:0,0:0:0:0:
236,336,93098,1,10,0:3:0:0:
236,336,93178,1,8,0:0:0:0:
236,336,93258,2,0,L|172:332,1,49.5000015106202,8|0,0:3|0:0,0:0:0:0:
19,272,93418,2,0,P|93:268|161:238,1,148.50000453186,14|0,0:0|0:0,0:0:0:0:
204,144,93739,5,10,0:0:0:0:
40,8,93900,1,8,0:3:0:0:
72,184,94060,1,14,0:0:0:0:
260,48,94221,1,8,0:3:0:0:
124,76,94381,1,10,0:0:0:0:
296,200,94541,1,8,0:3:0:0:
456,124,94702,1,8,0:3:0:0:
204,144,94862,5,10,0:0:0:0:
256,192,96306,12,8,98231,0:0:0:0:
232,260,98392,5,8,0:3:0:0:
296,320,98552,6,0,L|368:316,1,67.5,8|0,0:3|0:0,0:0:0:0:
443,351,98873,6,0,L|447:279,1,72,10|0,0:3|0:0,0:0:0:0:
436,116,99194,1,0,0:3:0:0:
352,200,99354,1,8,0:3:0:0:
352,200,99435,1,8,0:3:0:0:
352,200,99515,2,0,L|387:202,1,36,8|0,0:0|0:0,0:0:0:0:
507,111,99675,2,0,P|471:113|435:116,1,72,10|0,0:3|0:0,0:0:0:0:
280,64,99996,6,0,P|315:66|351:69,1,72,10|0,0:3|0:0,0:0:0:0:
188,140,100317,2,0,P|176:104|180:-8,1,144,10|10,0:3|0:3,0:0:0:0:
200,160,100718,1,0,0:0:0:0:
212,180,100798,2,0,P|208:220|200:260,1,72,10|0,0:0|0:0,0:0:0:0:
132,316,101119,6,0,L|98:312,6,33.7500012874604,2|0|0|0|0|0|0,0:0|0:0|0:0|0:0|0:0|0:0|0:0,0:0:0:0:
12,360,101440,6,0,P|5:324|2:288,1,72,10|0,0:3|0:0,0:0:0:0:
8,248,101681,1,0,0:0:0:0:
8,248,101761,1,0,0:0:0:0:
92,172,101921,1,8,0:3:0:0:
92,172,102001,1,8,0:3:0:0:
92,172,102082,2,0,L|136:176,1,36,8|0,0:0|0:0,0:0:0:0:
280,244,102242,2,0,L|208:246,1,72,10|0,0:3|0:0,0:0:0:0:
208,112,102563,6,0,L|292:108,1,72,10|0,0:3|0:0,0:0:0:0:
460,196,102884,2,0,P|406:194|353:181,1,108,10|0,0:3|0:0,0:0:0:0:
280,108,103205,2,0,L|284:56,1,36,10|0,0:3|0:0,0:0:0:0:
128,60,103365,2,0,L|132:136,1,72,10|0,0:0|0:0,0:0:0:0:
48,248,103686,6,0,L|12:244,3,33.7500012874604,2|0|0|0,0:0|0:0|0:0|0:0,0:0:0:0:
60,272,103846,6,0,L|104:268,1,45,8|0,0:3|0:0,0:0:0:0:
248,228,104007,6,0,P|214:218|179:210,1,72,10|0,0:3|0:0,0:0:0:0:
160,336,104328,1,0,0:0:0:0:
284,324,104488,1,8,0:3:0:0:
284,324,104568,1,8,0:3:0:0:
284,324,104648,2,0,L|324:328,1,36,8|0,0:0|0:0,0:0:0:0:
408,300,104809,2,0,P|404:264|396:228,1,72,10|0,0:3|0:0,0:0:0:0:
512,196,105130,6,0,P|490:166|465:139,1,72,10|0,0:3|0:0,0:0:0:0:
248,168,105451,2,0,P|320:176|383:143,1,144,10|10,0:3|0:3,0:0:0:0:
296,0,105932,2,0,P|298:35|302:71,1,72,8|0,0:0|0:0,0:0:0:0:
192,72,106253,2,0,P|146:43|93:33,1,108,10|0,0:3|0:0,0:0:0:0:
12,72,106574,6,0,P|4:107|0:142,1,72,10|0,0:3|0:0,0:0:0:0:
4,180,106814,1,0,0:0:0:0:
4,180,106894,1,0,0:0:0:0:
120,228,107055,1,8,0:3:0:0:
120,228,107135,1,8,0:3:0:0:
120,228,107215,2,0,L|76:224,1,36,8|0,0:0|0:0,0:0:0:0:
48,312,107376,2,0,L|119:319,1,72,10|0,0:3|0:0,0:0:0:0:
296,312,107697,6,0,L|224:319,1,72,10|0,0:3|0:0,0:0:0:0:
400,328,108017,2,0,P|395:292|387:257,1,72,10|0,0:3|0:0,0:0:0:0:
300,180,108338,2,0,L|304:216,1,36,8|0,0:3|0:0,0:0:0:0:
464,112,108499,2,0,L|460:160,1,36,10|0,0:0|0:0,0:0:0:0:
364,104,108659,2,0,L|368:64,1,36,10|0,0:3|0:0,0:0:0:0:
456,16,108820,1,10,0:0:0:0:
272,96,108980,1,8,0:0:0:0:
272,96,109060,1,8,0:0:0:0:
272,96,109140,6,0,P|227:88|184:75,1,90,14|0,0:3|0:0,0:0:0:0:
24,20,109461,2,0,P|66:6|111:0,1,90,10|8,0:0|0:3,0:0:0:0:
112,152,109702,1,8,0:0:0:0:
112,152,109782,2,0,P|67:144|24:131,1,90,10|0,0:3|0:0,0:0:0:0:
272,96,110103,2,0,P|314:82|359:75,1,90,10|0,0:0|0:0,0:0:0:0:
512,188,110424,6,0,P|469:174|424:167,1,90,10|0,0:3|0:0,0:0:0:0:
308,244,110745,2,0,L|352:247,1,45,8|0,0:0|0:0,0:0:0:0:
216,304,110905,1,8,0:3:0:0:
216,304,110985,1,8,0:0:0:0:
216,304,111066,2,0,P|208:259|204:214,1,90,10|0,0:3|0:0,0:0:0:0:
308,72,111386,2,0,L|312:140,1,45,8|0,0:0|0:0,0:0:0:0:
132,136,111547,1,0,0:0:0:0:
132,136,111627,1,0,0:0:0:0:
132,136,111707,6,0,P|135:91|143:46,1,90,10|0,0:3|0:0,0:0:0:0:
232,8,111948,1,0,0:0:0:0:
232,8,112028,1,8,0:0:0:0:
280,204,112189,1,8,0:3:0:0:
280,204,112270,1,8,0:0:0:0:
280,204,112349,2,0,L|176:208,1,90,10|0,0:3|0:0,0:0:0:0:
44,288,112590,1,0,0:0:0:0:
44,288,112670,2,0,P|88:284|133:276,1,90,10|0,0:0|0:0,0:0:0:0:
288,352,112991,6,0,P|243:347|199:336,1,90,10|0,0:3|0:0,0:0:0:0:
368,276,113312,2,0,L|412:278,1,45,8|0,0:0|0:0,0:0:0:0:
508,332,113472,1,8,0:3:0:0:
508,332,113552,1,8,0:0:0:0:
508,332,113632,2,0,L|512:236,1,90,10|0,0:3|0:0,0:0:0:0:
440,104,113953,2,0,L|444:168,1,45,10|0,0:0|0:0,0:0:0:0:
512,212,114114,1,0,0:0:0:0:
500,32,114274,5,8,0:3:0:0:
456,28,114435,1,8,0:3:0:0:
412,24,114595,1,8,0:3:0:0:
278,23,114916,6,0,L|368:20,1,90,14|0,0:0|0:0,0:0:0:0:
220,112,115397,6,0,L|148:108,1,72,10|0,0:3|0:0,0:0:0:0:
20,32,115718,2,0,L|92:28,1,72,10|0,0:3|0:0,0:0:0:0:
136,128,116039,1,10,0:3:0:0:
24,244,116199,1,14,0:0:0:0:
124,148,116360,1,8,0:3:0:0:
40,228,116520,2,0,L|36:152,1,72,10|0,0:0|0:0,0:0:0:0:
88,344,116841,5,8,0:3:0:0:
44,340,117002,1,8,0:3:0:0:
0,336,117162,1,8,0:3:0:0:
88,344,117483,6,0,L|196:340,1,90,14|8,0:0|0:0,0:0:0:0:
352,316,117964,6,0,P|316:310|281:304,1,72,10|0,0:3|0:0,0:0:0:0:
124,252,118285,2,0,P|159:246|194:240,1,72,10|0,0:3|0:0,0:0:0:0:
292,148,118606,1,8,0:3:0:0:
292,148,118686,1,8,0:3:0:0:
292,148,118766,2,0,L|296:200,1,45,10|0,0:0|0:0,0:0:0:0:
200,88,118927,2,0,L|204:24,1,45,10|0,0:0|0:0,0:0:0:0:
88,164,119087,6,0,P|80:132|72:80,1,67.5,10|0,0:3|0:0,0:0:0:0:
116,8,119408,5,2,0:0:0:0:
40,88,129675,6,0,L|36:159,1,72,14|0,0:3|0:0,0:0:0:0:
124,280,129996,2,0,L|120:208,1,72,8|0,0:3|0:0,0:0:0:0:
204,160,130317,1,8,0:3:0:0:
284,279,130477,2,0,L|287:207,1,72,8|0,0:0|0:3,0:0:0:0:
380,92,130798,1,0,0:0:0:0:
380,92,130878,1,0,0:0:0:0:
380,92,130959,6,0,L|383:163,1,72,10|0,0:3|0:0,0:0:0:0:
472,204,131279,1,10,0:3:0:0:
420,4,131440,2,0,L|348:0,1,72,12|10,0:0|0:3,0:0:0:0:
284,80,131761,1,0,0:0:0:0:
284,80,131921,6,0,L|200:76,1,67.5,10|0,0:3|0:0,0:0:0:0:
216,76,132242,6,0,L|212:156,1,72,14|0,0:3|0:0,0:0:0:0:
136,276,132563,2,0,L|131:204,1,72,8|0,0:3|0:0,0:0:0:0:
296,204,132884,2,0,L|300:275,1,72,8|0,0:3|0:0,0:0:0:0:
220,344,133205,1,8,0:3:0:0:
212,148,133365,6,0,L|352:152,1,135.000005149842,14|8,0:0|0:3,0:0:0:0:
488,84,133686,5,0,0:0:0:0:
488,84,133846,2,0,L|400:88,1,72,10|0,0:3|0:0,0:0:0:0:
416,216,134167,2,0,L|487:212,1,72,10|0,0:3|0:0,0:0:0:0:
352,288,134488,6,0,L|264:284,1,67.5,8|0,0:0|0:0,0:0:0:0:
80,280,134809,6,0,P|150:272|211:234,1,144,14|0,0:3|0:0,0:0:0:0:
212,340,135290,1,8,0:3:0:0:
144,168,135451,2,0,P|145:132|148:96,1,72,10|8,0:0|0:3,0:0:0:0:
232,52,135691,1,0,0:0:0:0:
232,52,135771,2,0,L|320:48,2,72,0|10|0,0:0|0:3|0:0,0:0:0:0:
412,96,136253,6,0,L|416:20,1,72,10|0,0:0|0:0,0:0:0:0:
308,156,136574,1,8,0:3:0:0:
308,156,136654,1,8,0:3:0:0:
308,156,136734,2,0,L|312:204,1,36,10|0,0:0|0:0,0:0:0:0:
460,276,136894,2,0,L|456:320,1,36,10|0,0:0|0:0,0:0:0:0:
408,192,137055,2,0,L|472:188,1,36,10|0,0:0|0:0,0:0:0:0:
336,292,137215,2,0,L|288:288,1,36,10|0,0:0|0:0,0:0:0:0:
192,276,137376,5,10,0:0:0:0:
256,192,137456,12,0,139140,0:0:0:0:
0,236,139622,6,0,L|84:232,1,67.5,12|0,0:3|0:0,0:0:0:0:
156,352,139943,6,0,L|106:348,1,49.5000015106202,14|0,0:3|0:0,0:0:0:0:
180,192,140103,2,0,L|229:195,1,49.5000015106202,2|0,0:0|0:0,0:0:0:0:
336,320,140263,2,0,P|287:312|240:296,1,99.0000030212403,10|0,0:0|0:0,0:0:0:0:
488,264,140584,2,0,L|492:376,1,99.0000030212403,10|0,0:3|0:0,0:0:0:0:
392,232,140825,1,0,0:0:0:0:
392,232,140905,2,0,L|396:176,1,49.5000015106202,8|0,0:0|0:0,0:0:0:0:
404,40,141066,2,0,L|400:89,1,49.5000015106202,2|0,0:0|0:0,0:0:0:0:
298,163,141226,6,0,P|289:114|285:64,1,99.0000030212403,8|2,0:3|0:0,0:0:0:0:
500,166,141467,1,0,0:0:0:0:
500,166,141547,2,0,P|495:215|487:263,1,99.0000030212403,8|0,0:0|0:0,0:0:0:0:
308,280,141868,1,10,0:3:0:0:
308,280,141948,2,0,L|253:275,1,49.5000015106202,8|8,0:0|0:3,0:0:0:0:
93,232,142109,1,8,0:3:0:0:
93,231,142189,2,0,P|141:219|190:215,1,99.0000030212403,10|0,0:0|0:0,0:0:0:0:
448,317,142509,6,0,P|374:311|307:279,1,148.50000453186,10|0,0:3|0:0,0:0:0:0:
280,368,142830,2,0,L|340:372,1,49.5000015106202,10|0,0:0|0:0,0:0:0:0:
328,184,142991,2,0,L|268:188,1,49.5000015106202,2|0,0:0|0:0,0:0:0:0:
308,280,143151,1,10,0:3:0:0:
416,124,143312,1,0,0:0:0:0:
416,124,143392,1,0,0:0:0:0:
416,124,143472,2,0,P|425:75|429:25,1,99.0000030212403,8|2,0:0|0:0,0:0:0:0:
248,20,143793,5,8,0:3:0:0:
248,20,143873,1,8,0:0:0:0:
248,20,143953,1,10,0:3:0:0:
252,264,144114,1,8,0:0:0:0:
396,152,144274,1,8,0:3:0:0:
396,152,144354,1,8,0:0:0:0:
396,152,144435,1,10,0:3:0:0:
180,112,144595,1,8,0:3:0:0:
132,292,144755,1,10,0:0:0:0:
317,120,144916,1,8,0:0:0:0:
317,120,144996,1,8,0:0:0:0:
317,120,145076,6,0,B|345:100|345:100|265:112|265:112|229:104|229:104|173:112,1,202.500007724762,6|0,0:3|0:0,0:0:0:0:
64,204,145397,5,10,0:0:0:0:
140,316,145558,2,0,L|144:260,1,49.5000015106202,2|0,0:0|0:0,0:0:0:0:
32,84,145718,2,0,P|35:133|45:181,1,99.0000030212403,8|2,0:3|0:0,0:0:0:0:
238,361,146039,2,0,P|247:312|251:263,1,99.0000030212403,10|0,0:0|0:0,0:0:0:0:
136,168,146279,1,0,0:0:0:0:
136,168,146360,6,0,L|140:108,1,49.5000015106202,10|0,0:3|0:0,0:0:0:0:
308,32,146520,2,0,L|311:81,1,49.5000015106202,2|0,0:0|0:0,0:0:0:0:
224,236,146681,2,0,P|227:186|237:138,1,99.0000030212403,8|2,0:0|0:0,0:0:0:0:
436,132,147001,1,8,0:3:0:0:
436,132,147082,1,8,0:0:0:0:
436,132,147162,2,0,L|380:128,1,49.5000015106202,8|0,0:3|0:0,0:0:0:0:
224,236,147322,2,0,P|290:205|364:205,1,148.50000453186,10|0,0:0|0:0,0:0:0:0:
328,356,147643,6,0,L|256:360,1,67.5,10|0,0:3|0:0,0:0:0:0:
164,324,147964,5,14,0:0:0:0:
140,164,148124,1,8,0:3:0:0:
304,280,148285,1,10,0:0:0:0:
128,244,148445,1,8,0:3:0:0:
176,240,148525,1,8,0:3:0:0:
224,236,148606,1,10,0:3:0:0:
332,48,148766,5,12,0:0:0:0:
152,20,148927,1,10,0:3:0:0:
148,68,149007,1,8,0:0:0:0:
144,116,149087,1,8,0:3:0:0:
248,340,149247,5,14,0:0:0:0:
424,360,149408,1,8,0:3:0:0:
428,312,149488,1,8,0:3:0:0:
432,264,149568,1,10,0:0:0:0:
276,188,149729,1,10,0:3:0:0:
91,315,149889,6,0,L|88:248,1,67.5,2|0,0:0|0:0,0:0:0:0:
94,112,150210,6,0,L|158:116,1,49.5000015106202,14|0,0:3|0:0,0:0:0:0:
351,191,150370,2,0,L|279:195,1,49.5000015106202,2|0,0:0|0:0,0:0:0:0:
224,32,150531,2,0,P|273:34|322:42,1,99.0000030212403,10|0,0:0|0:0,0:0:0:0:
162,212,150852,2,0,P|150:164|143:114,1,99.0000030212403,10|0,0:3|0:0,0:0:0:0:
305,144,151092,1,0,0:0:0:0:
305,144,151172,2,0,L|301:200,1,49.5000015106202,8|0,0:0|0:0,0:0:0:0:
242,329,151333,2,0,L|238:265,1,49.5000015106202,2|0,0:0|0:0,0:0:0:0:
391,256,151493,6,0,P|384:305|372:353,1,99.0000030212403,8|2,0:3|0:0,0:0:0:0:
303,139,151734,1,0,0:0:0:0:
303,139,151814,2,0,P|309:90|321:42,1,99.0000030212403,8|0,0:0|0:0,0:0:0:0:
288,284,152135,1,10,0:3:0:0:
288,284,152215,2,0,L|233:279,1,49.5000015106202,8|8,0:0|0:3,0:0:0:0:
61,243,152376,1,8,0:3:0:0:
61,244,152456,2,0,P|107:227|159:219,1,99.0000030212403,10|0,0:0|0:0,0:0:0:0:
374,174,152777,6,0,P|296:168|218:134,1,148.50000453186,10|0,0:3|0:0,0:0:0:0:
273,11,153098,2,0,L|277:67,1,49.5000015106202,10|0,0:0|0:0,0:0:0:0:
156,219,153258,2,0,L|152:159,1,49.5000015106202,2|0,0:0|0:0,0:0:0:0:
171,69,153418,1,2,0:0:0:0:
256,260,153579,1,0,0:0:0:0:
256,260,153659,1,0,0:0:0:0:
256,260,153739,2,0,P|252:310|242:358,1,99.0000030212403,8|2,0:0|0:0,0:0:0:0:
156,219,154060,5,8,0:3:0:0:
156,219,154140,1,8,0:0:0:0:
156,219,154221,1,10,0:3:0:0:
334,85,154381,1,8,0:0:0:0:
412,248,154541,1,8,0:3:0:0:
412,248,154622,1,8,0:0:0:0:
412,248,154702,1,10,0:3:0:0:
260,196,154862,1,10,0:3:0:0:
476,56,155023,1,10,0:0:0:0:
336,284,155183,1,8,0:0:0:0:
336,284,155263,1,8,0:0:0:0:
336,284,155344,6,0,B|328:248|328:248|340:208|340:208|332:152|328:116|328:116|336:76,1,202.500007724762,14|0,0:3|0:0,0:0:0:0:
476,56,155664,5,14,0:0:0:0:
432,228,155825,2,0,L|436:176,1,49.5000015106202,2|0,0:0|0:0,0:0:0:0:
240,216,155985,2,0,P|232:167|231:117,1,99.0000030212403,8|2,0:3|0:0,0:0:0:0:
476,56,156306,2,0,P|475:105|467:154,1,99.0000030212403,14|0,0:0|0:0,0:0:0:0:
304,4,156547,1,0,0:0:0:0:
304,4,156627,6,0,L|360:0,1,49.5000015106202,10|0,0:3|0:0,0:0:0:0:
231,117,156787,2,0,L|175:113,1,49.5000015106202,2|0,0:0|0:0,0:0:0:0:
60,16,156948,2,0,P|108:6|157:4,1,99.0000030212403,12|2,0:0|0:0,0:0:0:0:
16,184,157269,1,10,0:3:0:0:
16,184,157349,1,8,0:0:0:0:
16,184,157429,2,0,L|12:124,1,49.5000015106202,8|0,0:3|0:0,0:0:0:0:
200,200,157590,2,0,P|196:273|172:343,1,148.50000453186,14|0,0:0|0:0,0:0:0:0:
72,360,157910,5,10,0:0:0:0:
44,200,158071,1,8,0:3:0:0:
300,108,158231,1,14,0:0:0:0:
176,212,158392,1,8,0:3:0:0:
236,20,158552,1,10,0:0:0:0:
400,148,158713,1,8,0:3:0:0:
224,140,158873,1,8,0:3:0:0:
480,32,159033,5,10,0:0:0:0:
480,32,159354,1,2,0:0:0:0:
476,52,159515,1,2,0:0:0:0:
472,72,159675,2,0,L|476:120,1,36,2|0,0:0|0:0,0:0:0:0:
404,240,159836,2,0,L|408:164,1,72,2|0,0:0|0:0,0:0:0:0:
320,48,160156,2,0,L|323:119,1,72,2|0,0:0|0:0,0:0:0:0:
248,180,160477,5,2,0:0:0:0:
96,256,165611,6,0,P|79:190|79:123,1,135,8|0,0:3|0:0,0:0:0:0:
128,36,166253,1,8,0:0:0:0:
296,108,166734,6,0,L|232:104,1,45,8|0,0:3|0:0,0:0:0:0:
216,204,167055,2,0,L|260:206,1,45,8|0,0:3|0:0,0:0:0:0:
360,184,167376,1,8,0:3:0:0:
444,324,167536,5,8,0:0:0:0:
348,296,167697,1,8,0:3:0:0:
488,176,167857,1,8,0:3:0:0:
416,232,168017,1,8,0:3:0:0:
388,88,168178,5,8,0:3:0:0:
456,152,168338,1,8,0:3:0:0:
456,152,168659,1,8,0:3:0:0:
296,108,168820,2,0,L|292:12,1,90,8|0,0:0|0:0,0:0:0:0:
394,42,169301,5,0,0:0:0:0:
394,42,169381,1,0,0:0:0:0:
394,42,169461,2,0,L|392:86,1,45,0|0,0:0|0:0,0:0:0:0:
392,87,169943,1,0,0:0:0:0:
200,104,170103,6,4,L|197:41,1,63,14|0,0:0|0:0,0:0:0:0:
197,41,170745,6,0,L|100:36,1,90,10|0,0:3|0:0,0:0:0:0:
40,96,170985,1,0,0:0:0:0:
40,96,171066,1,8,0:0:0:0:
164,220,171226,1,2,0:0:0:0:
164,220,171306,1,0,0:0:0:0:
164,220,171386,2,0,L|168:144,1,45,8|0,0:3|0:0,0:0:0:0:
4,116,171547,2,0,L|8:172,1,45,2|0,0:0|0:0,0:0:0:0:
53,358,171707,2,0,P|72:293|74:226,1,135,10|0,0:0|0:0,0:0:0:0:
74,226,172028,6,0,L|178:218,1,90,10|0,0:3|0:0,0:0:0:0:
356,280,172349,1,10,0:0:0:0:
256,312,172509,2,0,L|252:260,1,45,2|0,0:0|0:0,0:0:0:0:
256,136,172670,1,8,0:3:0:0:
256,136,172750,1,8,0:0:0:0:
256,136,172830,1,10,0:3:0:0:
460,216,172991,2,0,P|392:218|329:195,1,135,8|0,0:0|0:0,0:0:0:0:
256,136,173312,6,0,L|252:232,1,90,10|0,0:3|0:0,0:0:0:0:
332,40,173632,2,0,L|276:36,1,45,10|0,0:0|0:0,0:0:0:0:
140,76,173793,2,0,L|196:72,1,45,2|0,0:0|0:0,0:0:0:0:
60,24,173953,1,8,0:3:0:0:
16,192,174114,1,0,0:0:0:0:
16,192,174194,1,0,0:0:0:0:
16,192,174274,2,0,P|8:147|4:102,1,90,10|0,0:0|0:0,0:0:0:0:
96,264,174595,5,10,0:3:0:0:
96,264,174675,1,8,0:0:0:0:
96,264,174755,2,0,L|152:260,1,45,10|0,0:3|0:0,0:0:0:0:
320,288,174916,1,8,0:0:0:0:
236,224,175076,1,10,0:3:0:0:
236,224,175156,1,8,0:0:0:0:
236,224,175237,2,0,P|239:179|247:134,1,90,8|2,0:3|0:0,0:0:0:0:
336,16,175558,1,10,0:0:0:0:
496,108,175718,1,8,0:0:0:0:
496,108,175798,1,8,0:0:0:0:
496,108,175878,6,0,P|455:105|415:97,1,80.9999975280763,10|0,0:3|0:0,0:0:0:0:
336,16,176199,6,0,B|344:44|344:44|336:76|332:108|332:108|336:140|336:176,1,161.999995056153,14|0,0:0|0:0,0:0:0:0:
291,255,176520,6,0,P|294:295|300:336,1,80.9999975280763,10|0,0:3|0:0,0:0:0:0:
450,258,176841,6,0,B|422:249|422:249|378:254|338:262|338:262|291:255,1,161.999995056153,14|0,0:0|0:0,0:0:0:0:
247,176,177162,6,0,P|206:179|167:187,1,80.9999975280763,10|0,0:3|0:0,0:0:0:0:
0,248,177483,6,0,B|-24:264|-24:264|24:260|24:260|80:268|80:268|107:262,1,161.999995056153,14|0,0:0|0:0,0:0:0:0:
84,176,177804,5,10,0:3:0:0:
84,176,177884,1,8,0:0:0:0:
84,176,177964,1,8,0:3:0:0:
170,346,178124,6,0,B|168:313|168:313|176:292|180:268|180:268|172:224|167:187,1,161.999995056153,14|0,0:0|0:0,0:0:0:0:
232,120,178445,6,0,L|276:122,1,45,10|10,0:3|0:3,0:0:0:0:
440,144,178766,1,8,0:3:0:0:
352,172,178927,1,8,0:3:0:0:
214,36,179087,2,0,L|304:40,1,90,10|0,0:0|0:0,0:0:0:0:
120,68,179568,6,0,L|124:12,1,45,10|0,0:3|0:0,0:0:0:0:
8,76,179889,2,0,L|4:132,1,45,10|0,0:3|0:0,0:0:0:0:
100,164,180210,1,10,0:3:0:0:
4,284,180370,2,0,L|0:228,1,45,10|8,0:0|0:3,0:0:0:0:
20,228,180611,1,8,0:3:0:0:
20,228,180691,2,0,L|24:312,1,67.5,10|0,0:0|0:0,0:0:0:0:
48,332,181012,5,2,0:0:0:0:
88,352,181092,1,0,0:0:0:0:
132,364,181172,1,0,0:0:0:0:
176,360,181253,1,0,0:0:0:0:
220,344,181333,1,8,0:0:0:0:
260,324,181413,1,0,0:0:0:0:
304,312,181493,1,0,0:0:0:0:
348,316,181574,1,0,0:0:0:0:
388,332,181654,5,10,0:3:0:0:
368,292,181734,1,0,0:0:0:0:
360,248,181814,1,0,0:0:0:0:
364,204,181894,1,0,0:0:0:0:
388,164,181975,1,8,0:0:0:0:
424,136,182055,1,0,0:0:0:0:
468,124,182135,1,0,0:0:0:0:
512,132,182215,1,0,0:0:0:0:
484,96,182295,6,0,L|488:44,1,45,10|0,0:3|0:0,0:0:0:0:
308,96,182456,2,0,L|311:140,1,45,2|0,0:0|0:0,0:0:0:0:
356,4,182616,2,0,L|256:0,1,90,8|2,0:0|0:0,0:0:0:0:
168,68,182937,1,8,0:3:0:0:
168,68,183017,1,8,0:0:0:0:
168,68,183098,1,10,0:3:0:0:
56,12,183258,2,0,L|60:104,1,90,8|0,0:0|0:0,0:0:0:0:
88,312,183579,6,0,P|115:250|121:183,1,135,10|0,0:3|0:0,0:0:0:0:
59,101,183900,2,0,L|152:96,1,90,10|0,0:0|0:0,0:0:0:0:
300,184,184221,2,0,P|255:179|211:170,1,90,10|0,0:3|0:0,0:0:0:0:
208,20,184541,2,0,P|251:10|296:6,1,90,10|2,0:0|0:0,0:0:0:0:
388,96,184862,5,8,0:3:0:0:
388,96,184943,1,8,0:0:0:0:
388,96,185023,1,10,0:3:0:0:
244,96,185183,2,0,L|296:100,1,45,10|0,0:3|0:0,0:0:0:0:
464,40,185344,1,8,0:3:0:0:
464,40,185424,1,8,0:0:0:0:
464,40,185504,2,0,L|468:92,1,45,10|0,0:3|0:0,0:0:0:0:
376,136,185664,2,0,L|380:196,1,45,10|0,0:3|0:0,0:0:0:0:
480,300,185825,1,10,0:0:0:0:
508,206,185985,1,8,0:0:0:0:
508,206,186066,1,8,0:0:0:0:
508,206,186146,6,0,P|445:181|378:180,1,135,14|8,0:3|0:3,0:0:0:0:
232,240,186787,2,0,P|276:247|321:248,1,90,8|0,0:0|0:0,0:0:0:0:
320,112,187269,6,0,L|268:116,1,45,10|0,0:3|0:0,0:0:0:0:
140,112,187590,2,0,L|192:116,1,45,10|0,0:3|0:0,0:0:0:0:
48,176,187910,1,8,0:0:0:0:
48,176,188071,2,0,P|38:132|35:87,1,90,10|0,0:3|0:0,0:0:0:0:
108,16,188552,1,0,0:0:0:0:
140,212,188713,5,14,0:3:0:0:
200,96,188873,1,0,0:0:0:0:
340,244,189033,1,8,0:0:0:0:
228,176,189194,1,8,0:3:0:0:
228,176,189274,1,8,0:3:0:0:
228,176,189354,1,8,0:0:0:0:
392,116,189515,1,8,0:3:0:0:
336,208,189675,1,8,0:3:0:0:
300,20,189836,5,14,0:3:0:0:
256,192,189916,12,2,193525,0:0:0:0:
68,328,204114,6,0,P|64:296|63:265,1,62.9999980773926,2|0,0:0|0:0,0:0:0:0:
79,171,204435,1,8,0:0:0:0:
175,135,204595,2,0,P|237:133|295:156,1,125.999996154785,2|0,0:0|0:0,0:0:0:0:
371,219,205076,1,8,0:0:0:0:
455,159,205237,6,0,P|458:127|459:96,1,62.9999980773926,2|0,0:0|0:0,0:0:0:0:
395,19,205558,1,2,0:0:0:0:
304,63,205718,2,0,P|272:59|241:53,1,62.9999980773926,8|2,0:0|0:0,0:0:0:0:
31,23,206039,2,0,P|89:0|151:1,1,125.999996154785,2|10,0:0|0:0,0:0:0:0:
231,59,206520,1,0,0:0:0:0:
171,135,206681,6,0,P|172:166|175:197,1,62.9999980773926,2|0,0:0|0:0,0:0:0:0:
211,287,207001,1,8,0:0:0:0:
211,287,207162,2,0,P|152:264|90:265,1,125.999996154785,2|0,0:0|0:0,0:0:0:0:
20,324,207643,1,8,0:0:0:0:
108,376,207804,6,0,P|139:370|170:368,1,62.9999980773926,2|0,0:0|0:0,0:0:0:0:
264,372,208124,1,2,0:0:0:0:
360,380,208285,2,0,P|391:377|422:372,1,62.9999980773926,8|2,0:0|0:0,0:0:0:0:
400,168,208606,2,0,P|376:226|378:288,1,125.999996154785,2|10,0:0|0:0,0:0:0:0:
408,156,209247,6,0,P|405:124|402:93,1,62.9999980773926,2|0,0:0|0:0,0:0:0:0:
236,216,209568,1,8,0:0:0:0:
168,152,209729,2,0,P|170:120|173:89,1,62.9999980773926,2|0,0:0|0:0,0:0:0:0:
260,128,210049,1,0,0:0:0:0:
328,64,210210,2,0,P|325:32|322:1,1,62.9999980773926,10|0,0:0|0:0,0:0:0:0:
84,144,210531,6,0,P|86:112|89:81,1,62.9999980773926,0|2,0:0|0:0,0:0:0:0:
241,278,210852,2,0,P|238:246|235:215,1,62.9999980773926,10|0,0:0|0:0,0:0:0:0:
178,26,211172,2,0,P|174:57|172:88,1,62.9999980773926,2|0,0:0|0:0,0:0:0:0:
324,216,211493,2,0,P|321:184|318:153,1,62.9999980773926,10|0,0:0|0:0,0:0:0:0:
88,81,211814,5,8,0:3:0:0:
36,320,214060,6,0,L|124:324,1,67.5,12|0,0:3|0:0,0:0:0:0:
200,300,214381,6,0,L|204:352,1,49.5000015106202,14|0,0:3|0:0,0:0:0:0:
72,228,214541,2,0,L|76:176,1,49.5000015106202,2|0,0:0|0:0,0:0:0:0:
275,140,214702,2,0,P|286:189|288:238,1,99.0000030212403,10|0,0:0|0:0,0:0:0:0:
56,164,215023,2,0,P|58:115|69:67,1,99.0000030212403,10|0,0:3|0:0,0:0:0:0:
204,72,215263,1,0,0:0:0:0:
204,72,215344,2,0,L|155:75,1,49.5000015106202,8|0,0:0|0:0,0:0:0:0:
144,200,215504,2,0,L|194:198,1,49.5000015106202,2|0,0:0|0:0,0:0:0:0:
373,124,215664,6,0,P|324:127|276:140,1,99.0000030212403,8|2,0:3|0:0,0:0:0:0:
280,251,215905,1,0,0:0:0:0:
280,251,215985,2,0,P|327:263|377:267,1,99.0000030212403,8|0,0:0|0:0,0:0:0:0:
491,200,216306,1,10,0:3:0:0:
491,200,216386,2,0,L|417:193,1,49.5000015106202,8|8,0:0|0:3,0:0:0:0:
403,360,216547,1,8,0:3:0:0:
403,360,216627,2,0,P|452:356|500:343,1,99.0000030212403,10|0,0:0|0:0,0:0:0:0:
373,124,216948,6,0,P|299:131|212:180,1,148.50000453186,10|0,0:3|0:0,0:0:0:0:
272,384,217269,2,0,L|276:328,1,49.5000015106202,10|0,0:0|0:0,0:0:0:0:
109,227,217429,2,0,L|106:277,1,49.5000015106202,2|0,0:0|0:0,0:0:0:0:
96,374,217590,1,10,0:3:0:0:
243,261,217750,1,0,0:0:0:0:
243,261,217830,1,0,0:0:0:0:
243,261,217910,2,0,P|240:211|232:162,1,99.0000030212403,8|2,0:0|0:0,0:0:0:0:
60,40,218231,5,8,0:3:0:0:
60,40,218312,1,8,0:0:0:0:
60,40,218392,1,10,0:3:0:0:
125,273,218552,1,8,0:0:0:0:
244,56,218713,1,8,0:3:0:0:
244,56,218793,1,8,0:0:0:0:
244,56,218873,1,10,0:3:0:0:
140,148,219033,1,8,0:3:0:0:
276,324,219194,1,10,0:0:0:0:
336,163,219354,1,8,0:0:0:0:
336,163,219435,1,8,0:0:0:0:
336,163,219515,6,0,B|292:151|292:151|252:155|212:167|212:167|180:151|136:147,1,202.500007724762,6|0,0:3|0:0,0:0:0:0:
12,192,219836,5,10,0:0:0:0:
121,322,219996,2,0,L|125:266,1,49.5000015106202,2|0,0:0|0:0,0:0:0:0:
16,160,220156,2,0,P|19:209|29:257,1,99.0000030212403,8|2,0:3|0:0,0:0:0:0:
276,324,220477,2,0,P|286:275|289:226,1,99.0000030212403,10|0,0:0|0:0,0:0:0:0:
160,136,220718,1,0,0:0:0:0:
160,136,220798,6,0,L|163:185,1,49.5000015106202,10|0,0:3|0:0,0:0:0:0:
312,200,220959,2,0,L|315:150,1,49.5000015106202,2|0,0:0|0:0,0:0:0:0:
228,0,221119,2,0,P|231:49|241:97,1,99.0000030212403,8|2,0:0|0:0,0:0:0:0:
452,4,221440,1,8,0:3:0:0:
452,4,221520,1,8,0:0:0:0:
452,4,221600,2,0,L|402:0,1,49.5000015106202,8|0,0:3|0:0,0:0:0:0:
241,97,221761,2,0,P|309:70|382:80,1,148.50000453186,10|0,0:0|0:0,0:0:0:0:
472,164,222082,6,0,L|476:84,1,67.5,10|0,0:3|0:0,0:0:0:0:
452,4,222402,5,14,0:0:0:0:
315,150,222563,1,8,0:3:0:0:
484,192,222723,1,10,0:0:0:0:
382,80,222884,1,8,0:3:0:0:
332,72,222964,1,8,0:3:0:0:
284,64,223044,1,10,0:3:0:0:
36,172,223205,5,12,0:0:0:0:
160,228,223365,1,10,0:3:0:0:
168,180,223445,1,8,0:0:0:0:
176,132,223525,1,8,0:3:0:0:
400,296,223686,5,14,0:0:0:0:
260,336,223846,1,8,0:3:0:0:
268,288,223926,1,8,0:3:0:0:
276,240,224006,1,10,0:0:0:0:
382,80,224167,1,10,0:3:0:0:
172,64,224328,6,0,L|176:136,1,67.5,2|0,0:0|0:0,0:0:0:0:
284,64,224648,6,0,L|288:4,1,49.5000015106202,14|0,0:3|0:0,0:0:0:0:
72,16,224809,2,0,L|68:65,1,49.5000015106202,2|0,0:0|0:0,0:0:0:0:
176,240,224969,2,0,P|186:191|189:142,1,99.0000030212403,10|0,0:0|0:0,0:0:0:0:
0,220,225290,2,0,P|3:269|13:317,1,99.0000030212403,10|0,0:3|0:0,0:0:0:0:
120,368,225531,1,0,0:0:0:0:
120,368,225611,2,0,L|176:364,1,49.5000015106202,8|0,0:0|0:0,0:0:0:0:
328,312,225771,2,0,L|272:308,1,49.5000015106202,2|0,0:0|0:0,0:0:0:0:
444,352,225932,6,0,P|440:302|430:254,1,99.0000030212403,8|2,0:3|0:0,0:0:0:0:
294,76,226172,1,0,0:0:0:0:
294,76,226253,2,0,P|283:124|280:173,1,99.0000030212403,8|2,0:0|0:0,0:0:0:0:
282,281,226574,1,10,0:3:0:0:
282,281,226654,2,0,L|337:276,1,49.5000015106202,8|8,0:0|0:3,0:0:0:0:
471,170,226815,1,8,0:3:0:0:
471,170,226894,2,0,P|424:154|375:146,1,99.0000030212403,10|0,0:0|0:0,0:0:0:0:
60,164,227215,6,0,P|134:157|197:119,1,148.50000453186,10|0,0:3|0:0,0:0:0:0:
120,0,227536,2,0,L|122:49,1,49.5000015106202,10|0,0:0|0:0,0:0:0:0:
276,52,227697,2,0,L|278:2,1,49.5000015106202,2|0,0:0|0:0,0:0:0:0:
196,120,227857,1,2,0:0:0:0:
376,76,228017,1,0,0:0:0:0:
376,76,228098,1,0,0:0:0:0:
376,76,228178,2,0,P|424:84|471:99,1,99.0000030212403,8|2,0:0|0:0,0:0:0:0:
456,324,228499,5,8,0:3:0:0:
456,324,228579,1,8,0:0:0:0:
456,324,228659,1,10,0:3:0:0:
272,144,228820,1,8,0:0:0:0:
428,180,228980,1,8,0:3:0:0:
428,180,229060,1,8,0:0:0:0:
428,180,229140,1,10,0:3:0:0:
276,332,229301,1,10,0:3:0:0:
88,200,229461,1,10,0:0:0:0:
328,236,229622,1,8,0:0:0:0:
328,236,229702,1,8,0:0:0:0:
328,236,229782,5,14,0:3:0:0:
160,328,229943,2,0,L|156:236,1,72,10|4,0:3|0:0,0:0:0:0:
204,132,230263,1,10,0:3:0:0:
256,276,230424,1,8,0:0:0:0:
124,224,230584,1,10,0:3:0:0:
120,76,230745,1,12,0:0:0:0:
212,156,230905,6,0,L|140:152,1,72,10|0,0:3|0:0,0:0:0:0:
328,72,231226,2,0,L|256:68,1,72,2|4,0:3|0:0,0:0:0:0:
264,244,231547,1,8,0:3:0:0:
416,168,231707,2,0,P|444:102|446:30,1,144,10|12,0:0|0:3,0:0:0:0:
320,168,232189,1,0,0:0:0:0:
416,364,232349,5,10,0:3:0:0:
436,212,232509,1,8,0:3:0:0:
200,304,232670,1,14,0:0:0:0:
328,292,232830,1,8,0:3:0:0:
224,124,232991,1,10,0:3:0:0:
8,204,233151,1,8,0:3:0:0:
8,204,233231,1,8,0:3:0:0:
8,204,233312,2,0,L|12:260,1,36,10|0,0:0|0:0,0:0:0:0:
24,372,233472,5,10,0:3:0:0:
32,363,233793,6,0,P|96:331|167:329,1,144,10|8,0:3|0:3,0:0:0:0:
256,380,234194,1,8,0:3:0:0:
256,380,234274,2,0,P|260:344|260:300,1,72,10|0,0:0|0:0,0:0:0:0:
188,240,234595,6,0,B|180:204|180:204|192:184|200:152|200:152|192:128|188:108|188:108|196:56,1,180,10|8,0:0|0:0,0:0:0:0:
320,68,235878,6,0,B|326:109|326:109|322:129|314:153|314:153|322:185|334:205|334:205|326:241,1,180,8|8,0:0|0:0,0:0:0:0:
188,240,237001,1,8,0:3:0:0:
188,240,237082,1,8,0:3:0:0:
188,240,237162,6,0,B|180:203|180:203|192:183|200:151|200:151|192:127|188:107|188:107|194:66,1,180,14|0,0:0|0:0,0:0:0:0:
192,72,237483,6,0,L|147:69,1,45,14|0,0:3|0:0,0:0:0:0:
28,152,237643,2,0,L|72:149,1,45,2|0,0:0|0:0,0:0:0:0:
188,240,237804,2,0,P|144:228|99:223,1,90,10|0,0:0|0:0,0:0:0:0:
340,320,238124,2,0,P|384:315|428:303,1,90,10|0,0:3|0:0,0:0:0:0:
252,312,238365,1,0,0:0:0:0:
252,312,238445,2,0,L|256:368,1,45,8|0,0:0|0:0,0:0:0:0:
308,236,238606,2,0,L|311:191,1,45,2|0,0:0|0:0,0:0:0:0:
192,72,238766,6,0,P|194:116|202:161,1,90,8|2,0:3|0:0,0:0:0:0:
400,148,239087,2,0,P|347:106|281:101,1,135,10|0,0:0|0:0,0:0:0:0:
202,161,239408,1,10,0:3:0:0:
202,161,239488,2,0,L|141:157,1,45,8|8,0:0|0:3,0:0:0:0:
48,200,239649,1,8,0:3:0:0:
48,200,239729,6,0,P|44:164|43:128,1,72,10|0,0:0|0:0,0:0:0:0:
124,284,240049,6,0,L|120:356,1,45,14|0,0:3|0:0,0:0:0:0:
199,205,240210,2,0,L|201:160,1,45,2|0,0:0|0:0,0:0:0:0:
320,261,240370,2,0,P|317:300|304:360,1,90,10|0,0:0|0:0,0:0:0:0:
297,122,240691,2,0,P|289:82|284:16,1,90,10|0,0:3|0:0,0:0:0:0:
412,184,240932,1,0,0:0:0:0:
412,184,241012,2,0,L|358:176,1,45,8|0,0:0|0:0,0:0:0:0:
199,205,241172,2,0,L|244:201,1,45,2|0,0:0|0:0,0:0:0:0:
428,92,241333,5,8,0:3:0:0:
428,92,241413,1,8,0:0:0:0:
428,92,241493,2,0,L|380:88,1,45,10|0,0:3|0:0,0:0:0:0:
196,18,241654,2,0,P|240:20|284:32,1,90,10|0,0:0|0:0,0:0:0:0:
140,116,241894,1,8,0:0:0:0:
140,116,241975,2,0,P|96:127|51:130,1,90,10|0,0:3|0:0,0:0:0:0:
4,16,242215,1,0,0:0:0:0:
4,16,242295,2,0,L|0:60,1,45,10|0,0:0|0:0,0:0:0:0:
84,256,242456,1,8,0:3:0:0:
84,256,242536,1,8,0:0:0:0:
84,256,242616,6,0,L|80:196,1,45,14|0,0:3|0:0,0:0:0:0:
256,212,242777,2,0,L|253:256,1,45,2|0,0:0|0:0,0:0:0:0:
180,380,242937,2,0,P|172:335|170:290,1,90,10|0,0:0|0:0,0:0:0:0:
356,296,243258,2,0,P|363:251|365:206,1,90,10|0,0:3|0:0,0:0:0:0:
308,112,243499,1,0,0:0:0:0:
308,112,243579,2,0,L|368:108,1,45,8|0,0:0|0:0,0:0:0:0:
468,40,243739,2,0,L|408:36,1,45,2|0,0:0|0:0,0:0:0:0:
248,0,243900,6,0,P|292:4|336:14,1,90,8|2,0:3|0:0,0:0:0:0:
192,108,244140,1,0,0:0:0:0:
192,108,244221,2,0,P|124:110|62:87,1,135,10|0,0:0|0:0,0:0:0:0:
16,176,244541,1,10,0:3:0:0:
16,176,244621,2,0,L|19:225,1,45,8|8,0:0|0:3,0:0:0:0:
182,201,244782,1,8,0:3:0:0:
181,201,244862,6,0,P|146:203|110:210,1,72,10|0,0:0|0:0,0:0:0:0:
8,356,245183,5,14,0:3:0:0:
8,356,245504,5,8,0:0:0:0:
40,352,245664,1,8,0:3:0:0:
72,348,245825,1,10,0:3:0:0:
188,304,245985,2,0,L|185:353,2,45,10|0|10,0:3|0:0|0:3,0:0:0:0:
65,131,246306,5,14,0:0:0:0:
176,192,246467,1,8,0:3:0:0:
176,192,246547,1,8,0:0:0:0:
176,192,246627,1,10,0:3:0:0:
20,288,246787,1,10,0:0:0:0:
0,140,246948,1,8,0:3:0:0:
32,136,247029,1,8,0:0:0:0:
64,132,247109,1,10,0:3:0:0:
100,244,247269,1,10,0:0:0:0:
152,100,247429,6,0,L|148:60,6,33.7500012874604,10|0|0|0|0|0|0,0:0|0:0|0:0|0:0|0:0|0:0|0:0,0:0:0:0:
260,56,247750,6,0,P|257:91|251:127,1,72,14|2,0:3|0:0,0:0:0:0:
176,192,248071,1,8,0:3:0:0:
256,152,248231,1,8,0:3:0:0:
408,180,248391,1,10,0:0:0:0:
328,220,248552,2,0,P|330:255|336:291,1,72,8|10,0:3|0:3,0:0:0:0:
496,228,248873,6,0,P|501:192|504:156,1,72,10|0,0:3|0:0,0:0:0:0:
384,80,249194,2,0,P|386:115|392:151,1,72,10|2,0:3|0:0,0:0:0:0:
464,20,249515,1,8,0:3:0:0:
292,96,249675,2,0,P|256:89|222:76,1,72,10|0,0:0|0:0,0:0:0:0:
36,28,249996,2,0,P|84:4|137:3,1,108,10|0,0:3|0:0,0:0:0:0:
137,3,250317,5,14,0:3:0:0:
116,112,250477,2,0,P|110:147|107:183,1,72,10|2,0:3|0:0,0:0:0:0:
160,316,250798,1,8,0:3:0:0:
280,220,250959,1,10,0:0:0:0:
184,232,251119,2,0,P|186:267|192:303,1,72,8|10,0:3|0:3,0:0:0:0:
304,360,251440,6,0,P|338:349|373:342,1,72,10|0,0:3|0:0,0:0:0:0:
512,276,251761,2,0,P|477:265|442:258,1,72,10|2,0:3|0:0,0:0:0:0:
472,364,252082,1,8,0:3:0:0:
340,236,252242,2,0,P|342:200|348:164,1,72,10|0,0:0|0:0,0:0:0:0:
416,0,252563,2,0,P|434:50|437:104,1,108,10|0,0:3|0:0,0:0:0:0:
437,104,252884,5,14,0:3:0:0:
272,76,253044,2,0,P|307:68|343:67,1,72,10|0,0:3|0:0,0:0:0:0:
244,180,253365,1,8,0:3:0:0:
184,12,253525,1,10,0:0:0:0:
120,148,253686,1,8,0:3:0:0:
120,148,253766,1,8,0:0:0:0:
120,148,253846,2,0,L|124:96,1,36,10|0,0:3|0:0,0:0:0:0:
16,16,254007,6,0,P|18:51|22:87,1,72,10|0,0:3|0:0,0:0:0:0:
24,272,254328,2,0,P|28:236|30:200,1,72,8|2,0:3|0:0,0:0:0:0:
20,96,254648,1,8,0:3:0:0:
116,240,254809,2,0,P|151:237|187:232,1,72,10|0,0:0|0:0,0:0:0:0:
380,228,255130,2,0,P|331:203|278:196,1,108,10|0,0:3|0:0,0:0:0:0:
272,200,255451,5,14,0:3:0:0:
266,206,255771,5,2,0:0:0:0:
270,238,255931,1,2,0:0:0:0:
274,270,256092,1,2,0:0:0:0:
187,221,256253,1,2,0:0:0:0:
205,126,256413,1,2,0:0:0:0:
303,114,256574,5,2,0:0:0:0:
303,114,256894,5,2,0:0:0:0:
343,202,257055,1,2,0:0:0:0:
274,270,257215,2,0,L|278:310,2,36,2|2|2,0:0|0:0|0:0,0:0:0:0:
187,221,257536,1,2,0:0:0:0:
205,126,257697,1,2,0:0:0:0:
303,114,257857,6,0,L|359:118,1,45,8|12,0:3|0:3,0:0:0:0:
256,192,258098,12,0,262189,0:0:0:0:
