osu file format v14

[General]
AudioFilename: audio.mp3
AudioLeadIn: 0
PreviewTime: 192287
Countdown: 1
SampleSet: None
StackLeniency: 0.7
Mode: 0
LetterboxInBreaks: 0
WidescreenStoryboard: 0

[Editor]
Bookmarks: 11156,192448,193410
DistanceSpacing: 1.5
BeatDivisor: 4
GridSize: 4
TimelineZoom: 3.699998

[Metadata]
Title:crescent moon
TitleUnicode:crescent moon
Artist:FELT
ArtistUnicode:FELT
Creator:Ireiisu
Version:Lunatic
Source:東方心綺樓 ~ Hopeless Masquerade.
Tags:
BeatmapID:1636918
BeatmapSetID:779513

[Difficulty]
HPDrainRate:7
CircleSize:4
OverallDifficulty:8
ApproachRate:9
SliderMultiplier:1.8
SliderTickRate:1

[Events]
//Background and Video events
0,0,"bg.jpg",0,0
//Break Periods
2,20348,21794
//Storyboard Layer 0 (Background)
//Storyboard Layer 1 (Fail)
//Storyboard Layer 2 (Pass)
//Storyboard Layer 3 (Foreground)
//Storyboard Sound Samples

[TimingPoints]
-386,320.855614973262,4,2,1,30,1,0
576,-153.846153846153,4,2,1,20,0,0
897,-153.846153846153,4,2,1,30,0,0
20148,-153.846153846153,4,2,1,30,0,0
22394,-100,4,2,1,70,0,0
22555,-100,4,2,1,50,0,0
31699,-133.333333333333,4,2,1,20,0,0
32662,-181.818181818181,4,2,1,20,0,0
32822,-133.333333333333,4,2,1,20,0,0
34266,-133.333333333333,4,2,1,40,0,0
44533,-117.647058823529,4,2,1,40,0,0

[HitObjects]
188,124,576,6,0,P|208:168|244:136,1,87.749995983124
216,144,897,2,0,L|208:272,1,116.999994644165
252,328,1378,2,0,P|195:340|143:316,1,116.999994644165
104,220,1859,1,0,0:0:0:0:
148,152,2020,2,0,P|144:104|120:80,1,58.4999973220826
92,28,2341,2,0,P|56:92|80:152,1,116.999994644165
148,152,2822,5,0,0:0:0:0:
236,96,2982,1,0,0:0:0:0:
208,256,3143,1,0,0:0:0:0:
208,256,3464,6,0,P|268:224|272:160,1,116.999994644165
196,176,3945,2,0,P|132:220|124:276,1,116.999994644165
208,256,4426,1,0,0:0:0:0:
288,252,4587,2,0,L|312:308,1,58.4999973220826
380,264,4908,2,0,P|384:340|344:376,1,116.999994644165
311,305,5389,5,0,0:0:0:0:
340,204,5549,1,0,0:0:0:0:
452,224,5710,2,0,P|436:196|480:208,1,87.749995983124
488,228,6031,2,0,L|368:276,1,116.999994644165
328,336,6512,2,0,P|356:344|440:324,1,116.999994644165
488,228,6993,1,0,0:0:0:0:
456,152,7154,2,0,P|432:108|408:88,1,58.4999973220826
348,88,7474,2,0,P|372:44|448:28,1,116.999994644165
500,72,7956,1,0,0:0:0:0:
452,164,8116,1,0,0:0:0:0:
288,144,8277,1,0,0:0:0:0:
288,144,8597,6,0,L|284:268,1,116.999994644165
356,220,9079,2,0,P|372:124|364:88,1,116.999994644165
312,16,9560,1,0,0:0:0:0:
240,52,9720,2,0,P|220:124|220:128,1,58.4999973220826
168,172,10041,2,0,P|249:185|292:152,1,116.999994644165
364,108,10523,1,0,0:0:0:0:
428,188,10683,1,0,0:0:0:0:
336,240,10843,2,0,P|312:264|352:256,1,87.749995983124
360,248,11164,6,0,P|440:268|496:252,1,116.999994644165
508,188,11646,1,0,0:0:0:0:
512,176,11726,1,0,0:0:0:0:
512,164,11806,2,0,P|504:108|488:92,1,58.4999973220826
416,48,12127,2,0,L|276:48,1,116.999994644165
156,128,12608,5,0,0:0:0:0:
252,172,12769,1,0,0:0:0:0:
348,132,12929,1,0,0:0:0:0:
348,132,13009,1,0,0:0:0:0:
348,132,13089,2,0,L|396:132,2,29.2499986610413
300,224,13410,2,0,P|224:236|188:192,1,116.999994644165
220,20,13892,5,0,0:0:0:0:
120,56,14052,2,0,L|90:134,1,58.4999973220826
84,144,14293,1,0,0:0:0:0:
77,183,14373,1,0,0:0:0:0:
86,224,14453,1,0,0:0:0:0:
109,257,14533,1,0,0:0:0:0:
180,180,14694,2,0,L|325:180,1,116.999994644165
420,72,15175,6,0,L|444:100,2,29.2499986610413
413,184,15496,1,0,0:0:0:0:
367,184,15576,1,0,0:0:0:0:
326,182,15656,2,0,L|272:177,2,29.2499986610413
348,84,15977,1,0,0:0:0:0:
248,80,16138,1,0,0:0:0:0:
248,80,16218,1,0,0:0:0:0:
248,80,16298,6,0,L|224:148,1,58.4999973220826
148,204,16619,1,0,0:0:0:0:
168,308,16779,1,0,0:0:0:0:
200,332,16859,1,0,0:0:0:0:
238,345,16939,1,0,0:0:0:0:
279,345,17019,1,0,0:0:0:0:
318,332,17100,2,0,L|324:256,1,58.4999973220826
424,308,17421,1,0,0:0:0:0:
444,144,17581,5,0,0:0:0:0:
340,172,17741,1,0,0:0:0:0:
400,228,17902,1,0,0:0:0:0:
380,88,18063,2,0,L|364:48,2,29.2499986610413
276,64,18384,1,0,0:0:0:0:
230,156,18544,2,0,P|286:180|354:164,1,116.999994644165
340,8,19025,5,0,0:0:0:0:
292,104,19186,1,0,0:0:0:0:
212,32,19346,1,0,0:0:0:0:
212,32,19426,1,0,0:0:0:0:
212,32,19507,2,0,L|192:12,2,29.2499986610413
160,124,19827,2,0,P|156:160|168:204,1,58.4999973220826
176,232,20068,1,0,0:0:0:0:
176,232,20148,1,0,0:0:0:0:
248,152,22394,5,12,0:0:0:0:
248,152,22715,2,0,L|240:264,1,90
332,252,23036,2,0,P|380:236|410:196,1,90
332,40,23357,2,0,P|328:124|348:196,1,135,8|0,0:0|0:0,0:0:0:0:
337,173,23678,1,0,0:0:0:0:
420,208,23838,1,0,0:0:0:0:
412,72,23999,6,0,P|328:40|236:76,1,180,0|0,0:3|0:0,0:0:0:0:
216,200,24480,1,0,0:0:0:0:
132,172,24640,1,0,0:0:0:0:
132,172,24720,1,0,0:0:0:0:
132,172,24801,1,0,0:0:0:0:
108,348,24961,1,0,0:0:0:0:
28,240,25122,1,0,0:0:0:0:
160,260,25282,6,0,P|224:290|268:276,1,90
216,200,25603,2,0,P|208:140|224:88,1,90
320,256,25924,2,0,P|296:356|240:380,1,135
274,370,26245,1,0,0:0:0:0:
240,288,26405,1,0,0:0:0:0:
284,160,26565,5,0,0:0:0:0:
284,160,26645,1,0,0:0:0:0:
284,160,26726,2,0,L|373:159,1,90
464,160,27047,1,0,0:0:0:0:
464,160,27127,1,0,0:0:0:0:
464,160,27207,1,0,0:0:0:0:
298,84,27368,1,0,0:0:0:0:
366,28,27528,1,0,0:0:0:0:
373,159,27688,1,0,0:0:0:0:
264,240,27849,6,0,P|200:248|160:240,1,90
116,176,28170,2,0,P|180:168|220:176,1,90
156,344,28491,6,0,P|95:287|70:242,1,135
70,242,28811,1,0,0:0:0:0:
175,244,28972,2,0,L|248:328,1,90
304,256,29293,2,0,L|405:301,1,90
468,328,29613,1,0,0:0:0:0:
404,208,29774,1,0,0:0:0:0:
404,208,29854,1,0,0:0:0:0:
404,208,29934,1,0,0:0:0:0:
480,160,30095,1,0,0:0:0:0:
400,120,30255,1,0,0:0:0:0:
471,238,30416,6,0,L|467:354,1,90
344,276,30736,1,0,0:0:0:0:
260,308,30897,2,0,L|260:352,1,45
344,276,31057,2,0,L|344:208,1,45
344,116,31218,1,0,0:0:0:0:
168,80,31378,1,0,0:0:0:0:
228,148,31539,1,0,0:0:0:0:
228,84,32662,6,0,L|228:16,1,66.0000020141602
208,102,32983,2,0,L|197:74,1,22.5000008583069
246,102,33143,2,0,L|255:74,1,22.5000008583069
190,120,33303,2,0,L|162:86,1,22.5000008583069
264,119,33464,2,0,L|283:93,1,22.5000008583069
172,138,33624,2,0,L|134:116,1,22.5000008583069
284,138,33785,2,0,L|320:116,1,22.5000008583069
152,157,33945,2,0,L|109:149,1,22.5000008583069
301,157,34105,2,0,L|343:149,1,22.5000008583069
134,176,34266,6,0,B|125:201|138:242,1,67.5000025749208
96,336,34587,2,0,P|132:344|184:336,1,67.5000025749208
232,268,34908,1,0,0:0:0:0:
138,242,35068,1,0,0:0:0:0:
268,352,35228,2,0,P|304:328|320:300,1,67.5000025749208
284,138,35549,5,0,0:0:0:0:
184,116,35710,2,0,P|188:164|200:192,1,67.5000025749208
284,138,36031,2,0,P|300:74|296:46,1,67.5000025749208
132,68,36351,2,0,P|112:124|120:152,1,67.5000025749208
44,284,36672,6,0,L|116:280,1,67.5000025749208
220,272,36993,2,0,P|224:292|220:312,2,33.7500012874604
312,228,37314,1,0,0:0:0:0:
312,228,37394,1,0,0:0:0:0:
312,228,37474,2,0,P|312:176|304:144,1,67.5000025749208
288,56,37795,1,0,0:0:0:0:
196,196,37956,1,0,0:0:0:0:
220,96,38116,5,0,0:0:0:0:
309,160,38277,1,0,0:0:0:0:
392,100,38437,1,0,0:0:0:0:
392,100,38517,1,0,0:0:0:0:
392,100,38597,2,0,P|384:160|392:240,1,135.000005149842
480,88,39079,2,0,P|452:32|404:12,1,101.250003862381
372,28,39400,6,0,P|300:44|212:28,1,135.000005149842
292,124,39881,2,0,P|308:184|232:184,1,135.000005149842
88,148,40362,2,0,P|188:108|224:128,1,135.000005149842
160,204,40843,2,0,P|144:272|152:292,1,67.5000025749208
180,360,41164,1,0,0:0:0:0:
344,368,41325,2,0,P|396:321|404:288,1,101.250003862381
384,248,41646,2,0,B|276:248,1,101.250003862381
232,252,41966,6,0,P|256:188|220:128,1,135.000005149842
164,52,42448,2,0,L|8:52,1,135.000005149842
48,152,42929,2,0,P|104:204|176:196,1,135.000005149842
292,100,43410,2,0,P|348:84|424:116,1,135.000005149842
340,176,43892,2,0,P|312:268|264:276,1,135.000005149842
184,256,44373,1,0,0:0:0:0:
