osu file format v14

[General]
AudioFilename: a wonderful moon.mp3
AudioLeadIn: 0
PreviewTime: 1250
Countdown: 0
SampleSet: Soft
StackLeniency: 0.7
Mode: 0
LetterboxInBreaks: 0
WidescreenStoryboard: 0

[Editor]
Bookmarks: 22724,42935,63145,83356,103566,126303,146514,166724
DistanceSpacing: 1.1
BeatDivisor: 4
GridSize: 8
TimelineZoom: 2.5

[Metadata]
Title:a wonderful moon
TitleUnicode:a wonderful moon
Artist:FELT
ArtistUnicode:FELT
Creator:Naitoshi
Version:Lunatic
Source:東方Project
Tags:-kevincela- TicClick TicCl!ck Ground Snow Comiket83 大空魔術 Oozora Majutsu Celestial Wizardry Magical Astronomy Comiket70 ZUN Team Shanghai alice 向こう側の月 The Far Side of the Moon Boyz Party drum and bass dnb
BeatmapID:454385
BeatmapSetID:190847

[Difficulty]
HPDrainRate:7
CircleSize:4
OverallDifficulty:7
ApproachRate:9
SliderMultiplier:1.4
SliderTickRate:1

[Events]
//Background and Video events
0,0,"vFlowery Moon.jpg",0,0
//Break Periods
//Storyboard Layer 0 (Background)
//Storyboard Layer 1 (Fail)
//Storyboard Layer 2 (Pass)
//Storyboard Layer 3 (Foreground)
//Storyboard Sound Samples

[TimingPoints]
2514,315.789473684211,4,2,1,70,1,0
20514,-100,4,2,2,30,0,0
20829,-100,4,2,2,40,0,0
21145,-100,4,2,2,50,0,0
21461,-100,4,2,2,60,0,0
21777,-100,4,2,2,70,0,0
22092,-100,4,2,2,80,0,0
22566,-100,4,2,2,5,0,0
22724,-133.333333333333,4,2,2,55,0,0
32040,-133.333333333333,4,2,2,40,0,0
32356,-133.333333333333,4,2,2,70,0,0
32671,-133.333333333333,4,2,2,40,0,0
32829,-133.333333333333,4,2,2,70,0,0
41671,-133.333333333333,4,2,2,70,0,1
42777,-133.333333333333,4,2,2,90,0,1
42856,-133.333333333333,4,2,2,70,0,0
42935,-100,4,2,1,85,0,1
43014,-100,4,2,1,85,0,0
43882,-100,4,2,3,45,0,0
44040,-100,4,2,1,85,0,0
46408,-100,4,2,3,45,0,0
46566,-100,4,2,1,85,0,0
47198,-100,4,2,1,60,0,0
47671,-100,4,2,1,85,0,0
48935,-100,4,2,3,45,0,0
49092,-100,4,2,1,85,0,0
51461,-100,4,2,3,45,0,0
51619,-100,4,2,1,85,0,0
52250,-100,4,2,1,60,0,0
52724,-100,4,2,1,85,0,0
53040,-100,4,2,1,85,0,1
53119,-100,4,2,1,85,0,0
53987,-100,4,2,3,45,0,0
54145,-100,4,2,1,85,0,0
56514,-100,4,2,3,45,0,0
56671,-100,4,2,1,85,0,0
57303,-100,4,2,1,60,0,0
57777,-100,4,2,1,85,0,0
59040,-100,4,2,3,45,0,0
59198,-100,4,2,1,85,0,0
60619,-100,4,2,1,95,0,0
60777,-100,4,2,1,85,0,0
60935,-100,4,2,1,85,0,0
61250,-100,4,2,1,70,0,0
61408,-100,4,2,1,85,0,0
61566,-100,4,2,3,45,0,0
61724,-100,4,2,1,85,0,0
62514,-100,4,2,1,85,0,1
62750,-100,4,2,1,95,0,1
62829,-100,4,2,1,85,0,0
62987,-100,4,2,1,95,0,0
63145,-100,4,2,1,85,0,1
63224,-100,4,2,1,85,0,0
64092,-100,4,2,3,45,0,0
64250,-100,4,2,1,85,0,0
66619,-100,4,2,3,45,0,0
66777,-100,4,2,1,85,0,0
67408,-100,4,2,1,60,0,0
67882,-100,4,2,1,85,0,0
69145,-100,4,2,3,45,0,0
69303,-100,4,2,1,85,0,0
71671,-100,4,2,3,45,0,0
71829,-100,4,2,1,85,0,0
72461,-100,4,2,1,60,0,0
72777,-100,4,2,1,85,0,0
73250,-100,4,2,1,85,0,1
73329,-100,4,2,1,85,0,0
74198,-100,4,2,3,45,0,0
74356,-100,4,2,1,85,0,0
76724,-100,4,2,3,45,0,0
76882,-100,4,2,1,85,0,0
77514,-100,4,2,1,60,0,0
77987,-100,4,2,1,85,0,0
79250,-100,4,2,3,45,0,0
79408,-100,4,2,1,85,0,0
80829,-100,4,2,1,95,0,0
80987,-100,4,2,1,85,0,0
81777,-100,4,2,3,45,0,0
81935,-100,4,2,1,85,0,0
82961,-100,4,2,1,95,0,0
83040,-100,4,2,1,85,0,0
83198,-100,4,2,1,95,0,0
83356,-100,4,2,1,85,0,0
83671,-133.333333333333,4,2,4,50,0,0
85250,-133.333333333333,4,2,4,30,0,0
85566,-133.333333333333,4,2,4,50,0,0
87777,-133.333333333333,4,2,4,30,0,0
88092,-133.333333333333,4,2,4,50,0,0
90303,-133.333333333333,4,2,4,30,0,0
90619,-133.333333333333,4,2,4,50,0,0
92829,-133.333333333333,4,2,4,30,0,0
93145,-133.333333333333,4,2,4,50,0,0
95356,-133.333333333333,4,2,4,30,0,0
95671,-133.333333333333,4,2,4,50,0,0
97882,-133.333333333333,4,2,4,30,0,0
98198,-133.333333333333,4,2,4,50,0,0
100408,-133.333333333333,4,2,4,30,0,0
100724,-133.333333333333,4,2,4,50,0,0
102935,-133.333333333333,4,2,4,30,0,0
103250,-133.333333333333,4,2,4,50,0,0
103566,-111.111111111111,4,2,1,70,0,1
103645,-111.111111111111,4,2,1,60,0,0
113356,-144.927536231884,4,2,1,60,0,0
113671,-100,4,2,1,60,0,1
113750,-100,4,2,1,60,0,0
113987,-111.111111111111,4,2,1,60,0,0
123777,-111.111111111111,4,2,1,20,0,0
124092,-100,4,2,2,30,0,0
124408,-100,4,2,2,40,0,0
124724,-100,4,2,2,50,0,0
125040,-100,4,2,2,60,0,0
125356,-100,4,2,2,70,0,0
125671,-100,4,2,2,80,0,0
125987,-100,4,2,2,90,0,0
126303,-100,4,2,1,85,0,1
127250,-100,4,2,3,45,0,1
127408,-100,4,2,1,85,0,1
129777,-100,4,2,3,45,0,1
129935,-100,4,2,1,85,0,1
132303,-100,4,2,3,45,0,1
132461,-100,4,2,1,85,0,1
134829,-100,4,2,3,45,0,1
134987,-100,4,2,1,85,0,1
136329,-100,4,2,1,85,0,0
136408,-100,4,2,1,85,0,1
137356,-100,4,2,3,45,0,1
137514,-100,4,2,1,85,0,1
139882,-100,4,2,3,45,0,1
140040,-100,4,2,1,85,0,1
142408,-100,4,2,3,45,0,1
142566,-100,4,2,1,85,0,1
144935,-100,4,2,3,45,0,1
145092,-100,4,2,1,85,0,1
146435,-100,4,2,1,85,0,0
146514,-100,4,2,1,85,0,1
147461,-100,4,2,3,45,0,1
147619,-100,4,2,1,85,0,1
149987,-100,4,2,3,45,0,1
150145,-100,4,2,1,85,0,1
150777,-100,4,2,1,60,0,1
150935,-100,4,2,1,85,0,1
151092,-100,4,2,1,45,0,1
151171,-100,4,2,1,85,0,1
152514,-100,4,2,3,45,0,1
152671,-100,4,2,1,85,0,1
155040,-100,4,2,3,45,0,1
155198,-100,4,2,1,85,0,1
156540,-100,4,2,1,85,0,0
156619,-100,4,2,1,85,0,1
157566,-100,4,2,3,45,0,1
157724,-100,4,2,1,85,0,1
160092,-100,4,2,3,45,0,1
160250,-100,4,2,1,85,0,1
160882,-100,4,2,1,60,0,1
161040,-100,4,2,1,85,0,1
161198,-100,4,2,1,45,0,1
161277,-100,4,2,1,85,0,1
162619,-100,4,2,3,45,0,1
162777,-100,4,2,1,85,0,1
165145,-100,4,2,3,55,0,1
165303,-100,4,2,1,85,0,1
166645,-100,4,2,1,85,0,0
166724,-100,4,2,1,85,0,1
166803,-100,4,2,1,85,0,0

[Colours]
Combo1 : 255,94,55
Combo2 : 173,255,95
Combo3 : 17,254,176
Combo4 : 255,88,100

[HitObjects]
256,192,20198,12,0,22566,0:0:0:0:
384,306,22724,6,0,P|392:258|388:202,1,105.000004005432,4|8,1:0|0:0,0:0:0:0:
389,203,23514,1,0,1:0:0:0:
254,309,23671,1,10,0:0:0:0:
224,150,23829,1,0,0:0:0:0:
389,203,23987,6,0,P|437:205|459:202,1,52.5000020027161,0|0,1:0|0:0,0:0:0:0:
230,241,24303,2,0,P|185:222|167:210,1,52.5000020027161,8|0,0:0|0:0,0:0:0:0:
432,316,24619,2,0,P|464:280|476:261,1,52.5000020027161,0|2,0:0|1:2,0:0:0:0:
224,150,24935,1,8,0:0:0:0:
224,150,25250,6,0,P|176:149|152:153,1,52.5000020027161,0|0,1:0|0:0,0:0:0:0:
380,191,25566,2,0,P|428:192|452:188,1,52.5000020027161,8|0,0:0|0:0,0:0:0:0:
432,191,26040,1,0,1:0:0:0:
263,82,26198,2,0,P|228:141|218:166,1,78.7500030040742,10|0,0:0|0:0,0:0:0:0:
224,150,26514,2,0,P|266:137|299:137,1,52.5000020027161,0|0,1:0|0:0,0:0:0:0:
318,269,26829,1,8,0:0:0:0:
204,344,26987,1,0,1:0:0:0:
121,210,27145,2,0,L|87:151,1,52.5000020027161,0|2,0:0|1:2,0:0:0:0:
283,340,27461,1,8,0:0:0:0:
161,278,27619,1,0,0:0:0:0:
318,269,27777,6,0,P|375:273|430:286,1,105.000004005432,0|8,1:0|0:0,0:0:0:0:
421,283,28566,1,0,1:0:0:0:
304,172,28724,2,0,L|288:120,1,52.5000020027161,10|0,0:0|0:0,0:0:0:0:
247,256,29040,2,0,L|198:364,1,105.000004005432,0|8,1:0|0:0,0:0:0:0:
203,351,29829,5,0,1:0:0:0:
106,286,29987,2,0,P|65:278|41:282,1,52.5000020027161,8|0,0:0|0:0,0:0:0:0:
247,256,30303,2,0,P|274:224|282:201,1,52.5000020027161,0|0,1:0|0:0,0:0:0:0:
126,120,30619,2,0,P|139:159|155:178,1,52.5000020027161,8|0,0:0|1:2,0:0:0:0:
323,341,30935,5,0,0:0:0:0:
278,214,31092,1,0,1:0:0:0:
151,259,31250,1,10,0:0:0:0:
151,259,31566,2,0,L|88:288,1,52.5000020027161,0|0,1:0|0:0,0:0:0:0:
230,337,31882,2,0,L|190:396,1,52.5000020027161,8|4,0:0|0:0,0:0:0:0:
200,380,32356,1,0,1:0:0:0:
225,146,32514,2,0,L|234:82,1,52.5000020027161,8|4,0:0|0:0,0:0:0:0:
132,184,32829,6,0,P|80:184|24:172,1,105.000004005432,4|8,1:0|0:0,0:0:0:0:
28,173,33619,1,0,1:0:0:0:
256,212,33777,2,0,P|272:248|276:272,1,52.5000020027161,10|0,0:0|0:0,0:0:0:0:
360,352,34092,2,0,P|376:324|400:304,1,52.5000020027161,0|0,1:0|0:0,0:0:0:0:
352,200,34408,2,0,P|330:182|312:156,1,52.5000020027161,8|0,0:0|0:0,0:0:0:0:
463,93,34724,2,0,P|475:118|480:149,1,52.5000020027161,0|2,0:0|1:2,0:0:0:0:
256,212,35040,1,8,0:0:0:0:
256,212,35356,6,0,P|241:170|230:111,1,105.000004005432,0|8,1:0|0:0,0:0:0:0:
115,155,35829,2,0,P|146:186|181:235,1,105.000004005432,0|0,0:0|1:0,0:0:0:0:
105,340,36303,2,0,P|79:313|53:277,1,70.0000026702882,10|2,0:0|0:0,0:0:0:0:
55,279,36619,2,0,P|86:288|126:289,1,52.5000020027161,0|0,1:0|0:0,0:0:0:0:
256,212,36935,1,8,0:0:0:0:
203,280,37092,2,0,P|205:333|217:384,1,105.000004005432,0|2,1:0|1:2,0:0:0:0:
171,200,37566,2,0,P|150:184|115:169,1,52.5000020027161,8|0,0:0|0:0,0:0:0:0:
290,290,37882,6,0,P|321:306|401:326,1,105.000004005432,0|8,1:0|0:0,0:0:0:0:
388,324,38671,1,0,1:0:0:0:
223,357,38829,2,0,L|170:368,1,52.5000020027161,10|0,0:0|0:0,0:0:0:0:
126,255,39145,6,0,L|56:164,1,105.000004005432,0|8,1:0|0:0,0:0:0:0:
145,73,39619,1,0,0:0:0:0:
212,181,39777,2,0,L|305:229,1,105.000004005432,0|8,1:0|0:0,0:0:0:0:
446,277,40250,1,0,0:0:0:0:
420,126,40408,2,0,L|343:123,1,52.5000020027161,0|0,1:0|0:0,0:0:0:0:
210,60,40724,2,0,P|239:50|279:48,1,52.5000020027161,8|0,1:2|0:0,0:0:0:0:
99,131,41040,2,0,P|91:152|88:190,1,52.5000020027161,0|0,1:0|0:0,0:0:0:0:
184,307,41356,2,0,P|165:292|131:277,1,52.5000020027161,10|0,1:2|1:0,0:0:0:0:
228,183,41671,5,2,1:2:0:0:
224,173,41750,1,0,0:0:0:0:
220,163,41829,1,2,1:2:0:0:
214,154,41908,1,0,0:0:0:0:
207,145,41987,5,2,1:2:0:0:
199,137,42066,1,0,0:0:0:0:
190,130,42145,1,2,1:2:0:0:
180,125,42224,1,0,0:0:0:0:
169,124,42303,5,0,1:0:0:0:
155,131,42382,1,0,0:0:0:0:
142,147,42461,1,0,0:0:0:0:
134,172,42540,1,4,0:0:0:0:
132,203,42619,5,0,1:0:0:0:
132,239,42698,1,0,1:2:0:0:
140,280,42777,1,4,1:2:0:0:
153,319,42856,1,0,1:2:0:0:
170,357,42935,6,0,P|214:298|237:251,1,105,4|0,1:0|0:0,0:0:0:0:
228,270,43250,2,0,P|230:232|239:192,1,70,8|0,0:0|0:0,0:0:0:0:
413,124,43566,1,0,0:0:0:0:
413,312,43724,1,2,1:2:0:0:
318,218,43882,1,10,0:0:0:0:
508,218,44040,1,2,1:2:0:0:
508,218,44119,1,0,0:0:0:0:
508,218,44198,6,0,P|503:265|492:298,1,70,2|0,1:2|0:0,0:0:0:0:
413,124,44514,2,0,P|418:77|429:44,1,70,8|0,0:0|0:0,0:0:0:0:
318,218,44829,1,2,0:0:0:0:
318,218,44908,1,0,0:0:0:0:
318,218,44987,2,0,P|302:173|298:138,1,70,2|8,1:2|0:0,0:0:0:0:
508,218,45303,1,2,1:2:0:0:
257,342,45461,6,0,P|224:307|206:278,1,70,2|0,1:2|0:0,0:0:0:0:
437,245,45777,2,0,P|423:291|407:321,1,70,8|0,0:0|0:0,0:0:0:0:
299,130,46092,1,0,0:0:0:0:
299,130,46171,1,0,0:0:0:0:
299,130,46250,2,0,L|274:46,1,70,2|10,1:2|0:0,0:0:0:0:
181,187,46566,1,2,0:0:0:0:
181,187,46645,1,0,0:0:0:0:
181,187,46724,6,0,L|154:265,1,70,0|0,1:0|0:0,0:0:0:0:
133,98,47040,1,8,0:0:0:0:
286,251,47198,2,0,P|328:241|361:223,1,70,4|0,0:0|0:0,0:0:0:0:
181,187,47514,2,0,P|138:196|105:214,1,70,4|8,1:2|0:0,0:0:0:0:
248,99,47829,1,0,0:0:0:0:
209,266,47987,6,0,L|182:377,1,105,0|0,1:0|0:0,0:0:0:0:
184,368,48303,2,0,P|160:339|139:288,1,70,8|0,0:0|0:0,0:0:0:0:
286,251,48619,1,0,0:0:0:0:
286,251,48698,1,0,0:0:0:0:
286,251,48777,2,0,L|264:339,2,70,2|10|2,1:2|0:0|1:2,0:0:0:0:
433,189,49250,6,0,L|418:115,1,70,2|0,1:2|0:0,0:0:0:0:
217,59,49566,2,0,L|195:147,1,70,8|0,0:0|0:0,0:0:0:0:
200,126,49803,1,0,0:0:0:0:
200,126,49882,1,2,0:0:0:0:
70,116,50040,1,2,1:2:0:0:
128,195,50198,1,8,0:0:0:0:
200,127,50356,1,2,1:2:0:0:
57,263,50514,6,0,P|124:284|191:269,1,140,2|8,1:2|0:0,0:0:0:0:
141,48,50987,1,0,0:0:0:0:
128,195,51145,1,0,0:0:0:0:
128,195,51224,1,0,0:0:0:0:
128,195,51303,2,0,P|168:187|197:173,1,70,2|10,1:2|0:0,0:0:0:0:
306,92,51619,1,2,0:0:0:0:
314,110,51698,1,0,0:0:0:0:
323,130,51777,1,0,1:0:0:0:
441,160,51935,5,0,0:0:0:0:
247,226,52092,1,8,0:0:0:0:
441,160,52250,2,0,P|432:133|406:90,1,70,4|0,0:0|0:0,0:0:0:0:
247,226,52566,2,0,P|256:253|282:296,1,70,2|8,1:2|0:0,0:0:0:0:
314,110,52882,1,2,1:0:0:0:
371,276,53040,6,0,L|406:377,1,105,6|0,1:0|0:0,0:0:0:0:
405,375,53356,2,0,P|425:343|430:299,1,70,8|0,0:0|0:0,0:0:0:0:
247,226,53671,1,0,0:0:0:0:
64,313,53829,2,0,P|70:347|89:376,1,70,2|10,1:2|0:0,0:0:0:0:
247,226,54145,1,2,1:2:0:0:
247,226,54224,1,0,0:0:0:0:
247,226,54303,6,0,L|170:190,1,70,2|0,1:2|0:0,0:0:0:0:
64,313,54619,2,0,L|147:353,1,70,8|0,0:0|0:0,0:0:0:0:
247,226,54935,2,0,L|313:179,1,70,2|2,0:0|1:2,0:0:0:0:
379,310,55250,2,0,L|428:372,1,70,8|2,0:0|1:2,0:0:0:0:
247,226,55566,6,0,P|245:178|260:133,1,70,2|0,1:2|0:0,0:0:0:0:
402,48,55882,2,0,P|404:96|389:141,1,70,8|0,0:0|0:0,0:0:0:0:
247,226,56198,1,0,0:0:0:0:
247,226,56277,1,0,0:0:0:0:
247,226,56356,1,2,1:2:0:0:
170,154,56514,1,10,0:0:0:0:
253,91,56671,1,2,0:0:0:0:
330,162,56829,5,0,1:0:0:0:
145,160,56987,1,0,0:0:0:0:
353,155,57145,1,8,0:0:0:0:
168,87,57303,2,0,P|195:46|236:16,1,70,4|0,0:0|0:0,0:0:0:0:
328,229,57619,2,0,P|301:270|260:300,1,70,4|8,1:2|0:0,0:0:0:0:
253,91,57935,1,0,0:0:0:0:
116,226,58092,6,0,L|24:316,1,105,0|0,1:0|0:0,0:0:0:0:
40,299,58408,2,0,P|33:246|42:212,1,70,8|0,0:0|0:0,0:0:0:0:
217,268,58724,1,0,0:0:0:0:
217,268,58803,1,0,0:0:0:0:
217,268,58882,2,0,L|201:340,1,70,2|10,1:2|0:0,0:0:0:0:
325,271,59198,1,2,1:2:0:0:
330,293,59277,1,0,0:0:0:0:
334,314,59356,1,2,1:2:0:0:
422,229,59514,5,0,0:0:0:0:
217,268,59671,1,8,0:0:0:0:
422,229,59829,1,0,0:0:0:0:
302,156,59987,1,2,0:0:0:0:
302,156,60066,1,0,0:0:0:0:
302,156,60145,2,0,L|285:86,2,70,2|8|2,1:2|0:0|1:2,0:0:0:0:
422,229,60619,6,0,P|434:188|437:146,1,70,0|4,1:0|0:3,0:0:0:0:
165,221,60935,2,0,P|194:251|229:275,1,70,8|0,1:2|0:0,0:0:0:0:
368,135,61250,2,0,P|327:145|289:163,1,70,4|2,1:2|1:2,0:0:0:0:
406,360,61566,6,0,P|434:327|454:291,1,70,10|4,1:2|0:0,0:0:0:0:
100,268,61882,2,0,P|113:308|135:344,1,70,0|2,1:0|0:0,0:0:0:0:
368,135,62198,2,0,P|326:126|284:127,1,70,12|0,1:2|0:0,0:0:0:0:
124,140,62514,5,4,1:0:0:0:
99,164,62592,5,2,0:0:0:0:
114,195,62671,5,0,0:0:0:0:
149,191,62750,5,4,1:2:0:0:
154,156,62829,5,8,0:0:0:0:
43,75,62987,1,4,1:2:0:0:
217,256,63145,6,0,L|300:341,1,105,6|0,1:0|0:0,0:0:0:0:
290,331,63461,2,0,P|297:282|293:251,1,70,8|0,0:0|0:0,0:0:0:0:
149,191,63777,1,0,0:0:0:0:
351,161,63935,2,0,L|423:146,1,70,2|10,1:2|0:0,0:0:0:0:
149,191,64250,1,2,1:2:0:0:
149,191,64329,1,0,0:0:0:0:
149,191,64408,6,0,L|214:257,1,70,2|0,1:2|0:0,0:0:0:0:
219,103,64724,2,0,P|189:86|127:82,1,70,8|0,0:0|1:0,0:0:0:0:
89,286,65040,1,2,0:0:0:0:
89,286,65119,1,0,0:0:0:0:
89,286,65198,2,0,P|119:303|181:307,1,70,2|8,1:2|0:0,0:0:0:0:
303,220,65514,1,2,1:2:0:0:
303,220,65593,1,0,0:0:0:0:
303,220,65672,6,0,P|269:218|211:240,1,70,2|0,1:2|0:0,0:0:0:0:
396,381,65987,2,0,P|430:384|488:361,1,70,8|0,0:0|0:0,0:0:0:0:
231,371,66303,1,0,0:0:0:0:
199,356,66381,1,0,0:0:0:0:
173,332,66460,1,2,1:2:0:0:
303,220,66619,1,10,0:0:0:0:
178,104,66777,1,2,0:0:0:0:
204,80,66856,1,0,0:0:0:0:
236,65,66934,1,0,1:0:0:0:
303,220,67092,5,0,0:0:0:0:
160,220,67250,1,8,0:0:0:0:
306,259,67408,2,0,P|292:306|267:353,1,70,4|0,0:0|0:0,0:0:0:0:
154,180,67724,2,0,P|164:146|177:114,1,70,4|8,1:2|0:0,0:0:0:0:
338,237,68040,1,0,0:0:0:0:
174,256,68198,6,0,L|69:267,1,105,0|0,1:0|0:0,0:0:0:0:
38,272,68514,1,8,0:0:0:0:
219,369,68671,1,0,0:0:0:0:
345,176,68829,1,0,0:0:0:0:
345,176,68908,1,0,0:0:0:0:
345,176,68987,6,0,P|351:131|351:99,1,70,2|10,1:2|0:0,0:0:0:0:
391,274,69303,1,2,1:2:0:0:
391,274,69382,1,0,0:0:0:0:
391,274,69461,2,0,P|415:235|428:206,1,70,2|0,1:2|0:0,0:0:0:0:
388,381,69777,2,0,P|426:356|450:336,1,70,8|0,0:0|1:0,0:0:0:0:
219,369,70092,5,2,0:0:0:0:
213,206,70250,2,0,L|211:118,1,70,2|8,1:2|0:0,0:0:0:0:
117,316,70566,1,2,1:2:0:0:
111,153,70724,2,0,L|109:65,1,70,2|0,1:2|0:0,0:0:0:0:
17,264,71040,1,8,0:0:0:0:
213,206,71198,1,0,0:0:0:0:
410,151,71356,5,0,0:0:0:0:
410,151,71435,1,0,0:0:0:0:
410,151,71514,2,0,P|421:200|422:234,1,70,2|10,1:2|0:0,0:0:0:0:
271,335,71829,2,0,L|295:275,2,35,2|0|0,0:0|0:0|1:0,0:0:0:0:
410,151,72145,5,0,0:0:0:0:
213,206,72303,1,8,0:0:0:0:
422,179,72461,2,0,P|419:214|411:248,1,70,4|0,0:0|0:0,0:0:0:0:
200,177,72777,2,0,P|203:142|211:108,1,70,2|8,1:2|0:0,0:0:0:0:
352,165,73092,1,4,0:0:0:0:
130,234,73250,6,0,L|23:264,1,105,6|0,1:0|0:0,0:0:0:0:
28,262,73566,2,0,L|78:187,1,70,8|0,0:0|0:0,0:0:0:0:
178,335,73882,2,0,L|244:374,1,70,0|2,0:0|1:2,0:0:0:0:
288,243,74198,2,0,L|322:150,1,70,10|2,0:0|1:2,0:0:0:0:
406,296,74514,6,0,L|436:370,1,70,2|0,1:2|0:0,0:0:0:0:
453,168,74829,2,0,L|467:95,1,70,8|0,0:0|1:0,0:0:0:0:
288,243,75145,1,2,0:0:0:0:
288,243,75224,1,0,0:0:0:0:
288,243,75303,2,0,P|289:206|268:158,1,70,2|8,1:2|0:0,0:0:0:0:
117,291,75619,1,2,1:2:0:0:
117,291,75698,1,0,0:0:0:0:
117,291,75777,6,0,P|148:310|200:316,1,70,2|0,1:2|0:0,0:0:0:0:
161,119,76092,2,0,P|128:136|97:178,1,70,8|0,0:0|0:0,0:0:0:0:
288,243,76408,1,0,0:0:0:0:
288,243,76487,1,0,0:0:0:0:
288,243,76566,2,0,P|320:225|351:183,1,70,2|10,1:2|0:0,0:0:0:0:
347,51,76882,1,2,0:0:0:0:
316,67,76961,1,0,0:0:0:0:
291,91,77039,1,0,1:0:0:0:
415,219,77198,5,0,0:0:0:0:
226,155,77356,1,8,0:0:0:0:
428,211,77514,2,0,P|436:167|424:110,1,70,4|0,0:0|0:0,0:0:0:0:
213,165,77829,2,0,P|205:209|217:266,1,70,4|8,1:2|0:0,0:0:0:0:
347,51,78145,1,0,0:0:0:0:
314,240,78303,6,0,L|292:349,1,105,0|0,1:0|0:0,0:0:0:0:
293,342,78619,2,0,P|268:322|243:283,1,70,8|0,0:0|0:0,0:0:0:0:
432,179,78935,1,0,0:0:0:0:
432,179,79014,1,0,0:0:0:0:
432,179,79092,2,0,L|337:166,1,70,2|10,1:2|0:0,0:0:0:0:
165,109,79408,1,2,1:2:0:0:
165,109,79487,1,0,0:0:0:0:
165,109,79566,6,0,P|183:149|188:175,1,70,2|0,1:2|0:0,0:0:0:0:
76,318,79882,2,0,P|58:278|53:252,1,70,8|0,0:0|1:0,0:0:0:0:
308,193,80198,1,2,0:0:0:0:
308,193,80277,1,0,0:0:0:0:
308,193,80356,2,0,L|377:202,1,70,2|8,1:2|0:0,0:0:0:0:
225,299,80671,5,2,1:2:0:0:
225,299,80750,1,0,0:0:0:0:
225,299,80829,1,2,1:2:0:0:
316,285,80987,1,4,0:3:0:0:
144,264,81145,5,8,1:2:0:0:
53,230,81303,1,0,0:0:0:0:
217,184,81461,5,4,1:2:0:0:
308,170,81619,1,2,1:2:0:0:
136,149,81777,5,10,1:2:0:0:
45,115,81935,2,0,L|34:155,2,35,6|0|0,1:2|1:0|1:0,0:0:0:0:
53,253,82250,6,0,P|65:293|79:325,1,70,2|12,0:0|1:2,0:0:0:0:
217,184,82566,1,2,0:0:0:0:
206,368,82724,2,0,P|259:374|321:366,1,105,4|4,1:0|1:2,0:0:0:0:
337,351,83040,1,8,0:0:0:0:
122,253,83198,1,4,1:2:0:0:
308,193,83356,5,6,1:0:0:0:
308,193,83671,2,0,L|316:136,1,52.5000020027161,8|0,0:0|0:0,0:0:0:0:
328,42,83987,1,0,0:0:0:0:
192,200,84145,2,0,L|237:152,2,52.5000020027161,0|2|0,0:0|0:0|0:0,0:0:0:0:
340,276,84619,2,0,L|399:301,1,52.5000020027161
229,312,84935,2,0,L|292:323,1,52.5000020027161,0|2,0:0|0:0,0:0:0:0:
130,372,85250,2,0,L|193:368,1,52.5000020027161,4|4,0:0|0:0,0:0:0:0:
90,255,85566,1,2,0:0:0:0:
55,329,85724,1,4,0:0:0:0:
149,196,85882,1,0,1:0:0:0:
149,196,86198,6,0,L|130:147,1,52.5000020027161,8|0,0:0|0:0,0:0:0:0:
227,102,86514,2,0,L|230:155,1,52.5000020027161,0|0,0:0|0:0,0:0:0:0:
321,137,86829,2,0,L|334:86,1,52.5000020027161,2|0,0:0|0:0,0:0:0:0:
457,73,87145,2,0,L|429:118,2,52.5000020027161,0|0|0,0:0|0:0|0:0,0:0:0:0:
365,203,87619,1,2,0:0:0:0:
448,261,87777,2,0,P|450:300|445:338,1,52.5000020027161,4|4,0:0|0:0,0:0:0:0:
280,313,88092,1,2,0:0:0:0:
449,313,88250,1,4,0:0:0:0:
280,313,88408,1,0,1:0:0:0:
280,313,88724,6,0,P|277:278|279:255,1,52.5000020027161,8|0,0:0|0:0,0:0:0:0:
396,168,89040,2,0,P|367:188|346:197,1,52.5000020027161
212,139,89356,2,0,P|243:153|262:167,1,52.5000020027161,2|0,0:0|0:0,0:0:0:0:
280,313,89671,2,0,P|249:299|230:285,1,52.5000020027161
134,171,89987,5,0,0:0:0:0:
212,139,90145,1,2,0:0:0:0:
201,222,90303,1,4,0:0:0:0:
129,250,90461,5,4,0:0:0:0:
145,95,90619,1,2,0:0:0:0:
270,184,90777,1,4,0:0:0:0:
132,101,90935,5,0,1:0:0:0:
258,177,91092,1,0,0:0:0:0:
106,247,91250,2,0,L|57:269,1,52.5000020027161
218,276,91566,2,0,L|154:304,1,52.5000020027161
321,239,91882,1,2,0:0:0:0:
396,277,92040,1,0,0:0:0:0:
245,203,92198,2,0,L|198:179,1,52.5000020027161
321,239,92514,1,0,0:0:0:0:
309,102,92672,2,0,L|314:155,2,52.5000020027161,2|4|4,0:0|0:0|0:0,0:0:0:0:
326,323,93145,1,2,0:0:0:0:
396,277,93303,1,4,0:0:0:0:
251,286,93461,1,0,1:0:0:0:
251,286,93777,6,0,P|240:309|233:334,1,52.5000020027161,8|0,0:0|0:0,0:0:0:0:
248,206,94092,2,0,P|234:185|215:166,1,52.5000020027161
319,243,94408,2,0,P|345:241|370:234,1,52.5000020027161,2|0,0:0|0:0,0:0:0:0:
182,249,94724,1,0,0:0:0:0:
251,286,94882,1,0,0:0:0:0:
248,206,95040,1,0,0:0:0:0:
185,328,95198,1,2,0:0:0:0:
178,170,95356,2,0,P|154:154|126:147,1,52.5000020027161,4|4,0:0|0:0,0:0:0:0:
312,160,95671,2,0,P|336:147|365:143,1,52.5000020027161,2|4,0:0|0:0,0:0:0:0:
131,147,95987,1,0,1:0:0:0:
131,147,96303,6,0,L|95:93,1,52.5000020027161,8|0,0:0|0:0,0:0:0:0:
216,40,96619,2,0,L|223:91,1,52.5000020027161
312,160,96935,2,0,L|330:97,1,52.5000020027161,2|0,0:0|0:0,0:0:0:0:
459,95,97250,2,0,L|424:134,2,52.5000020027161
439,244,97724,1,2,0:0:0:0:
312,160,97882,2,0,L|256:115,1,52.5000020027161,4|4,0:0|0:0,0:0:0:0:
285,237,98198,2,0,L|210:226,1,52.5000020027161,2|4,0:0|0:0,0:0:0:0:
439,244,98514,1,0,1:0:0:0:
439,244,98829,6,0,P|442:287|439:312,1,52.5000020027161,8|0,0:0|0:0,0:0:0:0:
284,370,99145,2,0,P|281:327|284:302,1,52.5000020027161,0|0,0:0|0:0,0:0:0:0:
158,146,99461,2,0,P|133:156|111:170,1,52.5000020027161,2|0,0:0|0:0,0:0:0:0:
58,300,99777,1,0,0:0:0:0:
185,228,99935,1,0,0:0:0:0:
307,307,100092,1,0,0:0:0:0:
434,235,100250,1,2,0:0:0:0:
308,161,100408,2,0,L|246:123,1,52.5000020027161,4|4,0:0|0:0,0:0:0:0:
185,228,100724,2,0,L|148:277,1,52.5000020027161,2|4,0:0|0:0,0:0:0:0:
97,154,101040,6,0,L|69:94,1,52.5000020027161,0|0,1:0|0:0,0:0:0:0:
185,228,101356,1,8,0:0:0:0:
308,161,101514,1,0,0:0:0:0:
434,235,101671,2,0,L|492:273,1,52.5000020027161
308,161,101987,2,0,L|344:219,1,52.5000020027161,2|0,0:0|0:0,0:0:0:0:
237,33,102303,2,0,L|245:101,1,52.5000020027161
258,264,102619,5,0,0:0:0:0:
364,307,102777,1,2,0:0:0:0:
414,204,102935,1,4,0:0:0:0:
308,161,103092,1,4,0:0:0:0:
364,307,103250,1,2,0:0:0:0:
308,161,103408,1,4,0:0:0:0:
364,307,103566,6,0,P|396:300|459:264,1,94.499997116089,6|0,1:0|0:0,0:0:0:0:
469,250,103882,1,8,0:0:0:0:
256,117,104040,1,0,0:0:0:0:
164,273,104198,2,0,L|132:329,1,62.9999980773926,2|0,0:0|1:0,0:0:0:0:
364,307,104514,1,8,0:0:0:0:
200,187,104671,2,0,P|159:177|109:178,1,62.9999980773926,2|0,0:0|1:0,0:0:0:0:
312,187,104987,2,0,P|352:177|402:178,1,62.9999980773926,0|8,0:0|0:0,0:0:0:0:
153,72,105303,2,0,P|110:80|65:102,1,62.9999980773926,2|0,0:0|0:0,0:0:0:0:
360,72,105619,2,0,P|401:80|446:102,1,62.9999980773926,2|8,1:0|0:0,0:0:0:0:
256,98,105935,1,0,0:0:0:0:
163,273,106092,6,0,L|116:358,1,94.499997116089,0|0,1:0|0:0,0:0:0:0:
117,355,106408,2,0,P|98:315|90:268,1,62.9999980773926,8|0,0:0|0:0,0:0:0:0:
281,317,106724,2,0,P|255:354|218:384,1,62.9999980773926,2|0,0:0|1:0,0:0:0:0:
242,366,106935,2,0,P|219:373|193:372,1,41.9999987182618,2|8,0:0|0:0,0:0:0:0:
258,229,107198,1,2,0:0:0:0:
372,289,107356,2,0,P|361:330|343:368,1,83.9999974365235,2|2,1:2|1:2,0:0:0:0:
326,384,107672,1,8,0:0:0:0:
321,173,107829,1,2,1:2:0:0:
438,207,107987,2,0,P|449:250|449:298,1,62.9999980773926,2|0,0:0|1:0,0:0:0:0:
449,268,108198,2,0,L|477:225,1,41.9999987182618,2|8,0:0|0:0,0:0:0:0:
372,106,108461,1,6,0:0:0:0:
170,208,108619,6,0,L|86:253,1,94.499997116089,0|0,1:0|0:0,0:0:0:0:
86,252,108935,2,0,P|75:209|75:161,1,62.9999980773926,8|0,0:0|0:0,0:0:0:0:
43,324,109250,2,0,P|62:363|94:399,1,62.9999980773926,2|0,0:0|1:0,0:0:0:0:
283,366,109566,1,8,0:0:0:0:
192,291,109724,1,2,0:0:0:0:
192,291,109803,1,0,0:0:0:0:
192,291,109882,1,2,1:2:0:0:
305,286,110040,2,0,L|381:282,1,62.9999980773926,0|8,0:0|0:0,0:0:0:0:
260,202,110356,2,0,L|302:150,1,62.9999980773926,2|0,0:0|0:0,0:0:0:0:
168,185,110671,2,0,L|155:121,2,62.9999980773926,0|8|2,1:0|0:0|0:0,0:0:0:0:
283,366,111145,6,0,P|334:365|396:351,1,94.499997116089,0|0,1:0|0:0,0:0:0:0:
400,340,111461,5,8,0:0:0:0:
455,226,111619,1,2,0:0:0:0:
329,235,111777,1,2,0:0:0:0:
460,298,111935,5,0,1:0:0:0:
389,194,112092,1,8,0:0:0:0:
334,308,112250,1,2,0:0:0:0:
449,153,112408,5,0,1:0:0:0:
269,276,112566,1,2,0:0:0:0:
466,371,112724,1,8,0:0:0:0:
325,163,112882,5,2,1:2:0:0:
460,298,113040,1,2,0:0:0:0:
325,163,113198,1,0,1:0:0:0:
200,251,113356,6,2,P|198:302|205:338,1,72.4500001105499,12|0,0:0|0:0,0:0:0:0:
261,205,113671,6,0,P|247:132|224:71,1,105,4|0,1:0|0:0,0:0:0:0:
217,81,113987,1,8,0:0:0:0:
200,251,114145,1,0,0:0:0:0:
376,297,114303,2,0,L|440:313,1,62.9999980773926,2|0,0:0|1:0,0:0:0:0:
200,348,114619,1,8,0:0:0:0:
376,297,114777,2,0,L|439:273,1,62.9999980773926,2|0,0:0|1:0,0:0:0:0:
200,251,115092,2,0,L|137:221,1,62.9999980773926,0|8,0:0|0:0,0:0:0:0:
376,200,115408,2,0,L|442:160,1,62.9999980773926,2|0,0:0|0:0,0:0:0:0:
200,145,115724,2,0,L|133:93,1,62.9999980773926,4|8,1:2|0:0,0:0:0:0:
376,97,116040,1,0,0:0:0:0:
200,251,116198,6,0,L|130:315,1,94.499997116089,0|0,1:0|0:0,0:0:0:0:
130,314,116514,2,0,P|118:282|114:239,1,62.9999980773926,8|0,0:0|0:0,0:0:0:0:
303,279,116829,2,0,L|283:338,1,62.9999980773926,2|0,0:0|1:0,0:0:0:0:
282,338,117040,2,0,L|221:346,1,41.9999987182618,2|8,0:0|0:0,0:0:0:0:
254,186,117303,1,2,0:0:0:0:
377,249,117461,2,0,L|401:330,1,83.9999974365235,2|2,1:2|1:2,0:0:0:0:
410,357,117777,1,8,0:0:0:0:
305,133,117935,1,2,1:2:0:0:
449,205,118092,2,0,L|481:258,1,62.9999980773926,2|0,0:0|1:0,0:0:0:0:
481,258,118303,2,0,L|501:209,1,41.9999987182618,2|8,0:0|0:0,0:0:0:0:
374,105,118566,1,6,0:0:0:0:
254,186,118724,6,0,P|201:188|131:175,1,94.499997116089,0|0,1:0|0:0,0:0:0:0:
160,182,119040,2,0,L|181:267,1,62.9999980773926,8|0,0:0|0:0,0:0:0:0:
349,156,119356,2,0,L|328:240,1,62.9999980773926,2|0,0:0|1:0,0:0:0:0:
161,111,119671,2,0,L|181:195,1,62.9999980773926,8|2,0:0|0:0,0:0:0:0:
176,172,119908,1,0,0:0:0:0:
176,172,119987,1,2,1:2:0:0:
348,84,120145,2,0,L|327:168,1,62.9999980773926,2|8,0:0|0:0,0:0:0:0:
484,200,120461,2,0,L|444:260,1,62.9999980773926,0|2,0:0|0:0,0:0:0:0:
318,338,120777,2,0,L|339:260,2,62.9999980773926,0|8|2,1:0|0:0|0:0,0:0:0:0:
199,290,121250,6,0,P|154:279|88:282,1,94.499997116089,0|0,1:0|0:0,0:0:0:0:
80,292,121566,5,8,0:0:0:0:
201,363,121724,1,2,0:0:0:0:
204,220,121882,1,2,0:0:0:0:
120,362,122040,5,0,1:0:0:0:
245,291,122197,1,8,0:0:0:0:
121,218,122356,1,2,0:0:0:0:
285,363,122513,5,0,1:0:0:0:
163,148,122671,1,2,0:0:0:0:
36,362,122829,1,8,0:0:0:0:
286,224,122987,5,2,1:2:0:0:
39,216,123145,1,2,0:0:0:0:
246,147,123303,5,2,1:2:0:0:
80,292,123461,1,6,0:0:0:0:
256,192,123777,12,0,126145,0:0:0:0:
395,302,126303,6,0,P|351:243|328:196,1,105,4|0,1:0|0:0,0:0:0:0:
337,215,126619,2,0,P|335:177|326:137,1,70,8|0,0:0|0:0,0:0:0:0:
128,156,126935,1,0,0:0:0:0:
323,125,127092,1,2,1:2:0:0:
131,177,127250,1,10,0:0:0:0:
314,104,127408,1,2,1:2:0:0:
137,197,127566,6,0,P|152:233|181:261,1,70,2|0,1:2|0:0,0:0:0:0:
104,369,127882,2,0,P|71:366|28:357,1,70,8|0,0:0|0:0,0:0:0:0:
278,323,128198,1,2,0:0:0:0:
285,323,128277,1,0,0:0:0:0:
292,322,128356,2,0,P|323:299|346:266,1,70,2|8,1:2|0:0,0:0:0:0:
144,185,128671,1,2,1:2:0:0:
140,191,128750,1,0,0:0:0:0:
137,197,128829,6,0,P|141:235|158:271,1,70,2|0,1:2|0:0,0:0:0:0:
316,116,129145,2,0,P|280:100|240:97,1,70,8|0,0:0|0:0,0:0:0:0:
335,196,129461,1,0,0:0:0:0:
366,195,129540,1,0,0:0:0:0:
397,194,129619,1,2,1:2:0:0:
235,196,129777,1,10,0:0:0:0:
335,323,129935,2,0,L|303:287,2,35,2|0|0,0:0|0:0|1:0,0:0:0:0:
235,196,130250,5,0,0:0:0:0:
406,277,130408,1,8,0:0:0:0:
229,209,130566,2,0,P|211:240|201:296,1,70,4|0,0:0|0:0,0:0:0:0:
411,263,130882,2,0,P|429:232|439:176,1,70,4|8,1:2|0:0,0:0:0:0:
273,354,131198,1,0,0:0:0:0:
335,196,131356,6,0,L|374:85,1,105,0|0,1:0|0:0,0:0:0:0:
369,96,131671,2,0,L|412:152,1,70,8|0,0:0|0:0,0:0:0:0:
273,164,131987,1,0,0:0:0:0:
303,180,132065,1,0,0:0:0:0:
334,196,132145,1,2,1:2:0:0:
156,198,132303,1,10,0:0:0:0:
242,295,132461,2,0,L|266:320,1,35,2|0,1:2|0:0,0:0:0:0:
349,297,132619,2,0,L|418:299,1,70,2|0,1:2|0:0,0:0:0:0:
77,358,132935,6,0,P|51:308|46:278,1,70,8|0,0:0|0:0,0:0:0:0:
138,169,133250,2,0,P|164:219|169:249,1,70,2|2,0:0|1:2,0:0:0:0:
57,95,133566,1,8,0:0:0:0:
176,89,133724,2,0,L|185:56,1,35,2|0,1:2|0:0,0:0:0:0:
198,123,133882,6,0,P|233:122|267:111,1,70,2|0,1:2|0:0,0:0:0:0:
409,151,134198,2,0,P|376:138|342:134,1,70,8|0,0:0|0:0,0:0:0:0:
355,291,134514,1,0,0:0:0:0:
359,297,134592,1,0,0:0:0:0:
365,301,134671,2,0,P|395:284|421:261,1,70,2|10,1:2|0:0,0:0:0:0:
253,301,134987,1,2,0:0:0:0:
232,329,135065,1,0,0:0:0:0:
218,361,135144,1,0,1:0:0:0:
355,290,135303,5,0,0:0:0:0:
169,251,135461,1,8,0:0:0:0:
355,290,135619,2,0,P|391:290|426:284,1,70,4|0,0:0|0:0,0:0:0:0:
169,251,135935,2,0,P|133:251|98:257,2,70,2|8|4,1:2|0:0|0:0,0:0:0:0:
73,145,136408,6,0,P|62:100|55:36,1,105,6|0,1:0|0:0,0:0:0:0:
55,41,136724,2,0,P|36:77|1:107,1,70,8|0,0:0|0:0,0:0:0:0:
210,81,137040,1,0,0:0:0:0:
214,75,137119,1,0,0:0:0:0:
219,70,137198,2,0,P|263:45|304:40,1,70,2|10,1:2|0:0,0:0:0:0:
344,180,137514,1,2,1:2:0:0:
340,186,137592,1,0,0:0:0:0:
335,191,137672,2,0,P|291:216|250:221,1,70,2|0,1:2|0:0,0:0:0:0:
60,219,137987,6,0,L|140:193,1,70,8|0,0:0|0:0,0:0:0:0:
175,311,138303,2,0,L|245:353,1,70,2|2,0:0|1:2,0:0:0:0:
272,221,138619,2,0,L|285:143,1,70,8|2,0:0|1:2,0:0:0:0:
296,145,138856,1,0,0:0:0:0:
308,138,138935,2,0,P|267:138|200:126,1,105,2|0,1:2|0:0,0:0:0:0:
174,117,139250,5,8,0:0:0:0:
140,220,139408,1,0,0:0:0:0:
272,221,139566,1,0,0:0:0:0:
207,187,139724,1,2,1:2:0:0:
173,290,139882,1,10,0:0:0:0:
305,291,140040,1,2,0:0:0:0:
312,293,140119,1,0,0:0:0:0:
319,292,140198,2,0,P|359:263|377:240,2,70,0|0|8,1:0|0:0|0:0,0:0:0:0:
108,171,140671,6,0,P|90:117|91:101,1,70,4|0,0:0|0:0,0:0:0:0:
173,290,140987,2,0,P|190:343|189:359,1,70,4|8,1:2|0:0,0:0:0:0:
37,287,141303,1,0,0:0:0:0:
230,182,141461,6,0,P|292:173|362:182,1,105,0|0,1:0|0:0,0:0:0:0:
334,175,141777,2,0,P|308:148|301:103,1,70,8|0,0:0|0:0,0:0:0:0:
256,269,142092,2,0,P|221:255|195:217,1,70,0|2,0:0|1:2,0:0:0:0:
382,107,142408,1,10,0:0:0:0:
151,102,142566,2,0,L|158:136,1,35,2|0,1:2|0:0,0:0:0:0:
126,208,142724,6,0,P|88:209|15:194,1,105,2|0,1:2|0:0,0:0:0:0:
22,196,143040,2,0,L|37:286,1,70,8|0,0:0|0:0,0:0:0:0:
151,102,143356,1,2,0:0:0:0:
154,103,143435,1,0,0:0:0:0:
157,104,143514,2,0,L|143:176,1,70,2|8,1:2|0:0,0:0:0:0:
232,339,143829,5,0,0:0:0:0:
228,339,143908,1,0,0:0:0:0:
225,339,143987,2,0,L|207:267,1,70,0|4,1:0|0:3,0:0:0:0:
267,116,144303,2,0,L|253:188,1,70,8|0,1:2|0:0,0:0:0:0:
335,351,144619,2,0,L|317:279,1,70,4|2,1:2|1:2,0:0:0:0:
267,116,144935,1,10,1:2:0:0:
416,138,145092,1,4,0:0:0:0:
438,160,145171,1,0,0:0:0:0:
453,187,145250,1,0,1:0:0:0:
335,351,145408,5,2,0:0:0:0:
286,183,145566,2,0,L|266:112,1,70,12|2,1:2|0:0,0:0:0:0:
105,257,145882,5,4,1:0:0:0:
76,296,145960,5,2,0:0:0:0:
103,336,146039,5,0,0:0:0:0:
151,323,146118,5,4,1:2:0:0:
151,273,146197,5,8,0:0:0:0:
1,298,146356,1,2,1:0:0:0:
227,298,146514,6,0,L|331:296,1,105,6|0,1:0|0:0,0:0:0:0:
363,295,146829,1,8,0:0:0:0:
228,348,146987,1,0,0:0:0:0:
363,295,147145,1,0,0:0:0:0:
225,248,147303,1,2,1:2:0:0:
360,195,147461,1,10,0:0:0:0:
222,148,147619,1,2,1:2:0:0:
216,152,147698,1,0,0:0:0:0:
210,156,147777,6,0,P|173:192|154:230,1,70,2|0,1:2|0:0,0:0:0:0:
50,301,148092,2,0,P|52:266|64:233,1,70,8|0,0:0|1:0,0:0:0:0:
156,367,148408,2,0,P|143:334|139:299,1,70,2|2,0:0|1:2,0:0:0:0:
278,383,148724,2,0,P|252:358|234:328,1,70,8|2,0:0|1:2,0:0:0:0:
234,329,148961,1,0,0:0:0:0:
234,329,149040,1,2,1:2:0:0:
395,379,149198,5,0,0:0:0:0:
384,229,149356,2,0,L|379:159,1,70,8|0,0:0|0:0,0:0:0:0:
303,260,149671,2,0,L|261:203,1,70,0|2,0:0|1:2,0:0:0:0:
252,331,149987,2,0,L|179:299,1,70,10|2,0:0|0:0,0:0:0:0:
26,231,150303,6,0,P|79:204|154:197,1,105,0|2,1:0|1:2,0:0:0:0:
155,200,150619,1,8,0:0:0:0:
81,100,150777,2,0,P|52:58|37:21,1,70,6|0,1:2|1:0,0:0:0:0:
248,180,151092,2,0,L|282:171,1,35,4|2,0:0|1:2,0:0:0:0:
374,144,151250,1,8,0:0:0:0:
218,271,151408,1,2,1:2:0:0:
218,271,151487,1,0,0:0:0:0:
218,271,151566,6,0,L|195:166,1,105,0|0,1:0|0:0,0:0:0:0:
195,168,151882,2,0,P|152:191|128:219,1,70,8|0,0:0|0:0,0:0:0:0:
302,127,152198,1,0,0:0:0:0:
104,139,152356,1,2,1:2:0:0:
302,127,152514,1,10,0:0:0:0:
127,231,152671,1,2,1:2:0:0:
372,190,152829,6,0,P|398:146|408:75,1,105,2|0,1:2|0:0,0:0:0:0:
408,93,153145,2,0,L|446:160,1,70,8|0,0:0|1:0,0:0:0:0:
285,205,153461,1,2,0:0:0:0:
285,205,153540,1,0,0:0:0:0:
285,205,153619,2,0,L|341:256,1,70,2|8,1:2|0:0,0:0:0:0:
192,333,153935,1,2,1:2:0:0:
192,333,154014,1,0,0:0:0:0:
192,333,154093,2,0,L|261:364,1,70,2|0,1:2|0:0,0:0:0:0:
70,233,154408,6,0,P|50:280|42:324,1,70,8|0,0:0|0:0,0:0:0:0:
153,185,154724,1,0,0:0:0:0:
165,161,154802,1,0,0:0:0:0:
170,135,154881,1,2,1:2:0:0:
124,34,155040,1,10,0:0:0:0:
264,102,155198,2,0,L|305:108,1,35,2|0,0:0|0:0,0:0:0:0:
410,113,155356,6,0,P|461:114|495:109,1,70,0|0,1:0|0:0,0:0:0:0:
340,205,155671,1,8,0:0:0:0:
480,112,155829,2,0,P|468:73|448:41,1,70,4|0,0:0|0:0,0:0:0:0:
340,205,156145,2,0,P|352:244|372:276,1,70,2|8,1:2|0:0,0:0:0:0:
341,85,156461,1,4,0:0:0:0:
254,235,156619,6,0,L|205:328,1,105,6|0,1:0|0:0,0:0:0:0:
205,327,156935,2,0,L|186:242,1,70,8|0,0:0|0:0,0:0:0:0:
340,205,157250,1,0,0:0:0:0:
158,124,157408,1,2,1:2:0:0:
342,131,157566,1,10,0:0:0:0:
216,78,157724,1,2,1:2:0:0:
216,78,157803,1,0,0:0:0:0:
216,78,157882,1,0,1:0:0:0:
342,279,158040,5,0,0:0:0:0:
99,169,158198,1,8,0:0:0:0:
340,205,158356,1,0,1:0:0:0:
158,124,158514,1,2,0:0:0:0:
342,131,158671,2,0,P|388:140|416:157,1,70,2|8,1:2|0:0,0:0:0:0:
252,280,158987,1,2,1:2:0:0:
238,247,159066,1,0,0:0:0:0:
236,212,159146,1,2,1:2:0:0:
348,350,159303,5,0,0:0:0:0:
341,205,159461,2,0,P|345:157|360:128,1,70,8|0,0:0|0:0,0:0:0:0:
201,384,159777,2,0,P|176:360|159:330,1,70,0|2,0:0|1:2,0:0:0:0:
205,90,160092,2,0,P|230:113|249:142,1,70,10|2,0:0|0:0,0:0:0:0:
58,296,160408,6,0,P|42:237|51:162,1,105,0|2,1:0|1:2,1:0:0:0:
54,161,160724,1,8,0:0:0:0:
250,143,160882,2,0,P|242:193|228:230,1,70,6|0,1:2|1:0,0:0:0:0:
321,245,161198,2,0,L|351:226,1,35,4|2,0:0|1:2,0:0:0:0:
431,175,161355,1,8,0:0:0:0:
256,322,161514,1,2,1:2:0:0:
256,322,161592,1,0,0:0:0:0:
256,322,161671,6,0,L|163:382,1,105,0|0,1:0|0:0,0:0:0:0:
167,378,161987,2,0,P|169:319|184:284,1,70,8|0,0:0|0:0,0:0:0:0:
287,215,162303,1,0,0:0:0:0:
99,230,162461,1,2,1:2:0:0:
256,322,162619,1,10,0:0:0:0:
188,163,162777,1,2,1:2:0:0:
144,333,162935,6,0,P|103:321|75:301,1,70,2|0,1:2|0:0,0:0:0:0:
342,288,163250,2,0,P|364:252|372:218,1,70,8|0,0:0|1:0,0:0:0:0:
188,163,163566,1,2,0:0:0:0:
188,163,163645,1,0,0:0:0:0:
188,163,163724,1,2,1:2:0:0:
256,322,163882,1,8,0:0:0:0:
99,230,164040,1,2,1:2:0:0:
99,230,164119,1,0,0:0:0:0:
99,230,164198,1,2,1:2:0:0:
287,215,164356,5,4,0:3:0:0:
144,333,164514,1,8,1:2:0:0:
188,163,164671,1,0,0:0:0:0:
256,322,164829,2,0,P|307:321|342:314,1,70,4|2,1:2|1:2,0:0:0:0:
469,178,165145,2,0,P|418:179|383:186,1,70,10|4,1:2|0:0,0:0:0:0:
188,163,165461,5,0,1:0:0:0:
218,140,165540,1,0,1:0:0:0:
241,110,165619,1,2,0:0:0:0:
81,146,165777,1,12,1:2:0:0:
261,78,165935,1,2,0:0:0:0:
81,146,166092,2,0,P|106:221|131:261,1,105,4|4,1:0|1:2,0:0:0:0:
140,265,166408,1,8,0:0:0:0:
7,292,166566,1,4,1:2:0:0:
272,240,166724,1,6,1:0:0:0:
