osu file format v14

[General]
AudioFilename: audio.mp3
AudioLeadIn: 0
PreviewTime: 290115
Countdown: 0
SampleSet: Soft
StackLeniency: 0.7
Mode: 0
LetterboxInBreaks: 0
WidescreenStoryboard: 1

[Editor]
DistanceSpacing: 0.8
BeatDivisor: 4
GridSize: 4
TimelineZoom: 1

[Metadata]
Title:Vagueness & JOURNEY
TitleUnicode:Vagueness & JOURNEY
Artist:FELT
ArtistUnicode:FELT
Creator:SgtCataclyst
Version:My Journey
Source:東方緋想天 ~ Scarlet Weather Rhapsody
Tags:Japanese Video Game rock Touhou Project 東方Project 舞花 Maika Rising Nebula NAGI☆ Tenshi Hinanawi 比那名居 天子 有頂天変 ~ Wonderful Heaven Catastrophe in Bhavaagra comiket 92 c92 zun team shanghai alice tasofro twilight frontier swr
BeatmapID:2661937
BeatmapSetID:1281563

[Difficulty]
HPDrainRate:5
CircleSize:4
OverallDifficulty:8.8
ApproachRate:9.2
SliderMultiplier:1.9
SliderTickRate:1

[Events]
//Background and Video events
0,0,"zfjal5D.jpg",0,0
//Break Periods
2,6045,10464
2,270693,279004
//Storyboard Layer 0 (Background)
//Storyboard Layer 1 (Fail)
//Storyboard Layer 2 (Pass)
//Storyboard Layer 3 (Foreground)
//Storyboard Layer 4 (Overlay)
//Storyboard Sound Samples

[TimingPoints]
656,324.324324324324,4,2,1,40,1,0
656,-200,4,2,1,40,0,0
21412,-166.666666666667,4,2,1,40,0,0
31791,-142.857142857143,4,2,1,40,0,0
42169,-133.333333333333,4,2,1,45,0,0
62926,-100,4,2,1,55,0,0
83683,-166.666666666667,4,2,1,45,0,0
94061,-111.111111111111,4,2,1,50,0,0
99250,-83.3333333333333,4,2,1,60,0,0
101845,-250,4,2,1,40,0,0
104439,-100,4,2,1,55,0,0
104520,-100,4,2,1,5,0,0
104764,-100,4,2,1,55,0,0
105655,-100,4,2,1,5,0,0
105899,-100,4,2,1,55,0,0
105980,-100,4,2,1,5,0,0
106061,-100,4,2,1,55,0,0
107115,-100,4,2,1,5,0,0
107358,-100,4,2,1,55,0,0
108250,-100,4,2,1,5,0,0
108493,-100,4,2,1,55,0,0
108574,-100,4,2,1,5,0,0
108655,-100,4,2,1,55,0,0
109061,-100,4,2,1,5,0,0
109142,-100,4,2,1,55,0,0
109223,-100,4,2,1,5,0,0
109304,-100,4,2,1,55,0,0
109710,-100,4,2,1,5,0,0
109953,-100,4,2,1,55,0,0
110845,-100,4,2,1,5,0,0
111088,-100,4,2,1,55,0,0
111169,-100,4,2,1,5,0,0
111250,-100,4,2,1,55,0,0
112791,-100,4,2,1,5,0,0
112872,-100,4,2,1,55,0,0
113439,-100,4,2,1,5,0,0
113683,-100,4,2,1,55,0,0
113764,-100,4,2,1,5,0,0
113845,-100,4,2,1,55,0,0
114250,-100,4,2,1,5,0,0
114331,-100,4,2,1,55,0,0
114899,-100,4,2,1,5,0,0
115142,-100,4,2,1,55,0,0
116034,-100,4,2,1,5,0,0
116277,-100,4,2,1,55,0,0
116358,-100,4,2,1,5,0,0
116439,-100,4,2,1,55,0,0
117493,-100,4,2,1,5,0,0
117737,-100,4,2,1,55,0,0
118628,-100,4,2,1,5,0,0
118872,-100,4,2,1,55,0,0
118953,-100,4,2,1,5,0,0
119034,-100,4,2,1,55,0,0
119439,-100,4,2,1,5,0,0
119520,-100,4,2,1,55,0,0
120088,-100,4,2,1,5,0,0
120331,-100,4,2,1,55,0,0
121223,-100,4,2,1,5,0,0
121466,-100,4,2,1,55,0,0
121547,-100,4,2,1,5,0,0
121628,-100,4,2,1,55,0,0
123980,-100,4,2,1,5,0,0
124061,-100,4,2,1,55,0,0
124628,-100,4,2,1,5,0,0
124710,-100,4,2,1,55,0,0
125196,-166.666666666667,4,2,1,45,0,0
135574,-142.857142857143,4,2,1,50,0,0
140764,-100,4,2,1,60,0,0
145628,-500,4,2,1,40,0,0
145953,-71.4285714285714,4,2,1,70,0,1
165007,-71.4285714285714,4,2,1,5,0,1
165250,-71.4285714285714,4,2,1,70,0,1
165331,-71.4285714285714,4,2,1,5,0,1
166385,-500,4,2,1,40,0,1
166710,-100,4,2,1,55,0,0
166791,-100,4,2,1,5,0,0
167034,-100,4,2,1,55,0,0
167926,-100,4,2,1,5,0,0
168169,-100,4,2,1,55,0,0
168250,-100,4,2,1,5,0,0
169304,-100,4,2,1,55,0,0
169385,-100,4,2,1,5,0,0
169628,-100,4,2,1,55,0,0
170520,-100,4,2,1,5,0,0
170764,-100,4,2,1,55,0,0
170845,-100,4,2,1,5,0,0
171088,-100,4,2,1,55,0,0
171331,-100,4,2,1,5,0,0
171412,-100,4,2,1,55,0,0
171493,-100,4,2,1,5,0,0
171574,-100,4,2,1,55,0,0
171980,-100,4,2,1,5,0,0
172223,-100,4,2,1,55,0,0
173115,-100,4,2,1,5,0,0
173358,-100,4,2,1,55,0,0
173439,-100,4,2,1,5,0,0
174493,-100,4,2,1,55,0,0
175061,-100,4,2,1,5,0,0
175142,-100,4,2,1,55,0,0
175710,-100,4,2,1,5,0,0
175953,-100,4,2,1,55,0,0
176034,-100,4,2,1,5,0,0
176277,-100,4,2,1,55,0,0
176520,-100,4,2,1,5,0,0
176601,-100,4,2,1,55,0,0
177088,-83.3333333333333,4,2,1,60,0,0
178466,-83.3333333333333,4,2,1,5,0,0
178547,-83.3333333333333,4,2,1,60,0,0
181061,-83.3333333333333,4,2,1,5,0,0
181142,-83.3333333333333,4,2,1,60,0,0
183655,-83.3333333333333,4,2,1,5,0,0
183737,-83.3333333333333,4,2,1,60,0,0
184953,-83.3333333333333,4,2,1,5,0,0
185034,-83.3333333333333,4,2,1,60,0,0
186250,-83.3333333333333,4,2,1,5,0,0
186331,-83.3333333333333,4,2,1,60,0,0
186574,-83.3333333333333,4,2,1,5,0,0
186655,-83.3333333333333,4,2,1,60,0,0
186899,-83.3333333333333,4,2,1,5,0,0
186980,-83.3333333333333,4,2,1,60,0,0
187466,-166.666666666667,4,2,1,45,0,0
197845,-142.857142857143,4,2,1,50,0,0
203034,-100,4,2,1,60,0,0
207899,-500,4,2,1,40,0,0
208223,-71.4285714285714,4,2,1,70,0,1
227277,-71.4285714285714,4,2,1,5,0,1
227520,-71.4285714285714,4,2,1,70,0,1
227601,-71.4285714285714,4,2,1,5,0,1
228493,-71.4285714285714,4,2,1,70,0,1
228655,-500,4,2,1,40,0,1
228980,-142.857142857143,4,2,1,50,0,0
239358,-125,4,2,1,50,0,0
249737,-142.857142857143,4,2,1,50,0,0
260115,-125,4,2,1,55,0,0
260358,-125,4,2,1,5,0,0
260439,-125,4,2,1,55,0,0
261655,-125,4,2,1,5,0,0
261737,-125,4,2,1,55,0,0
262304,-125,4,2,1,5,0,0
262385,-125,4,2,1,55,0,0
263277,-125,4,2,1,5,0,0
263358,-125,4,2,1,55,0,0
263926,-125,4,2,1,5,0,0
264007,-125,4,2,1,55,0,0
265304,-100,4,2,1,55,0,0
268142,-100,4,2,1,5,0,0
268223,-100,4,2,1,55,0,0
270385,-100,4,2,1,5,0,0
270493,-166.666666666667,4,2,1,40,0,0
280791,-166.666666666667,4,2,1,5,0,0
280872,-166.666666666667,4,2,1,40,0,0
290926,-500.000000000003,4,2,1,40,0,0
291250,-71.4285714285714,4,2,1,75,0,1
310547,-83.3333333333333,4,2,1,70,0,0
311683,-500,4,2,1,40,0,0
312007,-71.4285714285714,4,2,1,75,0,1
322385,-83.3333333333333,4,2,1,60,0,0
330737,-83.3333333333333,4,2,1,5,0,0
330818,-83.3333333333333,4,2,1,60,0,0
331061,-83.3333333333333,4,2,1,5,0,0
331142,-83.3333333333333,4,2,1,60,0,0
332439,-142.857142857143,4,2,1,60,0,0
332683,-142.857142857143,4,2,1,5,0,0
332764,-142.857142857143,4,2,1,60,0,0

[Colours]
Combo1 : 0,117,234
Combo2 : 128,128,255
Combo3 : 193,0,193
Combo4 : 77,219,219

[HitObjects]
115,90,656,6,0,P|106:140|244:135,1,237.5,4|0,3:2|0:0,0:0:0:0:
295,46,1628,2,0,L|291:114,1,47.5
302,196,1953,2,0,P|324:160|417:193,1,142.5
443,273,2601,6,0,L|490:275,2,47.5
370,270,3088,1,0,0:0:0:0:
395,374,3250,6,0,B|344:299|283:383|236:295,2,190
80,63,5845,5,2,0:0:0:0:
472,5,11034,6,0,B|512:112|396:118|429:232,1,237.5,4|0,3:2|0:0,0:0:0:0:
455,317,12007,2,0,L|405:311,1,47.5
320,295,12331,1,0,0:0:0:0:
61,119,13142,6,0,L|67:170,2,47.5
52,16,13628,2,0,B|99:84|172:3|218:83,2,190
0,384,16223,5,2,0:0:0:0:
362,15,18818,5,2,0:0:0:0:
304,261,20115,5,2,0:0:0:0:
29,153,21412,6,0,B|62:226|-31:252|-23:333|19:357|86:365|109:296,1,284.999991302491,4|0,3:2|0:0,0:0:0:0:
117,187,22385,2,0,P|128:226|212:227,1,113.999996520996
273,153,22872,6,0,L|271:229,1,56.9999982604981
270,311,23196,1,0,0:0:0:0:
387,250,23358,6,0,L|384:316,2,56.9999982604981
391,172,23845,1,0,0:0:0:0:
479,42,24007,6,0,B|421:63|362:25|362:25|328:32|287:98,2,227.999993041992
377,169,25628,5,0,0:0:0:0:
384,271,25791,2,0,P|416:260|446:264,1,56.9999982604981
282,238,26115,5,0,0:0:0:0:
275,340,26278,2,0,P|243:329|213:333,1,56.9999982604981
61,365,26601,6,0,P|86:331|92:242,1,113.999996520996,2|0,0:0|0:0,0:0:0:0:
38,177,27088,5,0,0:0:0:0:
20,81,27250,2,0,P|58:87|92:81,1,56.9999982604981
215,125,27574,5,0,0:0:0:0:
233,29,27736,2,0,P|195:35|161:29,1,56.9999982604981
271,129,28061,2,0,P|243:123|214:124,2,56.9999982604981
380,161,28547,5,0,0:0:0:0:
451,81,28710,2,0,P|453:120|469:160,1,56.9999982604981
429,234,29034,5,0,0:0:0:0:
447,330,29196,2,0,P|409:324|375:330,1,56.9999982604981
252,286,29520,5,0,0:0:0:0:
234,382,29682,2,0,P|272:376|306:382,1,56.9999982604981
196,282,30007,2,0,P|223:287|252:286,2,56.9999982604981
87,250,30493,5,0,0:0:0:0:
16,330,30656,2,0,P|14:291|-2:251,1,56.9999982604981
11,146,30980,5,0,0:0:0:0:
43,54,31142,2,0,L|116:59,1,56.9999982604981
210,69,31466,5,0,0:0:0:0:
263,136,31628,1,0,0:0:0:0:
190,258,31791,6,0,B|269:232|291:345|405:332|451:267|442:191|392:179,1,332.499989852906,4|0,3:2|0:0,0:0:0:0:
308,138,32764,2,0,P|345:130|374:107,1,66.4999979705811
410,33,33088,1,0,0:0:0:0:
94,83,33412,5,0,0:0:0:0:
79,185,33574,2,0,L|159:179,1,66.4999979705811
277,177,33899,2,0,P|240:197|217:233,2,66.4999979705811
406,137,34385,6,0,B|373:109|375:55|375:55|348:178|445:211,2,265.999991882324
507,162,35845,5,0,0:0:0:0:
470,71,36007,2,0,P|481:28|481:2,1,66.4999979705811
406,137,36331,5,0,0:0:0:0:
443,228,36493,2,0,P|432:271|432:297,1,66.4999979705811
465,376,36818,5,0,0:0:0:0:
344,304,36980,2,0,L|348:374,2,66.4999979705811,2|0|0,0:0|0:0|0:0,0:0:0:0:
336,203,37466,2,0,P|294:213|249:206,1,66.4999979705811
109,198,37791,5,0,0:0:0:0:
46,290,37953,2,0,P|81:285|129:299,1,66.4999979705811
192,253,38277,5,0,0:0:0:0:
255,345,38439,2,0,P|220:340|172:354,1,66.4999979705811
316,277,38764,6,0,P|361:279|394:268,2,66.4999979705811
221,251,39250,1,0,0:0:0:0:
177,166,39412,1,0,0:0:0:0:
352,129,39574,6,0,L|344:205,2,66.4999979705811,2|0|0,0:0|0:0|0:0,0:0:0:0:
363,18,40061,2,0,P|309:25|270:23,1,66.4999979705811
187,80,40385,2,0,L|195:156,2,66.4999979705811
86,129,40872,6,0,L|78:205,2,66.4999979705811
96,37,41358,1,0,0:0:0:0:
0,0,41520,2,0,P|5:91|-1:145,1,132.999995941162
215,79,42169,6,0,L|222:236,1,142.500005435944,4|0,3:2|3:2,0:0:0:0:
226,63,42818,1,8,0:0:0:0:
217,242,43142,6,0,P|284:229|309:233,2,71.2500027179719
133,285,43628,1,0,3:0:0:0:
94,372,43791,1,0,3:0:0:0:
214,229,44115,1,8,0:0:0:0:
71,80,44439,2,0,L|153:74,1,71.2500027179719
276,18,44764,6,0,P|277:78|300:159,1,142.500005435944,0|0,3:2|3:2,0:0:0:0:
272,7,45412,1,8,0:0:0:0:
296,173,45737,6,0,P|348:167|388:177,2,71.2500027179719
204,212,46223,1,0,0:0:0:0:
150,291,46385,1,0,3:0:0:0:
299,157,46710,1,8,0:0:0:0:
223,358,47034,2,0,L|304:352,1,71.2500027179719
455,312,47358,6,0,P|400:303|307:262,1,142.500005435944,4|0,3:2|3:2,0:0:0:0:
465,321,48007,1,8,0:0:0:0:
320,257,48331,5,0,0:0:0:0:
250,170,48493,2,0,L|246:255,1,71.2500027179719
325,181,48818,5,0,0:0:0:0:
395,94,48980,2,0,L|399:179,1,71.2500027179719,0|0,3:2|0:0,0:0:0:0:
400,262,49304,1,8,0:0:0:0:
152,145,49628,6,0,L|243:140,2,71.2500027179719,0|0|0,3:2|0:0|0:0,0:0:0:0:
311,136,50277,1,0,3:2:0:0:
78,32,50601,2,0,L|82:120,1,71.2500027179719,8|0,0:0|0:0,0:0:0:0:
88,200,50926,5,0,3:2:0:0:
165,254,51088,1,0,0:0:0:0:
258,269,51250,1,0,0:0:0:0:
347,242,51412,2,0,L|343:322,1,71.2500027179719,0|0,3:2|3:2,0:0:0:0:
262,258,51737,5,0,3:2:0:0:
173,231,51899,2,0,L|177:311,1,71.2500027179719,8|0,0:0|0:0,0:0:0:0:
273,179,52223,6,0,L|269:259,1,71.2500027179719
266,360,52547,5,4,3:2:0:0:
356,332,52710,1,0,0:0:0:0:
415,259,52872,2,0,P|376:253|351:234,1,71.2500027179719,0|0,3:2|0:0,0:0:0:0:
292,110,53196,6,0,P|285:185|261:273,1,142.500005435944,8|0,0:0|0:0,0:0:0:0:
202,310,53683,1,0,0:0:0:0:
119,181,53845,6,0,L|124:264,2,71.2500027179719,0|0|0,0:0|0:0|3:0,0:0:0:0:
111,86,54331,1,0,0:0:0:0:
141,2,54493,2,0,P|204:7|224:1,1,71.2500027179719,8|0,0:0|0:0,0:0:0:0:
273,99,54818,2,0,P|239:98|201:106,1,71.2500027179719,0|0,3:0|0:0,0:0:0:0:
95,227,55142,6,0,P|108:153|110:64,1,142.500005435944,0|0,0:0|3:0,0:0:0:0:
49,15,55628,1,0,0:0:0:0:
141,10,55791,2,0,P|176:32|191:67,2,71.2500027179719,8|0|0,0:0|0:0|3:0,0:0:0:0:
49,15,56277,1,0,0:0:0:0:
13,146,56439,1,0,0:0:0:0:
121,80,56601,2,0,P|123:127|136:156,1,71.2500027179719,8|0,0:0|3:2,0:0:0:0:
162,238,56926,6,0,L|83:228,2,71.2500027179719,0|8|0,3:2|0:0|0:0,0:0:0:0:
266,254,57412,1,8,0:0:0:0:
368,223,57574,1,0,3:2:0:0:
368,223,57655,1,0,3:2:0:0:
368,223,57737,6,0,L|382:319,2,71.2500027179719,4|0|0,3:2|0:0|0:0,0:0:0:0:
355,126,58223,1,0,0:0:0:0:
273,77,58385,1,8,0:0:0:0:
178,93,58547,5,0,3:2:0:0:
178,93,58628,1,0,3:2:0:0:
178,93,58710,1,0,3:2:0:0:
273,77,58872,1,0,0:0:0:0:
391,15,59034,6,0,L|385:101,1,71.2500027179719
377,191,59358,1,8,0:0:0:0:
417,306,59520,1,0,3:2:0:0:
293,240,59683,2,0,P|299:286|314:311,1,71.2500027179719,0|0,3:2|3:2,0:0:0:0:
354,384,60007,6,0,L|269:379,2,71.2500027179719,8|0|2,0:0|0:0|0:0,0:0:0:0:
441,373,60493,1,0,0:0:0:0:
490,285,60655,1,0,3:2:0:0:
445,169,60818,1,8,0:0:0:0:
328,107,60980,1,0,0:0:0:0:
334,248,61142,2,0,P|325:206|307:174,1,71.2500027179719,0|8,3:2|0:0,0:0:0:0:
201,150,61466,6,0,L|195:238,2,71.2500027179719,8|2|0,0:0|0:0|0:0,0:0:0:0:
206,50,61953,1,0,3:2:0:0:
99,67,62115,1,8,0:0:0:0:
32,151,62277,1,0,0:0:0:0:
30,32,62439,5,0,0:0:0:0:
98,187,62601,2,0,L|183:178,1,71.2500027179719
469,94,62926,6,0,P|413:91|356:113,1,95,4|0,3:2|0:0,0:0:0:0:
313,240,63250,2,0,P|369:243|426:221,1,95,8|0,0:0|0:0,0:0:0:0:
422,204,63493,1,0,3:2:0:0:
431,173,63574,1,0,3:2:0:0:
452,316,63737,1,0,3:2:0:0:
290,169,63899,1,8,0:0:0:0:
405,233,64061,6,0,P|359:244|312:240,1,95,0|0,3:2|0:0,0:0:0:0:
203,176,64385,1,0,3:2:0:0:
285,320,64547,2,0,P|239:308|192:312,1,95,8|0,0:0|0:0,0:0:0:0:
148,337,64791,1,0,3:2:0:0:
128,372,64872,1,0,3:2:0:0:
139,237,65034,1,0,3:2:0:0:
0,384,65196,6,0,L|7:273,1,95,8|0,0:0|0:0,0:0:0:0:
20,120,65520,2,0,P|65:130|105:156,1,95,4|0,3:2|0:0,0:0:0:0:
188,261,65845,2,0,L|193:151,1,95,8|0,0:0|0:0,0:0:0:0:
196,130,66087,1,0,3:2:0:0:
199,98,66168,1,0,3:2:0:0:
277,195,66331,1,0,3:2:0:0:
116,108,66493,1,8,0:0:0:0:
192,192,66655,6,0,P|146:203|99:199,1,95,0|0,3:2|0:0,0:0:0:0:
0,125,66980,1,0,3:2:0:0:
199,98,67142,1,8,0:0:0:0:
79,39,67304,1,0,0:0:0:0:
249,32,67466,6,0,P|278:78|269:141,1,95,0|0,3:2|3:2,0:0:0:0:
237,264,67791,1,8,0:0:0:0:
362,155,67953,1,0,3:2:0:0:
362,155,68034,1,0,3:2:0:0:
362,155,68115,6,0,P|358:209|370:276,2,95,4|0|8,3:2|0:0|0:0,0:0:0:0:
401,42,68601,1,0,0:0:0:0:
401,42,68683,1,0,3:2:0:0:
401,42,68764,1,0,3:2:0:0:
477,138,68926,1,0,3:2:0:0:
439,309,69088,6,0,P|444:261|439:214,1,95,8|0,0:0|3:2,0:0:0:0:
333,121,69412,1,0,0:0:0:0:
477,138,69574,1,0,3:2:0:0:
325,305,69737,2,0,L|329:203,1,95,8|0,0:0|0:0,0:0:0:0:
330,166,69980,1,0,3:2:0:0:
333,121,70061,1,0,3:2:0:0:
237,235,70223,1,0,3:2:0:0:
410,105,70385,6,0,P|350:44|311:46,1,95,8|0,0:0|0:0,0:0:0:0:
238,125,70710,2,0,L|354:119,1,95,4|0,3:2|0:0,0:0:0:0:
465,209,71034,2,0,L|349:203,1,95,8|0,0:0|0:0,0:0:0:0:
326,203,71277,1,0,3:2:0:0:
278,200,71358,1,0,3:2:0:0:
409,121,71520,1,0,3:2:0:0:
332,316,71683,6,0,L|221:301,2,95,8|0|0,0:0|3:2|0:0,0:0:0:0:
463,334,72169,1,0,3:2:0:0:
349,229,72331,1,8,0:0:0:0:
143,312,72493,6,0,L|250:302,2,95,0|0|0,0:0|3:2|3:2,0:0:0:0:
258,312,72980,1,8,0:0:0:0:
349,229,73142,1,0,3:2:0:0:
349,229,73223,1,0,3:2:0:0:
349,229,73304,6,0,P|291:214|257:186,1,95,4|0,3:2|0:0,0:0:0:0:
249,36,73628,2,0,P|307:51|341:79,1,95,8|0,0:0|0:0,0:0:0:0:
347,104,73872,1,0,3:2:0:0:
336,139,73953,1,0,3:2:0:0:
448,62,74115,1,0,3:2:0:0:
226,114,74277,1,8,0:0:0:0:
415,144,74439,1,0,3:2:0:0:
343,233,74601,6,0,L|335:138,2,95,0|0|8,0:0|3:2|0:0,0:0:0:0:
298,71,75088,1,0,0:0:0:0:
298,71,75169,1,0,3:2:0:0:
298,71,75250,5,0,3:2:0:0:
157,55,75412,1,0,3:2:0:0:
229,203,75574,2,0,L|225:91,1,95,8|0,0:0|0:0,0:0:0:0:
392,19,75899,6,0,L|388:131,1,95,0|0,3:2|0:0,0:0:0:0:
384,279,76223,1,8,0:0:0:0:
467,195,76385,1,0,0:0:0:0:
467,195,76466,1,0,3:2:0:0:
467,195,76547,1,0,3:2:0:0:
405,334,76710,1,0,3:2:0:0:
229,203,76872,6,0,L|341:201,1,95,8|0,0:0|3:2,0:0:0:0:
467,195,77196,1,0,0:0:0:0:
358,87,77358,1,0,3:2:0:0:
360,108,77439,1,0,0:0:0:0:
361,127,77520,1,8,0:0:0:0:
278,0,77683,5,4,3:2:0:0:
278,0,77764,1,0,3:2:0:0:
278,0,77845,5,0,3:2:0:0:
279,18,77926,1,0,3:2:0:0:
264,36,78007,1,0,3:2:0:0:
244,57,78088,1,0,3:2:0:0:
233,88,78169,1,8,0:0:0:0:
241,125,78250,1,8,0:0:0:0:
269,157,78331,1,8,0:0:0:0:
314,168,78412,1,8,0:0:0:0:
364,155,78493,6,0,P|298:166|270:198,1,95,4|0,3:2|0:0,0:0:0:0:
211,315,78818,1,0,3:2:0:0:
211,315,78899,1,0,3:2:0:0:
211,315,78980,1,0,3:2:0:0:
98,172,79142,6,0,L|104:282,2,95,8|0|0,0:0|3:2|3:2,0:0:0:0:
84,46,79628,1,0,3:2:0:0:
15,213,79791,6,0,L|9:323,2,95,0|0|0,3:2|3:2|3:2,0:0:0:0:
20,80,80277,1,0,3:2:0:0:
103,266,80439,1,8,0:0:0:0:
232,91,80601,5,0,3:2:0:0:
214,105,80683,1,0,3:2:0:0:
215,129,80764,1,0,3:2:0:0:
288,225,80926,1,0,0:0:0:0:
342,79,81088,5,0,3:2:0:0:
228,143,81250,1,0,3:2:0:0:
315,0,81412,1,8,0:0:0:0:
315,0,81493,1,0,3:2:0:0:
315,0,81574,1,0,3:2:0:0:
288,225,81737,5,8,0:0:0:0:
441,123,81899,1,0,3:2:0:0:
299,109,82061,1,0,0:0:0:0:
466,112,82223,2,0,P|449:200|474:311,1,190,8|0,0:0|0:0,0:0:0:0:
479,336,82628,5,2,0:0:0:0:
502,366,82710,1,0,0:0:0:0:
79,298,82872,5,0,3:2:0:0:
104,285,82953,1,0,3:2:0:0:
137,286,83034,1,0,3:2:0:0:
171,302,83115,1,0,3:2:0:0:
206,325,83196,1,8,0:0:0:0:
251,337,83277,1,0,3:2:0:0:
300,319,83358,1,8,0:0:0:0:
333,278,83439,1,8,0:0:0:0:
339,226,83520,1,8,0:0:0:0:
316,178,83601,1,8,0:0:0:0:
270,149,83683,6,0,B|361:176|418:103|418:103|389:175|337:192,1,284.999991302491,4|0,3:2|0:0,0:0:0:0:
250,235,84655,5,2,0:0:0:0:
171,215,84818,1,2,0:0:0:0:
97,150,84980,1,2,0:0:0:0:
207,61,85628,5,2,0:0:0:0:
226,80,85791,1,2,0:0:0:0:
248,133,85953,1,2,0:0:0:0:
236,210,86115,1,2,0:0:0:0:
195,309,86277,6,0,B|104:312|137:165|10:197,2,227.999993041992,2|2|2,0:0|0:0|0:0,0:0:0:0:
388,302,88547,5,2,0:0:0:0:
464,247,88710,1,0,0:0:0:0:
370,327,88872,6,0,B|381:211|278:174|278:174|232:226|271:279,1,284.999991302491,4|0,3:2|0:0,0:0:0:0:
295,353,89845,2,0,P|259:336|232:334,1,56.9999982604981,2|0,0:0|0:0,0:0:0:0:
93,367,90169,6,0,P|121:329|126:249,1,113.999996520996,2|0,0:0|0:0,0:0:0:0:
98,142,90655,1,0,0:0:0:0:
1,81,90818,6,0,L|12:155,1,56.9999982604981,2|0,0:0|0:0,0:0:0:0:
91,199,91142,2,0,L|99:142,1,56.9999982604981,2|0,0:0|0:0,0:0:0:0:
115,28,91466,6,0,P|166:41|306:24,2,170.999994781494,2|2|2,0:0|0:0|0:0,0:0:0:0:
370,0,92764,6,0,L|363:91,1,85.4999973907472,2|2,3:2|3:2,0:0:0:0:
358,175,93250,6,0,L|396:173,7,28.4999991302491,0|0|0|0|0|0|0|0,3:2|3:2|3:2|3:2|3:2|3:2|3:2|3:2,0:0:0:0:
73,147,94061,6,0,L|79:261,1,85.4999973907472,4|0,3:2|0:0,0:0:0:0:
95,378,94385,1,0,3:2:0:0:
95,378,94466,1,0,3:2:0:0:
95,378,94547,1,0,3:2:0:0:
251,160,94710,6,0,L|243:259,1,85.4999973907472,0|0,3:2|0:0,0:0:0:0:
347,356,95034,2,0,L|340:270,1,85.4999973907472,0|0,3:2|0:0,0:0:0:0:
347,154,95358,6,0,L|444:163,2,85.4999973907472,0|0|0,3:2|0:0|3:2,0:0:0:0:
233,136,95845,1,0,0:0:0:0:
338,55,96007,1,0,3:2:0:0:
215,50,96169,1,0,3:2:0:0:
215,50,96250,1,0,3:2:0:0:
215,50,96331,6,0,L|109:55,1,85.4999973907472,0|0,3:2|0:0,0:0:0:0:
14,138,96655,5,0,3:2:0:0:
38,160,96737,1,0,3:2:0:0:
73,170,96818,1,0,3:2:0:0:
277,142,96980,5,0,3:2:0:0:
267,175,97061,1,0,3:2:0:0:
241,203,97142,1,0,3:2:0:0:
130,285,97304,6,0,P|132:232|161:190,1,85.4999973907472,0|0,3:2|0:0,0:0:0:0:
114,47,97628,2,0,P|112:100|83:142,1,85.4999973907472,0|0,3:2|0:0,0:0:0:0:
7,240,97953,6,0,L|113:237,1,85.4999973907472,0|0,3:2|0:0,0:0:0:0:
168,240,98196,1,0,3:2:0:0:
204,237,98277,1,0,3:2:0:0:
350,189,98439,5,0,3:2:0:0:
350,210,98520,1,0,3:2:0:0:
366,229,98601,1,0,3:2:0:0:
396,228,98683,1,0,3:2:0:0:
417,201,98764,1,0,3:2:0:0:
401,165,98845,1,0,3:2:0:0:
370,135,98926,1,8,0:0:0:0:
323,132,99007,1,8,0:0:0:0:
280,103,99088,1,8,0:0:0:0:
265,53,99169,1,8,0:0:0:0:
281,0,99250,6,0,P|272:74|228:142,1,113.999996520996,4|0,3:2|0:0,0:0:0:0:
126,173,99574,1,0,3:2:0:0:
160,180,99655,1,0,3:2:0:0:
191,201,99737,6,0,L|181:343,1,113.999996520996,4|0,3:2|0:0,0:0:0:0:
66,374,100061,1,0,3:2:0:0:
74,179,100223,6,0,L|84:321,1,113.999996520996,8|0,0:0|0:0,0:0:0:0:
217,384,100547,1,0,3:2:0:0:
0,301,100710,5,2,3:2:0:0:
163,240,100872,2,0,L|168:111,1,113.999996520996,8|0,0:0|3:2,0:0:0:0:
175,0,101196,1,0,0:0:0:0:
241,232,101358,5,0,3:2:0:0:
256,194,101439,1,0,3:2:0:0:
254,152,101520,6,0,P|257:229|291:287,1,113.999996520996,4|0,3:2|0:0,0:0:0:0:
498,182,101845,6,0,B|499:130|411:115|411:115|360:99|320:38|378:-29|464:-13|483:75|411:115|411:115|359:138|294:111|244:159,1,570,2|0,0:0|0:0,0:0:0:0:
66,295,104439,6,0,L|145:303,1,47.5,4|0,3:2|0:0,0:0:0:0:
33,113,104764,1,8,0:0:0:0:
66,295,105250,5,0,3:2:0:0:
142,167,105412,1,8,0:0:0:0:
218,372,105574,6,0,L|222:324,1,47.5,2|0,0:0|0:0,0:0:0:0:
312,69,105899,6,0,L|316:116,1,47.5,2|0,0:0|0:0,0:0:0:0:
325,205,106061,1,8,0:0:0:0:
73,44,106547,5,0,3:2:0:0:
248,20,106710,1,8,0:0:0:0:
471,240,107034,6,0,L|423:238,1,47.5,2|0,0:0|0:0,0:0:0:0:
228,220,107358,1,8,0:0:0:0:
471,240,107845,5,0,3:0:0:0:
318,154,108007,1,8,0:0:0:0:
453,42,108169,6,0,L|449:98,1,47.5,2|0,0:0|0:0,0:0:0:0:
405,331,108493,6,0,L|401:283,1,47.5,2|0,0:0|0:0,0:0:0:0:
395,182,108655,1,8,0:0:0:0:
295,26,108818,6,0,P|300:75|210:124,1,142.5,2|0,0:0|0:0,0:0:0:0:
144,114,109142,2,0,L|147:168,1,47.5,0|0,3:2|0:0,0:0:0:0:
159,288,109304,1,8,0:0:0:0:
18,228,109466,1,0,3:2:0:0:
18,228,109547,1,0,3:2:0:0:
18,228,109628,6,0,L|71:230,1,47.5,2|0,3:2|0:0,0:0:0:0:
247,233,109953,1,8,0:0:0:0:
476,16,110439,5,0,3:2:0:0:
464,183,110601,1,8,0:0:0:0:
291,31,110764,6,0,L|297:92,1,47.5,2|0,0:0|0:0,0:0:0:0:
153,310,111088,6,0,L|157:262,1,47.5,2|0,0:0|0:0,0:0:0:0:
164,172,111250,1,8,0:0:0:0:
7,10,111737,5,0,3:2:0:0:
13,100,111899,2,0,L|120:93,1,95,8|0,0:0|0:0,0:0:0:0:
268,78,112223,1,2,0:0:0:0:
180,192,112385,5,0,0:0:0:0:
183,203,112466,1,0,0:0:0:0:
196,222,112547,6,0,P|245:237|337:212,1,142.5,8|0,0:0|0:0,0:0:0:0:
394,146,112872,1,2,0:0:0:0:
337,333,113034,1,0,3:0:0:0:
259,110,113196,1,8,0:0:0:0:
78,212,113358,6,0,L|154:211,1,47.5,2|0,0:0|0:0,0:0:0:0:
379,216,113683,6,0,L|331:215,1,47.5,2|0,0:0|0:0,0:0:0:0:
243,212,113845,1,8,0:0:0:0:
359,41,114007,6,0,P|362:97|443:142,1,142.5,2|0,0:0|0:0,0:0:0:0:
512,147,114331,1,0,3:2:0:0:
293,1,114493,1,8,0:0:0:0:
277,167,114655,5,0,3:2:0:0:
266,137,114737,1,0,3:2:0:0:
241,114,114818,6,0,L|295:116,1,47.5,2|0,3:2|0:0,0:0:0:0:
36,145,115142,6,0,L|44:270,2,95,8|2|2,0:0|0:0|0:0,0:0:0:0:
24,0,115628,1,0,3:2:0:0:
158,115,115791,1,8,0:0:0:0:
324,15,115953,6,0,L|329:84,1,47.5,2|0,3:2|0:0,0:0:0:0:
408,294,116277,6,0,L|411:246,1,47.5,2|0,3:2|0:0,0:0:0:0:
415,157,116439,1,8,0:0:0:0:
304,136,116601,5,0,0:0:0:0:
304,136,116683,1,0,3:2:0:0:
262,227,116845,1,0,3:2:0:0:
270,255,116926,1,0,3:2:0:0:
164,258,117088,2,0,P|162:311|145:360,1,95,8|0,0:0|3:2,0:0:0:0:
0,292,117412,6,0,L|80:291,1,47.5,2|0,3:2|0:0,0:0:0:0:
293,141,117737,6,0,P|286:184|288:240,2,95,8|2|2,0:0|0:0|0:0,0:0:0:0:
333,27,118223,1,0,3:2:0:0:
206,134,118385,1,8,0:0:0:0:
417,104,118547,6,0,L|359:102,1,47.5,2|0,3:2|0:0,0:0:0:0:
112,65,118872,6,0,L|159:63,1,47.5,2|0,3:2|0:0,0:0:0:0:
252,59,119034,1,8,0:0:0:0:
21,21,119196,6,0,P|21:91|55:168,1,142.5,0|0,3:2|0:0,0:0:0:0:
104,222,119520,1,2,3:2:0:0:
205,131,119683,2,0,P|204:192|195:230,1,95,8|0,0:0|3:2,0:0:0:0:
176,261,119926,1,0,3:2:0:0:
150,288,120007,6,0,L|208:287,1,47.5,4|0,3:2|0:0,0:0:0:0:
392,185,120331,6,0,L|386:295,2,95,8|2|2,0:0|0:0|0:0,0:0:0:0:
396,88,120818,1,0,3:2:0:0:
484,239,120980,1,8,0:0:0:0:
328,134,121142,6,0,L|281:138,1,47.5,2|0,3:2|0:0,0:0:0:0:
23,212,121466,6,0,L|70:215,1,47.5,2|0,3:2|0:0,0:0:0:0:
159,225,121628,1,8,0:0:0:0:
465,330,121872,5,0,3:2:0:0:
360,234,122034,1,0,3:2:0:0:
383,245,122115,1,0,3:2:0:0:
434,141,122277,1,8,0:0:0:0:
50,194,122601,5,0,3:2:0:0:
201,236,122764,1,0,3:2:0:0:
9,0,122926,6,0,P|29:81|63:101,1,95,8|0,0:0|3:2,0:0:0:0:
76,103,123169,1,0,3:2:0:0:
124,101,123250,1,0,3:2:0:0:
97,257,123412,1,0,3:2:0:0:
97,34,123574,1,8,0:0:0:0:
244,271,123737,6,0,L|252:124,1,142.5,4|0,3:2|0:0,0:0:0:0:
256,43,124061,1,0,3:2:0:0:
344,218,124223,1,0,3:2:0:0:
139,175,124385,2,0,P|189:120|254:130,1,142.5,8|0,0:0|0:0,0:0:0:0:
304,192,124710,5,0,3:2:0:0:
402,78,124872,1,0,3:2:0:0:
495,51,125034,1,0,3:2:0:0:
512,167,125196,6,0,B|431:199|496:271|402:296,1,170.999994781494,4|0,3:2|0:0,0:0:0:0:
274,317,125845,2,0,P|324:324|367:387,1,113.999996520996,2|0,0:0|0:0,0:0:0:0:
210,243,126331,6,0,P|243:227|252:96,1,170.999994781494,2|0,0:0|0:0,0:0:0:0:
206,21,126980,2,0,L|281:27,1,56.9999982604981,2|0,0:0|0:0,0:0:0:0:
387,64,127304,2,0,L|312:70,1,56.9999982604981
206,112,127628,6,0,B|257:173|159:216|221:286,1,170.999994781494,2|0,0:0|0:0,0:0:0:0:
291,348,128277,2,0,P|242:350|174:382,2,113.999996520996,2|0|0,0:0|0:0|0:0,0:0:0:0:
0,0,130385,5,4,3:2:0:0:
37,165,131034,6,0,P|87:150|160:166,1,113.999996520996,2|0,0:0|0:0,0:0:0:0:
235,237,131520,2,0,L|239:116,2,113.999996520996,2|0|0,0:0|0:0|0:0,0:0:0:0:
357,56,132493,2,0,L|360:169,1,113.999996520996,2|0,0:0|0:0,0:0:0:0:
375,325,132980,6,0,B|305:306|238:353|238:353|221:319|236:258,2,227.999993041992,2|2|2,0:0|0:0|0:0,0:0:0:0:
140,213,134601,1,0,0:0:0:0:
224,109,134764,2,0,L|224:192,1,56.9999982604981
233,271,135088,6,0,L|273:256,2,28.4999991302491,0|0|0,0:0|0:0|3:2,0:0:0:0:
147,291,135412,1,0,0:0:0:0:
194,133,135574,5,4,3:2:0:0:
194,133,135899,5,0,3:2:0:0:
321,27,136223,6,0,L|315:159,1,132.999995941162,0|0,3:2|3:2,0:0:0:0:
313,264,136710,2,0,P|345:257|393:272,2,66.4999979705811,0|0|0,0:0|3:2|0:0,0:0:0:0:
213,314,137196,1,0,3:2:0:0:
346,349,137358,1,0,0:0:0:0:
240,242,137520,6,0,L|242:175,2,66.4999979705811,0|0|0,3:2|0:0|3:2,0:0:0:0:
59,50,138169,6,0,P|121:31|183:52,1,132.999995941162,0|0,3:2|3:2,0:0:0:0:
215,154,138655,2,0,P|169:158|137:147,2,66.4999979705811,0|0|0,0:0|3:2|0:0,0:0:0:0:
311,98,139142,5,0,3:2:0:0:
311,98,139223,1,0,3:2:0:0:
311,98,139304,1,0,3:2:0:0:
311,98,139385,1,0,3:2:0:0:
311,98,139466,5,0,3:2:0:0:
303,116,139547,1,0,3:2:0:0:
303,139,139628,1,0,3:2:0:0:
319,160,139710,1,0,3:2:0:0:
342,178,139791,1,0,3:2:0:0:
371,193,139872,1,0,3:2:0:0:
394,221,139953,1,0,3:2:0:0:
398,260,140034,1,0,3:2:0:0:
374,296,140115,1,8,0:0:0:0:
329,309,140196,1,8,0:0:0:0:
280,295,140277,1,8,0:0:0:0:
249,251,140358,1,8,0:0:0:0:
233,196,140439,1,8,0:0:0:0:
204,147,140520,1,8,0:0:0:0:
158,114,140601,1,8,0:0:0:0:
101,108,140683,1,8,0:0:0:0:
54,139,140764,5,4,3:2:0:0:
420,28,141088,5,0,3:2:0:0:
394,221,141250,1,10,0:0:0:0:
101,108,141574,5,0,3:2:0:0:
127,301,141736,1,10,0:0:0:0:
512,360,142061,5,0,3:2:0:0:
312,254,142223,1,10,0:0:0:0:
217,61,142547,5,0,3:2:0:0:
161,199,142710,1,0,3:2:0:0:
339,94,142872,1,0,3:2:0:0:
120,9,143034,2,0,L|125:124,1,95,2|0,3:2|0:0,0:0:0:0:
38,274,143358,6,0,L|43:159,1,95,8|0,0:0|0:0,0:0:0:0:
51,82,143683,5,0,3:2:0:0:
129,190,143845,1,0,3:2:0:0:
191,28,144007,1,8,0:0:0:0:
45,183,144169,1,8,0:0:0:0:
264,223,144331,1,8,0:0:0:0:
4,0,144493,1,8,0:0:0:0:
448,70,145628,6,0,L|450:105,1,28.5,2|0,3:2|0:0,0:0:0:0:
447,173,145953,6,0,L|282:154,1,132.999995941162,4|0,3:2|0:0,0:0:0:0:
129,125,146277,1,10,0:0:0:0:
309,47,146439,1,0,3:2:0:0:
309,47,146520,1,0,3:2:0:0:
309,47,146601,1,0,3:2:0:0:
216,229,146764,1,0,3:2:0:0:
183,29,146926,1,10,0:0:0:0:
0,223,147088,6,0,L|137:211,1,132.999995941162,2|0,3:2|0:0,0:0:0:0:
333,187,147412,1,0,3:2:0:0:
185,317,147574,1,10,0:0:0:0:
257,120,147737,1,0,3:2:0:0:
257,120,147818,1,0,3:2:0:0:
257,120,147899,1,0,3:2:0:0:
308,283,148061,1,0,3:2:0:0:
382,24,148223,6,0,L|371:164,1,132.999995941162,8|0,0:0|0:0,0:0:0:0:
493,340,148547,2,0,L|482:200,1,132.999995941162,2|0,3:2|0:0,0:0:0:0:
462,17,148872,1,10,0:0:0:0:
335,165,149034,1,0,3:2:0:0:
335,165,149115,1,0,3:2:0:0:
335,165,149196,1,0,3:2:0:0:
506,73,149358,1,0,3:2:0:0:
335,165,149520,1,10,0:0:0:0:
134,3,149683,6,0,P|147:71|179:126,1,132.999995941162,2|0,3:2|0:0,0:0:0:0:
291,245,150007,1,0,3:2:0:0:
178,125,150169,1,8,0:0:0:0:
0,302,150331,2,0,P|70:287|133:308,1,132.999995941162,2|0,3:2|0:0,0:0:0:0:
256,366,150655,1,0,3:2:0:0:
161,156,150818,1,8,0:0:0:0:
25,384,150980,5,0,3:2:0:0:
58,359,151061,1,0,3:2:0:0:
77,318,151142,6,0,P|146:340|198:317,1,132.999995941162,4|0,3:2|0:0,0:0:0:0:
311,137,151466,2,0,L|305:294,1,132.999995941162,10|0,0:0|0:0,0:0:0:0:
303,320,151710,1,0,3:2:0:0:
300,362,151791,1,0,3:0:0:0:
139,249,151953,1,0,3:2:0:0:
344,198,152115,1,10,0:0:0:0:
154,0,152277,6,0,L|163:138,1,132.999995941162,2|0,3:2|0:0,0:0:0:0:
199,300,152601,1,0,3:2:0:0:
78,139,152764,1,10,0:0:0:0:
286,141,152926,5,0,3:2:0:0:
286,141,153007,1,0,3:2:0:0:
286,141,153088,1,0,3:2:0:0:
164,271,153250,1,0,3:2:0:0:
290,49,153412,1,10,0:0:0:0:
343,248,153574,1,0,3:2:0:0:
343,248,153655,1,0,3:2:0:0:
343,248,153737,5,2,3:2:0:0:
425,110,153899,1,0,3:2:0:0:
328,340,154061,1,10,0:0:0:0:
191,125,154223,1,0,3:2:0:0:
232,124,154304,1,0,3:2:0:0:
271,147,154385,5,0,3:2:0:0:
199,359,154547,1,0,3:2:0:0:
174,213,154710,1,0,3:2:0:0:
406,307,154872,6,0,P|326:314|271:270,1,132.999995941162,2|0,3:2|0:0,0:0:0:0:
184,155,155196,1,0,3:2:0:0:
359,220,155358,5,10,0:0:0:0:
305,45,155520,1,0,3:2:0:0:
225,345,155683,5,2,3:2:0:0:
329,150,155845,1,8,0:0:0:0:
290,159,155926,1,8,0:0:0:0:
250,159,156007,1,8,0:0:0:0:
214,140,156088,1,8,0:0:0:0:
187,110,156169,1,8,0:0:0:0:
151,92,156250,1,8,0:0:0:0:
111,93,156331,6,0,P|117:169|76:254,1,132.999995941162,4|0,3:2|0:0,0:0:0:0:
0,362,156655,1,10,0:0:0:0:
214,295,156818,1,0,3:2:0:0:
214,295,156899,1,0,3:2:0:0:
214,295,156980,1,0,3:2:0:0:
20,157,157142,1,0,3:2:0:0:
126,370,157304,1,10,0:0:0:0:
199,76,157466,6,0,L|187:221,1,132.999995941162,2|0,3:2|0:0,0:0:0:0:
171,358,157791,1,0,3:2:0:0:
325,152,157953,1,10,0:0:0:0:
95,253,158115,1,0,3:2:0:0:
95,253,158196,1,0,3:2:0:0:
95,253,158277,1,0,3:2:0:0:
281,308,158439,1,0,3:2:0:0:
53,126,158601,6,0,P|119:145|195:141,1,132.999995941162,10|0,0:0|0:0,0:0:0:0:
287,18,158926,2,0,L|279:179,1,132.999995941162,2|0,3:2|0:0,0:0:0:0:
274,317,159250,1,10,0:0:0:0:
379,157,159412,1,0,3:2:0:0:
379,157,159493,1,0,3:2:0:0:
379,157,159574,1,0,3:2:0:0:
192,263,159737,1,0,3:2:0:0:
379,157,159899,1,10,0:0:0:0:
155,3,160061,6,0,P|152:79|118:134,1,132.999995941162,2|0,3:2|0:0,0:0:0:0:
0,243,160385,1,0,3:2:0:0:
241,100,160547,1,10,0:0:0:0:
120,337,160710,6,0,L|265:326,1,132.999995941162,2|0,3:2|0:0,0:0:0:0:
429,306,161034,1,0,3:2:0:0:
243,137,161196,1,10,0:0:0:0:
336,269,161358,1,0,3:0:0:0:
339,237,161439,1,0,3:0:0:0:
342,205,161520,6,0,L|351:345,1,132.999995941162,4|0,3:2|0:0,0:0:0:0:
207,384,161845,1,10,0:0:0:0:
469,363,162007,1,0,3:0:0:0:
469,363,162088,1,0,3:0:0:0:
469,363,162169,1,0,3:0:0:0:
264,262,162331,1,0,3:0:0:0:
495,240,162493,1,10,0:0:0:0:
333,0,162655,6,0,L|347:141,1,132.999995941162,2|0,3:2|0:0,0:0:0:0:
369,283,162980,1,0,3:2:0:0:
209,120,163142,1,10,0:0:0:0:
495,240,163304,5,0,3:0:0:0:
495,240,163385,1,0,3:0:0:0:
495,240,163466,1,0,3:0:0:0:
262,255,163628,1,0,3:0:0:0:
346,67,163791,1,10,0:0:0:0:
351,217,163953,1,0,3:0:0:0:
120,49,164115,5,2,3:2:0:0:
165,219,164277,1,0,3:2:0:0:
24,25,164439,1,10,0:0:0:0:
245,111,164601,1,8,0:0:0:0:
205,121,164683,1,8,0:0:0:0:
160,116,164764,1,8,0:0:0:0:
367,8,164926,6,0,L|364:81,1,66.4999979705811,2|0,3:2|0:0,0:0:0:0:
163,360,165250,6,0,L|157:283,1,66.4999979705811,2|0,3:2|0:0,0:0:0:0:
18,48,166385,6,0,L|52:46,1,28.5,2|0,3:2|0:0,0:0:0:0:
123,42,166710,6,0,L|123:118,1,47.5,4|0,3:2|0:0,0:0:0:0:
145,359,167034,5,0,0:0:0:0:
67,375,167196,1,0,3:2:0:0:
250,197,167358,6,0,L|243:390,1,190,8|0,0:0|0:0,0:0:0:0:
374,289,167845,6,0,L|377:222,1,47.5,2|0,3:2|0:0,0:0:0:0:
489,5,168169,6,0,L|492:72,1,47.5,2|0,3:2|0:0,0:0:0:0:
8,34,169304,6,0,L|55:37,1,47.5,2|0,3:2|0:0,0:0:0:0:
331,56,169628,5,0,0:0:0:0:
306,131,169791,1,0,3:2:0:0:
83,201,169953,6,0,P|150:199|262:261,1,190,8|0,0:0|0:0,0:0:0:0:
91,113,170439,6,0,P|139:115|161:109,1,47.5,2|0,3:2|0:0,0:0:0:0:
378,53,170764,6,0,P|330:55|308:49,1,47.5,2|0,3:2|0:0,0:0:0:0:
268,281,171088,6,0,P|269:242|342:156,1,142.5,8|0,0:0|0:0,0:0:0:0:
412,135,171412,2,0,L|408:217,1,47.5,2|0,0:0|0:0,0:0:0:0:
406,260,171574,1,2,0:0:0:0:
83,201,171899,6,0,L|87:282,1,47.5,2|0,3:2|0:0,0:0:0:0:
308,362,172223,5,0,0:0:0:0:
237,325,172385,1,0,3:2:0:0:
395,182,172547,6,0,L|387:377,1,190,8|0,0:0|0:0,0:0:0:0:
311,239,173034,6,0,L|312:191,1,47.5,2|0,3:2|0:0,0:0:0:0:
175,0,173358,6,0,L|176:47,1,47.5,2|0,3:2|0:0,0:0:0:0:
52,220,174493,5,0,3:2:0:0:
170,69,174818,6,0,P|165:108|170:233,1,142.5,2|0,3:2|0:0,0:0:0:0:
192,288,175142,5,8,0:0:0:0:
256,222,175304,1,0,0:0:0:0:
170,375,175466,1,0,3:2:0:0:
29,114,175628,6,0,L|92:115,1,47.5,2|0,3:2|0:0,0:0:0:0:
369,148,175953,6,0,L|306:149,1,47.5,2|0,3:2|0:0,0:0:0:0:
166,2,176277,6,0,P|164:69|205:157,1,142.5,2|0,3:2|0:0,0:0:0:0:
242,204,176601,1,0,3:2:0:0:
293,37,176764,1,8,0:0:0:0:
171,222,176926,1,8,0:0:0:0:
171,222,177007,1,8,0:0:0:0:
171,222,177088,6,0,L|41:217,1,113.999996520996,4|0,3:2|0:0,0:0:0:0:
0,335,177412,2,0,L|130:330,1,113.999996520996,8|0,0:0|0:0,0:0:0:0:
163,330,177655,1,0,3:2:0:0:
201,329,177737,1,0,3:2:0:0:
57,217,177899,1,0,3:2:0:0:
245,373,178061,1,8,0:0:0:0:
337,127,178223,6,0,P|328:248|380:304,1,170.999994781494,2|0,3:2|0:0,0:0:0:0:
415,337,178547,1,0,3:2:0:0:
223,227,178710,1,8,0:0:0:0:
429,211,178872,1,0,3:2:0:0:
429,211,178953,1,0,3:2:0:0:
429,211,179034,1,0,3:2:0:0:
330,113,179196,1,0,3:2:0:0:
249,336,179358,6,0,P|242:274|218:218,1,113.999996520996,8|0,0:0|0:0,0:0:0:0:
183,192,179601,1,0,3:2:0:0:
144,179,179683,6,0,L|273:171,1,113.999996520996,2|0,3:2|0:0,0:0:0:0:
385,75,180007,2,0,L|256:67,1,113.999996520996,8|0,0:0|0:0,0:0:0:0:
226,65,180250,1,0,3:2:0:0:
181,59,180331,1,0,3:2:0:0:
326,144,180493,1,0,3:2:0:0:
123,106,180655,1,8,0:0:0:0:
102,336,180818,6,0,P|97:276|146:176,1,170.999994781494,4|0,3:2|0:0,0:0:0:0:
209,128,181142,1,0,3:2:0:0:
22,238,181304,1,8,0:0:0:0:
222,218,181466,1,0,3:0:0:0:
222,218,181547,1,0,3:0:0:0:
222,218,181628,1,0,3:0:0:0:
54,145,181791,1,0,3:0:0:0:
174,279,181953,5,2,3:2:0:0:
215,107,182115,1,8,0:0:0:0:
215,107,182196,1,8,0:0:0:0:
215,107,182277,6,0,P|272:85|341:98,1,113.999996520996,2|0,3:2|0:0,0:0:0:0:
440,208,182601,2,0,P|383:230|314:217,1,113.999996520996,8|0,0:0|0:0,0:0:0:0:
299,211,182845,1,0,3:2:0:0:
282,181,182926,1,0,3:2:0:0:
413,113,183088,1,0,3:2:0:0:
328,319,183250,1,8,0:0:0:0:
170,151,183412,6,0,P|183:208|163:326,1,170.999994781494,2|0,3:2|0:0,0:0:0:0:
113,380,183737,1,0,3:2:0:0:
74,168,183899,1,8,0:0:0:0:
166,318,184061,1,0,3:2:0:0:
166,318,184142,1,0,3:2:0:0:
166,318,184223,1,0,3:2:0:0:
16,220,184385,1,0,3:2:0:0:
243,107,184547,2,0,L|231:236,1,113.999996520996,8|0,0:0|0:0,0:0:0:0:
366,364,184872,6,0,L|359:299,1,56.9999982604981,4|0,3:2|0:0,0:0:0:0:
341,192,185034,1,2,3:2:0:0:
496,103,185196,2,0,P|432:110|369:95,1,113.999996520996,8|0,0:0|0:0,0:0:0:0:
341,79,185439,1,0,3:2:0:0:
318,34,185520,1,8,0:0:0:0:
504,215,185683,2,0,P|503:134|490:86,1,113.999996520996,2|0,3:2|0:0,0:0:0:0:
217,65,186007,6,0,P|281:72|311:178,1,170.999994781494,2|0,3:2|0:0,0:0:0:0:
275,229,186331,2,0,B|208:173|160:249|101:183,1,170.999994781494,2|0,3:2|0:0,0:0:0:0:
60,141,186655,2,0,P|84:221|43:300,1,170.999994781494,2|0,3:2|0:0,0:0:0:0:
0,362,186980,1,0,3:2:0:0:
163,134,187142,1,0,3:2:0:0:
509,380,187466,6,0,P|496:324|512:205,1,170.999994781494,4|0,3:2|0:0,0:0:0:0:
501,102,188115,2,0,L|366:107,1,113.999996520996,2|0,0:0|0:0,0:0:0:0:
261,61,188601,6,0,B|289:135|215:146|264:232,1,170.999994781494,2|0,0:0|0:0,0:0:0:0:
328,309,189250,2,0,P|384:302|437:322,2,113.999996520996,2|0|0,0:0|0:0|0:0,0:0:0:0:
228,384,190061,2,0,P|229:327|194:272,1,113.999996520996,2|0,0:0|0:0,0:0:0:0:
65,185,190547,6,0,B|110:220|141:167|190:200,2,113.999996520996,2|0|0,0:0|0:0|0:0,0:0:0:0:
223,22,191683,6,0,L|230:149,1,113.999996520996,2|0,0:0|0:0,0:0:0:0:
246,250,192169,1,2,0:0:0:0:
246,250,192250,1,2,0:0:0:0:
246,250,192331,1,2,0:0:0:0:
463,31,192655,6,0,L|457:170,1,113.999996520996,0|0,3:2|0:0,0:0:0:0:
334,368,193304,6,0,P|340:305|320:246,1,113.999996520996,2|0,0:0|0:0,0:0:0:0:
212,184,193791,2,0,L|344:176,2,113.999996520996,2|0|0,0:0|0:0|0:0,0:0:0:0:
26,45,194764,2,0,L|37:175,1,113.999996520996,2|0,0:0|0:0,0:0:0:0:
72,324,195250,6,0,B|111:279|159:293|159:293|128:270|114:211,1,170.999994781494,2|0,3:2|0:0,0:0:0:0:
120,126,195899,2,0,P|174:129|287:88,1,170.999994781494,2|0,0:0|0:0,0:0:0:0:
394,13,196547,6,0,L|388:142,1,113.999996520996,2|0,0:0|0:0,0:0:0:0:
385,224,197034,1,0,0:0:0:0:
286,44,197196,5,8,0:0:0:0:
198,216,197358,1,0,3:2:0:0:
271,186,197520,1,0,3:2:0:0:
225,122,197683,1,0,3:2:0:0:
229,357,197845,5,4,3:2:0:0:
229,357,198169,5,0,3:2:0:0:
321,27,198493,6,0,L|315:159,1,132.999995941162,0|0,3:2|3:2,0:0:0:0:
317,283,198980,1,0,0:0:0:0:
424,198,199142,1,0,3:2:0:0:
240,242,199304,1,8,0:0:0:0:
161,382,199466,5,0,3:2:0:0:
102,207,199628,1,0,3:2:0:0:
253,317,199791,6,0,L|246:383,2,66.4999979705811,0|0|0,3:2|3:2|3:2,0:0:0:0:
267,213,200277,1,0,3:2:0:0:
267,213,200358,1,0,3:2:0:0:
267,213,200439,6,0,L|351:214,2,66.4999979705811,2|0|0,3:2|0:0|3:2,0:0:0:0:
147,206,200926,1,0,3:2:0:0:
281,115,201088,1,0,3:2:0:0:
279,319,201250,1,8,0:0:0:0:
207,163,201412,1,0,3:2:0:0:
86,264,201574,5,0,3:2:0:0:
41,75,201737,1,0,3:2:0:0:
107,132,201899,1,0,3:2:0:0:
38,178,202061,1,0,3:2:0:0:
135,22,202223,1,8,0:0:0:0:
151,208,202385,5,0,3:2:0:0:
242,76,202547,1,0,3:2:0:0:
267,237,202710,1,0,3:2:0:0:
280,222,202791,1,8,0:0:0:0:
300,210,202872,1,8,0:0:0:0:
329,214,202953,1,8,0:0:0:0:
361,242,203034,6,0,L|356:138,1,95,4|0,3:2|0:0,0:0:0:0:
346,12,203358,1,0,3:2:0:0:
449,180,203520,2,0,L|454:76,1,95,8|0,0:0|0:0,0:0:0:0:
356,147,203845,1,0,3:2:0:0:
230,6,204007,6,0,L|239:125,1,95,8|0,0:0|0:0,0:0:0:0:
250,228,204331,1,0,3:2:0:0:
141,71,204493,2,0,L|132:190,1,95,8|0,0:0|0:0,0:0:0:0:
123,285,204818,1,0,3:2:0:0:
34,207,204980,5,0,3:2:0:0:
195,259,205142,1,0,3:2:0:0:
0,384,205304,2,0,L|96:379,1,95,8|0,0:0|0:0,0:0:0:0:
271,366,205628,6,0,P|220:346|183:309,1,95,2|0,3:2|0:0,0:0:0:0:
125,209,205953,5,0,3:2:0:0:
240,143,206115,1,0,3:2:0:0:
109,291,206277,1,8,0:0:0:0:
133,82,206439,1,8,0:0:0:0:
254,246,206601,1,8,0:0:0:0:
131,4,206763,1,8,0:0:0:0:
467,321,207899,6,0,L|438:322,1,28.5,2|0,3:2|0:0,0:0:0:0:
361,330,208223,6,0,P|364:258|345:193,1,132.999995941162,4|0,3:2|0:0,0:0:0:0:
197,65,208547,2,0,P|194:137|213:202,1,132.999995941162,10|0,0:0|0:0,0:0:0:0:
234,239,208791,1,0,3:2:0:0:
278,264,208872,1,0,3:2:0:0:
111,120,209034,1,0,3:2:0:0:
169,313,209196,1,10,0:0:0:0:
15,33,209358,6,0,L|9:178,1,132.999995941162,2|0,3:2|0:0,0:0:0:0:
0,329,209683,1,0,3:2:0:0:
111,120,209845,1,10,0:0:0:0:
0,256,210007,1,0,3:2:0:0:
0,256,210088,1,0,3:2:0:0:
0,256,210169,1,0,3:2:0:0:
178,317,210331,1,0,3:2:0:0:
213,84,210493,6,0,L|350:88,1,132.999995941162,10|0,0:0|0:0,0:0:0:0:
512,207,210818,2,0,L|375:211,1,132.999995941162,2|0,3:2|0:0,0:0:0:0:
184,210,211142,1,10,0:0:0:0:
342,314,211304,1,0,3:2:0:0:
342,314,211385,1,0,3:2:0:0:
342,314,211466,1,0,3:2:0:0:
322,101,211628,1,0,3:2:0:0:
206,307,211791,1,10,0:0:0:0:
0,71,211953,6,0,P|61:95|126:88,1,132.999995941162,2|0,3:2|0:0,0:0:0:0:
313,32,212277,1,10,0:0:0:0:
113,0,212439,1,0,3:2:0:0:
113,0,212520,1,0,3:2:0:0:
113,0,212601,6,0,P|186:-9|248:13,1,132.999995941162,2|0,3:2|0:0,0:0:0:0:
374,137,212926,1,0,3:2:0:0:
177,159,213088,1,10,0:0:0:0:
319,249,213250,1,0,3:2:0:0:
319,249,213331,1,0,3:2:0:0:
319,249,213412,6,0,P|244:253|183:243,1,132.999995941162,4|0,3:2|0:0,0:0:0:0:
69,146,213737,2,0,L|76:298,1,132.999995941162,10|0,0:0|0:0,0:0:0:0:
77,329,213980,1,0,3:2:0:0:
81,376,214061,1,0,3:2:0:0:
149,172,214223,1,0,3:2:0:0:
0,306,214385,1,10,0:0:0:0:
0,99,214547,6,0,P|57:61|121:80,1,132.999995941162,0|0,3:2|0:0,0:0:0:0:
239,191,214872,1,0,3:2:0:0:
146,0,215034,1,10,0:0:0:0:
294,76,215196,1,0,3:2:0:0:
294,76,215277,1,0,3:2:0:0:
294,76,215358,1,0,3:2:0:0:
139,150,215520,1,0,3:2:0:0:
409,123,215683,6,0,L|401:283,1,132.999995941162,10|0,0:0|0:0,0:0:0:0:
253,376,216007,1,2,3:2:0:0:
411,336,216169,1,0,3:2:0:0:
226,192,216331,1,8,0:0:0:0:
333,373,216493,1,0,3:2:0:0:
329,343,216574,1,0,3:2:0:0:
325,308,216655,5,2,3:2:0:0:
73,368,216818,1,0,3:2:0:0:
252,357,216980,1,0,3:2:0:0:
6,241,217142,6,0,P|93:257|161:199,1,132.999995941162,2|0,3:2|0:0,0:0:0:0:
218,122,217466,1,0,3:2:0:0:
225,384,217628,5,10,0:0:0:0:
252,224,217791,1,0,3:2:0:0:
19,136,217953,5,2,3:2:0:0:
186,55,218115,1,8,0:0:0:0:
191,94,218196,1,8,0:0:0:0:
218,122,218277,1,8,0:0:0:0:
264,128,218358,1,8,0:0:0:0:
307,144,218439,1,8,0:0:0:0:
338,178,218520,1,8,0:0:0:0:
347,223,218601,6,0,P|272:216|214:260,1,132.999995941162,4|0,3:2|0:0,0:0:0:0:
133,354,218926,2,0,L|144:198,1,132.999995941162,10|0,0:0|0:0,0:0:0:0:
146,176,219169,1,0,3:2:0:0:
151,122,219250,1,0,3:2:0:0:
34,252,219412,1,0,3:2:0:0:
222,155,219574,1,10,0:0:0:0:
0,6,219737,6,0,L|138:14,1,132.999995941162,0|0,3:2|0:0,0:0:0:0:
283,18,220061,1,0,3:2:0:0:
53,125,220223,1,10,0:0:0:0:
216,2,220385,1,0,3:2:0:0:
216,2,220466,1,0,3:2:0:0:
216,2,220547,1,0,3:2:0:0:
198,150,220710,1,0,3:2:0:0:
411,12,220872,6,0,L|401:148,1,132.999995941162,10|0,0:0|0:0,0:0:0:0:
396,191,221115,1,0,3:2:0:0:
387,237,221196,6,0,P|312:228|243:247,1,132.999995941162,2|0,3:2|0:0,0:0:0:0:
126,311,221520,1,10,0:0:0:0:
334,333,221683,1,0,3:2:0:0:
334,333,221764,1,0,3:2:0:0:
334,333,221845,1,0,3:2:0:0:
162,224,222007,1,0,3:2:0:0:
407,311,222169,1,10,0:0:0:0:
251,60,222331,6,0,L|243:211,1,132.999995941162,2|0,3:2|0:0,0:0:0:0:
230,354,222655,1,0,3:2:0:0:
43,198,222818,1,10,0:0:0:0:
251,60,222980,6,0,P|172:64|113:39,1,132.999995941162,2|0,3:2|0:0,0:0:0:0:
0,0,223304,1,0,3:2:0:0:
216,139,223466,1,10,0:0:0:0:
25,114,223628,1,0,3:2:0:0:
25,114,223710,1,0,3:2:0:0:
25,114,223791,6,0,P|74:147|147:172,1,132.999995941162,2|0,3:2|0:0,0:0:0:0:
273,318,224115,2,0,P|224:285|151:260,1,132.999995941162,10|0,0:0|0:0,0:0:0:0:
107,258,224358,1,0,3:2:0:0:
60,273,224439,1,0,3:2:0:0:
224,196,224601,1,0,3:2:0:0:
176,352,224764,1,10,0:0:0:0:
122,111,224926,6,0,L|263:105,1,132.999995941162,2|0,3:2|0:0,0:0:0:0:
400,94,225250,1,0,3:2:0:0:
170,36,225412,1,10,0:0:0:0:
334,165,225574,1,0,3:2:0:0:
334,165,225655,1,0,3:2:0:0:
334,165,225737,1,0,3:2:0:0:
167,198,225899,1,0,3:2:0:0:
471,189,226061,6,0,L|459:328,1,132.999995941162,10|0,0:0|0:0,0:0:0:0:
342,384,226385,1,0,3:2:0:0:
330,206,226547,1,0,3:2:0:0:
512,384,226710,1,8,0:0:0:0:
210,282,226872,5,8,0:0:0:0:
251,270,226953,1,8,0:0:0:0:
290,287,227034,1,8,0:0:0:0:
104,169,227196,6,0,L|174:155,1,66.4999979705811,2|0,3:2|0:0,0:0:0:0:
483,44,227520,6,0,L|413:30,1,66.4999979705811,2|0,3:2|0:0,0:0:0:0:
124,30,228493,5,8,0:0:0:0:
36,148,228655,2,0,L|66:145,1,28.5,2|0,3:2|0:0,0:0:0:0:
151,138,228980,6,0,P|156:196|213:249,1,132.999995941162,4|0,3:2|0:0,0:0:0:0:
315,283,229466,1,0,3:2:0:0:
423,247,229628,2,0,L|411:107,1,132.999995941162,8|0,0:0|0:0,0:0:0:0:
394,13,230115,2,0,L|460:5,2,66.4999979705811,0|0|0,3:2|0:0|3:2,0:0:0:0:
295,32,230601,1,0,0:0:0:0:
230,109,230764,1,0,0:0:0:0:
193,217,230926,2,0,P|158:191|78:223,1,132.999995941162,8|0,0:0|0:0,0:0:0:0:
330,384,231574,6,0,L|336:243,1,132.999995941162,2|0,3:2|0:0,0:0:0:0:
339,140,232061,1,0,3:2:0:0:
437,245,232223,2,0,L|431:104,1,132.999995941162,8|0,0:0|0:0,0:0:0:0:
422,15,232710,1,0,3:2:0:0:
505,97,232872,5,0,0:0:0:0:
352,46,233034,1,8,0:0:0:0:
337,160,233196,1,0,0:0:0:0:
197,15,233358,5,2,3:2:0:0:
166,181,233520,1,8,0:0:0:0:
80,70,233683,1,0,3:2:0:0:
180,100,233845,1,0,3:2:0:0:
253,171,234007,1,0,3:2:0:0:
267,301,234169,6,0,P|199:280|120:286,1,132.999995941162,2|0,3:2|0:0,0:0:0:0:
26,332,234655,1,0,3:2:0:0:
166,181,234817,2,0,P|93:197|33:192,1,132.999995941162,8|0,0:0|0:0,0:0:0:0:
16,96,235304,2,0,L|8:30,2,66.4999979705811,0|0|0,3:2|0:0|3:2,0:0:0:0:
130,104,235790,1,0,0:0:0:0:
236,67,235953,1,0,3:2:0:0:
91,7,236115,5,8,0:0:0:0:
71,156,236277,1,0,3:2:0:0:
236,67,236439,2,0,L|229:157,1,66.4999979705811,8|0,0:0|3:2,0:0:0:0:
204,320,236764,6,0,P|258:303|338:329,1,132.999995941162,2|0,3:2|0:0,0:0:0:0:
431,384,237250,1,0,3:2:0:0:
391,175,237412,5,2,3:2:0:0:
475,321,237574,1,0,3:2:0:0:
491,198,237737,1,0,3:2:0:0:
286,244,237899,6,0,P|286:168|264:92,2,132.999995941162,0|0|8,3:2|3:2|0:0,0:0:0:0:
91,318,238872,5,0,3:2:0:0:
81,144,239034,1,8,0:0:0:0:
193,284,239196,1,8,0:0:0:0:
193,284,239277,1,8,0:0:0:0:
193,284,239358,6,0,P|191:228|220:132,1,152,4|0,3:2|0:0,0:0:0:0:
258,46,239845,1,0,3:2:0:0:
120,150,240007,2,0,P|122:94|93:-2,1,152,8|0,0:0|0:0,0:0:0:0:
12,75,240493,2,0,L|1:0,2,76,0|0|0,3:2|0:0|3:2,0:0:0:0:
31,196,240980,1,0,0:0:0:0:
123,255,241142,1,0,3:2:0:0:
17,308,241304,6,0,L|7:406,2,76,8|0|0,0:0|3:2|0:0,0:0:0:0:
31,196,241791,1,0,3:2:0:0:
155,133,241953,6,0,B|208:173|240:113|311:157,1,152,2|0,3:2|0:0,0:0:0:0:
394,234,242439,1,0,3:2:0:0:
464,118,242601,2,0,P|416:120|338:47,1,152,2|0,3:2|0:0,0:0:0:0:
243,6,243088,5,0,3:2:0:0:
220,152,243250,1,0,0:0:0:0:
115,27,243412,1,2,3:2:0:0:
84,192,243574,1,0,0:0:0:0:
253,210,243737,5,0,3:2:0:0:
260,223,243818,1,0,3:2:0:0:
278,226,243899,1,0,3:2:0:0:
295,211,243980,1,0,3:2:0:0:
298,184,244061,1,8,0:0:0:0:
300,153,244142,1,8,0:0:0:0:
324,129,244223,1,8,0:0:0:0:
450,241,244385,5,8,0:0:0:0:
406,229,244466,1,8,0:0:0:0:
379,192,244547,6,0,P|384:261|399:293,1,76,2|0,3:2|0:0,0:0:0:0:
512,384,244872,1,0,3:2:0:0:
512,384,244953,1,0,3:2:0:0:
512,384,245034,1,0,3:2:0:0:
402,322,245196,1,8,0:0:0:0:
273,347,245358,1,0,3:2:0:0:
227,200,245520,6,0,L|217:289,2,76,2|0|0,3:2|3:2|0:0,0:0:0:0:
239,87,246007,1,0,3:2:0:0:
135,181,246169,1,0,3:2:0:0:
305,147,246331,1,8,0:0:0:0:
144,51,246493,1,0,3:2:0:0:
51,204,246655,1,0,3:2:0:0:
51,204,246737,1,0,3:2:0:0:
51,204,246818,6,0,P|116:203|158:215,2,76,2|0|2,3:2|3:2|3:2,0:0:0:0:
30,230,247223,1,0,3:2:0:0:
20,261,247304,1,0,3:2:0:0:
161,305,247466,1,0,3:2:0:0:
161,305,247547,1,0,3:2:0:0:
161,305,247628,5,8,0:0:0:0:
165,137,247791,1,0,3:2:0:0:
270,267,247953,1,0,3:2:0:0:
126,205,248115,1,0,3:2:0:0:
283,107,248277,1,8,0:0:0:0:
375,260,248439,6,0,L|368:138,1,114,2|0,3:2|0:0,0:0:0:0:
209,20,248926,5,0,3:2:0:0:
212,50,249007,1,0,3:2:0:0:
195,79,249088,1,0,3:2:0:0:
159,92,249169,1,0,3:2:0:0:
119,105,249250,1,0,3:2:0:0:
90,140,249331,1,0,3:2:0:0:
80,188,249412,1,8,0:0:0:0:
99,237,249493,1,8,0:0:0:0:
142,267,249574,1,8,0:0:0:0:
195,265,249655,1,8,0:0:0:0:
235,240,249737,5,4,3:2:0:0:
235,240,250061,5,0,3:2:0:0:
235,240,250385,5,0,3:2:0:0:
86,63,250710,5,0,3:2:0:0:
116,195,250872,1,0,0:0:0:0:
85,63,251034,5,0,3:2:0:0:
245,93,251196,1,8,0:0:0:0:
137,0,251358,1,0,3:2:0:0:
196,173,251520,1,8,0:0:0:0:
326,27,251683,6,0,L|319:114,2,66.4999979705811,2|0|0,3:2|3:2|3:2,0:0:0:0:
457,8,252169,1,0,3:2:0:0:
457,8,252250,1,0,3:2:0:0:
457,8,252331,6,0,P|454:96|439:168,1,132.999995941162,2|0,3:2|3:2,0:0:0:0:
399,233,252818,1,8,0:0:0:0:
262,133,252980,6,0,P|311:132|338:136,2,66.4999979705811,2|8|0,3:2|0:0|3:2,0:0:0:0:
102,199,253466,1,0,3:2:0:0:
243,293,253628,1,0,3:2:0:0:
190,194,253791,1,0,3:2:0:0:
161,285,253953,1,0,3:2:0:0:
136,97,254115,1,8,0:0:0:0:
13,280,254277,6,0,P|46:274|84:276,2,66.4999979705811,2|0|0,3:2|3:2|3:2,0:0:0:0:
0,384,254764,1,8,0:0:0:0:
0,384,254845,1,8,0:0:0:0:
0,384,254926,5,2,3:2:0:0:
0,384,255250,5,0,3:2:0:0:
160,373,255412,1,2,3:2:0:0:
193,243,255574,5,0,3:2:0:0:
193,243,255899,5,0,3:2:0:0:
304,356,256061,1,2,3:2:0:0:
395,236,256223,2,0,P|338:226|311:210,2,66.4999979705811,0|0|0,3:2|3:2|3:2,0:0:0:0:
512,133,256710,1,8,0:0:0:0:
336,22,256872,6,0,L|342:102,1,66.4999979705811,2|0,3:2|0:0,0:0:0:0:
241,182,257196,2,0,L|247:102,1,66.4999979705811,0|0,3:2|0:0,0:0:0:0:
250,73,257439,1,0,3:2:0:0:
256,25,257520,5,2,3:2:0:0:
120,83,257683,1,0,3:2:0:0:
250,73,257845,1,0,3:2:0:0:
114,0,258007,1,0,3:2:0:0:
160,158,258169,1,0,3:2:0:0:
5,11,258331,1,8,0:0:0:0:
9,222,258493,5,2,3:2:0:0:
141,257,258655,1,0,3:2:0:0:
253,219,258818,1,0,3:2:0:0:
188,186,258980,1,0,3:2:0:0:
145,187,259142,1,0,3:2:0:0:
298,136,259304,1,10,0:0:0:0:
184,18,259466,6,0,L|188:97,1,66.4999979705811,0|0,3:2|0:0,0:0:0:0:
195,212,259791,1,0,3:2:0:0:
213,231,259872,1,0,3:2:0:0:
242,231,259953,1,8,0:0:0:0:
269,212,260034,1,8,0:0:0:0:
283,178,260115,6,0,L|276:293,1,114,4|0,3:2|0:0,0:0:0:0:
275,331,260439,2,0,P|318:328|368:339,1,76,8|0,0:0|0:0,0:0:0:0:
483,376,260764,1,0,3:2:0:0:
354,257,260926,1,0,3:2:0:0:
464,162,261088,5,8,0:0:0:0:
470,283,261250,1,0,3:2:0:0:
278,93,261412,6,0,P|324:104|365:170,1,114,2|0,3:2|0:0,0:0:0:0:
367,199,261737,2,0,L|375:115,1,76,8|0,0:0|0:0,0:0:0:0:
277,184,262061,6,0,P|231:195|190:261,1,114,0|0,3:2|0:0,0:0:0:0:
188,290,262386,2,0,L|180:206,1,76,8|0,0:0|0:0,0:0:0:0:
168,69,262710,5,0,3:2:0:0:
84,184,262872,1,0,3:2:0:0:
258,61,263034,6,0,P|304:60|377:35,1,114,2|0,3:2|0:0,0:0:0:0:
388,11,263358,1,8,0:0:0:0:
404,110,263520,1,0,0:0:0:0:
441,196,263683,6,0,P|385:197|324:233,1,114,2|0,3:2|0:0,0:0:0:0:
319,255,264007,2,0,P|334:213|328:170,2,76,0|10|0,3:2|0:0|3:2,0:0:0:0:
234,321,264493,1,0,3:2:0:0:
150,137,264655,5,8,0:0:0:0:
130,290,264818,1,0,3:2:0:0:
34,127,264980,1,8,0:0:0:0:
216,207,265142,1,8,0:0:0:0:
216,207,265223,1,8,0:0:0:0:
216,207,265304,6,0,B|256:129|331:195|356:92,1,190,2|0,3:2|3:2,0:0:0:0:
288,24,265791,2,0,P|343:57|473:31,1,190,10|0,0:0|3:2,0:0:0:0:
464,127,266277,2,0,B|408:180|504:258|437:315,1,190,10|0,0:0|3:2,0:0:0:0:
383,384,266764,2,0,P|378:328|450:386,1,190,10|0,0:0|3:2,0:0:0:0:
291,380,267250,5,2,3:2:0:0:
316,238,267412,1,0,3:2:0:0:
179,350,267574,2,0,P|196:287|191:245,1,95,10|0,0:0|0:0,0:0:0:0:
92,146,267899,6,0,P|150:154|241:144,1,142.5,2|0,3:2|0:0,0:0:0:0:
309,116,268223,1,0,3:2:0:0:
216,57,268385,1,0,3:2:0:0:
294,201,268547,1,8,0:0:0:0:
363,3,268710,1,8,0:0:0:0:
220,230,268872,1,8,0:0:0:0:
432,82,269034,1,8,0:0:0:0:
256,192,269115,12,0,270385,0:0:0:0:
151,177,270493,5,4,3:2:0:0:
71,73,279574,6,0,L|78:172,1,85.4999973907472,0|0,3:2|0:0,0:0:0:0:
87,248,280061,2,0,L|127:243,5,28.4999991302491,0|0|0|0|0|0,3:2|3:2|3:2|3:2|3:2|3:2,0:0:0:0:
232,227,280628,2,0,P|231:188|235:153,1,56.9999982604981
236,127,280872,6,0,P|271:143|351:120,1,113.999996520996,2|0,0:0|3:2,0:0:0:0:
110,66,281520,2,0,P|111:122|95:199,1,113.999996520996,0|0,0:0|3:2,0:0:0:0:
178,358,282169,2,0,P|173:317|187:229,1,113.999996520996,0|0,0:0|3:2,0:0:0:0:
348,137,282818,2,0,P|338:188|388:204,1,113.999996520996,0|0,0:0|3:2,0:0:0:0:
512,293,283466,6,0,P|473:317|451:389,1,113.999996520996,2|0,0:0|3:2,0:0:0:0:
255,214,284115,2,0,P|294:238|316:310,1,113.999996520996,0|0,0:0|3:2,0:0:0:0:
67,120,284764,6,0,P|122:118|161:90,1,85.4999973907472,0|0,3:2|3:2,0:0:0:0:
171,77,285088,1,0,3:2:0:0:
297,25,285250,5,0,3:2:0:0:
296,36,285331,1,0,3:2:0:0:
293,49,285412,1,0,3:2:0:0:
296,65,285493,1,8,0:0:0:0:
310,78,285574,1,8,0:0:0:0:
332,82,285655,1,8,0:0:0:0:
354,74,285737,2,0,L|348:137,1,56.9999982604981,8|0,0:0|0:0,0:0:0:0:
336,214,286061,5,2,3:2:0:0:
114,178,286385,2,0,L|153:172,2,28.4999991302491,0|0|0,3:2|3:2|3:2,0:0:0:0:
19,199,286710,1,0,3:2:0:0:
40,242,286872,1,0,0:0:0:0:
105,290,287034,1,0,3:2:0:0:
210,300,287196,1,0,0:0:0:0:
28,320,287358,6,0,L|26:383,2,56.9999982604981,2|0|0,3:2|0:0|3:2,0:0:0:0:
40,242,287845,1,0,0:0:0:0:
182,335,288007,5,2,3:2:0:0:
86,170,288169,1,0,3:2:0:0:
86,170,288250,1,0,3:2:0:0:
86,170,288331,1,8,0:0:0:0:
245,205,288493,1,0,3:2:0:0:
319,33,290926,6,0,L|314:68,1,28.5,2|0,3:2|0:0,0:0:0:0:
306,142,291250,6,0,P|215:127|153:149,1,132.999995941162,4|0,3:2|0:0,0:0:0:0:
62,271,291574,2,0,P|153:286|215:264,1,132.999995941162,10|0,0:0|0:0,0:0:0:0:
217,257,291818,1,0,3:2:0:0:
236,224,291899,1,0,3:2:0:0:
57,362,292061,1,0,3:2:0:0:
268,354,292223,1,10,0:0:0:0:
453,112,292385,6,0,L|448:253,1,132.999995941162,2|0,3:2|0:0,0:0:0:0:
445,374,292710,1,0,3:2:0:0:
253,260,292872,1,10,0:0:0:0:
422,223,293034,1,0,3:2:0:0:
422,223,293115,1,0,3:2:0:0:
422,223,293196,1,0,3:2:0:0:
230,165,293358,1,0,3:2:0:0:
440,301,293520,6,0,P|493:248|484:172,1,132.999995941162,10|0,0:0|0:0,0:0:0:0:
394,70,293845,2,0,L|398:211,1,132.999995941162,2|0,3:2|0:0,0:0:0:0:
405,370,294169,1,10,0:0:0:0:
293,166,294331,1,0,3:2:0:0:
293,166,294412,1,0,3:2:0:0:
293,166,294493,1,0,3:2:0:0:
440,301,294655,1,0,3:2:0:0:
235,239,294818,1,10,0:0:0:0:
164,0,294980,6,0,P|157:83|139:135,1,132.999995941162,2|0,3:2|0:0,0:0:0:0:
43,237,295304,1,8,0:0:0:0:
3,18,295466,1,0,3:2:0:0:
40,17,295547,1,0,3:2:0:0:
73,35,295628,6,0,P|58:113|75:182,1,132.999995941162,2|0,3:2|0:0,0:0:0:0:
207,281,295953,1,0,3:2:0:0:
231,110,296115,1,10,0:0:0:0:
335,267,296277,1,0,3:2:0:0:
335,267,296358,1,0,3:2:0:0:
335,267,296439,6,0,L|324:121,1,132.999995941162,2|0,3:2|0:0,0:0:0:0:
432,10,296764,2,0,L|421:156,1,132.999995941162,10|0,0:0|0:0,0:0:0:0:
418,181,297007,1,0,3:2:0:0:
411,225,297088,1,0,3:2:0:0:
350,57,297250,1,0,3:2:0:0:
501,214,297412,1,10,0:0:0:0:
224,333,297574,6,0,P|289:364|350:357,1,132.999995941162,2|0,3:2|0:0,0:0:0:0:
493,315,297899,1,0,3:2:0:0:
303,253,298061,1,10,0:0:0:0:
448,121,298223,1,0,3:2:0:0:
448,121,298304,1,0,3:2:0:0:
448,121,298385,1,0,3:2:0:0:
406,290,298547,1,0,3:2:0:0:
250,31,298710,6,0,P|255:112|229:170,1,132.999995941162,10|0,0:0|0:0,0:0:0:0:
141,273,299034,1,0,3:2:0:0:
92,134,299196,1,0,3:2:0:0:
172,357,299358,1,10,0:0:0:0:
0,218,299520,5,8,0:0:0:0:
34,205,299601,1,8,0:0:0:0:
73,214,299683,1,0,3:2:0:0:
7,32,299845,1,0,3:2:0:0:
123,55,300007,1,0,3:2:0:0:
0,306,300169,6,0,P|76:294|126:315,1,132.999995941162,2|0,3:2|0:0,0:0:0:0:
226,384,300493,1,0,3:2:0:0:
209,123,300655,5,10,0:0:0:0:
201,296,300818,1,0,3:2:0:0:
115,48,300980,5,2,3:2:0:0:
210,220,301142,1,8,0:0:0:0:
262,210,301223,1,8,0:0:0:0:
307,182,301304,1,8,0:0:0:0:
339,140,301385,1,8,0:0:0:0:
380,106,301466,1,8,0:0:0:0:
433,102,301547,1,8,0:0:0:0:
472,137,301628,6,0,P|441:202|445:270,1,132.999995941162,4|0,3:2|0:0,0:0:0:0:
512,384,301953,2,0,P|442:346|375:343,1,132.999995941162,10|0,0:0|0:0,0:0:0:0:
347,347,302196,1,0,3:2:0:0:
310,366,302277,1,0,3:2:0:0:
359,195,302439,1,0,3:2:0:0:
192,270,302601,1,10,0:0:0:0:
243,11,302764,6,0,L|254:149,1,132.999995941162,2|0,3:2|0:0,0:0:0:0:
276,291,303088,1,0,3:2:0:0:
156,117,303250,1,10,0:0:0:0:
351,144,303412,1,0,3:2:0:0:
351,144,303493,1,0,3:2:0:0:
351,144,303574,1,0,3:2:0:0:
192,270,303737,1,0,3:2:0:0:
27,61,303899,6,0,L|17:204,1,132.999995941162,10|0,0:0|0:0,0:0:0:0:
118,361,304223,2,0,L|108:218,1,132.999995941162,2|0,3:2|0:0,0:0:0:0:
120,50,304547,1,10,0:0:0:0:
273,229,304710,1,0,3:2:0:0:
273,229,304791,1,0,3:2:0:0:
273,229,304872,1,0,3:2:0:0:
44,221,305034,1,0,3:2:0:0:
238,110,305196,1,10,0:0:0:0:
367,384,305358,6,0,L|376:243,1,132.999995941162,2|0,3:2|0:0,0:0:0:0:
387,82,305683,1,0,3:2:0:0:
463,263,305845,1,10,0:0:0:0:
236,170,306007,6,0,P|300:171|383:159,1,132.999995941162,2|0,3:2|0:0,0:0:0:0:
492,105,306331,1,0,3:2:0:0:
295,21,306493,1,10,0:0:0:0:
214,218,306655,1,0,3:2:0:0:
217,179,306737,1,0,3:2:0:0:
239,144,306818,6,0,P|241:241|226:294,1,132.999995941162,2|0,3:2|0:0,0:0:0:0:
85,384,307142,2,0,P|83:287|98:234,1,132.999995941162,10|0,0:0|0:0,0:0:0:0:
109,224,307385,1,0,3:2:0:0:
138,196,307466,1,0,3:2:0:0:
0,336,307628,1,0,3:2:0:0:
17,118,307791,1,10,0:0:0:0:
312,217,307953,6,0,P|216:209|180:179,1,132.999995941162,2|0,3:2|0:0,0:0:0:0:
97,76,308277,1,0,3:2:0:0:
328,95,308439,1,10,0:0:0:0:
91,252,308601,1,0,3:2:0:0:
91,252,308683,1,0,3:2:0:0:
91,252,308764,1,0,3:2:0:0:
195,85,308926,1,0,3:2:0:0:
403,292,309088,6,0,P|322:269|243:269,1,132.999995941162,10|0,0:0|0:0,0:0:0:0:
129,341,309412,1,0,3:2:0:0:
287,353,309574,1,0,3:2:0:0:
234,140,309737,1,10,0:0:0:0:
459,212,309899,1,8,0:0:0:0:
424,182,309980,1,8,0:0:0:0:
416,134,310061,1,10,0:0:0:0:
385,362,310223,6,0,P|383:271|360:222,1,132.999995941162,2|0,3:2|0:0,0:0:0:0:
244,121,310547,1,8,0:0:0:0:
8,31,311683,6,0,L|37:28,1,28.5,2|0,3:2|0:0,0:0:0:0:
108,20,312007,6,0,P|104:100|126:179,1,132.999995941162,4|0,3:2|0:0,0:0:0:0:
271,260,312331,2,0,P|275:180|253:101,1,132.999995941162,10|0,0:0|0:0,0:0:0:0:
237,102,312574,1,0,3:2:0:0:
197,84,312655,1,0,3:2:0:0:
182,277,312818,1,0,3:2:0:0:
356,176,312980,1,10,0:0:0:0:
506,384,313142,6,0,P|419:357|364:362,1,132.999995941162,2|0,3:2|0:0,0:0:0:0:
238,379,313466,1,0,3:2:0:0:
331,218,313628,1,8,0:0:0:0:
278,231,313710,1,0,3:2:0:0:
225,216,313791,1,0,3:2:0:0:
187,176,313872,1,0,3:2:0:0:
181,122,313953,1,0,3:2:0:0:
232,298,314115,1,0,3:2:0:0:
405,8,314277,6,0,L|256:10,1,132.999995941162,10|0,0:0|0:0,0:0:0:0:
88,71,314601,2,0,L|237:73,1,132.999995941162,2|0,3:2|0:0,0:0:0:0:
369,67,314926,1,10,0:0:0:0:
248,191,315088,1,0,3:2:0:0:
248,191,315169,1,0,3:2:0:0:
248,191,315250,1,0,3:2:0:0:
310,0,315412,1,0,3:2:0:0:
87,41,315574,1,10,0:0:0:0:
88,335,315737,6,0,P|96:260|129:206,1,132.999995941162,2|0,3:2|0:0,0:0:0:0:
243,85,316061,1,10,0:0:0:0:
255,260,316223,1,0,3:2:0:0:
216,245,316304,1,0,3:2:0:0:
200,208,316385,6,0,P|212:284|246:337,1,132.999995941162,2|0,3:2|0:0,0:0:0:0:
389,377,316710,1,0,3:2:0:0:
364,197,316872,1,10,0:0:0:0:
493,370,317034,1,0,3:2:0:0:
493,370,317115,1,0,3:2:0:0:
493,370,317196,6,0,L|502:222,1,132.999995941162,2|0,3:2|0:0,0:0:0:0:
387,75,317520,2,0,L|396:223,1,132.999995941162,10|0,0:0|0:0,0:0:0:0:
399,252,317764,1,0,3:2:0:0:
403,295,317845,1,0,3:2:0:0:
484,132,318007,1,0,3:2:0:0:
317,236,318169,1,10,0:0:0:0:
284,0,318331,6,0,P|265:77|210:107,1,132.999995941162,2|0,3:2|0:0,0:0:0:0:
55,121,318655,1,0,3:2:0:0:
194,11,318818,1,10,0:0:0:0:
146,189,318980,1,0,3:2:0:0:
146,189,319061,1,0,3:2:0:0:
146,189,319142,1,0,3:2:0:0:
322,122,319304,1,0,3:2:0:0:
93,304,319466,6,0,P|166:293|239:311,1,132.999995941162,2|0,3:2|0:0,0:0:0:0:
384,358,319791,1,0,3:2:0:0:
229,384,319953,1,0,3:2:0:0:
354,172,320115,1,10,0:0:0:0:
312,370,320277,5,0,3:2:0:0:
291,327,320358,1,0,3:2:0:0:
296,279,320439,1,2,3:2:0:0:
497,168,320601,1,0,3:2:0:0:
423,279,320764,1,0,3:2:0:0:
452,45,320926,6,0,P|376:77|317:68,1,132.999995941162,2|0,3:2|0:0,0:0:0:0:
178,13,321250,1,0,3:2:0:0:
214,243,321412,5,10,0:0:0:0:
237,68,321574,1,0,3:2:0:0:
108,307,321737,5,2,3:2:0:0:
266,142,321899,1,8,0:0:0:0:
215,157,321980,1,8,0:0:0:0:
165,138,322061,1,8,0:0:0:0:
135,93,322142,2,0,P|95:91|54:107,1,66.4999979705811,8|8,0:0|0:0,0:0:0:0:
0,169,322304,1,8,0:0:0:0:
2,214,322385,6,0,B|80:249|129:135|229:159,1,227.999993041992,4|0,3:2|0:0,0:0:0:0:
360,152,322872,1,0,3:2:0:0:
281,42,323034,2,0,L|287:166,2,113.999996520996,8|0|0,0:0|0:0|0:0,0:0:0:0:
142,0,323520,6,0,L|136:113,1,113.999996520996,2|0,3:2|0:0,0:0:0:0:
138,267,323845,2,0,P|209:264|283:280,2,113.999996520996,0|0|0,3:2|0:0|3:2,0:0:0:0:
0,322,324331,1,8,0:0:0:0:
167,350,324493,1,0,3:2:0:0:
51,192,324655,1,0,0:0:0:0:
225,152,324818,1,0,3:2:0:0:
225,152,324899,1,0,3:2:0:0:
225,152,324980,6,0,B|315:171|355:54|443:75,1,227.999993041992,2|0,3:2|0:0,0:0:0:0:
512,198,325466,1,0,3:2:0:0:
431,72,325628,1,8,0:0:0:0:
424,268,325791,2,0,P|426:200|402:123,1,113.999996520996
148,245,326115,6,0,B|230:274|304:244|304:244|300:203|320:161,2,227.999993041992,2|8|2,3:2|0:0|3:2,0:0:0:0:
5,118,326926,1,8,0:0:0:0:
169,115,327088,1,0,3:2:0:0:
73,197,327250,1,0,3:2:0:0:
88,101,327412,1,0,0:0:0:0:
238,232,327574,6,0,B|228:137|360:125|328:26,1,227.999993041992,4|0,3:2|0:0,0:0:0:0:
376,164,328061,1,0,3:2:0:0:
192,102,328223,1,8,0:0:0:0:
238,232,328385,1,0,3:2:0:0:
238,232,328466,1,0,3:2:0:0:
238,232,328547,1,0,3:2:0:0:
54,131,328710,6,0,P|64:215|27:357,2,227.999993041992,2|8|2,3:2|0:0|3:2,0:0:0:0:
0,0,329520,1,0,3:2:0:0:
156,29,329683,1,0,3:2:0:0:
20,69,329845,1,8,0:0:0:0:
121,94,330007,1,0,0:0:0:0:
0,215,330169,5,0,3:2:0:0:
231,190,330331,1,0,3:2:0:0:
231,190,330493,1,0,3:2:0:0:
319,354,330655,6,0,L|321:297,1,56.9999982604981,8|0,0:0|0:0,0:0:0:0:
324,181,330818,1,0,3:2:0:0:
435,59,330980,6,0,L|437:115,1,56.9999982604981,8|0,0:0|0:0,0:0:0:0:
440,232,331143,1,0,3:2:0:0:
332,94,331304,5,10,0:0:0:0:
332,94,331628,5,0,3:2:0:0:
332,94,331953,5,0,3:2:0:0:
332,94,332277,5,0,3:2:0:0:
186,45,332439,2,0,P|211:92|215:142,1,99.7499969558717,2|0,3:2|0:0,0:0:0:0:
204,182,332764,6,0,B|237:97|334:89|334:89|331:178|401:132|432:193|432:193|362:260|428:318,1,465.499985794068,2|0,3:2|0:0,0:0:0:0:
512,384,334061,1,8,0:0:0:0:
131,328,334385,5,0,3:2:0:0:
183,267,334547,1,0,3:2:0:0:
227,370,334710,1,8,0:0:0:0:
69,235,334872,1,8,0:0:0:0:
289,240,335034,1,8,0:0:0:0:
36,314,335196,1,12,0:0:0:0:
