osu file format v14

[General]
AudioFilename: audio.mp3
AudioLeadIn: 0
PreviewTime: 59372
Countdown: 0
SampleSet: Soft
StackLeniency: 0.5
Mode: 0
LetterboxInBreaks: 0
WidescreenStoryboard: 0

[Editor]
DistanceSpacing: 1.36
BeatDivisor: 8
GridSize: 8
TimelineZoom: 1.740001

[Metadata]
Title:Time and again
TitleUnicode:Time and again
Artist:FELT
ArtistUnicode:FELT
Creator:MokouSmoke
Version:Lunatic
Source:東方星蓮船 ~ Undefined Fantastic Object.
Tags:Maika 舞花 Mika 美歌 NAGI☆Flying Fantastica touhou ZUN Byakuren Hijiri 感情の摩天楼 Emotional Skyscraper Cosmic Mind C93
BeatmapID:1508977
BeatmapSetID:713989

[Difficulty]
HPDrainRate:6
CircleSize:4
OverallDifficulty:8
ApproachRate:9
SliderMultiplier:1.8
SliderTickRate:1

[Events]
//Background and Video events
0,0,"FELT024.jpg",0,0
//Break Periods
2,79640,84263
2,159639,169687
//Storyboard Layer 0 (Background)
//Storyboard Layer 1 (Fail)
//Storyboard Layer 2 (Pass)
//Storyboard Layer 3 (Foreground)
//Storyboard Sound Samples

[TimingPoints]
796,338.983050847458,4,2,1,40,1,0
796,-111.111111111111,4,2,1,40,0,0
1982,-111.111111111111,4,2,3,40,0,0
11643,-111.111111111111,4,2,2,40,0,0
12829,-111.111111111111,4,2,3,40,0,0
12999,-111.111111111111,4,2,2,40,0,0
14185,-111.111111111111,4,2,3,40,0,0
14355,-111.111111111111,4,2,2,40,0,0
15541,-111.111111111111,4,2,3,40,0,0
15711,-111.111111111111,4,2,2,40,0,0
16897,-111.111111111111,4,2,3,40,0,0
17067,-111.111111111111,4,2,2,40,0,0
18253,-111.111111111111,4,2,3,40,0,0
18423,-111.111111111111,4,2,2,40,0,0
19609,-111.111111111111,4,2,3,40,0,0
19779,-111.111111111111,4,2,2,40,0,0
20796,-111.111111111111,4,2,2,50,0,0
22151,-200,4,2,1,60,0,0
22490,-86.9565217391304,4,2,1,80,0,0
33338,-100,4,2,1,50,0,0
48253,-100,4,2,2,35,0,0
48592,-100,4,2,1,50,0,0
49101,-100,4,2,1,40,0,0
49609,-100,4,2,1,40,0,0
55033,-200,4,2,1,30,0,0
59440,-86.9565217391304,4,2,1,80,0,0
60457,-86.9565217391304,4,2,1,80,0,1
79440,-100,4,2,1,50,0,0
108253,-86.9565217391304,4,2,1,80,0,0
109270,-86.9565217391304,4,2,1,80,0,1
128253,-100,4,2,1,65,0,0
150965,-100,4,2,1,72,0,0
156728,-200,4,2,1,65,0,0
157406,-200,4,2,1,50,0,0
158084,-200,4,2,1,40,0,0
158762,-200,4,2,1,30,0,0
170287,-100,4,2,2,60,0,0
175033,-100,4,2,2,40,0,0
175711,-100,4,2,2,20,0,0
177406,-86.9565217391304,4,2,1,80,0,0
178423,-86.9565217391304,4,2,1,80,0,1
197236,-86.9565217391304,4,2,1,80,0,0
197406,-86.9565217391304,4,2,1,80,0,1
200118,-86.9565217391304,4,2,1,35,0,0

[Colours]
Combo1 : 198,198,198
Combo2 : 164,32,88
Combo3 : 23,137,147
Combo4 : 219,98,129
Combo5 : 34,179,132

[HitObjects]
43,96,796,6,0,P|84:95|126:97,1,80.9999975280763,4|0,0:3|0:0,0:0:0:0:
175,171,1134,1,0,0:0:0:0:
262,187,1304,1,0,0:0:0:0:
344,152,1473,1,0,0:0:0:0:
333,240,1643,2,0,P|297:269|249:275,1,80.9999975280763
168,81,1982,6,0,P|240:111|261:186,1,161.999995056153,2|0,0:0|0:0,0:0:0:0:
204,253,2490,1,0,0:0:0:0:
116,273,2660,1,0,0:0:0:0:
34,242,2829,1,0,0:0:0:0:
49,330,2999,2,0,P|81:355|133:359,1,80.9999975280763
204,162,3338,6,0,P|134:196|116:272,1,161.999995056153,2|0,0:0|0:0,0:0:0:0:
204,253,3846,1,0,0:0:0:0:
204,162,4016,1,0,0:0:0:0:
156,86,4185,1,0,0:0:0:0:
244,82,4355,2,0,P|276:108|291:144,1,80.9999975280763
116,272,4694,6,0,P|134:196|204:161,1,161.999995056153,2|0,0:0|0:0,0:0:0:0:
261,228,5202,1,0,0:0:0:0:
348,210,5372,1,0,0:0:0:0:
377,126,5541,1,0,0:0:0:0:
436,192,5711,1,0,0:0:0:0:
407,277,5880,1,0,0:0:0:0:
338,45,6050,22,0,P|416:45|463:107,1,161.999995056153,2|0,0:0|0:0,0:0:0:0:
436,192,6558,1,0,0:0:0:0:
348,210,6728,1,0,0:0:0:0:
266,178,6897,1,0,0:0:0:0:
279,265,7067,2,0,P|311:290|362:295,1,80.9999975280763
335,123,7406,6,0,B|309:90|265:90|265:90|221:90|195:56,1,161.999995056153,2|0,0:0|0:0,0:0:0:0:
120,105,7914,1,0,0:0:0:0:
88,186,8084,1,0,0:0:0:0:
107,275,8253,1,0,0:0:0:0:
34,324,8423,2,0,P|19:287|22:247,1,80.9999975280763
195,347,8762,6,0,P|275:346|356:339,1,161.999995056153,2|0,0:0|0:0,0:0:0:0:
444,355,9270,2,0,P|416:272|345:250,1,161.999995056153
275,211,9779,1,0,0:0:0:0:
234,131,9948,1,0,0:0:0:0:
240,42,10118,1,0,0:0:0:0:
351,249,10457,5,0,0:0:0:0:
275,211,10626,1,0,0:0:0:0:
234,131,10796,1,0,0:0:0:0:
240,42,10965,1,0,0:0:0:0:
234,131,11134,2,0,L|192:134,2,26.9999991760254
187,207,11304,2,0,L|145:210,2,26.9999991760254
107,264,11473,2,0,L|65:267,2,26.9999991760254
148,329,11643,22,0,P|188:328|228:324,1,80.9999975280763,0|0,3:0|0:0,0:0:0:0:
285,254,11982,1,2,0:0:0:0:
372,245,12151,1,0,0:0:0:0:
442,298,12321,1,2,0:0:0:0:
385,156,12490,1,2,0:0:0:0:
442,298,12660,1,2,0:0:0:0:
285,254,12829,6,0,P|311:181|386:156,1,161.999995056153,2|0,0:0|0:0,0:0:0:0:
455,210,13338,1,2,0:0:0:0:
486,127,13507,1,0,0:0:0:0:
471,40,13677,1,2,0:0:0:0:
385,156,13846,1,2,0:0:0:0:
471,40,14016,1,2,0:0:0:0:
310,103,14185,6,0,B|232:103|232:65|155:65,1,161.999995056153,2|0,0:0|0:0,0:0:0:0:
174,149,14694,1,2,0:0:0:0:
138,230,14863,1,0,0:0:0:0:
62,281,15033,1,0,0:0:0:0:
202,295,15202,2,0,P|225:257|228:217,1,80.9999975280763,2|0,0:0|0:0,0:0:0:0:
41,127,15541,6,0,P|64:201|138:230,1,161.999995056153,2|0,2:0|2:0,2:0:0:0:
228,221,16050,1,0,0:0:0:0:
307,263,16219,1,0,0:0:0:0:
353,341,16389,1,2,0:0:0:0:
365,192,16558,1,2,0:0:0:0:
353,341,16728,1,2,0:0:0:0:
228,221,16897,22,0,P|295:172|369:196,1,161.999995056153,2|0,0:0|0:0,0:0:0:0:
307,263,17406,1,2,0:0:0:0:
228,221,17575,1,0,0:0:0:0:
183,141,17745,1,0,0:0:0:0:
160,280,17914,2,0,P|193:302|232:310,1,80.9999975280763,2|0,0:0|0:0,0:0:0:0:
365,192,18253,6,0,P|289:173|228:220,1,161.999995056153,2|0,0:0|0:0,0:0:0:0:
307,263,18762,1,2,0:0:0:0:
365,192,18931,1,0,0:0:0:0:
376,105,19101,1,0,0:0:0:0:
237,124,19270,2,0,P|195:124|155:120,1,80.9999975280763,2|0,0:0|0:0,0:0:0:0:
25,192,19609,6,0,P|103:212|184:221,1,161.999995056153,2|0,0:0|0:0,0:0:0:0:
370,158,20118,2,0,L|376:199,1,40.4999987640381,2|2,0:0|0:0,0:0:0:0:
405,264,20287,2,0,L|370:290,1,40.4999987640381,2|2,0:0|0:0,0:0:0:0:
333,349,20457,2,0,L|291:335,1,40.4999987640381,2|2,0:0|0:0,0:0:0:0:
224,325,20626,2,0,L|215:283,1,40.4999987640381,2|2,0:0|0:0,0:0:0:0:
184,221,20796,5,0,0:0:0:0:
294,336,20965,1,0,0:0:0:0:
375,198,21134,1,0,0:0:0:0:
380,188,21473,21,0,0:0:0:0:
385,179,21812,5,0,0:0:0:0:
277,152,21982,1,0,0:0:0:0:
392,289,22151,38,0,L|459:286,1,67.5,4|0,0:3|0:0,0:0:0:0:
294,336,22490,6,0,L|178:344,1,103.500001974106,4|2,1:2|0:0,0:0:0:0:
178,213,22829,1,2,0:0:0:0:
387,354,22999,2,0,B|426:318|423:260|423:260|474:234|486:182,1,207.000003948212,0|2,1:0|0:0,0:0:0:0:
311,97,23507,5,0,1:0:0:0:
253,211,23677,1,2,0:0:0:0:
138,152,23846,1,2,0:0:0:0:
378,239,24016,2,0,P|429:240|485:234,1,103.500001974106,4|2,1:2|0:0,0:0:0:0:
311,97,24355,1,2,0:0:0:0:
286,333,24524,5,0,1:0:0:0:
253,211,24694,1,2,0:0:0:0:
410,364,24863,1,4,1:2:0:0:
161,305,25033,5,2,0:0:0:0:
137,315,25118,1,2,0:0:0:0:
114,326,25202,2,0,B|11:342,1,103.500001974106,0|2,1:0|0:0,0:0:0:0:
59,202,25541,1,2,0:0:0:0:
286,333,25711,2,0,B|357:310|377:237|377:237|458:224,1,207.000003948212,0|2,1:0|0:0,0:0:0:0:
219,87,26219,21,0,1:0:0:0:
253,211,26389,1,2,0:0:0:0:
59,202,26558,1,2,0:0:0:0:
286,333,26728,1,4,1:2:0:0:
253,211,26897,2,0,P|202:201|151:197,1,103.500001974106,2|2,0:0|0:0,0:0:0:0:
13,321,27236,5,0,1:0:0:0:
102,122,27406,1,0,1:0:0:0:
97,93,27490,1,0,1:0:0:0:
93,67,27575,1,0,1:0:0:0:
245,287,27745,5,0,1:0:0:0:
270,293,27829,1,0,1:0:0:0:
296,299,27914,2,0,L|397:288,1,103.500001974106,4|2,1:2|0:0,0:0:0:0:
471,159,28253,1,2,0:0:0:0:
253,195,28423,2,0,B|207:142|207:142|239:73|198:11,1,207.000003948212,0|2,1:0|0:0,0:0:0:0:
30,198,28931,5,0,1:0:0:0:
207,142,29101,1,2,0:0:0:0:
92,83,29270,1,2,0:0:0:0:
162,305,29440,2,0,B|291:320,1,103.500001974106,4|2,1:2|0:0,0:0:0:0:
386,225,29779,1,2,0:0:0:0:
258,62,29948,21,0,1:2:0:0:
261,189,30118,1,2,0:0:0:0:
457,120,30287,1,0,1:0:0:0:
258,62,30457,5,2,0:0:0:0:
233,71,30541,1,2,0:0:0:0:
209,81,30626,2,0,B|106:92,1,103.500001974106,0|2,1:0|0:0,0:0:0:0:
358,201,30965,1,2,0:0:0:0:
384,202,31050,1,2,0:0:0:0:
409,204,31134,1,0,1:0:0:0:
323,61,31304,1,2,0:0:0:0:
210,232,31473,5,2,0:0:0:0:
185,241,31557,1,2,0:0:0:0:
161,251,31643,2,2,B|58:262,2,103.500001974106,0|2|2,1:0|0:0|0:0,0:0:0:0:
358,201,32151,2,2,B|466:209,2,103.500001974106,0|2|2,1:0|0:0|0:0,0:0:0:0:
226,99,32660,1,4,1:2:0:0:
268,258,32829,1,8,0:3:0:0:
114,110,32999,1,4,0:3:0:0:
114,110,33338,6,0,B|101:163|101:163|129:226|129:226|116:281,1,180,2|0,0:0|0:0,0:0:0:0:
202,154,33846,2,0,L|307:148,1,90,8|0,0:0|0:0,0:0:0:0:
373,205,34185,1,2,0:0:0:0:
205,275,34355,2,0,L|115:280,1,90,8|0,0:0|0:0,0:0:0:0:
375,376,34694,22,0,B|388:321|388:321|360:258|360:258|373:205,1,180
401,18,35202,2,0,B|380:106,1,90,2|0,0:0|0:0,0:0:0:0:
202,154,35541,1,2,0:0:0:0:
373,204,35711,1,8,0:0:0:0:
209,55,35880,5,4,0:3:0:0:
187,60,35965,1,4,0:3:0:0:
165,66,36050,2,0,L|55:77,1,90,2|0,0:0|0:0,0:0:0:0:
0,139,36389,1,0,0:0:0:0:
105,261,36558,2,0,L|194:252,1,90,8|0,0:0|0:0,0:0:0:0:
202,154,36897,1,2,0:0:0:0:
186,349,37067,1,8,0:0:0:0:
70,178,37236,5,4,0:3:0:0:
91,170,37321,1,4,0:3:0:0:
112,162,37406,2,0,L|201:153,1,90,2|2,0:0|0:0,0:0:0:0:
325,223,37745,2,0,L|366:226,2,22.5,2|2|2,0:3|0:3|0:3,0:0:0:0:
424,201,37914,2,0,B|435:159|435:159|437:112,1,90,8|0,0:0|0:0,0:0:0:0:
405,278,38253,1,2,0:0:0:0:
437,112,38423,1,8,0:0:0:0:
253,205,38592,5,4,0:3:0:0:
231,211,38677,1,4,0:3:0:0:
208,216,38762,2,0,B|154:225|154:225|93:192|93:192|37:201,1,180,2|0,0:0|0:0,0:0:0:0:
171,122,39270,2,0,L|178:21,1,90,8|0,0:0|0:0,0:0:0:0:
271,136,39609,1,2,0:0:0:0:
71,108,39779,1,8,0:0:0:0:
120,231,39948,22,0,B|209:216,1,90
303,51,40287,2,0,B|271:135,1,90,2|0,0:0|0:0,0:0:0:0:
367,299,40626,2,0,B|309:229,1,90,2|0,0:0|0:0,0:0:0:0:
120,231,40965,1,2,0:0:0:0:
309,229,41134,1,8,0:0:0:0:
5,16,41473,6,0,B|21:67|21:67|-1:132|-1:132|14:187,1,180,2|0,0:0|0:0,0:0:0:0:
146,317,41982,2,0,B|120:231,1,90,8|0,0:0|0:0,0:0:0:0:
106,117,42321,1,2,0:0:0:0:
235,246,42490,1,8,0:0:0:0:
14,187,42660,5,2,0:0:0:0:
22,207,42745,1,2,0:0:0:0:
29,226,42829,2,0,B|129:232,1,90,2|2,0:0|0:0,0:0:0:0:
271,176,43168,2,0,L|273:141,2,22.5,2|2|2,0:3|0:3|0:3,0:0:0:0:
313,242,43338,2,0,B|354:253|354:253|401:255,1,90,8|0,0:0|0:0,0:0:0:0:
235,246,43677,1,2,0:0:0:0:
401,255,43846,1,8,0:0:0:0:
193,180,44016,1,2,0:0:0:0:
193,180,44101,1,2,0:0:0:0:
193,180,44185,1,2,0:0:0:0:
460,81,44524,5,0,0:0:0:0:
401,255,44694,2,0,L|407:165,1,90,8|0,0:0|0:0,0:0:0:0:
460,81,45033,1,2,0:0:0:0:
301,186,45202,2,0,L|211:185,1,90,8|2,0:0|0:0,0:0:0:0:
43,129,45541,22,0,P|87:138|130:125,1,90,4|0,0:0|0:0,0:0:0:0:
147,111,45796,1,0,0:0:0:0:
164,96,45880,1,0,0:0:0:0:
301,186,46050,2,0,L|390:186,1,90,8|0,0:0|0:0,0:0:0:0:
343,69,46389,1,2,0:0:0:0:
211,185,46558,1,8,0:0:0:0:
217,41,46728,5,4,0:3:0:0:
235,55,46812,1,4,0:3:0:0:
253,69,46897,2,0,L|343:69,1,90,2|0,0:0|0:0,0:0:0:0:
301,186,47236,1,2,0:0:0:0:
121,188,47406,2,0,B|123:141|123:141|143:81,1,90,8|0,0:0|0:0,0:0:0:0:
217,41,47745,1,2,0:0:0:0:
212,230,47914,1,8,0:0:0:0:
375,355,48084,5,2,0:0:0:0:
375,355,48168,1,2,0:0:0:0:
375,355,48253,2,2,B|401:331|401:331|402:306|402:306|420:282|420:282|404:257|404:257|406:232|406:232|382:206,1,180,12|0,1:2|0:0,0:0:0:0:
212,230,48762,2,0,L|115:223,1,90,8|0,0:0|0:0,0:0:0:0:
320,151,49101,2,0,L|321:127,2,22.5,2|2|2,0:3|0:3|0:3,0:0:0:0:
383,207,49270,2,0,L|432:210,1,45,8|2,0:0|0:3,0:0:0:0:
381,285,49440,2,0,L|426:288,1,45,2|2,0:3|0:3,0:0:0:0:
314,322,49609,6,0,B|259:318|259:318|206:272|206:272|149:268,1,180,2|0,0:0|0:0,0:0:0:0:
314,175,50118,2,0,L|320:81,1,90,8|0,0:0|0:0,0:0:0:0:
390,16,50457,1,2,0:0:0:0:
220,87,50626,1,8,0:0:0:0:
413,187,50796,22,0,L|501:191,1,90,6|0,0:0|0:0,0:0:0:0:
309,91,51134,2,0,L|217:86,1,90,2|0,0:0|0:0,0:0:0:0:
333,285,51473,2,0,L|441:290,1,90,8|0,0:0|0:0,0:0:0:0:
314,175,51812,1,2,0:0:0:0:
256,352,51982,1,8,0:0:0:0:
65,261,52151,1,4,0:3:0:0:
59,238,52236,1,4,0:3:0:0:
55,215,52321,6,0,B|47:160|47:160|82:100|82:100|75:44,1,180,2|0,0:0|0:0,0:0:0:0:
151,180,52829,2,0,B|250:184,1,90,8|0,0:0|0:0,0:0:0:0:
323,127,53168,1,2,0:0:0:0:
151,180,53338,1,8,0:0:0:0:
329,252,53507,5,4,0:3:0:0:
351,252,53592,1,4,0:3:0:0:
373,253,53677,1,2,0:0:0:0:
509,162,53846,2,0,P|464:157|421:167,1,90,2|2,0:0|0:0,0:0:0:0:
325,339,54185,2,0,P|413:342|470:276,1,180,2|0,0:0|0:0,0:0:0:0:
373,253,54694,2,0,B|283:249,1,90
225,330,55033,22,0,P|191:209|302:151,1,270
283,249,56389,2,0,B|161:248|197:161|41:146,1,270
22,244,57745,2,0,P|133:186|100:66,1,270
40,146,59101,1,0,0:0:0:0:
253,255,59440,5,0,0:0:0:0:
333,109,59609,1,0,0:0:0:0:
177,168,59779,1,0,0:0:0:0:
333,224,59948,1,0,0:0:0:0:
127,280,60118,2,0,L|24:288,1,103.500001974106,4|0,0:3|0:0,0:0:0:0:
230,100,60457,6,0,L|333:109,1,103.500001974106,4|2,1:2|0:0,0:0:0:0:
512,194,60796,1,2,0:0:0:0:
381,241,60965,1,0,1:0:0:0:
465,63,61134,1,2,0:0:0:0:
512,194,61304,1,2,0:0:0:0:
339,330,61473,1,0,1:0:0:0:
423,152,61643,1,2,0:0:0:0:
428,372,61812,5,2,0:0:0:0:
234,266,61982,2,2,L|130:265,1,103.500001974106,4|2,1:2|0:0,0:0:0:0:
339,330,62321,1,2,0:0:0:0:
460,256,62490,2,2,L|467:152,1,103.500001974106,2|2,1:2|0:0,0:0:0:0:
443,366,62829,1,0,1:0:0:0:
356,180,62999,5,2,0:0:0:0:
335,195,63084,1,2,0:0:0:0:
314,210,63168,2,2,L|210:209,1,103.500001974106,4|2,1:2|0:0,0:0:0:0:
37,303,63507,1,2,0:0:0:0:
76,170,63677,1,0,1:0:0:0:
170,342,63846,1,2,0:0:0:0:
37,303,64016,1,2,0:0:0:0:
210,209,64185,1,0,1:0:0:0:
115,37,64355,1,2,0:0:0:0:
76,170,64524,21,2,0:0:0:0:
248,75,64694,2,0,B|299:90|329:138|329:138|380:163|429:151,1,207.000003948212,4|2,1:2|0:0,0:0:0:0:
397,17,65202,1,8,0:3:0:0:
210,209,65372,1,0,1:0:0:0:
210,209,65457,1,0,1:0:0:0:
210,209,65541,1,4,0:3:0:0:
329,281,65711,1,4,0:3:0:0:
104,299,65880,6,2,L|0:298,1,103.500001974106,4|2,1:2|0:0,0:0:0:0:
76,170,66219,1,2,0:0:0:0:
238,338,66389,2,2,L|342:339,1,103.500001974106,0|2,1:0|0:0,0:0:0:0:
266,210,66728,1,2,0:0:0:0:
76,170,66897,2,0,B|68:126|68:126|71:67,1,103.500001974106,0|2,1:0|0:0,0:0:0:0:
155,263,67236,5,2,0:0:0:0:
200,59,67406,1,0,1:0:0:0:
76,170,67575,1,2,0:0:0:0:
235,222,67745,1,2,0:0:0:0:
359,111,67914,2,0,B|366:67|366:67|363:8,1,103.500001974106,0|2,1:0|0:0,0:0:0:0:
394,274,68253,1,4,1:2:0:0:
235,222,68423,1,2,0:0:0:0:
464,174,68592,6,0,B|483:58,1,103.500001974106,0|2,1:0|0:0,0:0:0:0:
394,274,68931,1,8,0:0:0:0:
360,286,69016,1,8,0:0:0:0:
323,293,69101,1,0,1:0:0:0:
92,188,69270,1,8,0:0:0:0:
129,189,69355,1,8,0:0:0:0:
165,196,69440,1,8,0:0:0:0:
200,207,69524,1,8,0:0:0:0:
234,222,69609,1,0,1:0:0:0:
127,349,69779,1,4,0:3:0:0:
234,222,69948,21,8,0:3:0:0:
92,188,70118,1,0,1:0:0:0:
242,337,70287,2,0,L|345:337,1,103.500001974106,4|0,0:0|0:0,0:0:0:0:
234,222,70626,1,8,0:3:0:0:
134,356,70796,1,0,1:0:0:0:
134,356,70880,1,0,1:0:0:0:
134,356,70965,1,4,0:3:0:0:
43,205,71134,1,0,0:0:0:0:
242,129,71304,6,0,L|247:24,1,103.500001974106,4|0,1:2|0:0,0:0:0:0:
234,222,71643,1,0,1:0:0:0:
413,152,71812,1,4,0:3:0:0:
413,152,71897,1,4,0:3:0:0:
413,152,71982,1,2,0:0:0:0:
242,129,72151,1,0,0:0:0:0:
224,314,72321,1,0,1:0:0:0:
369,234,72490,1,0,0:0:0:0:
388,49,72660,5,2,0:0:0:0:
234,222,72829,2,0,B|143:243|143:243|99:202|34:208,1,207.000003948212,4|0,1:2|1:0,0:0:0:0:
52,340,73338,1,2,0:0:0:0:
164,157,73507,1,0,1:0:0:0:
164,157,73592,1,0,1:0:0:0:
164,157,73677,1,0,1:0:0:0:
288,347,73846,5,0,1:0:0:0:
288,347,73931,1,0,1:0:0:0:
288,347,74016,2,0,L|405:353,1,103.500001974106,6|0,0:0|0:0,0:0:0:0:
446,165,74355,1,0,1:0:0:0:
512,286,74524,1,0,0:0:0:0:
325,230,74694,1,2,0:0:0:0:
446,165,74863,1,0,0:0:0:0:
391,352,75033,1,2,0:0:0:0:
231,204,75202,1,4,1:2:0:0:
419,256,75372,21,2,0:0:0:0:
203,300,75541,2,0,L|97:292,1,103.500001974106,8|4,0:3|0:3,0:0:0:0:
259,108,75880,1,4,1:2:0:0:
325,230,76050,1,0,0:0:0:0:
168,197,76219,1,8,0:0:0:0:
168,197,76304,1,8,0:0:0:0:
168,197,76389,2,0,L|164:131,1,51.7500009870529,8|8,0:0|0:0,0:0:0:0:
84,96,76558,2,0,L|88:147,1,51.7500009870529,8|8,0:0|0:0,0:0:0:0:
16,192,76728,6,0,L|6:88,1,103.500001974106,4|2,1:2|0:0,0:0:0:0:
20,303,77067,1,2,0:0:0:0:
218,179,77236,2,0,L|321:168,1,103.500001974106,0|2,1:0|0:0,0:0:0:0:
114,190,77575,1,2,0:0:0:0:
165,328,77745,1,0,1:0:0:0:
322,168,77914,2,0,L|319:63,1,103.500001974106,6|0,0:0|0:0,0:0:0:0:
133,39,78253,5,0,1:0:0:0:
120,71,78338,1,0,1:0:0:0:
112,106,78423,1,0,1:0:0:0:
112,143,78507,1,0,1:0:0:0:
121,179,78592,2,0,L|147:251,1,51.7500009870529,0|0,1:0|1:0,0:0:0:0:
223,224,78762,2,0,L|237:173,1,51.7500009870529,0|0,1:0|1:0,0:0:0:0:
322,168,78931,5,8,0:3:0:0:
332,194,79016,1,8,0:3:0:0:
335,222,79101,1,4,0:3:0:0:
332,250,79185,1,4,0:3:0:0:
321,277,79270,1,2,0:0:0:0:
305,300,79355,1,2,0:0:0:0:
283,318,79440,1,6,0:0:0:0:
256,160,84863,22,0,P|287:120|309:72,2,90,2|0|0,0:0|0:0|0:0,0:0:0:0:
160,134,85372,2,0,P|109:127|57:132,2,90,2|0|0,0:0|0:0|0:0,0:0:0:0:
211,325,85880,1,8,0:0:0:0:
186,230,86050,1,0,0:0:0:0:
306,351,86219,6,0,P|395:354|484:338,1,180
442,181,86728,2,0,P|397:182|352:187,1,90,2|0,0:0|0:0,0:0:0:0:
281,256,87067,1,2,0:0:0:0:
173,102,87236,1,8,0:0:0:0:
102,280,87406,1,4,0:3:0:0:
102,280,87490,1,4,0:3:0:0:
102,280,87575,1,2,0:0:0:0:
261,143,87745,6,0,P|262:98|260:53,1,90
85,61,88084,2,0,P|83:105|85:150,1,90,8|0,0:0|0:0,0:0:0:0:
175,193,88423,1,2,0:0:0:0:
85,61,88592,1,8,0:0:0:0:
261,143,88762,5,4,0:3:0:0:
282,144,88846,1,4,0:3:0:0:
305,145,88931,2,0,P|349:142|394:135,1,90,2|2,0:0|0:0,0:0:0:0:
438,48,89270,1,0,0:0:0:0:
494,127,89440,2,0,P|470:203|377:236,1,180,8|2,0:0|0:0,0:0:0:0:
328,46,89948,1,8,0:0:0:0:
68,131,90287,22,0,B|153:136|150:178|237:184,1,180,2|0,0:0|0:0,0:0:0:0:
405,192,90796,1,2,0:0:0:0:
324,135,90965,2,0,L|327:18,1,90
319,284,91304,1,8,0:0:0:0:
149,233,91473,6,0,L|59:233,1,90
237,184,91812,2,0,L|240:67,1,90,2|0,0:0|0:0,0:0:0:0:
235,283,92151,2,0,P|202:318|148:331,1,90,2|0,0:0|0:0,0:0:0:0:
149,233,92490,1,2,0:0:0:0:
320,333,92660,1,8,0:0:0:0:
192,51,92999,6,0,B|190:141|190:141|232:160|246:207,1,180,2|0,0:0|0:0,0:0:0:0:
53,258,93507,2,0,B|42:213|72:173,1,90,8|0,0:0|0:0,0:0:0:0:
130,341,93846,1,2,0:0:0:0:
72,173,94016,1,8,0:0:0:0:
228,309,94185,5,4,0:3:0:0:
251,311,94270,1,4,0:3:0:0:
274,313,94355,1,2,0:0:0:0:
415,236,94524,2,0,L|326:229,1,90,2|0,0:0|0:0,0:0:0:0:
198,131,94863,2,0,L|288:139,1,90,8|0,0:0|0:0,0:0:0:0:
326,229,95202,1,2,0:0:0:0:
250,49,95372,2,0,P|331:50|378:101,1,135,8|0,0:0|0:0,0:0:0:0:
288,139,95711,21,2,0:0:0:0:
151,49,95880,2,0,L|148:1,2,45
223,214,96219,1,8,0:0:0:0:
295,146,96389,1,0,0:0:0:0:
295,146,96473,1,0,0:0:0:0:
295,146,96558,1,2,0:0:0:0:
367,311,96728,1,8,0:0:0:0:
270,320,96897,1,0,0:0:0:0:
401,196,97067,6,0,B|407:101,1,90,4|0,0:0|0:0,0:0:0:0:
408,83,97321,1,0,0:0:0:0:
409,61,97406,1,0,0:0:0:0:
267,211,97575,2,0,L|222:213,2,45,8|0|0,0:0|0:0|0:0,0:0:0:0:
137,162,97914,1,2,0:0:0:0:
42,305,98084,1,8,0:0:0:0:
52,111,98253,5,0,0:0:0:0:
52,111,98338,1,0,0:0:0:0:
52,111,98423,1,2,0:0:0:0:
224,114,98592,2,0,L|268:113,2,45
135,261,98931,2,0,L|45:262,1,90,8|0,0:0|0:0,0:0:0:0:
91,352,99270,1,2,0:0:0:0:
222,213,99440,1,8,0:0:0:0:
85,81,99609,5,2,0:0:0:0:
85,81,99694,1,2,0:0:0:0:
85,81,99779,1,2,0:0:0:0:
224,114,99948,2,0,L|313:112,1,90,2|0,0:0|0:0,0:0:0:0:
464,193,100287,2,0,L|487:231,2,45,8|0|0,0:0|0:0|0:0,0:0:0:0:
412,108,100626,1,2,0:0:0:0:
320,275,100796,2,0,L|231:277,1,90,8|0,0:0|0:0,0:0:0:0:
83,144,101134,21,2,0:0:0:0:
176,179,101304,2,0,L|220:178,2,45
67,46,101643,1,8,0:0:0:0:
7,210,101812,1,0,0:0:0:0:
7,210,101897,1,0,0:0:0:0:
7,210,101982,1,2,0:0:0:0:
67,46,102151,1,8,0:0:0:0:
176,179,102321,6,0,L|265:177,1,90,2|0,0:0|0:0,0:0:0:0:
420,125,102660,2,0,L|424:75,2,45,2|0|0,0:0|0:0|0:0,0:0:0:0:
298,270,102999,2,0,L|293:319,2,45,8|0|0,0:0|0:0|0:0,0:0:0:0:
265,176,103338,1,2,0:0:0:0:
395,311,103507,2,0,L|484:309,1,90,8|0,0:0|0:0,0:0:0:0:
265,176,103846,5,2,0:0:0:0:
173,215,104016,2,0,L|128:216,2,45
275,77,104355,1,8,0:0:0:0:
344,237,104524,1,0,0:0:0:0:
344,237,104609,1,0,0:0:0:0:
344,237,104694,1,2,0:0:0:0:
275,77,104863,1,8,0:0:0:0:
173,215,105033,5,2,0:0:0:0:
150,215,105118,1,2,0:0:0:0:
128,216,105202,2,0,L|39:218,2,90,2|2|2,0:0|0:0|0:0,0:0:0:0:
190,308,105711,2,0,P|269:212|193:113,1,270,2|0,0:0|0:0,0:0:0:0:
256,192,106558,12,0,107914,0:0:0:0:
172,112,108253,21,0,0:0:0:0:
316,29,108423,1,0,0:0:0:0:
149,20,108592,1,0,0:0:0:0:
284,117,108762,1,0,0:0:0:0:
112,225,108931,2,0,L|8:234,1,103.500001974106,4|0,0:3|0:0,0:0:0:0:
284,117,109270,6,0,L|387:127,1,103.500001974106,4|2,1:2|0:0,0:0:0:0:
436,319,109609,1,2,0:0:0:0:
314,248,109779,1,0,1:0:0:0:
508,199,109948,1,2,0:0:0:0:
436,319,110118,1,2,0:0:0:0:
217,272,110287,1,0,1:0:0:0:
411,223,110457,1,2,0:0:0:0:
241,369,110626,5,2,0:0:0:0:
199,148,110796,2,0,L|201:44,1,103.500001974106,4|2,1:2|0:0,0:0:0:0:
99,225,111134,1,2,0:0:0:0:
217,272,111304,2,2,L|334:275,1,103.500001974106,2|2,1:2|0:0,0:0:0:0:
438,314,111643,1,4,1:2:0:0:
348,128,111812,5,2,0:0:0:0:
325,139,111897,1,2,0:0:0:0:
302,150,111982,2,2,L|198:147,1,103.500001974106,2|2,1:2|0:0,0:0:0:0:
2,154,112321,1,2,0:0:0:0:
102,248,112490,1,0,1:0:0:0:
95,51,112660,1,2,0:0:0:0:
2,154,112829,1,2,0:0:0:0:
199,148,112999,1,0,1:0:0:0:
205,343,113168,1,2,0:0:0:0:
102,248,113338,21,2,0:0:0:0:
329,241,113507,2,0,B|374:176|351:96|351:96|392:36,1,207.000003948212,6|2,1:2|0:0,0:0:0:0:
199,148,114016,1,8,0:3:0:0:
212,350,114185,1,0,1:0:0:0:
212,350,114270,1,0,1:0:0:0:
212,350,114355,1,4,0:3:0:0:
102,248,114524,1,4,0:3:0:0:
329,241,114694,6,0,L|336:137,1,103.500001974106,4|2,1:2|0:0,0:0:0:0:
203,243,115033,1,2,0:0:0:0:
434,324,115202,2,0,L|441:220,1,103.500001974106,0|2,1:0|0:0,0:0:0:0:
336,137,115541,1,2,0:0:0:0:
210,348,115711,2,0,B|159:358|159:358|84:350,1,103.500001974106,0|2,1:0|0:0,0:0:0:0:
203,243,116050,5,2,0:0:0:0:
392,295,116219,1,0,1:0:0:0:
336,137,116389,1,2,0:0:0:0:
203,243,116558,1,2,0:0:0:0:
14,191,116728,1,0,1:0:0:0:
73,351,116897,1,2,0:0:0:0:
147,146,117067,2,0,L|150:37,1,103.500001974106,4|2,1:2|0:0,0:0:0:0:
203,243,117406,6,0,B|151:254|151:254|100:249,1,103.500001974106,0|2,1:0|0:0,0:0:0:0:
374,117,117745,1,8,0:0:0:0:
375,143,117829,1,8,0:0:0:0:
373,169,117914,1,0,1:0:0:0:
215,315,118084,1,8,0:0:0:0:
206,279,118168,1,8,0:0:0:0:
203,243,118253,1,8,0:0:0:0:
205,205,118338,1,8,0:0:0:0:
214,169,118423,1,0,1:0:0:0:
358,248,118592,1,4,0:3:0:0:
214,169,118762,21,8,0:3:0:0:
215,315,118931,1,0,1:0:0:0:
330,123,119101,2,0,L|337:19,1,103.500001974106,4|0,0:0|0:0,0:0:0:0:
214,169,119440,1,8,0:3:0:0:
365,255,119609,1,0,1:0:0:0:
365,255,119694,1,0,1:0:0:0:
365,255,119779,1,4,0:3:0:0:
428,99,119948,1,0,0:0:0:0:
214,169,120118,6,0,L|106:168,1,103.500001974106,4|0,1:2|0:0,0:0:0:0:
0,331,120457,1,0,1:0:0:0:
195,282,120626,1,4,0:3:0:0:
195,282,120711,1,4,0:3:0:0:
195,282,120796,1,2,0:0:0:0:
110,168,120965,1,0,0:0:0:0:
132,363,121134,1,0,1:0:0:0:
290,246,121304,1,0,0:0:0:0:
110,168,121473,5,2,0:0:0:0:
253,339,121643,2,0,B|305:359|352:325|352:325|397:292|449:311,1,207.000003948212,4|0,0:0|0:0,0:0:0:0:
290,246,122151,1,2,0:0:0:0:
409,91,122321,1,0,1:0:0:0:
409,91,122406,1,0,1:0:0:0:
409,91,122490,1,0,1:0:0:0:
202,136,122660,5,0,1:0:0:0:
202,136,122745,1,0,1:0:0:0:
202,136,122829,2,0,L|98:136,1,103.500001974106,6|0,0:0|0:0,0:0:0:0:
301,134,123168,1,0,1:0:0:0:
201,38,123338,1,0,0:0:0:0:
203,234,123507,1,2,0:0:0:0:
301,134,123677,1,0,0:0:0:0:
98,136,123846,1,2,0:0:0:0:
204,332,124016,1,4,1:2:0:0:
202,136,124185,21,2,0:0:0:0:
399,229,124355,2,0,L|517:232,1,103.500001974106,8|4,0:3|0:3,0:0:0:0:
405,61,124694,1,4,1:2:0:0:
301,134,124863,1,0,0:0:0:0:
208,45,125033,1,8,0:0:0:0:
208,45,125118,1,8,0:0:0:0:
208,45,125202,2,0,L|138:45,1,51.7500009870529,8|8,0:0|0:0,0:0:0:0:
104,118,125372,2,0,L|52:118,1,51.7500009870529,8|8,0:0|0:0,0:0:0:0:
0,191,125541,6,0,P|36:226|105:245,1,103.500001974106,4|2,1:2|0:0,0:0:0:0:
193,127,125880,1,2,0:0:0:0:
226,343,126050,2,0,P|271:363|343:357,1,103.500001974106,0|2,1:0|0:0,0:0:0:0:
255,222,126389,1,2,0:0:0:0:
85,243,126558,1,0,1:0:0:0:
272,114,126728,2,0,L|383:114,1,103.500001974106,6|0,0:0|0:0,0:0:0:0:
166,45,127067,5,0,1:0:0:0:
150,77,127151,1,0,1:0:0:0:
144,113,127236,1,0,1:0:0:0:
149,148,127321,1,0,1:0:0:0:
164,182,127406,2,0,L|220:182,1,51.7500009870529,0|0,1:0|1:0,0:0:0:0:
272,114,127575,2,0,L|327:114,1,51.7500009870529,0|0,1:0|1:0,0:0:0:0:
380,46,127745,5,8,0:3:0:0:
399,66,127829,1,8,0:3:0:0:
413,91,127914,1,4,0:3:0:0:
421,118,127999,1,4,0:3:0:0:
423,146,128084,1,2,0:0:0:0:
419,174,128168,1,2,0:0:0:0:
408,201,128253,1,6,0:0:0:0:
171,65,129440,21,2,0:0:0:0:
171,65,129524,1,2,0:0:0:0:
171,65,129609,1,2,0:0:0:0:
65,83,129779,1,2,0:0:0:0:
65,83,130118,1,2,0:0:0:0:
243,146,130287,2,0,B|283:127|283:127|367:161|367:161|407:143,1,180,4|0,1:2|0:0,0:0:0:0:
365,48,130796,5,2,0:0:0:0:
365,48,130880,1,2,0:0:0:0:
365,48,130965,1,2,0:0:0:0:
326,358,131219,5,2,0:0:0:0:
76,169,131473,5,2,0:0:0:0:
242,178,131643,2,0,B|282:196|282:196|366:162|366:162|406:180,1,180,4|0,1:2|0:0,0:0:0:0:
490,267,132151,21,2,0:0:0:0:
490,267,132236,1,2,0:0:0:0:
490,267,132321,1,2,0:0:0:0:
408,181,132490,1,2,0:0:0:0:
408,181,132829,1,2,0:0:0:0:
227,238,132999,2,0,L|131:238,1,90,4|0,1:2|0:0,0:0:0:0:
34,89,133338,1,0,0:0:0:0:
181,158,133507,5,2,0:0:0:0:
204,158,133592,1,2,0:0:0:0:
227,158,133677,2,2,L|317:158,1,90,2|0,0:0|0:0,0:0:0:0:
397,238,133931,2,2,L|307:238,1,90,2|0,0:0|0:0,0:0:0:0:
181,238,134185,1,2,0:0:0:0:
204,238,134270,1,0,0:0:0:0:
227,238,134355,1,4,1:2:0:0:
397,238,134524,1,0,0:0:0:0:
261,130,134694,6,0,B|217:130|217:130|179:157,1,90,0|2,1:0|0:0,0:0:0:0:
157,159,134948,1,2,0:0:0:0:
134,159,135033,1,2,0:0:0:0:
84,63,135202,1,2,0:0:0:0:
84,63,135541,1,2,0:0:0:0:
261,130,135711,2,0,B|320:130|320:130|370:92|370:92|428:92,1,180,4|2,1:2|0:0,0:0:0:0:
408,204,136219,5,2,0:0:0:0:
408,204,136304,1,2,0:0:0:0:
408,204,136389,2,0,L|408:314,1,90,2|8,0:0|0:3,0:0:0:0:
328,326,136643,1,2,0:0:0:0:
328,326,136728,2,0,L|328:236,1,90,4|2,0:3|0:0,0:0:0:0:
171,130,137067,2,0,B|113:130|113:130|63:168|63:168|4:168,1,180,4|2,1:2|0:0,0:0:0:0:
149,240,137575,21,2,0:0:0:0:
149,240,137660,1,2,0:0:0:0:
149,240,137745,1,2,0:0:0:0:
255,204,137914,1,2,0:0:0:0:
255,204,138253,1,2,0:0:0:0:
113,336,138423,2,0,L|17:336,1,90,4|0,1:2|0:0,0:0:0:0:
0,230,138762,1,0,0:0:0:0:
217,310,138931,1,0,1:0:0:0:
105,192,140457,6,0,L|101:103,1,90,6|0,0:0|0:0,0:0:0:0:
205,213,140796,2,2,L|201:302,1,90,2|0,0:0|0:0,0:0:0:0:
311,302,141134,2,0,L|307:213,1,90,2|0,0:0|0:0,0:0:0:0:
411,103,141473,2,0,L|407:192,1,90,2|0,0:0|0:0,0:0:0:0:
311,302,141812,5,2,0:0:0:0:
508,215,141982,2,0,L|512:126,1,90,0|2,1:0|0:0,0:0:0:0:
472,311,142321,1,8,0:3:0:0:
311,302,142490,2,0,L|221:297,1,90,2|0,0:0|0:0,0:0:0:0:
124,330,142829,1,2,0:0:0:0:
267,203,142999,5,2,0:0:0:0:
267,203,143084,1,2,0:0:0:0:
267,203,143168,2,0,B|268:165|268:165|296:115|274:65|274:65|276:27,1,180,6|2,0:0|0:0,0:0:0:0:
146,229,143677,1,0,1:0:0:0:
184,111,143846,1,2,0:0:0:0:
184,111,144185,21,2,0:0:0:0:
369,190,144355,2,0,L|458:194,1,90,4|2,1:2|0:0,0:0:0:0:
302,267,144694,1,4,0:3:0:0:
271,116,144863,2,0,L|274:27,1,90,0|0,1:0|0:0,0:0:0:0:
369,190,145202,1,2,0:0:0:0:
184,248,145372,1,0,1:0:0:0:
184,248,145457,1,0,1:0:0:0:
184,248,145541,1,2,0:0:0:0:
60,106,145711,5,0,1:0:0:0:
60,106,145796,1,0,1:0:0:0:
60,106,145880,1,2,0:0:0:0:
72,214,146050,1,2,0:0:0:0:
72,214,146389,1,2,0:0:0:0:
252,161,146558,2,0,B|303:161|303:161|337:178|337:178|371:161|371:161|423:161,1,180,4|0,1:2|0:0,0:0:0:0:
338,80,147067,5,2,0:0:0:0:
338,80,147151,1,2,0:0:0:0:
338,80,147236,1,2,0:0:0:0:
479,324,147490,5,2,0:0:0:0:
196,324,147745,21,2,0:0:0:0:
252,161,147914,2,0,B|303:161|303:161|337:178|337:178|371:161|371:161|423:161,1,180,4|0,1:2|0:0,0:0:0:0:
338,80,148423,5,2,0:0:0:0:
338,80,148507,1,2,0:0:0:0:
338,80,148592,1,2,0:0:0:0:
224,57,148762,1,2,0:0:0:0:
224,57,149101,1,2,0:0:0:0:
374,171,149270,2,0,L|486:171,2,90,4|0|0,1:2|0:0|0:0,0:0:0:0:
214,248,149779,5,2,0:0:0:0:
214,248,149863,1,2,0:0:0:0:
214,248,149948,2,0,B|118:248,1,90,2|0,0:0|0:0,0:0:0:0:
53,210,150202,2,0,B|7:210,1,45,6|0,0:0|0:0,0:0:0:0:
198,155,150457,1,6,0:0:0:0:
93,95,150626,2,0,L|93:5,1,90,0|0,1:0|0:0,0:0:0:0:
305,329,151134,5,2,0:0:0:0:
305,329,151219,1,2,0:0:0:0:
305,329,151304,1,4,1:2:0:0:
362,251,151473,1,2,0:0:0:0:
400,339,151643,1,2,0:0:0:0:
172,311,151812,21,0,1:0:0:0:
132,223,151982,1,2,0:0:0:0:
76,300,152151,1,2,0:0:0:0:
213,117,152321,5,0,1:0:0:0:
309,127,152490,1,2,0:0:0:0:
271,40,152660,1,2,0:0:0:0:
247,237,152829,2,0,L|236:334,1,90,4|2,1:2|0:0,0:0:0:0:
132,223,153168,1,2,0:0:0:0:
362,251,153338,2,0,L|459:263,1,90,0|2,1:0|0:0,0:0:0:0:
261,121,153677,1,4,1:2:0:0:
67,192,153846,5,2,0:0:0:0:
67,192,153931,1,2,0:0:0:0:
67,192,154016,1,4,1:2:0:0:
161,215,154185,1,2,0:0:0:0:
256,192,154355,1,2,0:0:0:0:
349,354,154524,5,0,1:0:0:0:
323,260,154693,1,2,0:0:0:0:
256,192,154863,1,2,0:0:0:0:
349,28,155033,21,0,1:0:0:0:
281,98,155203,1,2,0:0:0:0:
256,192,155372,1,2,0:0:0:0:
46,192,155541,6,0,L|135:192,1,90,4|2,1:2|0:0,0:0:0:0:
256,192,155880,1,2,0:0:0:0:
121,101,156050,2,0,P|108:57|101:13,1,90,8|4,0:3|0:3,0:0:0:0:
46,192,156389,1,2,0:0:0:0:
46,192,156728,38,0,B|256:320|256:64|466:192|466:192|400:112|400:64|432:32|480:32|512:64|512:128,1,720,2|0,0:0|0:1,0:0:0:0:
56,310,170287,5,0,1:0:0:0:
195,203,170626,2,0,L|198:158,1,45,2|2,0:0|0:0,0:0:0:0:
113,196,170796,2,0,L|71:215,1,45,6|2,0:0|0:0,0:0:0:0:
148,270,170965,1,8,0:2:0:0:
327,258,171304,1,0,3:0:0:0:
245,92,171643,6,0,L|248:47,1,45,2|2,0:0|0:0,0:0:0:0:
198,158,171812,2,0,L|194:202,2,45,2|2|2,0:0|0:0|0:3,0:0:0:0:
403,154,172321,2,2,L|406:108,1,45,10|2,0:2|0:0,0:0:0:0:
320,146,172490,2,0,L|278:164,1,45,6|0,0:0|0:0,0:0:0:0:
354,220,172660,1,0,3:0:0:0:
437,228,172829,6,0,L|486:232,1,45,2|2,0:0|0:0,0:0:0:0:
403,154,172999,1,0,1:0:0:0:
231,230,173338,2,0,L|226:278,1,45,2|2,0:0|0:0,0:0:0:0:
312,238,173507,2,0,L|353:219,1,45,6|2,0:0|0:0,0:0:0:0:
278,164,173677,1,8,0:2:0:0:
197,156,173846,1,0,1:0:0:0:
231,230,174016,1,0,3:0:0:0:
403,154,174355,6,0,L|407:109,1,45,2|2,0:0|0:0,0:0:0:0:
320,146,174524,2,0,L|261:173,1,45,6|2,0:0|0:0,0:0:0:0:
353,219,174694,1,0,1:0:0:0:
246,89,175033,22,0,L|209:64,1,45,10|2,0:2|0:0,0:0:0:0:
197,156,175202,2,0,L|192:200,1,45,6|2,0:0|0:0,0:0:0:0:
279,165,175372,1,0,3:0:0:0:
328,98,175541,2,0,L|332:50,2,45,2|2|0,0:0|0:0|0:0,0:0:0:0:
256,118,177406,5,0,0:0:0:0:
171,259,177575,1,0,0:0:0:0:
334,231,177745,1,0,0:0:0:0:
181,168,177914,1,0,0:0:0:0:
375,93,178084,2,0,L|488:81,1,103.500001974106,4|0,0:3|0:0,0:0:0:0:
181,168,178423,6,0,L|78:148,1,103.500001974106,4|2,1:2|0:0,0:0:0:0:
265,277,178762,1,2,0:0:0:0:
376,192,178931,1,0,1:0:0:0:
181,168,179101,1,2,0:0:0:0:
265,277,179270,1,2,0:0:0:0:
474,204,179440,1,0,1:0:0:0:
280,179,179609,1,2,0:0:0:0:
461,303,179779,1,2,0:0:0:0:
379,103,179948,6,0,L|387:-2,1,103.500001974106,4|2,1:2|0:0,0:0:0:0:
280,179,180287,1,2,0:0:0:0:
396,227,180457,2,0,L|498:237,1,103.500001974106,0|2,1:2|0:0,0:0:0:0:
379,103,180796,1,4,1:2:0:0:
297,303,180965,21,2,0:0:0:0:
275,315,181050,1,2,0:0:0:0:
253,327,181134,2,0,L|150:337,1,103.500001974106,0|2,1:0|0:0,0:0:0:0:
0,209,181473,1,2,0:0:0:0:
11,349,181643,1,0,1:0:0:0:
139,197,181812,1,2,0:0:0:0:
0,209,181982,1,2,0:0:0:0:
150,337,182151,1,0,1:0:0:0:
278,185,182321,1,2,0:0:0:0:
139,197,182490,5,2,0:0:0:0:
354,249,182660,2,0,B|397:187|356:124|356:124|390:51,1,207.000003948212,4|2,1:2|0:0,0:0:0:0:
278,185,183168,1,8,0:3:0:0:
464,129,183338,1,0,1:0:0:0:
464,129,183423,1,0,1:0:0:0:
464,129,183507,1,4,0:3:0:0:
494,265,183677,1,4,0:3:0:0:
278,185,183846,6,0,L|174:181,1,103.500001974106,4|2,1:2|0:0,0:0:0:0:
59,103,184185,1,2,0:0:0:0:
200,282,184355,2,0,L|303:285,1,103.500001974106,0|2,1:0|0:0,0:0:0:0:
403,187,184694,1,2,0:0:0:0:
174,181,184863,2,0,B|159:137|159:137|157:80,1,103.500001974106,0|2,1:0|0:0,0:0:0:0:
69,296,185202,5,2,0:0:0:0:
258,311,185372,1,0,1:0:0:0:
174,181,185541,1,2,0:0:0:0:
69,296,185711,1,2,0:0:0:0:
269,189,185880,2,0,L|279:54,1,103.500001974106,0|2,1:0|0:0,0:0:0:0:
164,304,186219,1,4,1:2:0:0:
79,173,186389,1,2,0:0:0:0:
258,311,186558,22,0,L|392:321,1,103.500001974106,0|0,1:0|0:0,0:0:0:0:
503,178,186897,1,8,0:0:0:0:
499,142,186982,1,8,0:0:0:0:
490,107,187067,1,0,1:0:0:0:
305,179,187236,1,8,0:0:0:0:
269,189,187321,1,8,0:0:0:0:
233,192,187406,1,8,0:0:0:0:
195,190,187490,1,8,0:0:0:0:
158,181,187575,1,0,1:0:0:0:
229,31,187745,1,4,0:3:0:0:
158,181,187914,5,8,0:3:0:0:
305,179,188084,1,0,1:0:0:0:
108,65,188253,2,0,L|2:63,1,103.500001974106,4|0,0:0|0:0,0:0:0:0:
68,216,188592,1,8,0:3:0:0:
206,122,188762,1,0,1:0:0:0:
206,122,188846,1,0,1:0:0:0:
206,122,188931,1,4,0:3:0:0:
257,270,189101,1,0,0:0:0:0:
460,169,189270,6,0,L|465:65,1,103.500001974106,4|0,1:2|0:0,0:0:0:0:
395,293,189609,1,0,0:0:0:0:
322,146,189779,1,2,0:0:0:0:
147,290,189948,2,0,B|61:294|0:266|0:266|23:317,1,207.000003948212,0|0,1:0|0:0,0:0:0:0:
193,194,190457,6,0,L|198:90,1,103.500001974106,2|0,0:0|0:0,0:0:0:0:
395,293,190796,1,6,0:0:0:0:
395,293,191134,1,2,0:0:0:0:
236,344,191304,1,8,0:3:0:0:
329,153,191473,1,0,1:0:0:0:
329,153,191558,1,0,1:0:0:0:
329,153,191643,2,0,L|334:49,1,103.500001974106,0|0,1:0|0:0,0:0:0:0:
163,196,191982,22,0,P|112:206|60:213,1,103.500001974106,6|0,0:0|0:0,0:0:0:0:
214,98,192321,1,0,0:0:0:0:
256,244,192490,1,2,0:0:0:0:
468,172,192660,2,0,P|429:79|334:49,1,207.000003948212,0|0,1:0|0:0,0:0:0:0:
179,97,193168,6,0,L|71:97,1,103.500001974106,6|0,0:0|0:0,0:0:0:0:
256,244,193507,1,2,0:0:0:0:
349,168,193677,1,0,1:0:0:0:
263,359,193846,1,2,0:0:0:0:
263,359,193931,1,2,0:0:0:0:
263,359,194016,1,4,0:3:0:0:
170,175,194185,1,8,0:0:0:0:
170,175,194270,1,8,0:0:0:0:
170,175,194355,2,0,L|151:126,1,51.7500009870529,8|8,0:0|0:0,0:0:0:0:
83,185,194524,2,0,L|36:242,1,51.7500009870529,8|8,0:0|0:0,0:0:0:0:
136,254,194694,6,0,L|261:273,1,103.500001974106,4|2,1:2|0:0,0:0:0:0:
181,381,195033,1,2,0:0:0:0:
366,272,195202,2,0,L|380:170,1,103.500001974106,0|2,1:0|0:0,0:0:0:0:
238,269,195541,1,2,0:0:0:0:
309,384,195711,1,0,1:0:0:0:
136,254,195880,2,0,L|33:237,1,103.500001974106,6|8,0:0|0:3,0:0:0:0:
209,311,196219,5,0,1:0:0:0:
225,279,196304,1,0,1:0:0:0:
228,243,196389,1,0,1:0:0:0:
217,209,196473,1,0,1:0:0:0:
205,174,196558,1,0,1:0:0:0:
208,138,196643,1,0,1:0:0:0:
224,106,196728,1,8,1:3:0:0:
136,254,196897,1,4,0:3:0:0:
298,164,197067,1,2,0:0:0:0:
19,58,197406,22,0,L|32:172,1,103.500001974106,4|2,1:2|0:0,0:0:0:0:
136,254,197745,1,2,0:0:0:0:
332,137,197914,2,0,L|218:150,1,103.500001974106,0|2,1:0|0:0,0:0:0:0:
136,254,198253,1,2,0:0:0:0:
123,54,198423,1,0,1:0:0:0:
236,248,198592,6,0,L|339:259,1,103.500001974106,6|2,0:0|0:0,0:0:0:0:
229,148,198931,1,8,0:3:0:0:
136,254,199101,1,4,0:3:0:0:
30,161,199270,1,2,0:0:0:0:
96,348,199440,1,0,1:0:0:0:
96,348,199524,1,0,1:0:0:0:
96,348,199609,2,0,P|195:338|236:248,1,207.000003948212,2|0,0:0|0:0,0:0:0:0:
209,62,200118,1,4,1:2:0:0:
