osu file format v14

[General]
AudioFilename: audio.mp3
AudioLeadIn: 0
PreviewTime: 59372
Countdown: 0
SampleSet: Soft
StackLeniency: 0.5
Mode: 0
LetterboxInBreaks: 0
WidescreenStoryboard: 0

[Editor]
DistanceSpacing: 1.15
BeatDivisor: 4
GridSize: 32
TimelineZoom: 1.740001

[Metadata]
Title:Time and again
TitleUnicode:Time and again
Artist:FELT
ArtistUnicode:FELT
Creator:MokouSmoke
Version:Hard
Source:東方星蓮船 ~ Undefined Fantastic Object.
Tags:Maika 舞花 Mika 美歌 NAGI☆Flying Fantastica touhou ZUN Byakuren Hijiri 感情の摩天楼 Emotional Skyscraper Cosmic Mind C93
BeatmapID:1540194
BeatmapSetID:713989

[Difficulty]
HPDrainRate:5
CircleSize:4
OverallDifficulty:6
ApproachRate:7
SliderMultiplier:1.5
SliderTickRate:1

[Events]
//Background and Video events
0,0,"FELT024.jpg",0,0
//Break Periods
2,79640,83963
2,159639,169387
//Storyboard Layer 0 (Background)
//Storyboard Layer 1 (Fail)
//Storyboard Layer 2 (Pass)
//Storyboard Layer 3 (Foreground)
//Storyboard Sound Samples

[TimingPoints]
796,338.983050847458,4,2,1,40,1,0
1982,-100,4,2,3,40,0,0
11643,-100,4,2,2,40,0,0
12829,-100,4,2,3,40,0,0
13338,-100,4,2,2,40,0,0
14185,-100,4,2,3,40,0,0
14694,-100,4,2,2,40,0,0
15541,-100,4,2,3,40,0,0
16389,-100,4,2,2,40,0,0
16897,-100,4,2,3,40,0,0
17406,-100,4,2,2,40,0,0
18253,-100,4,2,3,40,0,0
18762,-100,4,2,2,40,0,0
19609,-100,4,2,3,40,0,0
20118,-100,4,2,2,40,0,0
20796,-100,4,2,1,50,0,0
22151,-100,4,2,1,60,0,0
22490,-86.9565217391304,4,2,1,80,0,0
33338,-100,4,2,1,50,0,0
48253,-100,4,2,2,50,0,0
48592,-100,4,2,1,50,0,0
49101,-100,4,2,1,40,0,0
49609,-100,4,2,1,40,0,0
55033,-200,4,2,1,30,0,0
59440,-86.9565217391304,4,2,1,80,0,0
60457,-86.9565217391304,4,2,1,80,0,1
79440,-100,4,2,1,50,0,0
108253,-86.9565217391304,4,2,1,80,0,0
109270,-86.9565217391304,4,2,1,80,0,1
128253,-100,4,2,1,65,0,0
150965,-100,4,2,1,72,0,0
156728,-200,4,2,1,65,0,0
157406,-200,4,2,1,50,0,0
158084,-200,4,2,1,40,0,0
158762,-200,4,2,1,30,0,0
170287,-100,4,2,2,60,0,0
175033,-100,4,2,2,40,0,0
175711,-100,4,2,2,20,0,0
177406,-86.9565217391304,4,2,1,80,0,0
178423,-86.9565217391304,4,2,1,80,0,1
197236,-86.9565217391304,4,2,1,80,0,0
197406,-86.9565217391304,4,2,1,80,0,1
200118,-86.9565217391304,4,2,1,35,0,0

[Colours]
Combo1 : 34,179,132
Combo2 : 164,32,88
Combo3 : 23,137,147
Combo4 : 219,98,129

[HitObjects]
93,262,796,6,0,P|146:264|186:260,1,75,4|0,0:3|0:0,0:0:0:0:
232,199,1134,2,0,P|263:177|296:161,1,75,0|0,0:0|0:0,0:0:0:0:
361,222,1473,2,0,P|396:234|433:241,1,75
498,73,1982,6,0,P|423:67|351:88,1,150,2|0,0:0|0:0,0:0:0:0:
296,160,2490,2,0,P|259:170|222:175,1,75
154,116,2829,2,0,P|117:105|80:100,1,75
0,261,3338,6,0,P|72:242|133:200,1,150,2|0,0:0|0:0,0:0:0:0:
154,116,3846,2,0,P|174:83|199:55,1,75
285,82,4185,2,0,P|320:77|357:69,1,75
504,173,4694,6,0,P|454:227|382:246,1,150,2|0,0:0|0:0,0:0:0:0:
314,189,5202,2,0,P|277:180|240:175,1,75
162,129,5541,2,0,P|186:102|224:85,1,75
310,97,5880,1,0,0:0:0:0:
380,39,6050,6,0,P|453:33|512:77,1,150,2|0,0:0|0:0,0:0:0:0:
490,164,6558,2,0,P|495:200|506:237,1,75
512,327,6897,2,0,P|475:316|437:309,1,75,0|0,0:0|0:0,0:0:0:0:
260,285,7406,6,0,P|261:210|274:136,1,150,2|0,0:0|0:0,0:0:0:0:
350,292,7914,2,0,P|323:347|224:370,1,150,0|0,0:0|0:0,0:0:0:0:
173,317,8423,2,0,P|133:315|96:318,1,75
21,238,8762,6,0,P|95:226|171:226,1,150,2|0,0:0|0:0,0:0:0:0:
261,224,9270,2,0,P|293:205|324:183,1,75
373,9,9779,2,0,P|409:11|446:18,1,75
504,89,10118,1,0,0:0:0:0:
323,93,10457,6,0,P|286:86|249:77,1,75
174,27,10796,1,0,0:0:0:0:
104,82,10965,2,0,P|67:93|30:98,1,75
105,177,11304,2,0,P|141:168|176:154,1,75
282,77,11643,6,0,P|276:114|266:150,1,75,0|0,3:0|0:0,0:0:0:0:
224,229,11982,2,0,P|249:256|279:280,1,75,2|0,0:0|0:0,0:0:0:0:
369,286,12321,2,0,P|406:285|443:289,2,75,2|2|2,0:0|0:0|0:0,0:0:0:0:
297,373,12829,6,0,P|222:375|158:338,1,150,2|0,0:0|0:0,0:0:0:0:
126,254,13338,2,0,P|162:251|200:256,1,75,2|0,0:0|0:0,0:0:0:0:
288,236,13677,2,0,P|309:205|326:172,2,75,2|2|2,0:0|0:0|0:0,0:0:0:0:
398,226,14185,6,0,P|409:137|356:88,1,150,2|0,0:0|0:0,0:0:0:0:
282,96,14694,2,0,P|244:91|208:84,1,75,2|0,0:0|0:0,0:0:0:0:
127,41,15033,2,0,P|90:46|55:58,1,75,2|0,0:0|0:0,0:0:0:0:
199,233,15541,6,0,P|207:158|207:83,1,150,2|0,2:0|2:0,0:0:0:0:
118,183,16050,2,0,P|112:220|112:257,1,75,0|0,0:0|0:0,0:0:0:0:
177,321,16389,2,0,P|212:319|250:314,2,75,2|2|2,0:0|0:0|0:0,0:0:0:0:
35,303,16897,6,0,P|13:236|40:145,1,150,2|0,0:0|0:0,0:0:0:0:
118,183,17406,2,0,P|136:150|149:115,1,75,2|0,0:0|0:0,0:0:0:0:
211,49,17745,2,0,P|229:79|243:115,1,75,2|0,0:0|0:0,0:0:0:0:
418,241,18253,6,0,P|354:204|280:198,1,150,2|0,0:0|0:0,0:0:0:0:
189,188,18762,2,0,P|148:185|106:177,1,75,2|0,0:0|0:0,0:0:0:0:
74,99,19101,2,0,P|37:92|0:90,2,75,2|0|0,0:0|0:0|0:0,0:0:0:0:
164,96,19609,6,0,P|232:66|306:67,1,150,2|0,0:0|0:0,0:0:0:0:
344,149,20118,2,0,L|380:140,3,37.5,2|2|2|2,0:0|0:0|0:0|0:0,0:0:0:0:
420,161,20457,2,0,L|454:138,3,37.5,2|2|2|2,0:0|0:0|0:0|0:0,0:0:0:0:
495,146,20796,6,0,L|506:71,1,75
461,228,21134,2,0,L|439:376,1,150,0|0,0:0|0:0,0:0:0:0:
344,149,21812,1,0,0:0:0:0:
274,206,21982,2,0,P|231:212|187:216,1,75,0|4,0:0|0:3,0:0:0:0:
391,319,22490,6,0,L|497:321,2,86.2500016450882,4|2|2,1:2|0:0|0:0,0:0:0:0:
299,369,22999,2,0,B|266:313|266:313|273:198,1,172.500003290176,0|2,1:0|0:0,0:0:0:0:
252,94,23507,1,0,1:0:0:0:
347,133,23677,2,0,L|433:139,1,86.2500016450882,2|2,0:0|0:0,0:0:0:0:
273,205,24016,6,0,P|180:181|141:103,1,172.500003290176,4|2,1:2|0:0,0:0:0:0:
92,219,24524,2,0,B|86:305,1,86.2500016450882,0|2,1:0|0:0,0:0:0:0:
33,124,24863,2,0,B|27:34,1,86.2500016450882,4|2,1:2|0:0,0:0:0:0:
143,119,25202,6,0,P|186:127|255:129,1,86.2500016450882,0|2,1:0|0:0,0:0:0:0:
295,209,25541,1,2,0:0:0:0:
258,306,25711,2,0,P|194:309|76:297,1,172.500003290176,0|2,1:0|0:0,0:0:0:0:
32,209,26219,2,0,P|74:205|118:207,1,86.2500016450882,0|2,1:0|0:0,0:0:0:0:
207,154,26558,5,2,0:0:0:0:
196,50,26728,1,4,1:2:0:0:
289,92,26897,2,0,P|331:97|374:97,1,86.2500016450882,2|2,0:0|0:0,0:0:0:0:
452,166,27236,1,0,1:0:0:0:
359,212,27406,2,0,B|304:207,2,43.1250008225441,0|0|0,1:0|1:0|1:0,0:0:0:0:
372,314,27745,5,0,1:0:0:0:
372,314,27829,1,0,1:0:0:0:
372,314,27914,2,0,P|412:299|444:270,1,86.2500016450882,4|2,1:2|0:0,0:0:0:0:
452,166,28253,1,2,0:0:0:0:
359,212,28423,2,0,B|273:205|273:205|251:165|207:154,1,172.500003290176,0|2,1:0|0:0,0:0:0:0:
183,255,28931,1,0,1:0:0:0:
97,314,29101,2,0,L|11:321,1,86.2500016450882,2|2,0:0|0:0,0:0:0:0:
191,358,29440,6,0,B|236:354|264:317|264:317|350:325,1,172.500003290176,4|2,1:2|0:0,0:0:0:0:
445,364,29948,2,0,B|474:283,1,86.2500016450882,0|2,1:0|0:0,0:0:0:0:
386,226,30287,2,0,B|356:146,1,86.2500016450882,0|2,1:0|0:0,0:0:0:0:
446,94,30626,6,0,L|451:7,1,86.2500016450882,0|2,1:0|0:0,0:0:0:0:
483,190,30965,1,2,0:0:0:0:
386,226,31134,2,0,B|322:232|278:207|278:207|249:219|216:223,1,172.500003290176,0|2,1:0|0:0,0:0:0:0:
128,274,31643,1,0,1:0:0:0:
49,206,31812,2,0,L|41:120,1,86.2500016450882,2|2,0:0|0:0,0:0:0:0:
128,274,32151,6,0,L|136:360,2,86.2500016450882,0|2|2,1:0|0:0|0:0,0:0:0:0:
142,153,32660,1,4,1:2:0:0:
219,222,32829,1,8,0:3:0:0:
283,140,32999,1,4,0:3:0:0:
394,294,33338,6,0,B|321:310|321:310|246:299,1,150,2|0,0:0|0:0,0:0:0:0:
219,222,33846,1,8,0:0:0:0:
413,213,34185,1,2,0:0:0:0:
369,142,34355,1,8,0:0:0:0:
246,300,34694,6,0,B|174:315|174:315|98:302,1,150
26,232,35202,2,0,B|98:217|98:217|179:230,1,150,2|2,0:0|0:0,0:0:0:0:
238,176,35711,1,8,0:0:0:0:
313,211,35880,2,0,B|356:212,2,37.5,4|4|2,0:3|0:3|0:0,0:0:0:0:
249,263,36219,6,0,B|243:337,1,75,0|0,0:0|0:0,0:0:0:0:
167,303,36558,2,0,B|172:228,1,75,8|0,0:0|0:0,0:0:0:0:
238,176,36897,1,2,0:0:0:0:
219,95,37067,1,8,0:0:0:0:
412,75,37406,6,0,P|446:141|438:215,1,150,2|0,0:0|0:0,0:0:0:0:
398,287,37914,1,8,0:0:0:0:
238,176,38253,1,2,0:0:0:0:
250,257,38423,1,8,0:0:0:0:
53,299,38762,6,0,B|126:324|126:324|198:321,1,150,2|0,0:0|0:0,0:0:0:0:
250,257,39270,1,8,0:0:0:0:
238,176,39440,2,0,P|245:133|259:91,1,75,0|2,0:0|0:0,0:0:0:0:
323,57,39779,1,8,0:0:0:0:
400,85,39948,6,0,L|474:77,1,75,0|0,0:0|0:0,0:0:0:0:
395,167,40287,2,0,L|319:175,1,75,2|0,0:0|0:0,0:0:0:0:
238,176,40626,2,0,B|187:197|187:197|66:187,1,150,2|2,0:0|0:0,0:0:0:0:
30,134,41134,1,8,0:0:0:0:
106,280,41473,6,0,B|200:287|200:287|251:266,1,150,2|2,0:0|0:0,0:0:0:0:
314,212,41982,1,8,0:0:0:0:
392,236,42151,2,0,P|429:232|460:213,1,75,0|2,0:0|0:0,0:0:0:0:
481,133,42490,1,8,0:0:0:0:
428,69,42660,6,0,B|430:31,2,37.5,2|2|2,0:0|0:0|0:0,0:0:0:0:
359,115,42999,2,0,P|324:128|287:125,1,75,2|0,0:0|0:0,0:0:0:0:
236,60,43338,2,0,P|168:40|74:41,1,150,8|2,0:0|0:0,0:0:0:0:
30,96,43846,1,8,0:0:0:0:
235,142,44185,5,2,0:0:0:0:
158,321,44524,1,0,0:0:0:0:
145,239,44694,2,0,P|149:195|158:152,1,75,8|0,0:0|0:0,0:0:0:0:
235,142,45033,1,2,0:0:0:0:
311,172,45202,2,0,P|348:168|385:161,1,75,8|2,0:0|0:0,0:0:0:0:
451,112,45541,6,0,P|463:183|415:237,1,150,4|0,0:0|0:0,0:0:0:0:
438,317,46050,2,0,L|513:323,1,75,8|0,0:0|0:0,0:0:0:0:
401,242,46389,1,2,0:0:0:0:
333,288,46558,2,0,L|258:282,1,75,8|4,0:0|0:3,0:0:0:0:
197,224,46897,5,2,0:0:0:0:
149,290,47067,2,0,P|109:311|51:322,1,75,0|2,0:0|0:0,0:0:0:0:
20,262,47406,2,0,P|52:197|124:183,1,150,8|2,0:0|0:0,0:0:0:0:
197,224,47914,2,0,P|237:245|295:256,1,75,8|2,0:0|0:0,0:0:0:0:
332,203,48253,6,2,B|350:190|351:176|351:176|369:177|389:163|389:163|408:176|427:176|427:176|427:190|446:202,1,150,12|0,1:2|0:0,0:0:0:0:
389,263,48762,1,8,0:0:0:0:
323,88,49101,1,2,0:0:0:0:
250,126,49270,2,0,L|204:123,3,37.5,8|2|2|2,0:0|0:3|0:3|0:3,0:0:0:0:
170,152,49609,6,0,P|125:92|102:21,1,150,2|0,0:0|0:0,0:0:0:0:
20,36,50118,1,8,0:0:0:0:
44,114,50287,2,0,P|44:151|37:188,1,75,0|2,0:0|0:0,0:0:0:0:
119,220,50626,1,8,0:0:0:0:
203,229,50796,6,0,P|233:207|253:176,1,75,6|0,0:0|0:0,0:0:0:0:
220,98,51134,2,0,P|190:120|171:152,1,75,2|0,0:0|0:0,0:0:0:0:
301,111,51473,2,0,P|279:42|195:20,1,150,8|2,0:0|0:0,0:0:0:0:
133,48,51982,2,0,L|43:47,1,75,8|4,0:0|0:3,0:0:0:0:
23,122,52321,6,0,P|94:137|172:126,1,150,2|0,0:0|0:0,0:0:0:0:
247,156,52829,1,8,0:0:0:0:
260,238,52999,2,0,P|241:270|208:296,1,75,0|2,0:0|0:0,0:0:0:0:
133,320,53338,1,8,0:0:0:0:
71,264,53507,6,0,L|59:202,2,37.5,4|4|2,0:3|0:3|0:0,0:0:0:0:
149,239,53846,2,0,P|142:200|118:163,1,75,2|2,0:0|0:0,0:0:0:0:
44,146,54185,2,0,P|15:79|49:15,1,150,2|0,0:0|0:0,0:0:0:0:
97,83,54694,1,0,0:0:0:0:
149,239,55033,6,0,P|249:260|291:165,1,225,0|0,0:0|0:0,0:0:0:0:
213,187,56389,2,0,P|212:290|110:310,1,225,0|0,0:0|0:0,0:0:0:0:
149,239,57745,2,0,P|249:260|291:165,1,225
213,187,59101,1,0,0:0:0:0:
384,208,59440,6,0,L|470:207,1,86.2500016450882,0|0,0:0|0:0,0:0:0:0:
362,300,59779,2,0,L|275:300,1,86.2500016450882,0|0,0:0|0:0,0:0:0:0:
213,187,60118,2,0,P|175:220|149:273,1,86.2500016450882,4|0,0:3|0:0,0:0:0:0:
64,349,60457,6,0,L|62:262,1,86.2500016450882,4|2,1:2|0:0,0:0:0:0:
11,172,60796,1,2,0:0:0:0:
80,94,60965,1,0,1:0:0:0:
175,134,61134,2,0,L|261:133,1,86.2500016450882,2|2,0:0|0:0,0:0:0:0:
156,250,61473,2,0,L|70:251,1,86.2500016450882,0|2,1:0|0:0,0:0:0:0:
105,348,61812,5,2,0:0:0:0:
244,301,61982,2,0,B|265:261|253:217|253:217|241:172|262:134,1,172.500003290176,4|2,1:2|0:0,0:0:0:0:
351,185,62490,2,0,L|437:184,1,86.2500016450882,2|2,1:2|0:0,0:0:0:0:
352,81,62829,1,0,1:0:0:0:
263,29,62999,5,2,0:0:0:0:
263,29,63084,1,2,0:0:0:0:
263,29,63168,2,0,L|177:30,1,86.2500016450882,4|2,1:2|0:0,0:0:0:0:
78,63,63507,1,2,0:0:0:0:
26,153,63677,1,0,1:0:0:0:
115,206,63846,2,0,L|201:205,1,86.2500016450882,2|2,0:0|0:0,0:0:0:0:
91,306,64185,2,0,P|52:288|24:256,1,86.2500016450882,0|2,1:0|0:0,0:0:0:0:
26,153,64524,5,2,0:0:0:0:
151,76,64694,2,0,B|237:75|237:75|264:111|310:117,1,172.500003290176,4|2,1:2|0:0,0:0:0:0:
320,13,65202,1,8,0:3:0:0:
411,81,65372,1,0,1:0:0:0:
411,81,65457,1,0,1:0:0:0:
411,81,65541,2,0,P|453:74|491:54,1,86.2500016450882,4|4,0:3|0:3,0:0:0:0:
493,202,65880,6,0,P|445:224|386:226,1,86.2500016450882,4|2,1:2|0:0,0:0:0:0:
339,156,66219,1,2,0:0:0:0:
264,228,66389,2,0,P|222:221|184:202,2,86.2500016450882,0|2|2,1:0|0:0|0:0,0:0:0:0:
338,300,66897,6,0,B|309:331|260:331|260:331|220:307|170:318,1,172.500003290176,0|2,1:0|0:0,0:0:0:0:
75,339,67406,1,0,1:0:0:0:
0,267,67575,2,0,P|38:247|80:240,1,86.2500016450882,2|2,0:0|0:0,0:0:0:0:
180,212,67914,2,0,L|190:126,1,86.2500016450882,0|2,1:0|0:0,0:0:0:0:
120,50,68253,1,4,1:2:0:0:
8,122,68423,5,2,0:0:0:0:
8,122,68507,1,2,0:0:0:0:
8,122,68592,2,0,P|46:142|88:149,1,86.2500016450882,0|0,1:0|0:0,0:0:0:0:
190,126,68931,2,0,L|233:126,2,43.1250008225441,8|8|0,0:0|0:0|1:0,0:0:0:0:
209,228,69270,6,0,P|296:209|336:128,1,172.500003290176,8|0,0:0|1:0,0:0:0:0:
414,209,69779,2,0,L|500:209,2,86.2500016450882,4|8|0,0:3|0:3|1:0,0:0:0:0:
389,318,70287,6,0,L|303:317,1,86.2500016450882,4|0,0:0|0:0,0:0:0:0:
237,236,70626,1,8,0:3:0:0:
150,287,70796,1,0,1:0:0:0:
150,287,70880,1,0,1:0:0:0:
150,287,70965,2,0,L|64:286,1,86.2500016450882,4|0,0:3|0:0,0:0:0:0:
152,174,71304,6,0,B|180:138|225:131|225:131|271:124|297:89,1,172.500003290176,4|0,1:2|1:0,0:0:0:0:
214,27,71812,1,4,0:3:0:0:
121,74,71982,2,0,L|35:73,1,86.2500016450882,2|0,0:0|0:0,0:0:0:0:
65,172,72321,2,0,L|151:173,1,86.2500016450882,0|0,1:0|0:0,0:0:0:0:
242,125,72660,5,2,0:0:0:0:
199,264,72829,2,0,B|168:293|119:290|119:290|80:264|37:272,1,172.500003290176,4|0,1:2|1:0,0:0:0:0:
65,172,73338,1,2,0:0:0:0:
34,72,73507,2,0,L|21:29,2,43.1250008225441,0|0|0,1:0|1:0|1:0,0:0:0:0:
142,102,73846,5,0,1:0:0:0:
142,102,73931,1,0,1:0:0:0:
142,102,74016,2,0,P|183:105|239:99,1,86.2500016450882,6|0,0:0|0:0,0:0:0:0:
310,38,74355,2,0,P|352:41|394:52,1,86.2500016450882,0|0,1:0|0:0,0:0:0:0:
393,156,74694,2,0,P|350:164|307:167,1,86.2500016450882,2|0,0:0|0:0,0:0:0:0:
224,230,75033,2,0,P|181:233|138:230,1,86.2500016450882,2|4,0:0|1:2,0:0:0:0:
60,164,75372,5,2,0:0:0:0:
71,310,75541,2,0,P|142:327|246:322,1,172.500003290176,8|4,0:3|1:2,0:0:0:0:
323,259,76050,1,0,0:0:0:0:
357,161,76219,2,0,L|359:98,2,43.1250008225441,8|8|8,0:0|0:0|0:0,0:0:0:0:
461,197,76558,5,8,0:0:0:0:
461,197,76643,1,8,0:0:0:0:
461,197,76728,2,0,L|465:71,1,86.2500016450882,4|2,1:2|0:0,0:0:0:0:
405,25,77067,1,2,0:0:0:0:
301,30,77236,2,0,P|255:29|200:17,1,86.2500016450882,0|2,1:0|0:0,0:0:0:0:
137,94,77575,2,0,P|176:109|218:117,1,86.2500016450882,2|0,0:0|1:0,0:0:0:0:
358,117,77914,6,0,L|355:203,1,86.2500016450882,6|0,0:0|0:0,0:0:0:0:
412,290,78253,2,0,L|369:293,3,43.1250008225441,0|0|0|0,1:0|1:0|1:0|1:0,0:0:0:0:
331,329,78592,2,0,L|288:332,3,43.1250008225441,0|0|0|0,1:0|1:0|1:0|1:0,0:0:0:0:
250,368,78931,2,0,B|158:373|185:312|81:317,1,172.500003290176,8|2,0:3|0:0,0:0:0:0:
0,326,79440,1,6,0:0:0:0:
332,248,84863,6,0,L|182:235,1,150,2|0,0:0|0:0,0:0:0:0:
162,154,85372,2,0,L|311:166,1,150,2|0,0:0|0:0,0:0:0:0:
345,90,85880,1,8,0:0:0:0:
414,240,86219,1,0,0:0:0:0:
414,240,86728,5,2,0:0:0:0:
321,377,87067,1,2,0:0:0:0:
286,302,87236,1,8,0:0:0:0:
207,329,87406,2,0,L|157:328,2,37.5,4|4|2,0:3|0:3|0:0,0:0:0:0:
286,302,87745,6,0,B|308:205|308:205|298:133,2,150,0|8|2,0:0|0:0|0:0,0:0:0:0:
207,329,88592,1,8,0:0:0:0:
132,292,88762,5,4,0:3:0:0:
121,296,88846,1,4,0:3:0:0:
110,300,88931,2,0,L|13:307,1,75,2|2,0:0|0:0,0:0:0:0:
29,124,89440,2,0,B|104:119|104:119|123:85|164:74,1,150,8|2,0:0|0:0,0:0:0:0:
178,156,89948,1,8,0:0:0:0:
342,145,90287,6,0,L|237:151,1,75,2|0,0:0|0:0,0:0:0:0:
141,258,90796,1,2,0:0:0:0:
199,316,90965,2,0,L|273:311,1,75,0|0,0:0|0:0,0:0:0:0:
327,248,91304,1,8,0:0:0:0:
405,275,91473,6,0,P|384:307|329:330,1,75,0|0,0:0|0:0,0:0:0:0:
390,194,91812,2,0,P|428:195|475:231,1,75,2|0,0:0|0:0,0:0:0:0:
327,248,92151,2,0,P|309:177|352:119,1,150,2|2,0:0|0:0,0:0:0:0:
435,111,92660,1,8,0:0:0:0:
284,41,92999,6,0,L|210:46,1,75,2|0,0:0|0:0,0:0:0:0:
55,105,93507,1,8,0:0:0:0:
122,150,93676,2,0,P|135:114|132:77,1,75,0|2,0:0|0:0,0:0:0:0:
48,187,94016,1,8,0:0:0:0:
115,232,94185,2,0,L|155:225,2,37.5,4|4|2,0:3|0:3|0:0,0:0:0:0:
82,309,94524,6,0,P|111:333|147:342,1,75,2|0,0:0|0:0,0:0:0:0:
208,286,94863,1,8,0:0:0:0:
278,137,95202,1,2,0:0:0:0:
337,194,95372,1,8,0:0:0:0:
505,106,95711,6,0,L|356:114,1,150,2|0,0:0|0:0,0:0:0:0:
337,194,96219,1,8,0:0:0:0:
278,137,96389,2,0,L|241:130,2,37.5,0|0|2,0:0|0:0|0:0,0:0:0:0:
228,211,96728,2,0,L|155:199,1,75,8|0,0:0|0:0,0:0:0:0:
142,279,97067,6,0,P|205:318|278:309,1,150,4|0,0:0|0:0,0:0:0:0:
333,247,97575,2,0,L|406:234,1,75,8|0,0:0|0:0,0:0:0:0:
473,184,97914,1,2,0:0:0:0:
397,149,98084,2,0,L|323:161,1,75,8|0,0:0|0:0,0:0:0:0:
256,210,98423,5,2,0:0:0:0:
189,161,98592,2,0,L|115:149,1,75,0|0,0:0|0:0,0:0:0:0:
32,148,98931,1,8,0:0:0:0:
61,225,99101,2,0,L|98:231,2,37.5,0|0|2,0:0|0:0|0:0,0:0:0:0:
11,291,99440,1,8,0:0:0:0:
89,314,99609,6,0,L|126:320,2,37.5,2|2|2,0:0|0:0|0:0,0:0:0:0:
177,255,99948,2,0,P|221:242|278:237,1,75,2|0,0:0|0:0,0:0:0:0:
324,272,100287,2,0,P|397:262|448:209,1,150,8|2,0:0|0:0,0:0:0:0:
451,125,100796,1,8,0:0:0:0:
267,88,101134,6,0,P|262:163|249:236,1,150,2|0,0:0|0:0,0:0:0:0:
174,273,101643,1,8,0:0:0:0:
99,238,101812,2,0,L|99:200,2,37.5,0|0|2,0:0|0:0|0:0,0:0:0:0:
104,321,102151,1,8,0:0:0:0:
179,355,102321,6,0,P|215:344|242:319,1,75,2|0,0:0|0:0,0:0:0:0:
249,236,102660,2,0,P|275:210|311:199,1,75,2|0,0:0|0:0,0:0:0:0:
387,234,102999,2,0,P|423:243|508:169,1,150,8|2,0:0|0:0,0:0:0:0:
488,98,103507,1,8,0:0:0:0:
311,199,103846,6,0,P|236:194|162:181,1,150,2|0,0:0|0:0,0:0:0:0:
92,136,104355,1,8,0:0:0:0:
73,55,104524,2,0,L|31:50,2,37.5,0|0|2,0:0|0:0|0:0,0:0:0:0:
153,76,104863,1,8,0:0:0:0:
230,50,105033,6,0,P|267:39|304:39,1,75,2|2,0:0|0:0,0:0:0:0:
355,105,105372,2,0,P|345:141|326:173,1,75,2|2,0:0|0:0,0:0:0:0:
258,221,105711,2,0,P|204:168|167:103,1,150,2|0,0:0|0:0,0:0:0:0:
230,50,106219,1,0,0:0:0:0:
256,192,106558,12,0,107914,0:0:0:0:
256,192,108253,6,0,L|265:106,1,86.2500016450882,0|0,0:0|0:0,0:0:0:0:
167,225,108592,2,0,L|157:310,1,86.2500016450882,0|0,0:0|0:0,0:0:0:0:
92,166,108931,2,0,P|126:139|168:131,1,86.2500016450882,4|0,0:3|0:0,0:0:0:0:
259,247,109270,6,0,L|358:257,1,86.2500016450882,4|2,1:2|0:0,0:0:0:0:
433,199,109609,1,2,0:0:0:0:
405,98,109779,1,0,1:0:0:0:
316,154,109948,2,0,L|217:144,1,86.2500016450882,2|2,0:0|0:0,0:0:0:0:
165,65,110287,2,0,L|79:56,1,86.2500016450882,0|2,1:0|0:0,0:0:0:0:
7,131,110626,5,2,0:0:0:0:
139,195,110796,2,0,B|160:233|148:278|148:278|136:322|157:362,1,172.500003290176,4|2,1:2|0:0,0:0:0:0:
246,310,111304,2,0,P|256:257|248:199,1,86.2500016450882,2|2,1:2|0:0,0:0:0:0:
219,127,111643,1,4,1:2:0:0:
327,148,111812,5,2,0:0:0:0:
327,148,111897,1,2,0:0:0:0:
327,148,111982,2,0,L|412:141,1,86.2500016450882,2|2,1:2|0:0,0:0:0:0:
493,196,112320,1,2,0:0:0:0:
464,290,112490,1,0,1:0:0:0:
366,293,112660,2,0,L|293:248,1,86.2500016450882,2|2,0:0|0:0,0:0:0:0:
221,172,112999,2,0,P|196:207|188:249,1,86.2500016450882,0|2,1:0|0:0,0:0:0:0:
242,338,113338,5,2,0:0:0:0:
100,303,113507,2,0,B|79:262|92:218|92:218|105:174|84:135,1,172.500003290176,6|2,1:2|0:0,0:0:0:0:
20,54,114016,1,8,0:3:0:0:
127,40,114185,1,0,1:0:0:0:
127,40,114270,1,0,1:0:0:0:
127,40,114355,2,0,P|161:66|183:102,1,86.2500016450882,4|4,0:3|0:3,0:0:0:0:
188,249,114694,6,0,P|233:241|276:217,1,86.2500016450882,4|2,1:2|0:0,0:0:0:0:
286,120,115033,1,2,0:0:0:0:
365,185,115202,2,0,P|407:175|444:153,2,86.2500016450882,0|2|2,1:0|0:0|0:0,0:0:0:0:
347,288,115711,6,0,P|276:345|189:351,1,172.500003290176,0|2,1:0|0:0,0:0:0:0:
144,263,116219,1,0,1:0:0:0:
160,160,116389,2,0,P|154:116|134:78,1,86.2500016450882,2|2,0:0|0:0,0:0:0:0:
52,142,116728,2,0,L|46:230,1,86.2500016450882,0|2,1:0|0:0,0:0:0:0:
28,330,117067,1,4,1:2:0:0:
151,270,117236,5,2,0:0:0:0:
151,270,117321,1,2,0:0:0:0:
151,270,117406,2,0,L|243:281,1,86.2500016450882,0|2,1:0|0:0,0:0:0:0:
329,232,117745,2,0,L|371:226,2,43.1250008225441,8|8|0,0:0|0:0|1:0,0:0:0:0:
364,330,118084,6,0,P|449:294|473:213,1,172.500003290176,8|0,0:0|1:0,0:0:0:0:
433,128,118592,2,0,L|433:30,2,86.2500016450882,4|8|0,0:3|0:3|1:0,0:0:0:0:
371,225,119101,6,0,L|285:238,1,86.2500016450882,4|0,0:0|0:0,0:0:0:0:
200,179,119440,1,8,0:3:0:0:
106,222,119609,1,0,1:0:0:0:
106,222,119693,1,0,1:0:0:0:
106,222,119779,2,0,L|93:136,1,86.2500016450882,4|0,0:3|0:0,0:0:0:0:
190,282,120118,6,0,P|255:339|355:318,1,172.500003290176,4|0,1:2|1:0,0:0:0:0:
405,254,120626,1,4,0:3:0:0:
386,151,120796,2,0,L|391:61,1,86.2500016450882,2|0,0:0|0:0,0:0:0:0:
488,100,121134,2,0,L|483:186,1,86.2500016450882,0|0,1:0|0:0,0:0:0:0:
405,254,121473,5,2,0:0:0:0:
283,170,121643,2,0,B|203:155|192:195|94:176,1,172.500003290176,4|0,0:0|0:0,0:0:0:0:
23,233,122152,1,2,0:0:0:0:
46,333,122321,2,0,L|20:382,2,43.1250008225441,0|0|0,1:0|1:0|1:0,0:0:0:0:
142,287,122659,5,0,1:0:0:0:
142,287,122745,1,0,1:0:0:0:
142,287,122829,2,0,L|243:283,1,86.2500016450882,6|0,0:0|0:0,0:0:0:0:
309,345,123168,2,0,P|352:342|394:331,1,86.2500016450882,0|0,1:0|0:0,0:0:0:0:
470,260,123507,2,0,P|479:218|494:177,1,86.2500016450882,2|0,0:0|0:0,0:0:0:0:
394,152,123846,2,0,P|379:111|369:69,1,86.2500016450882,2|4,0:0|1:2,0:0:0:0:
467,34,124185,5,2,0:0:0:0:
493,177,124355,2,0,P|442:243|359:249,1,172.500003290176,8|4,0:3|1:2,0:0:0:0:
289,173,124863,1,0,0:0:0:0:
197,221,125033,2,0,L|188:269,2,43.1250008225441,8|8|8,0:0|0:0|0:0,0:0:0:0:
170,120,125372,5,8,0:0:0:0:
170,120,125457,1,8,0:0:0:0:
170,120,125541,2,0,L|164:21,1,86.2500016450882,4|2,1:2|0:0,0:0:0:0:
61,122,125881,1,2,0:0:0:0:
111,212,126050,2,0,P|153:219|196:220,1,86.2500016450882,0|2,1:0|0:0,0:0:0:0:
270,147,126389,2,0,P|312:150|354:162,1,86.2500016450882,2|0,0:0|1:0,0:0:0:0:
276,286,126728,6,0,L|270:372,1,86.2500016450882,6|0,0:0|0:0,0:0:0:0:
376,345,127067,2,0,L|378:301,3,43.1250008225441,0|0|0|0,1:0|1:0|1:0|1:0,0:0:0:0:
414,263,127406,2,0,L|416:219,3,43.1250008225441,0|0|0|0,1:0|1:0|1:0|1:0,0:0:0:0:
450,181,127745,2,0,P|419:88|348:64,1,172.500003290176,8|2,0:3|0:0,0:0:0:0:
277,109,128253,1,6,0:0:0:0:
236,262,129609,5,2,0:0:0:0:
227,180,129779,1,2,0:0:0:0:
227,180,130118,1,2,0:0:0:0:
313,216,130287,2,0,B|325:180|325:180|302:109|302:109|315:75,1,150,4|0,1:2|0:0,0:0:0:0:
390,112,130796,5,2,0:0:0:0:
399,117,130880,1,2,0:0:0:0:
408,122,130965,2,0,B|483:121|483:121|511:99,2,112.5,2|2|2,0:0|0:0|0:0,0:0:0:0:
315,74,131643,2,0,B|277:74|277:74|218:120|218:120|181:120,1,150,4|0,1:2|0:0,0:0:0:0:
123,179,132151,6,0,L|75:179,2,37.5,2|2|2,0:0|0:0|0:0,0:0:0:0:
183,241,132490,1,2,0:0:0:0:
183,241,132829,1,2,0:0:0:0:
255,179,132999,2,0,L|330:179,1,75,4|0,1:2|0:0,0:0:0:0:
387,238,133338,1,0,0:0:0:0:
446,181,133508,5,2,0:0:0:0:
451,172,133592,1,2,0:0:0:0:
456,163,133677,2,0,B|455:88|455:88|433:60,2,112.5,2|2|2,0:0|0:0|0:0,0:0:0:0:
503,240,134355,2,0,L|503:315,1,75,4|0,1:2|0:0,0:0:0:0:
434,361,134694,1,0,1:0:0:0:
366,315,134863,6,0,L|328:315,2,37.5,2|2|2,0:0|0:0|0:0,0:0:0:0:
366,232,135202,1,2,0:0:0:0:
366,232,135541,1,2,0:0:0:0:
278,192,135711,2,0,B|230:192|230:192|189:160|189:160|140:160,1,150,4|2,1:2|0:0,0:0:0:0:
87,238,136219,5,2,0:0:0:0:
87,238,136304,1,2,0:0:0:0:
87,238,136389,2,0,B|162:238,1,75,2|2,0:0|0:0,0:0:0:0:
184,268,136643,1,2,0:0:0:0:
184,268,136728,2,0,L|259:268,1,75,4|2,0:3|0:0,0:0:0:0:
328,216,137067,2,0,B|328:167|328:167|360:126|360:126|360:78,1,150,4|2,1:2|0:0,0:0:0:0:
276,95,137575,6,0,L|276:58,2,37.5,2|2|2,0:0|0:0|0:0,0:0:0:0:
195,81,137914,1,2,0:0:0:0:
195,81,138253,1,2,0:0:0:0:
237,169,138423,2,0,L|237:244,1,75,4|0,1:2|0:0,0:0:0:0:
202,319,138762,1,0,0:0:0:0:
275,364,138931,1,0,1:0:0:0:
173,174,140457,6,0,B|160:324,1,150,6|2,0:0|0:0,0:0:0:0:
338,209,141134,2,0,B|352:60,1,150,2|2,0:0|0:0,0:0:0:0:
173,174,141812,5,2,0:0:0:0:
204,251,141982,2,0,B|277:266,1,75,0|2,1:0|0:0,0:0:0:0:
308,343,142321,1,8,0:3:0:0:
225,342,142490,2,0,B|78:311,1,150,2|2,0:0|0:0,0:0:0:0:
33,240,142999,5,2,0:0:0:0:
33,240,143084,1,2,0:0:0:0:
33,240,143168,2,0,B|29:203|29:203|9:168|23:131|23:131|17:63,1,150,6|2,0:0|0:0,0:0:0:0:
101,160,143677,1,0,1:0:0:0:
167,110,143846,1,2,0:0:0:0:
264,243,144185,1,2,0:0:0:0:
330,193,144354,1,4,1:2:0:0:
386,253,144524,6,0,B|460:259,1,75,2|4,0:0|0:3,0:0:0:0:
356,331,144863,2,0,B|281:324,1,75,0|0,1:0|0:0,0:0:0:0:
264,243,145202,2,0,B|226:239,3,37.5,2|0|0|0,0:0|1:0|1:0|1:0,0:0:0:0:
192,215,145541,2,0,B|154:211,3,37.5,2|0|0|0,0:0|1:0|1:0|1:0,0:0:0:0:
120,187,145880,5,2,0:0:0:0:
91,109,146050,1,2,0:0:0:0:
91,109,146389,1,2,0:0:0:0:
186,133,146558,2,0,B|228:133|228:133|256:118|256:118|285:133|285:133|328:133,1,150,4|0,1:2|0:0,0:0:0:0:
390,189,147067,5,2,0:0:0:0:
399,194,147151,1,2,0:0:0:0:
408,199,147236,2,0,B|483:198|483:198|511:176,2,112.5,2|2|2,0:0|0:0|0:0,0:0:0:0:
326,251,147914,2,0,B|284:251|284:251|256:266|256:266|227:251|227:251|184:251,1,150,4|0,1:2|0:0,0:0:0:0:
114,204,148423,6,0,L|114:156,2,37.5,2|2|2,0:0|0:0|0:0,0:0:0:0:
47,253,148762,1,2,0:0:0:0:
47,253,149101,1,2,0:0:0:0:
114,327,149270,2,0,L|202:327,2,75,4|0|0,1:2|0:0|0:0,0:0:0:0:
129,244,149779,5,2,0:0:0:0:
134,235,149863,1,2,0:0:0:0:
139,226,149948,2,0,B|139:150|139:150|117:122,2,112.5,2|6|6,0:0|0:0|0:0,0:0:0:0:
222,247,150626,2,0,L|297:247,1,75,0|0,1:0|0:0,0:0:0:0:
256,97,151134,5,2,0:0:0:0:
256,97,151219,1,2,0:0:0:0:
256,97,151304,2,0,P|262:60|280:26,2,75,4|2|2,1:2|0:0|0:0,0:0:0:0:
184,169,151812,2,0,P|147:162|113:145,2,75,0|2|2,1:0|0:0|0:0,0:0:0:0:
256,241,152321,2,0,P|249:277|232:312,2,75,0|2|2,1:0|0:0|0:0,0:0:0:0:
256,97,152829,5,4,1:2:0:0:
328,168,152999,2,0,P|364:162|398:145,1,75,2|2,0:0|0:0,0:0:0:0:
344,10,153338,2,0,L|337:85,1,75,0|2,1:0|0:0,0:0:0:0:
256,97,153677,2,0,L|263:22,1,75,4|2,1:2|0:0,0:0:0:0:
184,169,154016,6,0,P|147:162|113:145,2,75,4|2|2,1:2|0:0|0:0,0:0:0:0:
292,231,154524,2,0,P|304:266|306:304,2,75,0|2|2,1:0|0:0|0:0,0:0:0:0:
292,106,155033,2,0,P|316:78|348:57,2,75,0|2|2,1:0|0:0|0:0,0:0:0:0:
162,89,155541,5,4,1:2:0:0:
184,169,155711,2,0,P|183:206|171:242,1,75,2|2,0:0|0:0,0:0:0:0:
112,319,156050,2,0,L|187:330,1,75,8|4,0:3|0:3,0:0:0:0:
259,277,156389,1,2,0:0:0:0:
259,277,156728,6,0,B|250:204|287:142|359:107|436:121|487:171|501:230|501:230|459:187|396:217|382:276|425:334|487:311,1,600,2|0,0:0|0:1,0:0:0:0:
128,288,170287,5,0,1:0:0:0:
274,212,170626,2,0,L|277:174,2,37.5,2|2|6,0:0|0:0|0:0,0:0:0:0:
341,262,170965,1,8,0:2:0:0:
195,186,171304,1,0,3:0:0:0:
351,137,171643,6,0,L|354:99,2,37.5,2|2|2,0:0|0:0|0:0,0:0:0:0:
418,187,171982,1,2,0:3:0:0:
262,236,172321,2,0,L|259:274,2,37.5,10|2|6,0:2|0:0|0:0,0:0:0:0:
195,186,172660,1,0,3:0:0:0:
201,104,172829,2,0,L|204:66,2,37.5,2|2|0,0:0|0:0|1:0,0:0:0:0:
122,225,173338,6,0,L|119:263,2,37.5,2|2|6,0:0|0:0|0:0,0:0:0:0:
195,186,173677,1,8,0:2:0:0:
262,236,173846,1,0,1:0:0:0:
335,197,174016,1,0,3:0:0:0:
201,104,174355,6,0,L|204:66,2,37.5,2|2|6,0:0|0:0|0:0,0:0:0:0:
195,186,174694,1,0,1:0:0:0:
329,279,175033,2,0,L|326:317,2,37.5,10|2|6,0:2|0:0|0:0,0:0:0:0:
335,197,175372,1,0,3:0:0:0:
341,115,175541,2,0,L|344:77,1,37.5,2|2,0:0|0:0,0:0:0:0:
206,301,177406,6,0,P|214:258|213:216,1,86.2500016450882
109,130,177745,2,0,P|101:173|102:215,1,86.2500016450882
204,121,178084,2,0,L|212:31,1,86.2500016450882,4|0,0:3|0:0,0:0:0:0:
212,215,178423,6,0,L|204:300,1,86.2500016450882,4|2,1:2|0:0,0:0:0:0:
294,354,178761,1,2,0:0:0:0:
370,286,178931,1,0,1:0:0:0:
328,192,179101,2,0,L|335:106,1,86.2500016450882,2|2,0:0|0:0,0:0:0:0:
250,48,179440,2,0,L|242:133,1,86.2500016450882,0|2,1:0|0:0,0:0:0:0:
184,220,179779,5,2,0:0:0:0:
328,192,179948,2,0,B|423:198|423:198|452:169|495:169,1,172.500003290176,4|2,1:2|0:0,0:0:0:0:
494,274,180457,2,0,P|456:298|397:298,1,86.2500016450882,0|2,1:2|0:0,0:0:0:0:
312,296,180796,1,4,1:2:0:0:
328,192,180965,5,2,0:0:0:0:
332,179,181050,1,2,0:0:0:0:
336,166,181135,2,0,L|329:81,1,86.2500016450882,0|2,1:0|0:0,0:0:0:0:
238,29,181473,1,2,0:0:0:0:
187,119,181643,1,0,1:0:0:0:
87,150,181812,2,0,L|2:143,1,86.2500016450882,2|2,0:0|0:0,0:0:0:0:
164,221,182151,2,0,L|249:228,1,86.2500016450882,0|2,1:0|0:0,0:0:0:0:
336,166,182490,5,2,0:0:0:0:
423,284,182660,2,0,B|454:255|455:206|455:206|432:166|443:116,1,172.500003290176,4|2,1:2|0:0,0:0:0:0:
355,66,183168,1,8,0:3:0:0:
259,105,183338,1,0,1:0:0:0:
259,105,183423,1,0,1:0:0:0:
259,105,183507,2,0,L|174:112,1,86.2500016450882,4|4,0:3|0:3,0:0:0:0:
124,203,183846,6,0,L|39:210,1,86.2500016450882,4|2,1:2|0:0,0:0:0:0:
188,287,184185,1,2,0:0:0:0:
287,256,184355,2,0,P|312:221|330:181,2,86.2500016450882,0|2|2,1:0|0:0|0:0,0:0:0:0:
263,356,184863,6,0,B|307:364|345:340|345:340|385:315|427:324,1,172.500003290176,0|2,1:0|0:0,0:0:0:0:
512,263,185372,1,0,1:0:0:0:
486,161,185541,2,0,P|481:118|485:76,1,86.2500016450882,2|2,0:0|0:0,0:0:0:0:
391,30,185880,2,0,P|359:59|322:81,1,86.2500016450882,0|2,1:0|0:0,0:0:0:0:
219,66,186219,1,4,1:2:0:0:
303,193,186388,5,2,0:0:0:0:
303,193,186473,1,2,0:0:0:0:
303,193,186558,2,0,L|388:200,1,86.2500016450882,0|0,1:0|0:0,0:0:0:0:
469,265,186897,2,0,L|512:268,2,43.1250008225441,8|8|0,0:0|0:0|1:0,0:0:0:0:
372,302,187236,2,0,P|300:323|207:278,1,172.500003290176,8|0,0:0|1:0,0:0:0:0:
118,245,187745,2,0,L|33:252,2,86.2500016450882,4|8|0,0:3|0:3|1:0,0:0:0:0:
200,182,188253,6,0,L|236:104,1,86.2500016450882,4|0,0:0|0:0,0:0:0:0:
326,157,188592,1,8,0:3:0:0:
421,115,188762,1,0,1:0:0:0:
421,115,188846,1,0,1:0:0:0:
421,115,188931,2,0,L|506:122,1,86.2500016450882,4|0,0:3|0:0,0:0:0:0:
322,52,189270,6,0,B|275:54|246:88|246:88|209:86|160:81,1,172.500003290176,4|0,1:2|0:0,0:0:0:0:
63,120,189779,1,2,0:0:0:0:
101,217,189948,2,0,B|117:286|104:341|104:341|142:314,1,172.500003290176,0|0,1:0|0:0,0:0:0:0:
240,278,190457,6,0,P|247:230|248:189,1,86.2500016450882,2|0,0:0|0:0,0:0:0:0:
210,94,190796,1,6,0:0:0:0:
210,94,191134,1,2,0:0:0:0:
312,111,191304,2,0,P|353:100|393:84,1,86.2500016450882,8|0,0:3|0:0,0:0:0:0:
430,181,191643,2,0,P|470:197|511:207,1,86.2500016450882,0|0,1:0|0:0,0:0:0:0:
387,286,191982,6,0,B|338:291|301:293|301:293|272:259|225:257,1,172.500003290176,6|0,0:0|0:0,0:0:0:0:
146,189,192490,1,2,0:0:0:0:
230,128,192661,2,0,B|251:60|243:4|243:4|279:34,1,172.500003290176,0|0,1:0|0:0,0:0:0:0:
366,88,193168,6,0,P|409:90|452:88,1,86.2500016450882,6|0,0:0|0:0,0:0:0:0:
507,175,193507,2,0,P|483:211|463:249,1,86.2500016450882,2|0,0:0|1:0,0:0:0:0:
362,213,193846,1,2,0:0:0:0:
362,213,193931,1,2,0:0:0:0:
362,213,194016,2,0,P|319:203|277:197,1,86.2500016450882,4|0,0:3|0:0,0:0:0:0:
297,298,194355,2,0,P|340:308|382:314,1,86.2500016450882,0|0,1:0|0:0,0:0:0:0:
463,249,194694,6,0,L|468:162,1,86.2500016450882,4|2,1:2|0:0,0:0:0:0:
410,76,195033,1,2,0:0:0:0:
313,112,195202,2,0,L|226:124,1,86.2500016450882,0|2,1:0|0:0,0:0:0:0:
186,28,195541,2,0,L|99:16,1,86.2500016450882,2|0,0:0|1:0,0:0:0:0:
85,161,195880,6,0,P|47:183|7:197,1,86.2500016450882,6|8,0:0|0:3,0:0:0:0:
92,256,196219,2,0,L|147:260,3,43.1250008225441,0|0|0|0,1:0|1:0|1:0|1:0,0:0:0:0:
179,286,196558,2,0,L|234:290,3,43.1250008225441,0|0|0|0,1:0|1:0|1:0|0:0,0:0:0:0:
266,316,196897,1,4,0:3:0:0:
343,247,197067,1,2,0:0:0:0:
488,102,197406,6,0,P|444:105|402:110,1,86.2500016450882,4|2,1:2|0:0,0:0:0:0:
306,150,197745,1,2,0:0:0:0:
217,96,197914,2,0,P|205:53|198:11,1,86.2500016450882,0|2,1:0|0:0,0:0:0:0:
216,199,198253,2,0,P|183:227|150:255,1,86.2500016450882,2|0,0:0|1:0,0:0:0:0:
306,150,198592,6,0,B|349:165|391:146|391:146|433:127|474:142,2,172.500003290176,6|8|2,0:0|0:3|0:0,0:0:0:0:
256,44,199440,1,0,1:0:0:0:
206,150,199609,2,0,B|162:165|120:146|120:146|78:127|37:142,1,172.500003290176,4|0,0:3|0:0,0:0:0:0:
67,259,200118,1,4,1:2:0:0:
