osu file format v14

[General]
AudioFilename: audio.mp3
AudioLeadIn: 0
PreviewTime: 59372
Countdown: 0
SampleSet: Soft
StackLeniency: 0.5
Mode: 0
LetterboxInBreaks: 0
WidescreenStoryboard: 0

[Editor]
DistanceSpacing: 1
BeatDivisor: 2
GridSize: 16
TimelineZoom: 0.8400007

[Metadata]
Title:Time and again
TitleUnicode:Time and again
Artist:FELT
ArtistUnicode:FELT
Creator:MokouSmoke
Version:Easy
Source:東方星蓮船 ~ Undefined Fantastic Object.
Tags:Maika 舞花 Mika 美歌 NAGI☆Flying Fantastica touhou ZUN Byakuren Hijiri 感情の摩天楼 Emotional Skyscraper Cosmic Mind C93
BeatmapID:1520266
BeatmapSetID:713989

[Difficulty]
HPDrainRate:2
CircleSize:3
OverallDifficulty:2
ApproachRate:3
SliderMultiplier:0.899999999999999
SliderTickRate:1

[Events]
//Background and Video events
0,0,"FELT024.jpg",0,0
//Break Periods
2,79639,83423
2,159639,168847
//Storyboard Layer 0 (Background)
//Storyboard Layer 1 (Fail)
//Storyboard Layer 2 (Pass)
//Storyboard Layer 3 (Foreground)
//Storyboard Sound Samples

[TimingPoints]
796,338.983050847458,4,2,1,40,1,0
1982,-100,4,2,3,40,0,0
11643,-100,4,2,2,40,0,0
12829,-100,4,2,3,40,0,0
13338,-100,4,2,2,40,0,0
14185,-100,4,2,3,40,0,0
14694,-100,4,2,2,40,0,0
15541,-100,4,2,3,40,0,0
16389,-100,4,2,2,40,0,0
16897,-100,4,2,3,40,0,0
17406,-100,4,2,2,40,0,0
18253,-100,4,2,3,40,0,0
18762,-100,4,2,2,40,0,0
19609,-100,4,2,3,40,0,0
20118,-100,4,2,2,40,0,0
20796,-100,4,2,1,50,0,0
22151,-100,4,2,1,60,0,0
22490,-100,4,2,1,80,0,0
33338,-100,4,2,1,50,0,0
49101,-100,4,2,1,40,0,0
49609,-100,4,2,1,40,0,0
55033,-100,4,2,1,30,0,0
59440,-100,4,2,1,80,0,0
60457,-100,4,2,1,80,0,1
79440,-100,4,2,1,50,0,0
108253,-100,4,2,1,80,0,0
109270,-100,4,2,1,80,0,1
128253,-100,4,2,1,65,0,0
150965,-100,4,2,1,72,0,0
156728,-100,4,2,1,65,0,0
157406,-100,4,2,1,50,0,0
158084,-100,4,2,1,40,0,0
158762,-100,4,2,1,30,0,0
170287,-100,4,2,2,60,0,0
175033,-100,4,2,2,40,0,0
175711,-100,4,2,2,20,0,0
177406,-100,4,2,1,80,0,0
178423,-100,4,2,1,80,0,1
197236,-100,4,2,1,80,0,0
197406,-100,4,2,1,80,0,1
200118,-100,4,2,1,35,0,0

[Colours]
Combo1 : 34,179,132
Combo2 : 164,32,88
Combo3 : 23,137,147
Combo4 : 219,98,129

[HitObjects]
83,193,796,6,0,P|125:177|270:198,1,180,4|0,0:3|0:0,0:0:0:0:
294,320,1982,2,0,P|381:336|454:321,1,135,2|0,0:0|0:0,0:0:0:0:
506,288,2829,1,0,0:0:0:0:
468,158,3338,2,0,P|380:141|308:157,1,135,2|0,0:0|0:0,0:0:0:0:
256,190,4185,1,0,0:0:0:0:
133,246,4694,2,0,P|54:190|132:133,1,225,2|0,0:0|0:0,0:0:0:0:
255,189,6050,6,0,P|322:193|387:175,1,135,2|0,0:0|0:0,0:0:0:0:
458,121,6897,1,0,0:0:0:0:
498,249,7406,2,0,P|431:302|356:306,1,135,2|0,0:0|0:0,0:0:0:0:
300,275,8253,1,0,0:0:0:0:
199,184,8762,6,0,P|110:191|45:251,2,180,2|0|0,0:0|0:0|0:0,0:0:0:0:
300,275,10626,2,0,P|337:299|381:309,1,89.9999999999999
472,300,11304,1,0,0:0:0:0:
419,226,11643,6,0,P|405:183|403:133,1,89.9999999999999,0|2,3:0|0:0,0:0:0:0:
412,48,12321,1,2,0:0:0:0:
299,123,12829,2,0,P|219:115|139:90,1,135,2|2,0:0|0:0,0:0:0:0:
90,51,13677,1,2,0:0:0:0:
0,153,14185,6,0,P|6:232|29:312,1,135,2|2,0:0|0:0,0:0:0:0:
87,346,15033,1,2,0:0:0:0:
191,260,15541,2,0,B|298:260|298:313|406:313,1,225,2|2,2:0|0:0,0:0:0:0:
374,182,16897,6,0,P|373:102|389:20,1,135,2|2,0:0|0:0,0:0:0:0:
471,33,17745,1,2,0:0:0:0:
508,162,18253,2,0,P|501:230|460:287,1,135,2|2,0:0|0:0,0:0:0:0:
380,317,19101,1,2,0:0:0:0:
272,235,19609,6,0,P|197:228|133:235,1,135,2|2,0:0|0:0,0:0:0:0:
27,91,20796,1,0,0:0:0:0:
114,112,21134,2,0,P|164:105|221:85,1,89.9999999999999
264,29,21812,1,0,0:0:0:0:
441,46,22490,6,0,B|451:89|451:89|436:178,1,135,4|0,1:2|1:0,0:0:0:0:
305,206,23507,2,0,B|290:294|290:294|300:338,1,135,0|4,1:0|1:2,0:0:0:0:
434,356,24524,2,0,L|448:267,1,89.9999999999999,0|4,1:0|1:2,0:0:0:0:
482,184,25202,6,0,B|431:167|431:167|418:125|386:100,1,135,0|0,1:0|1:0,0:0:0:0:
252,85,26219,2,0,B|214:101|192:138|192:138|139:142,1,135,0|0,1:0|1:0,0:0:0:0:
152,277,27236,2,0,L|247:269,1,89.9999999999999,0|0,1:0|1:0,0:0:0:0:
305,206,27914,6,0,B|334:267|334:267|307:344,1,135,4|0,1:2|1:0,0:0:0:0:
446,324,28931,2,0,B|468:260|468:260|439:199,1,135,4|0,1:2|1:0,0:0:0:0:
356,92,29948,2,0,L|266:85,1,89.9999999999999,0|0,1:0|1:0,0:0:0:0:
249,176,30626,6,0,B|158:169|158:169|118:149,1,135,0|0,1:0|1:0,0:0:0:0:
7,74,31643,2,0,B|16:117|16:117|0:205,1,135,0|0,1:0|1:0,0:0:0:0:
84,315,32660,2,0,B|174:322,1,89.9999999999999,4|4,1:2|0:3,0:0:0:0:
254,282,33338,6,0,B|297:278|297:278|342:292|342:292|385:288,2,135,2|8|8,0:0|0:0|0:0,0:0:0:0:
174,322,34694,2,0,B|130:325|130:325|85:311|85:311|42:315,2,135,0|2|8,0:0|0:0|0:0,0:0:0:0:
254,282,36050,6,0,L|260:162,1,89.9999999999999,2|0,0:0|0:0,0:0:0:0:
338,151,36728,2,0,L|342:61,1,89.9999999999999,0|8,0:0|0:0,0:0:0:0:
252,53,37406,2,0,P|185:55|107:26,2,135,2|8|8,0:0|0:0|0:0,0:0:0:0:
342,61,38762,6,0,B|385:64|385:64|427:86|427:86|470:90,1,135,2|8,0:0|0:0,0:0:0:0:
470,225,39779,2,0,B|425:229|425:229|383:251|383:251|340:254,1,135,8|2,0:0|0:0,0:0:0:0:
262,298,40626,2,0,B|218:285|218:285|129:296,1,135,2|8,0:0|0:0,0:0:0:0:
107,208,41473,6,0,B|240:191,1,135,2|8,0:0|0:0,0:0:0:0:
357,123,42490,2,0,P|417:150|492:141,1,135,8|2,0:0|0:0,0:0:0:0:
501,55,43338,2,0,P|439:27|373:34,1,135,8|8,0:0|0:0,0:0:0:0:
288,64,44185,6,0,B|245:55|245:55|199:66|199:66|156:58,2,135,2|8|8,0:0|0:0|0:0,0:0:0:0:
357,123,45541,1,4,0:0:0:0:
377,256,46050,2,0,P|330:304|267:325,1,135,8|8,0:0|0:0,0:0:0:0:
216,251,46897,6,0,B|217:207|217:207|198:163|198:163|198:119,2,135,2|8|8,0:0|0:0|0:0,0:0:0:0:
176,332,48253,1,2,0:0:0:0:
304,283,48762,2,0,B|308:194|308:194|290:151,1,135,8|8,0:0|0:0,0:0:0:0:
277,62,49609,6,0,B|189:84|189:84|125:69,2,135,2|8|8,0:0|0:0|0:0,0:0:0:0:
360,95,50965,2,0,P|421:95|502:63,2,135,0|8|8,0:3|0:0|0:0,0:0:0:0:
277,62,52321,6,0,B|271:105|271:105|286:150|286:150|282:194,1,135,2|8,0:0|0:0,0:0:0:0:
212,309,53338,2,0,P|149:332|81:333,2,135,8|2|0,0:0|0:0|0:0,0:0:0:0:
313,159,55033,6,0,P|436:80|511:238,2,360
290,175,59440,6,0,L|166:175,1,89.9999999999999
114,147,60118,1,4,0:3:0:0:
32,184,60457,6,0,L|36:296,1,89.9999999999999,4|2,1:2|0:0,0:0:0:0:
118,239,61134,2,0,L|121:328,1,89.9999999999999,2|0,0:0|1:0,0:0:0:0:
204,294,61812,2,0,P|274:266|383:266,1,180,2|2,0:0|1:2,0:0:0:0:
464,287,62829,1,0,1:0:0:0:
509,209,63168,6,0,L|512:119,1,89.9999999999999,0|2,1:0|0:0,0:0:0:0:
426,146,63846,2,0,L|429:56,1,89.9999999999999,2|0,0:0|1:0,0:0:0:0:
343,82,64524,2,0,P|258:113|166:109,1,180,2|8,0:0|0:3,0:0:0:0:
94,60,65541,1,4,0:3:0:0:
15,104,65880,6,0,B|2:169|2:169|15:235,2,135,0|0|0,1:0|1:0|1:0,0:0:0:0:
94,60,67236,2,0,L|213:67,1,89.9999999999999,2|2,0:0|0:0,0:0:0:0:
250,125,67914,2,0,L|369:132,1,89.9999999999999,0|0,1:0|1:0,0:0:0:0:
426,104,68592,6,0,L|420:236,1,89.9999999999999,0|8,1:0|0:0,0:0:0:0:
508,222,69270,2,0,L|512:132,1,89.9999999999999,8|0,0:0|1:0,0:0:0:0:
493,44,69948,1,8,0:3:0:0:
323,103,70626,1,8,0:3:0:0:
243,60,70965,1,4,0:3:0:0:
162,106,71304,6,0,L|61:109,1,89.9999999999999,4|0,1:2|1:0,0:0:0:0:
101,193,71982,2,0,L|11:195,1,89.9999999999999,2|0,0:0|1:0,0:0:0:0:
30,284,72660,2,0,B|69:308|69:308|159:305|159:305|198:329,1,180,2|2,0:0|0:0,0:0:0:0:
256,260,73677,1,0,1:0:0:0:
315,328,74016,6,0,L|416:325,1,89.9999999999999,6|0,0:0|1:0,0:0:0:0:
376,241,74694,2,0,L|465:238,1,89.9999999999999,2|2,0:0|0:0,0:0:0:0:
447,150,75372,2,0,B|408:126|408:126|318:129|318:129|279:105,1,180,2|0,0:0|0:0,0:0:0:0:
196,137,76389,1,0,1:0:0:0:
110,109,76728,5,4,1:2:0:0:
115,243,77236,2,0,L|191:290,1,89.9999999999999,0|2,1:0|0:0,0:0:0:0:
276,322,77914,2,0,P|278:269|258:229,2,89.9999999999999,6|0|0,0:0|1:0|1:0,0:0:0:0:
359,353,78931,2,0,B|425:353|425:325|490:325,1,135,8|6,0:3|0:0,0:0:0:0:
268,176,84863,6,0,B|267:132|267:132|285:89|285:89|285:46,2,135,2|2|8,0:0|0:0|0:0,0:0:0:0:
249,264,86219,2,0,P|133:243|184:138,1,270,0|8,0:0|0:0,0:0:0:0:
268,176,87575,6,0,B|267:86,1,89.9999999999999,2|0,0:0|0:0,0:0:0:0:
185,49,88253,2,0,B|185:138,1,89.9999999999999,0|8,0:0|0:0,0:0:0:0:
131,211,88931,2,0,B|42:224|42:224|0:209,2,135,2|8|8,0:0|0:0|0:0,0:0:0:0:
185,138,90287,6,0,B|255:113|318:128|318:128|350:83,1,180,2|0,0:0|0:0,0:0:0:0:
409,155,91304,2,0,B|435:119|435:119|445:28,2,135,8|2|0,0:0|0:0|0:0,0:0:0:0:
340,213,92660,1,8,0:0:0:0:
381,293,92999,6,0,B|424:292|424:292|467:310|467:310|510:310,2,135,2|8|8,0:0|0:0|0:0,0:0:0:0:
292,288,94355,2,0,B|260:256|260:256|236:168,1,135,2|8,0:0|0:0,0:0:0:0:
110,219,95372,1,8,0:0:0:0:
48,153,95711,6,0,L|40:59,1,89.9999999999999,0|0,0:0|0:0,0:0:0:0:
128,42,96389,2,0,L|135:131,1,89.9999999999999,0|8,0:0|0:0,0:0:0:0:
222,109,97067,2,0,P|271:88|364:64,2,135,4|8|8,0:0|0:0|0:0,0:0:0:0:
197,194,98423,6,0,B|158:217|158:217|67:219,2,135,2|8|8,0:0|0:0|0:0,0:0:0:0:
285,175,99779,1,2,0:0:0:0:
368,281,100287,2,0,B|502:278,1,135,8|8,0:0|0:0,0:0:0:0:
463,196,101134,6,0,B|452:145|452:145|459:53,2,135,2|8|8,0:0|0:0|0:0,0:0:0:0:
502,278,102490,1,4,0:0:0:0:
367,291,102999,2,0,P|301:273|240:245,1,135,8|8,0:0|0:0,0:0:0:0:
190,171,103846,6,0,B|201:120|201:120|194:28,2,135,2|8|8,0:0|0:0|0:0,0:0:0:0:
154,254,105202,2,0,P|194:319|249:335,1,135,2|2,0:0|0:0,0:0:0:0:
470,307,106558,6,0,B|443:259|454:221|454:221|416:210|390:162|390:162|341:189|304:178|304:178|293:216|245:243,1,360
156,223,108253,2,0,B|128:194|129:139,1,89.9999999999999,0|0,0:0|0:0,0:0:0:0:
188,71,108931,1,4,0:3:0:0:
276,91,109270,6,0,L|392:83,1,89.9999999999999,4|2,1:2|0:0,0:0:0:0:
351,173,109948,1,2,0:0:0:0:
364,262,110287,2,0,B|454:268|454:268|511:250,2,135,0|4|2,1:0|1:2|1:2,0:0:0:0:
281,229,111643,1,4,1:2:0:0:
198,262,111982,6,0,L|108:268,1,89.9999999999999,2|2,1:2|0:0,0:0:0:0:
123,180,112660,2,0,L|7:188,1,89.9999999999999,2|0,0:0|1:0,0:0:0:0:
47,97,113338,2,0,B|92:94|92:94|102:50|139:17|191:20,1,180,2|8,0:0|0:3,0:0:0:0:
181,110,114355,1,4,0:3:0:0:
213,196,114694,6,0,L|329:204,2,89.9999999999999,0|2|2,1:0|0:0|0:0,0:0:0:0:
123,180,115711,2,0,B|72:254|72:254|10:281,2,135,0|0|0,1:0|1:0|1:0,0:0:0:0:
181,110,117067,1,4,1:2:0:0:
271,126,117406,6,0,L|387:134,1,89.9999999999999,0|8,1:0|0:0,0:0:0:0:
323,214,118084,2,0,L|439:222,1,89.9999999999999,8|0,0:0|1:0,0:0:0:0:
375,302,118762,1,8,0:3:0:0:
297,347,119101,2,0,B|205:347|218:301|124:301,1,180,4|4,0:0|0:3,0:0:0:0:
37,320,120118,6,0,L|28:208,1,89.9999999999999,4|0,1:2|1:0,0:0:0:0:
59,145,120796,1,2,0:0:0:0:
30,59,121134,2,0,B|76:46|115:76|115:76|187:70,2,135,0|4|2,1:0|0:0|0:0,0:0:0:0:
59,145,122490,1,0,1:0:0:0:
147,162,122829,6,0,L|259:153,1,89.9999999999999,6|0,0:0|1:0,0:0:0:0:
218,243,123507,2,0,L|330:234,1,89.9999999999999,2|2,0:0|0:0,0:0:0:0:
289,324,124185,2,0,B|379:317|379:317|407:276|456:269,1,180,2|0,0:0|0:0,0:0:0:0:
512,202,125202,1,0,1:0:0:0:
506,112,125541,5,4,1:2:0:0:
377,153,126050,2,0,P|329:147|275:131,1,89.9999999999999,0|2,1:0|0:0,0:0:0:0:
217,81,126728,2,0,P|203:125|210:175,1,89.9999999999999,6|0,0:0|1:0,0:0:0:0:
252,246,127406,1,0,1:0:0:0:
207,323,127745,2,0,B|119:342|119:342|45:324,1,135,8|6,0:3|0:0,0:0:0:0:
407,192,129609,5,2,0:0:0:0:
231,150,130287,2,0,B|221:106|221:106|231:62,1,89.9999999999999,4|0,1:2|0:0,0:0:0:0:
309,106,130965,1,2,0:0:0:0:
181,232,131643,2,0,B|137:241|137:241|93:232,1,89.9999999999999,4|0,1:2|0:0,0:0:0:0:
137,154,132321,5,2,0:0:0:0:
226,312,132999,2,0,L|322:312,1,89.9999999999999,4|0,1:2|0:0,0:0:0:0:
382,250,133677,1,2,0:0:0:0:
227,154,134355,2,0,L|131:154,1,89.9999999999999,4|0,1:2|1:0,0:0:0:0:
71,92,135033,5,2,0:0:0:0:
165,245,135711,2,0,B|174:288|174:288|165:332,1,89.9999999999999,4|2,1:2|0:0,0:0:0:0:
86,290,136389,1,2,0:0:0:0:
244,200,137067,2,0,L|334:200,1,89.9999999999999,4|2,1:2|0:0,0:0:0:0:
400,262,137745,5,2,0:0:0:0:
304,109,138423,2,0,B|259:109|259:109|215:91|215:91|172:91,1,135,4|0,1:2|1:0,0:0:0:0:
172,91,140457,6,0,P|162:184|126:273,1,180,6|2,0:0|0:0,0:0:0:0:
264,143,141812,2,0,L|371:135,1,89.9999999999999,2|2,0:0|0:0,0:0:0:0:
377,49,142490,2,0,L|473:95,1,89.9999999999999,2|2,0:0|0:0,0:0:0:0:
439,176,143168,6,0,P|407:259|397:349,1,180,6|2,0:0|0:0,0:0:0:0:
312,315,144185,2,0,L|222:311,1,89.9999999999999,2|2,0:0|0:0,0:0:0:0:
144,356,144863,1,4,1:2:0:0:
143,266,145202,2,0,P|182:229|233:220,1,89.9999999999999,2|2,0:0|0:0,0:0:0:0:
305,203,145880,5,2,0:0:0:0:
155,102,146558,2,0,B|111:92|111:92|67:102,1,89.9999999999999,4|0,1:2|0:0,0:0:0:0:
111,180,147236,1,2,0:0:0:0:
290,179,147914,2,0,B|320:145|320:145|333:102,1,89.9999999999999,4|0,1:2|0:0,0:0:0:0:
244,101,148592,5,2,0:0:0:0:
156,258,149270,2,0,B|112:268|112:268|68:258,1,89.9999999999999,4|0,1:2|0:0,0:0:0:0:
111,180,149948,2,0,B|155:170|155:170|199:180,1,89.9999999999999,2|0,0:0|0:0,0:0:0:0:
248,254,150626,1,0,1:0:0:0:
405,166,151304,6,0,B|416:91|416:91|403:33,1,135,4|0,1:2|1:0,0:0:0:0:
268,33,152321,2,0,B|255:91|255:91|266:165,1,135,0|4,1:0|1:2,0:0:0:0:
366,256,153338,2,0,L|463:256,1,89.9999999999999,0|4,1:0|1:2,0:0:0:0:
423,340,154016,6,0,B|347:340|347:340|292:318,1,135,4|0,1:2|1:0,0:0:0:0:
184,237,155033,2,0,B|128:215|128:215|53:215,1,135,0|4,1:0|1:2,0:0:0:0:
9,343,156050,2,0,L|99:343,1,89.9999999999999,8|2,0:3|0:0,0:0:0:0:
188,327,156728,6,0,B|255:321|292:258|264:195|264:195|236:132|273:69|339:63|339:63|405:63|448:123|425:188|425:188|403:253|445:313|512:313,1,719.999999999999,2|0,0:0|0:0,0:0:0:0:
408,194,170287,6,0,P|332:235|256:194,1,180,0|8,1:0|0:2,0:0:0:0:
331,144,171304,2,0,L|330:54,1,89.9999999999999,0|2,3:0|0:0,0:0:0:0:
169,135,172321,2,0,L|169:224,1,89.9999999999999,10|0,0:2|3:0,0:0:0:0:
246,274,172999,6,0,P|170:315|94:274,1,180,0|8,1:0|0:2,0:0:0:0:
79,185,174016,2,0,L|78:95,1,89.9999999999999,0|2,3:0|0:0,0:0:0:0:
154,46,174694,1,0,1:0:0:0:
169,135,175033,2,0,P|212:190|261:119,1,180,10|0,0:2|0:0,0:0:0:0:
499,180,177406,6,0,P|448:178|389:162,1,89.9999999999999
333,121,178084,1,4,0:3:0:0:
323,210,178423,6,0,L|329:317,1,89.9999999999999,4|2,1:2|0:0,0:0:0:0:
238,286,179101,1,2,0:0:0:0:
152,314,179440,2,0,B|103:309|67:286|67:286|12:305,2,135,0|4|0,1:0|1:2|1:2,0:0:0:0:
238,286,180796,1,4,1:2:0:0:
210,200,181134,6,0,L|204:110,1,89.9999999999999,0|2,1:0|0:0,0:0:0:0:
295,121,181812,1,2,0:0:0:0:
365,64,182151,2,0,B|414:64|452:84|452:84|493:66,2,135,0|4|8,1:0|1:2|0:3,0:0:0:0:
295,121,183507,1,4,0:3:0:0:
204,110,183846,6,0,L|102:111,1,89.9999999999999,0|2,1:0|0:0,0:0:0:0:
103,201,184524,2,0,L|13:201,1,89.9999999999999,2|0,0:0|1:0,0:0:0:0:
1,291,185202,2,0,P|66:333|169:320,1,180,2|0,0:0|1:0,0:0:0:0:
186,235,186219,1,4,1:2:0:0:
264,188,186558,6,0,B|307:188|307:188|350:168|350:168|394:167,2,135,0|0|0,1:0|1:0|1:0,0:0:0:0:
186,235,187914,1,8,0:3:0:0:
103,201,188253,2,0,L|95:89,1,89.9999999999999,4|8,0:0|0:3,0:0:0:0:
115,23,188931,1,4,0:3:0:0:
183,80,189270,6,0,P|227:87|272:88,1,89.9999999999999,4|0,1:2|0:0,0:0:0:0:
352,43,189948,2,0,B|363:85|363:85|354:131|354:131|364:174,1,135,0|2,1:0|0:0,0:0:0:0:
444,128,190796,1,6,0:0:0:0:
476,260,191304,2,0,B|454:347,1,89.9999999999999,8|0,0:3|1:0,0:0:0:0:
372,311,191982,6,0,P|327:304|282:303,1,89.9999999999999,6|0,0:0|0:0,0:0:0:0:
202,349,192660,2,0,B|192:306|192:306|201:260|201:260|190:218,1,135,0|2,1:0|0:0,0:0:0:0:
110,262,193507,1,6,0:0:0:0:
38,148,194016,2,0,L|32:50,1,89.9999999999999,0|0,1:0|1:0,0:0:0:0:
120,83,194694,6,0,B|208:99|208:99|272:77,1,135,4|0,1:2|1:0,0:0:0:0:
315,18,195541,1,2,0:0:0:0:
388,69,195880,2,0,B|473:39,1,89.9999999999999,6|0,0:0|1:0,0:0:0:0:
479,131,196558,2,0,B|394:160|394:160|349:152,1,135,0|2,1:0|0:0,0:0:0:0:
273,105,197406,6,0,B|261:147|261:147|270:193|270:193|260:236,1,135,4|0,1:2|1:0,0:0:0:0:
262,326,198253,1,2,0:0:0:0:
182,283,198592,2,0,B|81:283,1,89.9999999999999,6|8,0:0|0:3,0:0:0:0:
28,219,199270,1,2,0:0:0:0:
56,133,199609,2,0,B|99:148|115:196|115:196|160:196,1,135,2|4,0:0|1:2,0:0:0:0:
