osu file format v14

[General]
AudioFilename: audio.mp3
AudioLeadIn: 0
PreviewTime: 107850
Countdown: 1
SampleSet: Normal
StackLeniency: 0.7
Mode: 0
LetterboxInBreaks: 0
WidescreenStoryboard: 1

[Editor]
Bookmarks: 11579,22426,33274,44121,54969,60393,79376,84799,95647,106494,109206,128189,140393,145816,156664,170223,178359,189206,194630,200054
DistanceSpacing: 1
BeatDivisor: 8
GridSize: 32
TimelineZoom: 3.699999

[Metadata]
Title:Time and again
TitleUnicode:Time and again
Artist:FELT
ArtistUnicode:FELT
Creator:Florescence
Version:Normal
Source:東方星蓮船 ~ Undefined Fantastic Object.
Tags:FELT-024 Flying Fantastica 舞花 maika 美歌 mika NAGI☆ Vocal Instrumental Pop Electronic Ambient Glitch-Hop touhou ZUN Byakuren Hijiri 感情の摩天楼 Emotional Skyscraper Cosmic Mind C93 video game japanese pop コミックマーケット93 comiket nekroman4ik evilelvis jounzan natteke desu app sainoo
BeatmapID:4163554
BeatmapSetID:1992491

[Difficulty]
HPDrainRate:4
CircleSize:3
OverallDifficulty:4
ApproachRate:6
SliderMultiplier:1.1
SliderTickRate:1

[Events]
//Background and Video events
0,0,"shrine.jpg",0,0
//Break Periods
2,54969,59004
2,79576,83749
2,159376,169173
2,175647,176970
//Storyboard Layer 0 (Background)
//Storyboard Layer 1 (Fail)
//Storyboard Layer 2 (Pass)
//Storyboard Layer 3 (Foreground)
//Storyboard Layer 4 (Overlay)
//Storyboard Sound Samples

[TimingPoints]
732,338.983050847458,4,1,1,50,1,0
732,-117.647058823529,4,1,1,50,0,0
11579,-111.111111111111,4,1,1,50,0,0
20901,-111.111111111111,4,1,1,27,0,0
22087,-111.111111111111,4,1,1,77,0,0
22426,-86.9565217391304,4,1,1,77,0,0
31918,-86.9565217391304,4,1,1,87,0,0
33274,-111.111111111111,4,1,2,60,0,0
44121,-105.263157894737,4,1,2,66,0,0
60054,-105.263157894737,4,1,1,66,0,0
60393,-83.3333333333333,4,1,1,90,0,1
79376,-125,4,1,1,60,0,0
84799,-125,4,1,2,70,0,0
92935,-125,4,1,2,77,0,0
106155,-125,4,1,2,43,0,0
107850,-125,4,1,2,38,0,0
108867,-125,4,1,1,90,0,0
109206,-83.3333333333333,4,1,1,90,0,1
127935,-83.3333333333333,4,1,1,69,0,1
128189,-100,4,1,1,60,0,0
129206,-100,4,1,2,81,0,0
140393,-86.9565217391304,4,1,1,81,0,0
145816,-95.2380952380952,4,1,1,81,0,0
156664,-95.2380952380952,4,1,1,50,0,0
158020,-95.2380952380952,4,1,1,38,0,0
170223,-125,4,2,3,67,0,0
178020,-125,4,1,1,98,0,0
178359,-83.3333333333333,4,1,1,98,0,1
189206,-100,4,1,1,90,0,0
194630,-83.3333333333333,4,1,1,100,0,1
200054,-100,4,1,1,100,0,0

[Colours]
Combo1 : 198,198,198
Combo2 : 164,32,88
Combo3 : 23,137,147
Combo4 : 219,98,129
Combo5 : 34,179,132

[HitObjects]
73,332,732,6,0,P|124:327|171:326,1,93.500001783371,0|2,0:0|0:2,0:0:0:0:
258,341,1409,1,2,0:2:0:0:
384,279,1918,1,2,0:2:0:0:
427,294,2087,2,0,B|456:248|456:248|420:177,1,93.500001783371
374,143,2765,2,0,B|326:124|307:174|274:196,1,93.500001783371,0|0,0:0|0:2,0:0:0:0:
256,204,3274,1,2,0:2:0:0:
213,184,3443,6,0,B|172:126|172:126|224:44,1,140.250002675057,2|0,0:2|0:2,0:0:0:0:
90,212,4630,2,0,P|109:262|115:311,1,93.500001783371,2|2,0:2|0:2,0:0:0:0:
168,378,5308,1,0,0:2:0:0:
213,368,5477,2,0,P|217:305|244:260,1,93.500001783371,2|0,0:2|0:2,0:2:0:0:
312,323,6155,6,0,P|417:309|443:305,1,93.500001783371,0|2,0:2|0:2,0:0:0:0:
459,234,6833,2,0,P|480:240|509:246,2,46.7500008916855,0|0|0,0:2|0:2|0:2,0:0:0:0:
427,198,7342,1,2,0:2:0:0:
413,153,7511,2,0,P|430:89|467:44,1,93.500001783371,0|2,0:0|0:2,0:0:0:0:
354,40,8189,2,0,P|295:28|267:22,1,46.7500008916855,2|2,0:2|0:2,0:0:0:0:
231,84,8698,6,0,P|238:121|242:153,1,46.7500008916855,2|0,0:2|0:0,0:0:0:0:
276,157,9037,1,2,0:2:0:0:
263,201,9206,2,0,P|250:307|250:308,1,93.500001783371,2|0,0:2|0:0,0:0:0:0:
121,351,10054,2,0,P|81:368|26:348,1,93.500001783371,2|2,0:2|0:2,0:2:0:0:
71,269,10732,1,0,0:2:0:0:
40,233,10901,2,0,B|23:185|23:185|69:145,1,93.500001783371,2|0,0:2|0:2,0:2:0:0:
147,193,11579,6,0,P|155:142|149:88,1,98.9999969787599,2|0,0:2|1:2,0:0:0:0:
212,17,12257,2,0,L|151:-7,2,49.4999984893799,2|2|0,0:2|0:2|0:2,0:0:0:0:
254,42,12765,2,0,P|330:32|382:27,1,98.9999969787599,0|0,0:2|0:2,0:0:0:0:
381,70,13274,1,2,0:2:0:0:
463,124,13613,2,0,P|479:61|482:50,2,49.4999984893799,2|2|0,0:2|0:2|0:2,0:2:0:0:
487,167,14121,1,0,0:2:0:0:
454,204,14291,6,0,P|427:269|451:312,1,98.9999969787599,2|0,0:2|0:2,0:2:0:0:
363,361,14969,1,2,0:2:0:0:
323,330,15138,2,0,P|322:262|296:237,1,98.9999969787599,2|2,0:2|0:2,0:0:0:0:
208,213,15816,1,2,0:2:0:0:
253,125,16155,2,0,B|165:116|165:116|157:120|157:120|62:111,1,148.49999546814,2|0,0:2|0:2,0:0:0:0:
62,137,16833,1,0,0:2:0:0:
29,174,17003,6,0,P|7:233|41:284,1,98.9999969787599,2|2,0:2|0:2,0:0:0:0:
101,319,17681,2,0,P|144:311|175:305,1,49.4999984893799,2|0,0:2|0:2,0:0:0:0:
238,271,18189,1,0,0:2:0:0:
285,286,18359,1,2,0:2:0:0:
383,297,18698,2,0,P|369:240|367:235,1,49.4999984893799,2|0,0:2|0:2,0:0:0:0:
402,209,19037,2,0,P|416:153|416:147,1,49.4999984893799,2|2,0:2|0:2,0:2:0:0:
352,85,19545,6,0,B|272:62|273:127|196:144,1,148.49999546814,2|2,0:2|0:2,0:0:0:0:
82,81,20562,2,0,L|14:66,2,49.4999984893799,2|0|0,0:2|0:2|0:2,0:0:0:0:
82,81,22087,5,4,0:3:0:0:
108,204,22426,5,4,1:1:0:0:
167,182,22596,1,0,3:0:0:0:
282,130,22935,2,0,P|382:145|470:166,1,189.750003619194,8|8,0:2|0:2,0:0:0:0:
311,237,23952,2,0,P|199:264|165:275,1,126.500002412796,8|0,0:2|3:0,0:0:0:0:
133,300,24460,1,8,0:2:0:0:
24,234,24799,1,8,0:2:0:0:
104,136,25138,2,0,P|100:103|96:74,2,63.250001206398,4|0|0,1:1|3:0|3:0,0:0:0:0:
167,143,25647,6,0,P|261:120|292:82,1,126.500002412796,8|0,0:2|3:0,0:0:0:0:
335,113,26155,1,8,0:2:0:0:
457,79,26494,2,0,P|448:152|447:157,1,63.250001206398,0|12,3:0|0:2,0:0:0:0:
481,196,26833,1,0,0:0:0:0:
365,245,27172,2,0,B|279:198|273:286|144:322,1,189.750003619194,0|0,0:1|1:1,0:0:0:0:
134,298,27850,2,0,P|47:325|34:329,2,63.250001206398,12|0|0,1:1|3:0|3:0,0:0:0:0:
175,249,28359,6,0,P|151:160|146:139,1,63.250001206398,8|0,0:2|3:0,0:0:0:0:
217,76,28867,2,0,P|245:168|248:178,1,63.250001206398,8|0,0:2|3:0,0:0:0:0:
353,184,29376,2,0,P|325:95|320:76,1,63.250001206398,8|0,0:2|3:0,0:0:0:0:
414,26,29884,1,8,0:2:0:0:
496,121,30223,1,8,0:2:0:0:
410,213,30562,2,0,L|401:279,2,63.250001206398,12|0|0,3:2|0:1|3:0,0:0:0:0:
353,185,31070,6,0,P|257:198|211:227,1,126.500002412796,8|0,0:1|0:1,0:0:0:0:
168,203,31579,2,0,P|123:274|125:322,1,126.500002412796,8|0,0:1|3:0,0:0:0:0:
165,361,32087,2,0,L|247:386,2,63.250001206398,0|0|0,3:0|3:0|3:0,0:0:0:0:
101,368,32596,5,8,0:1:0:0:
38,375,32765,1,8,0:3:0:0:
0,329,32935,1,8,0:0:0:0:
22,212,33274,6,0,P|53:88|61:57,1,148.49999546814,0|8,3:0|0:2,0:0:0:0:
157,73,34121,2,0,P|146:-2|145:-7,1,49.4999984893799,0|8,3:0|0:2,0:0:0:0:
249,36,34630,2,0,P|372:42|414:85,2,148.49999546814,0|0|8,0:0|3:0|0:2,0:0:0:0:
180,108,35986,6,0,P|195:226|202:293,1,148.49999546814,0|8,3:0|0:2,0:0:0:0:
247,335,36833,2,0,P|237:387|234:401,2,49.4999984893799,0|8|0,3:0|0:2|2:0,0:0:0:0:
270,290,37342,2,0,P|328:255|343:244,1,49.4999984893799,0|0,3:0|3:0,0:0:0:0:
410,283,37850,1,8,2:2:0:0:
446,193,38189,2,0,L|486:244,2,49.4999984893799,0|8|0,3:0|0:2|0:0,0:0:0:0:
397,182,38698,6,0,P|387:127|431:57,1,98.9999969787599,0|0,3:0|0:0,0:0:0:0:
440,58,39206,1,8,0:2:0:0:
352,11,39545,1,0,3:0:0:0:
309,35,39715,2,0,L|239:67,1,49.4999984893799,8|0,0:0|0:2,0:0:0:0:
210,138,40223,1,0,3:0:0:0:
112,122,40562,1,0,3:0:0:0:
59,205,40901,1,0,3:0:0:0:
107,215,41070,1,8,0:2:0:0:
204,230,41409,6,0,P|209:304|217:338,1,98.9999969787599,0|0,3:0|0:0,0:0:0:0:
240,370,41918,1,8,0:2:0:0:
325,319,42257,2,0,L|400:330,2,49.4999984893799,0|8|0,3:0|0:2|3:0,0:0:0:0:
312,220,42935,2,0,P|322:156|315:96,1,98.9999969787599,0|8,3:0|2:2,0:0:0:0:
268,36,43613,2,0,L|203:26,2,49.4999984893799,0|8|0,3:0|0:2|0:0,0:0:0:0:
318,22,44121,5,0,3:0:0:0:
189,110,44630,1,8,0:2:0:0:
98,58,44969,2,0,L|46:66,2,52.2499986047745,0|8|0,3:0|0:2|3:0,0:0:0:0:
89,109,45477,2,0,L|68:177,1,52.2499986047745,0|0,0:0|2:0,0:0:0:0:
114,255,45986,1,8,0:2:0:0:
211,216,46325,2,0,L|284:253,2,52.2499986047745,0|8|0,3:0|0:2|0:0,0:0:0:0:
209,163,46833,6,0,P|238:109|295:111,1,104.499997209549,0|0,3:0|0:0,0:0:0:0:
318,135,47342,1,8,0:2:0:0:
379,219,47681,2,0,P|361:290|359:295,1,52.2499986047745,0|8,3:0|0:2,0:0:0:0:
333,309,48020,2,0,P|254:329|195:305,2,104.499997209549,0|0|8,3:0|3:0|0:2,2:0:0:0:
434,334,49037,2,0,L|490:357,2,52.2499986047745,0|8|0,3:0|3:2|3:0,0:0:0:0:
422,282,49545,5,0,3:0:0:0:
412,125,50054,2,0,P|403:60|399:43,1,52.2499986047745,8|0,0:2|0:0,0:0:0:0:
355,56,50393,1,0,3:0:0:0:
320,94,50562,2,0,P|247:104|238:104,1,52.2499986047745,8|0,0:2|3:0,0:0:0:0:
185,166,51070,2,0,P|116:154|33:142,1,104.499997209549,0|8,3:0|0:2,0:0:0:0:
52,249,51748,2,0,L|16:304,2,52.2499986047745,0|8|0,3:0|0:2|0:0,0:0:0:0:
98,273,52257,6,0,P|163:300|212:285,1,104.499997209549,0|0,3:0|0:0,0:0:0:0:
241,316,52765,1,8,0:2:0:0:
286,290,52935,1,0,0:0:0:0:
333,197,53274,1,8,0:2:0:0:
285,175,53443,2,0,P|273:103|267:34,2,104.499997209549,0|0|0,3:0|3:0|3:0,2:0:0:0:
285,175,60054,5,4,0:3:0:0:
159,135,60393,2,0,P|77:156|56:186,1,65.9999979858399,6|0,3:1|3:0,0:0:0:0:
29,149,60732,2,0,B|0:210|0:210|49:286,1,131.99999597168,0|0,3:0|3:0,0:0:0:0:
112,370,61409,2,0,P|159:278|164:272,1,65.9999979858399,8|0,0:2|3:0,0:0:0:0:
184,262,61748,1,0,3:0:0:0:
137,214,61918,1,12,0:2:0:0:
266,188,62257,5,0,3:0:0:0:
329,170,62426,2,0,P|410:157|429:159,1,65.9999979858399
457,174,62765,2,0,B|477:204|477:204|453:264,1,65.9999979858399,8|0,0:2|3:1,0:0:0:0:
411,269,63104,1,14,0:1:0:0:
308,350,63443,2,0,P|209:353|143:327,1,131.99999597168,0|0,3:0|3:0,0:0:0:0:
69,268,64121,2,0,B|49:235|49:235|83:182,1,65.9999979858399,0|0,0:1|3:0,0:0:0:0:
125,187,64460,2,0,P|75:90|92:-4,1,197.99999395752,0|4,3:0|3:2,0:0:0:0:
152,18,65138,5,8,1:3:0:0:
283,2,65477,1,8,3:3:0:0:
409,39,65816,1,14,0:1:0:0:
472,154,66155,2,0,P|390:195|358:207,1,65.9999979858399,2|8,3:1|0:2,0:0:0:0:
350,166,66494,2,0,P|241:134|227:130,1,65.9999979858399,0|0,3:0|3:0,0:0:0:0:
231,183,66833,5,8,0:2:0:0:
99,188,67172,2,0,L|27:224,1,65.9999979858399,0|8,3:0|0:1,0:0:0:0:
18,280,67511,2,0,P|22:350|104:377,1,131.99999597168,0|8,3:0|0:2,0:0:0:0:
201,362,68189,1,8,0:1:0:0:
320,305,68528,6,0,B|298:200|298:200|314:141|314:141|285:5,1,263.99999194336,8|0,3:3|0:0,0:0:0:0:
166,11,69545,1,8,0:1:0:0:
69,100,69884,2,0,P|148:112|162:111,1,65.9999979858399,8|8,3:3|0:1,0:0:0:0:
199,107,70223,1,8,0:1:0:0:
225,236,70562,2,0,P|344:202|427:200,1,197.99999395752,0|8,0:3|3:3,0:0:0:0:
474,232,71240,6,0,B|496:262|496:262|470:337,1,65.9999979858399,14|0,0:1|0:0,0:0:0:0:
433,328,71579,1,2,3:1:0:0:
305,360,71918,1,2,3:1:0:0:
175,332,72257,2,0,P|96:289|80:271,1,65.9999979858399,0|0,3:2|0:0,0:0:0:0:
80,248,72596,1,2,3:1:0:0:
16,231,72765,1,10,0:1:0:0:
96,126,73104,1,0,1:1:0:0:
152,92,73274,2,0,B|216:65|216:65|283:92,1,131.99999597168,0|8,3:1|0:0,0:0:0:0:
325,129,73782,1,0,0:0:0:0:
388,110,73952,5,14,3:1:0:0:
471,217,74291,2,0,P|483:299|485:308,1,65.9999979858399,2|0,3:1|0:0,0:0:0:0:
446,339,74630,2,0,P|340:358|335:359,1,65.9999979858399,2|0,3:1|0:0,0:0:0:0:
319,324,74969,2,0,P|308:245|308:231,1,65.9999979858399,2|8,3:1|0:1,0:0:0:0:
243,245,75308,2,0,P|258:149|215:70,1,131.99999597168,2|0,3:1|3:0,0:0:0:0:
124,164,75986,2,0,P|96:280|125:367,1,197.99999395752,0|0,0:0|1:0,0:0:0:0:
180,371,76664,5,14,0:1:0:0:
298,313,77003,1,0,3:0:0:0:
279,249,77172,1,10,0:1:0:0:
406,213,77511,2,0,P|418:127|424:114,1,65.9999979858399,0|10,3:0|0:1,0:0:0:0:
372,93,77850,6,0,B|324:12|150:-5|19:133|266:265|254:100,1,395.999987915039,2|0,3:1|3:0,0:0:0:0:
254,277,79376,5,4,0:3:0:0:
216,161,84799,6,0,P|227:242|236:316,1,132,0|0,3:0|3:0,0:0:0:0:
356,339,85816,1,8,0:2:0:0:
432,296,86155,2,0,P|468:226|449:170,2,132,0|0|8,0:0|3:0|0:2,0:0:0:0:
355,251,87511,5,0,3:0:0:0:
338,119,88020,1,8,0:2:0:0:
263,72,88359,2,0,L|276:18,1,44,0|8,3:0|0:2,0:0:0:0:
185,31,88867,2,0,L|93:54,1,88,0|0,3:0|2:0,0:0:0:0:
71,86,89376,2,0,P|87:167|96:210,1,88,8|0,2:2|3:0,0:0:0:0:
123,198,89884,1,8,2:2:0:0:
78,274,90223,6,0,P|104:341|140:345,1,88,0|0,3:0|0:0,0:0:0:0:
156,344,90732,2,0,P|181:334|212:321,1,44,0|0,3:0|0:0,0:0:0:0:
281,349,91240,2,0,P|339:361|348:363,1,44,8|0,0:2|0:0,0:0:0:0:
386,295,91748,1,0,3:0:0:0:
345,216,92087,1,0,3:0:0:0:
375,133,92426,2,0,P|314:113|306:111,1,44,0|8,3:0|0:2,0:0:0:0:
284,45,92935,5,0,3:0:0:0:
170,112,93443,2,0,P|163:90|157:69,2,44,8|0|0,0:2|0:0|3:0,0:0:0:0:
206,137,93952,2,0,P|219:233|146:348,1,220,8|8,0:2|2:2,0:0:0:0:
74,320,95138,2,0,L|6:349,2,44,0|8|0,3:0|0:2|0:0,0:0:0:0:
85,277,95647,6,0,P|81:201|78:109,1,132,0|8,3:0|0:2,0:0:0:0:
128,72,96494,2,0,L|91:33,2,44,0|8|0,3:0|0:2|3:0,0:0:0:0:
170,85,97003,2,0,P|229:65|238:63,1,44,0|0,0:0|3:0,0:0:0:0:
262,140,97511,1,8,0:2:0:0:
327,81,97850,2,0,P|311:35|306:23,2,44,0|8|0,3:0|0:2|2:0,0:0:0:0:
369,92,98359,5,0,3:0:0:0:
494,133,98867,2,0,P|460:222|455:236,1,88,8|0,0:2|3:0,0:0:0:0:
482,255,99376,1,8,0:2:0:0:
456,290,99545,2,0,P|392:294|355:274,1,88,0|0,3:2|3:2,0:2:0:0:
291,322,100223,1,8,0:2:0:0:
212,281,100562,2,0,P|154:304|149:306,2,44,0|8|0,3:0|2:2|2:0,0:0:0:0:
230,240,101070,5,0,3:0:0:0:
119,167,101579,1,8,0:2:0:0:
144,132,101748,2,0,P|160:72|166:29,1,88,0|8,0:2|0:2,0:2:0:0:
194,13,102257,1,0,3:2:0:0:
269,57,102596,2,0,P|337:66|368:74,1,88,0|8,3:2|0:2,0:2:0:0:
378,155,103274,2,0,P|410:202|415:208,2,44,0|8|0,3:0|0:2|0:0,0:0:0:0:
333,157,103782,6,0,P|281:210|207:214,1,132,0|8,3:0|0:2,0:0:0:0:
182,211,104460,2,0,P|165:153|161:138,1,44,0|0,0:0|3:0,0:0:0:0:
185,127,104799,1,8,0:2:0:0:
159,90,104969,1,0,3:0:0:0:
82,46,105308,1,0,3:0:0:0:
3,85,105647,2,0,P|15:148|35:237,1,132,0|0,3:0|0:0,0:0:0:0:
25,241,108867,5,4,0:3:0:0:
55,343,109206,2,0,P|147:369|206:367,1,131.99999597168,6|2,3:1|3:1,0:0:0:0:
280,279,109884,2,0,P|205:259|196:260,1,65.9999979858399,2|0,3:1|3:0,0:0:0:0:
182,202,110223,2,0,P|195:131|195:123,1,65.9999979858399,8|0,0:2|3:1,0:0:0:0:
156,83,110562,1,2,3:1:0:0:
209,44,110732,1,10,0:2:0:0:
340,47,111070,5,0,3:0:0:0:
405,48,111240,2,0,P|439:121|440:124,1,65.9999979858399
495,131,111579,2,0,B|513:165|513:165|472:237,1,65.9999979858399,12|0,0:2|3:0,0:0:0:0:
439,218,111918,1,14,0:1:0:0:
307,211,112257,2,0,P|207:245|194:249,1,65.9999979858399,0|0,3:0|0:0,0:0:0:0:
178,226,112596,2,0,P|95:213|87:211,1,65.9999979858399,0|0,3:0|0:0,0:0:0:0:
60,176,112935,2,0,B|21:120|21:120|72:49,1,131.99999597168,8|0,0:2|3:0,0:0:0:0:
119,44,113443,2,0,P|201:24|214:22,2,65.9999979858399,10|2|2,0:1|3:1|3:1,0:0:0:0:
151,102,113952,5,8,3:3:0:0:
275,144,114291,1,8,3:3:0:0:
399,100,114630,1,14,0:1:0:0:
498,186,114969,6,0,P|465:301|457:353,1,131.99999597168,2|0,3:2|3:0,0:0:0:0:
370,377,115647,1,0,0:1:0:0:
241,345,115986,2,0,P|130:315|122:312,2,65.9999979858399,0|8|0,3:1|0:2|3:2,0:0:0:0:
293,304,116494,2,0,P|286:212|212:178,1,131.99999597168,0|0,3:1|3:0,0:0:0:0:
129,210,117172,5,0,3:0:0:0:
76,169,117342,2,0,L|97:106,1,65.9999979858399,8|0,0:3|0:1,0:0:0:0:
90,40,117681,2,0,P|140:52|246:81,1,131.99999597168,0|0,3:0|1:2,0:0:0:0:
343,116,118359,6,0,P|260:148|256:150,1,65.9999979858399,8|8,0:2|3:3,0:0:0:0:
244,193,118698,2,0,P|281:270|284:277,1,65.9999979858399,8|8,3:3|1:2,0:0:0:0:
324,294,119037,2,0,P|397:290|439:130,1,263.99999194336,0|8,0:0|0:3,0:0:0:0:
353,30,120054,5,6,3:1:0:0:
221,36,120393,2,0,P|191:117|189:127,1,65.9999979858399,2|0,3:1|0:0,0:0:0:0:
247,138,120732,2,0,P|287:224|287:229,1,65.9999979858399,2|0,3:1|0:0,0:0:0:0:
228,231,121070,2,0,P|196:315|196:319,1,65.9999979858399,2|0,3:1|0:0,0:0:0:0:
242,339,121409,1,2,3:1:0:0:
307,326,121579,1,2,0:1:0:0:
411,245,121918,2,0,P|390:146|369:53,1,131.99999597168,0|0,0:1|0:1,0:0:0:0:
342,63,122426,2,0,P|259:40|253:38,1,65.9999979858399,2|0,3:1|0:0,0:0:0:0:
223,83,122765,5,6,3:1:0:0:
109,15,123104,2,0,P|27:61|18:64,1,65.9999979858399,2|0,3:1|0:0,0:0:0:0:
10,100,123443,2,0,P|84:145|92:150,1,65.9999979858399,2|0,3:1|0:0,0:0:0:0:
114,180,123782,2,0,P|51:258|37:267,1,65.9999979858399,2|8,3:1|0:2,0:0:0:0:
66,299,124121,1,2,3:1:0:0:
118,338,124291,2,0,P|225:350|232:352,1,65.9999979858399,2|0,0:1|3:0,0:0:0:0:
243,312,124630,1,8,0:2:0:0:
302,339,124799,2,0,P|451:363|451:363,1,131.99999597168,0|2,0:0|0:1,0:0:0:0:
487,239,125477,5,14,0:1:0:0:
455,110,125816,1,2,3:1:0:0:
400,72,125986,2,0,P|319:82|267:162,1,131.99999597168,8|0,0:1|3:0,0:0:0:0:
153,94,126664,2,0,P|127:167|171:245,1,131.99999597168,2|0,3:1|1:0,0:0:0:0:
119,346,127342,2,0,P|235:332|267:270,1,131.99999597168,0|0,1:0|3:3,0:0:0:0:
252,162,128189,5,4,0:3:0:0:
240,326,129545,6,0,L|253:255,1,55,0|0,3:1|3:1,0:0:0:0:
338,205,130054,1,0,3:1:0:0:
297,167,130223,2,0,P|311:81|323:25,1,110,8|0,0:1|1:0,0:1:0:0:
224,29,130901,6,0,P|142:43|134:156,1,165,2|0,3:2|3:1,0:0:0:0:
94,163,131579,2,0,P|160:204|190:171,1,110,8|0,0:1|0:1,0:1:0:0:
252,268,132257,6,0,P|332:245|338:244,1,55,0|0,3:1|3:1,0:0:0:0:
414,255,132765,1,0,3:1:0:0:
431,202,132935,1,8,0:1:0:0:
360,117,133274,1,0,0:1:0:0:
307,101,133443,2,0,B|231:54|231:54|127:105,1,165,0|0,3:1|0:0,0:0:0:0:
74,153,134291,2,0,P|-11:140|-12:140,2,55,8|0|8,0:1|0:1|0:1,0:1:0:0:
105,258,134969,6,0,P|182:247|190:245,1,55,0|0,3:1|3:1,0:1:0:0:
250,313,135477,1,0,3:1:0:0:
303,327,135647,2,0,P|342:290|324:229,1,110,8|0,0:1|0:0,0:1:0:0:
309,189,136155,5,0,3:1:0:0:
254,178,136325,2,0,P|216:108|261:40,1,165,0|0,3:1|3:1,0:0:0:0:
311,34,137003,1,8,0:1:0:0:
467,86,137511,5,0,3:0:0:0:
511,118,137681,1,0,3:0:0:0:
486,166,137850,2,0,P|475:270|474:322,1,110,0|0,3:0|3:0,0:0:0:0:
447,323,138359,1,8,0:1:0:0:
337,325,138698,2,0,P|313:251|306:225,1,55,0|0,0:1|3:1,0:1:0:0:
319,272,140393,6,0,P|292:136|283:104,1,126.500002412796,4|0,3:1|3:0,0:0:0:0:
193,72,141070,2,0,P|175:132|157:193,1,126.500002412796,0|0,3:0|3:0,0:0:0:0:
39,241,141748,1,0,3:0:0:0:
37,304,141918,1,8,0:1:0:0:
90,337,142087,2,0,P|161:362|169:361,2,63.250001206398,0|8|0,3:0|0:3|3:0,0:0:0:0:
201,280,142765,2,0,P|250:252|296:252,1,63.250001206398,0|8,3:0|0:3,0:0:0:0:
313,277,143104,5,4,3:1:0:0:
423,338,143443,2,0,P|494:363|504:369,2,63.250001206398,0|8|0,3:0|0:1|3:0,0:0:0:0:
420,211,144121,2,0,P|407:156|421:129,1,63.250001206398,0|12,3:0|0:1,0:0:0:0:
372,99,144460,2,0,P|423:62|448:60,1,63.250001206398,0|8,3:0|0:3,0:0:0:0:
432,0,144799,1,12,0:1:0:0:
306,18,145138,2,0,P|187:31|105:47,1,189.750003619194,0|0,3:0|1:1,0:0:0:0:
81,88,145816,6,0,B|64:119|64:119|87:149,1,57.7499982376099,0|0,3:0|3:0,0:0:0:0:
152,225,146325,1,0,3:0:0:0:
201,254,146494,2,0,P|296:238|321:234,1,115.49999647522,12|0,0:1|0:0,0:0:0:0:
407,165,147172,2,0,B|421:105|421:105|381:65,1,115.49999647522,2|2,3:2|3:2,0:0:0:0:
272,31,147850,2,0,P|180:46|120:58,1,115.49999647522,8|0,0:1|0:0,0:0:0:0:
159,169,148528,6,0,P|196:232|201:241,1,57.7499982376099,0|0,3:0|3:0,0:0:0:0:
232,256,148867,1,0,0:0:0:0:
221,313,149037,1,0,3:0:0:0:
274,333,149206,2,0,P|314:390|319:397,1,57.7499982376099,12|0,0:1|0:0,0:0:0:0:
358,354,149545,2,0,P|386:295|399:274,1,57.7499982376099,0|0,0:0|3:0,0:0:0:0:
388,185,150054,2,0,P|354:120|349:108,2,57.7499982376099,0|4|4,0:0|0:1|3:1,0:0:0:0:
442,205,150562,2,0,P|508:166|495:100,1,115.49999647522,8|0,0:1|0:0,0:0:0:0:
470,25,151240,6,0,P|407:11|368:45,1,115.49999647522,10|0,0:1|3:0,0:0:0:0:
312,44,151748,2,0,P|209:90|191:97,1,115.49999647522,8|0,0:1|3:0,0:0:0:0:
149,78,152257,1,8,0:1:0:0:
127,249,152765,2,0,P|57:280|29:293,2,57.7499982376099,12|0|0,0:1|3:0|3:0,0:0:0:0:
169,289,153274,1,8,0:1:0:0:
272,339,153613,2,0,P|339:372|354:380,1,57.7499982376099,12|0,0:1|3:0,0:0:0:0:
374,335,153952,5,10,0:1:0:0:
500,254,154460,1,10,0:1:0:0:
355,158,154969,2,0,P|359:186|364:214,2,57.7499982376099,10|0|0,0:1|3:0|3:0,0:0:0:0:
412,163,155477,2,0,P|431:65|442:-1,1,115.49999647522,10|0,3:1|3:0,0:0:0:0:
383,20,155986,2,0,P|311:40|302:43,1,57.7499982376099,8|0,0:3|3:0,0:0:0:0:
284,72,156325,2,0,P|200:53|191:49,1,57.7499982376099,8|8,0:1|0:3,0:0:0:0:
256,192,156664,12,0,158020,2:0:0:0:
284,72,170223,6,0,P|408:106|452:112,1,132,2|0,2:2|0:0,2:2:0:0:
447,132,170901,1,0,2:2:0:0:
404,208,171240,1,0,2:2:0:0:
320,179,171579,2,0,P|227:210|197:220,1,88,0|0,2:2|2:2,0:0:0:0:
161,159,172257,2,0,P|81:138|23:124,1,132
1,156,172935,5,2,0:0:0:0:
52,227,173274,1,0,0:0:0:0:
103,298,173613,1,0,0:0:0:0:
159,365,173952,1,0,0:0:0:0:
219,300,174291,2,0,P|288:321|343:339,2,88,0|0|8,0:0|0:0|0:2,0:0:0:0:
110,180,178020,5,4,0:3:0:0:
158,57,178359,2,0,P|254:75|281:81,1,65.9999979858399,14|0,3:1|0:0,0:0:0:0:
287,83,178698,2,0,P|325:161|254:212,1,131.99999597168,2|2,3:1|3:1,0:0:0:0:
193,263,179376,2,0,P|186:287|209:321,1,65.9999979858399,8|0,0:2|3:0,0:0:0:0:
270,335,179715,1,2,3:1:0:0:
319,291,179884,1,10,0:2:0:0:
450,300,180223,5,0,3:0:0:0:
460,237,180393,2,0,P|468:153|481:95,1,131.99999597168,0|8,1:2|1:2,3:0:0:0:
440,52,180901,1,2,3:2:0:0:
375,66,181070,2,0,P|297:44|294:42,1,65.9999979858399,14|0,3:1|3:0,0:0:0:0:
250,73,181409,1,0,3:0:0:0:
148,157,181748,1,2,3:1:0:0:
213,271,182087,2,0,P|280:293|309:310,1,65.9999979858399,10|2,0:1|3:1,0:0:0:0:
304,350,182426,1,2,3:1:0:0:
365,325,182596,2,0,B|410:276|410:276|375:193,1,131.99999597168,12|0,0:2|3:0,0:0:0:0:
338,168,183104,5,8,0:1:0:0:
410,57,183443,1,8,3:3:0:0:
280,30,183782,2,0,P|132:60|112:67,1,131.99999597168,14|0,0:1|3:0,0:0:0:0:
47,137,184460,2,0,P|129:160|144:167,1,65.9999979858399,0|0,3:0|3:0,0:0:0:0:
141,211,184799,5,8,0:1:0:0:
161,341,185138,2,0,P|243:304|234:246,1,131.99999597168,4|0,3:1|3:0,0:0:0:0:
247,206,185647,1,0,3:1:0:0:
192,168,185816,1,0,0:1:0:0:
141,211,185986,2,0,P|53:251|41:257,1,65.9999979858399,0|4,3:0|0:2,0:0:0:0:
104,107,186494,6,0,P|76:38|6:1,2,131.99999597168,8|0|0,3:3|3:0|1:1,0:0:0:0:
224,51,187511,1,8,0:1:0:0:
279,86,187681,1,0,3:0:0:0:
342,69,187850,2,0,P|422:90|436:94,1,65.9999979858399,0|8,3:0|1:1,3:0:0:0:
461,122,188189,2,0,P|363:175|345:295,1,197.99999395752,0|0,0:0|0:1,0:0:0:0:
375,307,188867,2,0,P|453:338|460:338,1,65.9999979858399,0|8,0:1|0:3,0:0:0:0:
481,308,189206,5,4,3:3:0:0:
426,212,189545,2,0,P|324:191|271:185,1,110,0|8,0:0|0:1,0:0:0:0:
213,154,190223,2,0,P|139:180|121:187,1,55,0|0,0:0|3:0,0:0:0:0:
106,160,190562,1,4,0:1:0:0:
55,181,190732,1,0,3:1:0:0:
63,290,191070,2,0,P|77:369|78:376,1,55,0|8,0:0|0:0,0:0:0:0:
180,370,191579,1,10,0:0:0:0:
272,310,191918,6,0,P|283:210|284:165,2,110,4|2|10,3:3|0:1|0:1,0:0:0:0:
373,352,192935,2,0,P|448:368|456:369,1,55,0|0,0:1|3:0,0:0:0:0:
472,334,193274,1,2,0:1:0:0:
472,279,193443,1,2,3:1:0:0:
343,175,193952,1,2,0:0:0:0:
403,83,194291,1,8,0:0:0:0:
281,31,194630,6,0,P|174:36|161:40,1,65.9999979858399,14|0,0:1|3:0,0:0:0:0:
160,65,194969,1,0,3:0:0:0:
178,128,195138,1,8,0:1:0:0:
273,219,195477,2,0,P|157:232|128:237,1,131.99999597168,0|2,3:0|3:1,0:0:0:0:
48,328,196155,1,0,0:1:0:0:
172,372,196494,1,0,0:1:0:0:
297,329,196833,1,8,3:3:0:0:
359,351,197003,1,4,0:3:0:0:
441,247,197342,5,14,0:1:0:0:
356,153,197681,2,0,P|379:62|383:52,1,65.9999979858399,0|10,3:0|0:1,0:0:0:0:
388,25,198020,1,0,3:0:0:0:
270,85,198359,1,8,0:1:0:0:
217,124,198528,2,0,P|203:222|200:273,1,131.99999597168,2|2,3:1|0:1,0:0:0:0:
104,345,199206,2,0,P|95:245|59:70,1,263.99999194336,8|8,3:3|3:3,0:0:0:0:
11,65,200054,5,4,0:3:0:0:
