osu file format v14

[General]
AudioFilename: audio.mp3
AudioLeadIn: 0
PreviewTime:107850
Countdown: 1
SampleSet: Normal
StackLeniency: 0.7
Mode: 0
LetterboxInBreaks: 0
WidescreenStoryboard: 1

[Editor]
Bookmarks:11579,22426,33274,44121,54969,60393,79376,84799,95647,106494,109206,128189,140393,145816,156664,170223,178359,189206,194630,200054
DistanceSpacing: 1
BeatDivisor: 8
GridSize: 32
TimelineZoom: 2.899999

[Metadata]
Title:Time and again
TitleUnicode:Time and again
Artist:FELT
ArtistUnicode:FELT
Creator:Florescence
Version:Flying Fantastica
Source:東方星蓮船 ~ Undefined Fantastic Object.
Tags:FELT-024 Flying Fantastica 舞花 maika 美歌 mika NAGI☆ Vocal Instrumental Pop Electronic Ambient Glitch-Hop touhou ZUN Byakuren Hijiri 感情の摩天楼 Emotional Skyscraper Cosmic Mind C93 video game japanese pop コミックマーケット93 comiket nekroman4ik evilelvis jounzan natteke desu app sainoo
BeatmapID:4140212
BeatmapSetID:1992491

[Difficulty]
HPDrainRate:6
CircleSize:4
OverallDifficulty:9
ApproachRate:9
SliderMultiplier:1.8
SliderTickRate:1

[Events]
//Background and Video events
0,0,"staring.jpg",0,0
//Break Periods
2,55308,59037
2,79715,84199
2,159376,169623
//Storyboard Layer 0 (Background)
//Storyboard Layer 1 (Fail)
//Storyboard Layer 2 (Pass)
//Storyboard Layer 3 (Foreground)
//Storyboard Layer 4 (Overlay)
//Storyboard Sound Samples

[TimingPoints]
732,338.983050847458,4,1,1,38,1,0
732,-166.666666666667,4,1,1,38,0,0
901,-166.666666666667,4,1,1,38,0,0
1918,-250,4,1,1,38,0,0
7342,-166.666666666667,4,1,1,38,0,0
10393,-250.000000000001,4,1,1,38,0,0
11579,-125,4,1,1,50,0,0
19037,-83.3333333333333,4,1,1,50,0,0
19206,-500,4,1,1,50,0,0
20308,-125,4,1,1,50,0,0
20774,-125,4,1,1,43,0,0
20816,-125,4,1,1,33,0,0
20901,-125,4,1,1,27,0,0
22087,-125,4,1,1,77,0,0
22426,-55.5555555555556,4,1,1,77,0,0
26494,-71.4285714285714,4,1,1,77,0,0
26833,-55.5555555555556,4,1,1,77,0,0
27850,-71.4285714285714,4,1,1,77,0,0
28359,-55.5555555555556,4,1,1,77,0,0
31918,-55.5555555555556,4,1,1,87,0,1
33274,-142.857142857143,4,1,2,60,0,0
38698,-250.000000000001,4,1,2,60,0,0
39206,-142.857142857143,4,1,2,60,0,0
40223,-250,4,1,2,60,0,0
41409,-142.857142857143,4,1,2,60,0,0
44121,-142.857142857143,4,1,2,66,0,0
46833,-250.000000000001,4,1,2,66,0,0
48020,-142.857142857143,4,1,2,66,0,0
49545,-142.857142857143,4,1,2,66,0,0
54969,-142.857142857143,4,1,2,41,0,0
60054,-125,4,1,1,66,0,0
60393,-52.6315789473684,4,1,1,90,0,1
62257,-83.3333333333333,4,1,1,90,0,1
62935,-52.6315789473684,4,1,1,90,0,1
66155,-133.333333333333,4,1,1,90,0,1
67850,-83.3333333333333,4,1,1,90,0,1
68189,-52.6315789473684,4,1,1,90,0,1
79376,-133.333333333333,4,1,1,60,0,0
84799,-133.333333333333,4,1,2,70,0,0
90223,-250,4,1,2,70,0,0
90732,-133.333333333333,4,1,2,70,0,0
92596,-250,4,1,2,70,0,0
92935,-133.333333333333,4,1,2,77,0,0
94121,-181.818181818182,4,1,2,77,0,0
94460,-133.333333333333,4,1,2,77,0,0
99545,-181.818181818182,4,1,2,77,0,0
99715,-133.333333333333,4,1,2,77,0,0
101070,-250,4,1,2,77,0,0
101409,-117.647058823529,4,1,2,77,0,0
103782,-181.818181818181,4,1,2,77,0,0
106155,-181.818181818181,4,1,2,43,0,0
107829,-181.818181818181,4,1,2,38,0,0
108867,-125,4,1,1,90,0,0
109206,-52.6315789473684,4,1,1,90,0,1
111579,-83.3333333333333,4,1,1,90,0,1
111918,-52.6315789473684,4,1,1,90,0,1
114969,-83.3333333333333,4,1,1,90,0,1
116494,-66.6666666666667,4,1,1,90,0,1
117850,-52.6315789473684,4,1,1,90,0,1
119715,-83.3333333333333,4,1,1,90,0,1
120054,-52.6315789473684,4,1,1,90,0,1
126664,-66.6666666666667,4,1,1,90,0,1
127935,-66.6666666666667,4,1,1,69,0,1
128189,-100,4,1,1,60,0,0
129206,-100,4,1,2,81,0,0
130647,-100,4,1,2,35,0,0
130732,-100,4,1,2,81,0,0
131918,-100,4,1,2,35,0,0
132087,-100,4,1,2,81,0,0
133189,-100,4,1,2,35,0,0
133274,-76.9230769230769,4,1,2,81,0,0
135647,-100,4,1,2,81,0,0
136070,-100,4,1,2,35,0,0
136155,-100,4,1,2,81,0,0
136918,-100,4,1,2,35,0,0
137003,-100,4,1,2,81,0,0
138613,-100,4,1,2,35,0,0
138698,-133.333333333333,4,1,2,81,0,0
140393,-66.6666666666667,4,1,1,81,0,0
142426,-76.9230769230769,4,1,1,81,0,0
143104,-66.6666666666667,4,1,1,81,0,0
145986,-76.9230769230769,4,1,1,81,0,0
146494,-66.6666666666667,4,1,1,81,0,0
147850,-83.3333333333333,4,1,1,81,0,0
149884,-125,4,1,1,81,0,0
151240,-71.4285714285714,4,1,1,81,0,0
152596,-100,4,1,1,81,0,0
153613,-71.4285714285714,4,1,1,81,0,0
153952,-62.5,4,1,1,81,0,0
156664,-62.5,4,1,1,50,0,0
158020,-62.5,4,1,1,38,0,0
170223,-142.857142857143,4,2,3,67,0,0
178020,-125,4,1,1,98,0,0
178359,-50,4,1,1,98,0,1
179376,-66.6666666666667,4,1,1,98,0,1
179715,-50,4,1,1,98,0,1
181409,-71.4285714285714,4,1,1,98,0,1
182596,-62.5,4,1,1,98,0,1
183782,-50,4,1,1,98,0,1
184121,-71.4285714285714,4,1,1,98,0,1
185138,-55.5555555555556,4,1,1,98,0,1
188020,-76.9230769230769,4,1,1,98,0,1
188189,-50,4,1,1,98,0,1
189206,-100,4,1,1,90,0,0
190562,-52.6315789473684,4,1,1,90,0,0
191070,-133.333333333333,4,1,1,90,0,0
191409,-52.6315789473684,4,1,1,90,0,0
191918,-71.4285714285714,4,1,1,90,0,0
192257,-83.3333333333333,4,1,1,90,0,0
193274,-52.6315789473684,4,1,1,90,0,0
194630,-50,4,1,1,100,0,1
194969,-66.6666666666667,4,1,1,100,0,1
197003,-100,4,1,1,100,0,1
197342,-46.5116279069768,4,1,1,100,0,1
197850,-54.054054054054,4,1,1,100,0,1
198189,-60.6060606060606,4,1,1,100,0,1
198528,-46.5116279069768,4,1,1,100,0,1
199037,-71.4285714285714,4,1,1,100,0,1
200054,-71.4285714285714,4,1,1,100,0,0

[Colours]
Combo1 : 198,198,198
Combo2 : 164,32,88
Combo3 : 23,137,147
Combo4 : 219,98,129
Combo5 : 34,179,132

[HitObjects]
219,68,732,5,0,0:0:0:0:
130,80,901,1,0,0:2:0:0:
114,74,1070,1,2,0:2:0:0:
124,72,1240,1,0,0:2:0:0:
216,154,1409,2,0,P|266:142|287:139,1,53.9999983520508,2|0,0:2|0:2,0:2:0:0:
335,175,1748,1,0,0:2:0:0:
250,246,1918,2,0,P|196:248|270:328,1,252,2|0,0:2|0:2,0:2:0:0:
147,305,3274,1,2,0:2:0:0:
66,355,3443,1,2,0:2:0:0:
0,316,3613,1,0,0:2:0:0:
15,284,3782,1,0,0:2:0:0:
195,384,3952,1,0,0:2:0:0:
201,377,4037,1,0,0:2:0:0:
191,374,4121,1,2,0:2:0:0:
347,329,4291,2,0,P|336:268|333:247,1,72,2|2,0:2|0:2,0:2:0:0:
378,191,4969,1,2,0:2:0:0:
455,228,5308,1,0,0:2:0:0:
429,302,5477,2,0,P|418:235|416:217,1,72,2|0,0:2|0:2,0:2:0:0:
442,145,5986,5,2,0:2:0:0:
403,46,6155,1,0,0:2:0:0:
486,77,6325,1,0,0:2:0:0:
370,113,6494,1,2,0:2:0:0:
284,98,6664,1,2,0:2:0:0:
218,124,6833,1,0,0:2:0:0:
102,142,7003,2,0,P|147:150|154:151,1,36,0|0,0:2|0:2,0:2:0:0:
66,7,7342,2,0,P|62:57|12:77,1,107.999996704102,2|0,0:2|0:2,0:2:0:0:
102,142,7850,2,0,L|171:113,1,53.9999983520508,2|0,0:2|0:2,0:2:0:0:
57,213,8189,1,2,0:2:0:0:
57,213,8359,1,2,0:2:0:0:
128,256,8698,1,2,0:2:0:0:
184,193,9037,1,2,0:2:0:0:
184,193,9206,1,2,0:2:0:0:
257,231,10393,2,0,P|258:266|259:293,1,54,2|0,0:2|0:2,0:2:0:0:
261,334,10732,1,0,0:2:0:0:
251,74,10901,2,0,P|250:38|251:2,1,72,2|0,0:2|0:2,0:2:0:0:
336,117,11579,5,2,0:2:0:0:
175,148,11748,1,0,0:2:0:0:
343,232,11918,2,0,L|350:264,4,18,0|0|0|0|0,2:2|2:2|2:2|2:2|2:2,2:2:0:0:
242,84,12257,1,2,0:2:0:0:
268,272,12426,1,2,0:2:0:0:
190,229,12596,1,0,0:2:0:0:
246,368,12765,5,0,0:2:0:0:
250,359,12850,1,0,0:2:0:0:
251,351,12935,1,2,0:2:0:0:
401,373,13104,1,0,0:2:0:0:
138,355,13274,1,2,0:2:0:0:
31,371,13443,1,0,0:2:0:0:
84,205,13613,2,0,P|91:243|88:278,1,72,2|2,0:2|0:2,0:2:0:0:
123,138,13952,2,0,L|128:107,4,18,0|0|0|0|0,0:2|0:2|0:2|0:2|0:2,0:2:0:0:
43,100,14291,6,0,P|46:15|95:3,1,144,2|0,0:2|0:2,0:2:0:0:
180,49,14799,1,2,0:2:0:0:
359,38,14969,1,2,0:2:0:0:
383,124,15138,1,2,0:2:0:0:
379,132,15223,1,0,0:2:0:0:
265,0,15392,1,0,0:2:0:0:
268,9,15477,1,2,0:2:0:0:
298,191,15816,1,2,0:2:0:0:
197,149,16155,1,2,0:2:0:0:
440,59,16325,6,0,L|490:45,2,36,0|0|0,0:2|0:2|0:2,0:2:0:0:
197,149,16664,2,0,L|175:156,4,18,0|0|0|0|0,0:2|0:2|0:2|0:2|0:2,0:2:0:0:
285,25,17003,5,2,0:2:0:0:
352,53,17172,1,0,0:2:0:0:
444,158,17342,5,2,0:2:0:0:
349,205,17511,1,0,0:2:0:0:
201,302,17681,5,2,0:2:0:0:
381,358,17850,1,0,0:2:0:0:
304,384,18189,5,0,0:2:0:0:
261,300,18359,1,2,0:2:0:0:
314,191,18528,1,0,0:2:0:0:
267,119,18698,1,2,0:2:0:0:
283,53,18867,1,0,0:2:0:0:
263,10,19037,2,0,L|261:90,1,53.9999983520508,2|0,0:2|0:2,0:2:0:0:
266,282,19206,2,0,L|268:318,1,36,2|2,0:2|0:2,0:2:0:0:
203,222,19715,5,2,0:2:0:0:
335,373,19884,1,0,0:2:0:0:
340,192,20054,5,2,0:2:0:0:
154,345,20223,1,0,0:2:0:0:
146,336,20308,2,0,L|103:331,1,36,2|0,0:2|0:2,0:2:0:0:
399,284,20562,5,2,0:2:0:0:
337,366,20732,6,0,L|336:384,4,18,0|0|0|0|0,0:2|0:2|0:2|0:2|0:2,0:2:0:0:
340,258,22087,2,0,L|336:365,1,108,4|0,0:3|0:0,0:0:0:0:
277,204,22426,6,0,B|244:138|321:85|394:143|413:62|367:4,1,242.999992584229,4|0,1:1|0:0,0:0:0:0:
181,29,22765,2,0,P|271:60|288:67,1,80.9999975280763
483,185,22935,5,8,0:2:0:0:
185,280,23104,1,0,3:0:0:0:
427,358,23274,1,0,3:0:0:0:
392,280,23443,5,8,0:2:0:0:
103,364,23613,1,0,0:0:0:0:
44,240,23782,1,0,0:0:0:0:
248,356,23952,6,0,P|261:251|231:138,2,161.999995056153,8|0|0,0:2|3:0|3:0,0:0:0:0:
337,335,24460,5,8,0:2:0:0:
183,301,24630,1,0,3:0:0:0:
98,143,24799,5,8,0:2:0:0:
397,61,24969,1,0,3:0:0:0:
55,0,25138,6,0,P|53:100|177:192,1,242.999992584229,4|0,1:1|0:0,0:0:0:0:
331,165,25477,1,0,3:0:0:0:
261,22,25647,6,0,P|170:59|157:62,1,80.9999975280763,8|0,0:2|0:0,0:0:0:0:
98,143,25816,1,0,3:0:0:0:
405,255,25986,1,0,3:0:0:0:
463,381,26155,6,0,P|465:281|341:189,1,242.999992584229,8|0,0:2|0:0,0:0:0:0:
288,143,26494,2,0,P|287:226|285:287,1,125.999996154785,0|12,3:0|0:2,0:0:0:0:
212,366,26833,6,0,P|207:251|198:97,1,242.999992584229
169,0,27172,1,0,0:1:0:0:
56,234,27342,5,0,0:0:0:0:
114,198,27426,1,0,0:0:0:0:
176,174,27511,1,0,0:0:0:0:
240,184,27596,1,0,0:0:0:0:
300,215,27680,1,0,1:1:0:0:
365,223,27765,1,0,0:0:0:0:
429,212,27850,2,0,P|436:139|443:49,2,125.999996154785,12|0|0,1:1|3:0|3:0,0:0:0:0:
104,273,28359,6,0,B|80:343|182:371|293:294|207:91|1:156|-47:250,1,404.999987640381,8|0,0:2|0:0,0:0:0:0:
115,277,28867,5,8,0:2:0:0:
377,180,29037,1,0,3:0:0:0:
250,107,29206,1,0,3:0:0:0:
459,89,29376,5,8,0:2:0:0:
162,178,29545,1,0,3:0:0:0:
356,301,29715,1,0,3:0:0:0:
22,62,29884,6,0,P|120:56|207:119,1,161.999995056153,8|0,0:2|3:0,0:0:0:0:
483,211,30223,2,0,P|385:217|298:154,1,161.999995056153,8|0,0:2|3:0,0:0:0:0:
280,13,30562,6,0,P|285:111|277:121,1,80.9999975280763,12|0,3:2|0:0,0:0:0:0:
208,280,30732,2,0,P|205:177|220:163,1,80.9999975280763,0|0,0:1|0:0,0:0:0:0:
292,0,30901,2,0,P|297:98|289:108,1,80.9999975280763,0|0,3:0|0:1,0:0:0:0:
196,287,31070,5,8,0:1:0:0:
192,294,31155,1,0,0:0:0:0:
190,301,31240,1,0,0:1:0:0:
190,309,31325,1,0,0:0:0:0:
193,316,31409,1,0,0:1:0:0:
197,322,31494,1,0,0:0:0:0:
202,328,31579,1,8,0:1:0:0:
221,338,31664,1,0,1:0:0:0:
269,326,31748,1,0,1:0:0:0:
320,279,31833,1,0,1:0:0:0:
303,208,31918,1,0,3:0:0:0:
227,146,32087,5,0,3:0:0:0:
142,167,32257,5,0,3:0:0:0:
102,242,32426,5,0,3:0:0:0:
498,223,32596,5,8,0:1:0:0:
256,190,32765,1,8,0:3:0:0:
16,226,32935,2,0,B|131:188|194:252|325:260,1,242.999992584229,8|0,0:0|0:0,0:0:0:0:
512,187,33274,5,0,3:0:0:0:
425,218,33782,1,8,0:2:0:0:
389,143,34121,1,0,3:0:0:0:
358,72,34291,1,8,0:2:0:0:
405,232,34630,6,0,P|387:316|375:380,1,125.999996154785
452,384,35138,1,0,3:0:0:0:
298,344,35477,1,0,3:0:0:0:
510,316,35647,1,8,0:2:0:0:
216,361,35816,1,0,3:0:0:0:
205,364,35901,1,0,3:0:0:0:
195,367,35986,5,0,3:0:0:0:
390,319,36494,1,8,0:2:0:0:
288,281,36833,1,0,3:0:0:0:
325,384,37003,1,8,0:2:0:0:
247,178,37172,6,0,L|222:189,4,15.7499995193482,0|0|0|0|0,3:0|2:0|3:0|2:0|3:0,2:0:0:0:
209,93,37511,1,0,3:0:0:0:
176,11,37681,2,0,L|154:11,4,15.7499995193482,0|0|0|0|8,2:0|2:0|2:0|2:0|2:2,2:0:0:0:
312,72,38189,5,0,3:0:0:0:
204,289,38359,1,8,0:2:0:0:
12,129,38698,6,0,P|62:140|103:152,1,90,0|0,3:0|0:0,0:0:0:0:
129,170,39206,2,0,P|173:155|196:146,1,62.9999980773926,8|0,0:2|0:0,0:0:0:0:
219,162,39460,1,0,0:0:0:0:
494,235,39715,2,0,P|469:223|437:208,1,62.9999980773926,8|0,0:2|0:0,0:0:0:0:
362,184,40223,6,0,L|289:202,1,72,0|0,3:0|3:0,0:0:0:0:
292,201,40901,1,0,3:0:0:0:
512,312,41070,1,8,0:2:0:0:
435,194,41409,6,0,P|440:134|517:76,1,157.499995193482,0|0,3:0|0:0,0:0:0:0:
438,86,41918,2,0,P|415:30|410:17,2,62.9999980773926,8|0|0,0:2|0:0|3:0,0:0:0:0:
317,73,42426,1,8,0:2:0:0:
453,177,42596,2,0,L|442:213,2,31.4999990386963,0|0|0,3:0|3:0|3:0,0:0:0:0:
250,238,42935,1,0,3:0:0:0:
325,281,43104,2,0,L|327:296,4,15.7499995193482,0|0|0|0|8,2:0|2:0|2:0|2:0|2:2,2:0:0:0:
346,161,43613,5,0,3:0:0:0:
159,245,43782,1,8,0:2:0:0:
284,358,43952,1,0,0:0:0:0:
268,216,44121,6,0,P|259:150|248:84,1,125.999996154785,0|0,3:0|0:0,0:0:0:0:
285,20,44630,5,8,0:2:0:0:
139,84,44969,1,0,3:0:0:0:
293,199,45138,1,8,0:2:0:0:
382,138,45308,1,0,3:0:0:0:
291,105,45477,1,0,0:0:0:0:
217,145,45647,2,0,L|206:172,4,15.7499995193482,0|0|0|0|0,2:0|2:0|2:0|2:0|2:0,2:0:0:0:
54,284,45986,6,0,P|64:325|73:358,1,62.9999980773926,8|0,0:2|0:0,0:0:0:0:
133,226,46325,1,0,3:0:0:0:
133,226,46494,2,0,P|143:268|151:301,1,62.9999980773926,8|0,0:2|0:0,0:0:0:0:
311,154,46833,6,0,P|304:119|295:85,1,72,0|0,3:0|0:0,0:0:0:0:
224,184,47342,1,8,0:2:0:0:
224,184,47681,1,0,3:0:0:0:
391,64,47850,1,8,0:2:0:0:
462,112,48020,6,0,L|466:138,4,15.7499995193482,0|0|0|0|0,3:0|2:0|3:0|2:0|3:0,2:0:0:0:
293,29,48359,2,0,P|302:77|307:104,1,62.9999980773926,0|0,3:0|0:0,0:0:0:0:
257,284,48698,5,8,0:2:0:0:
388,260,48867,1,0,0:0:0:0:
417,352,49037,1,0,3:0:0:0:
308,352,49206,2,0,L|315:324,7,15.7499995193482,8|0|0|0|0|0|0|0,3:2|3:0|3:0|3:0|3:0|3:0|3:0|3:0,3:0:0:0:
322,366,49545,6,0,P|307:287|297:230,1,125.999996154785,0|0,3:0|0:0,0:0:0:0:
418,74,50054,1,8,0:2:0:0:
418,74,50223,2,0,P|411:131|409:149,2,62.9999980773926,0|0|8,0:0|3:0|0:2,0:0:0:0:
446,208,50732,5,0,3:0:0:0:
385,259,50901,1,0,0:0:0:0:
327,193,51070,5,0,3:0:0:0:
330,186,51155,1,0,3:0:0:0:
334,179,51240,1,0,3:0:0:0:
281,264,51409,1,8,0:2:0:0:
498,296,51748,5,0,3:0:0:0:
458,205,51917,1,8,0:2:0:0:
421,345,52087,5,0,0:0:0:0:
423,352,52172,1,0,0:0:0:0:
425,359,52257,1,0,3:0:0:0:
321,342,52765,1,8,0:2:0:0:
270,246,52935,1,0,0:0:0:0:
392,198,53104,1,0,3:0:0:0:
433,299,53274,1,8,0:2:0:0:
201,274,53443,6,0,L|197:301,4,15.7499995193482,0|0|0|0|0,3:0|2:0|3:0|2:0|3:0,2:0:0:0:
245,181,53782,1,0,3:0:0:0:
124,138,53952,1,0,3:0:0:0:
100,231,54121,1,0,3:0:0:0:
256,192,54253,12,2,54969,2:2:0:0:
316,77,60054,6,0,P|259:85|209:93,1,108,4|0,0:3|0:0,0:0:0:0:
69,87,60393,6,0,P|53:107|159:261,1,256.499993150711,6|0,3:1|0:0,0:0:0:0:
304,192,60732,5,4,3:1:0:0:
427,295,60901,1,0,0:1:0:0:
276,358,61070,1,0,3:0:0:0:
156,243,61240,1,0,3:0:0:0:
286,275,61409,5,8,0:2:0:0:
107,355,61579,1,0,3:0:0:0:
37,201,61748,1,0,3:0:0:0:
183,148,61918,6,0,P|193:237|190:322,1,170.999995433807,12|0,0:2|3:0,0:0:0:0:
378,378,62257,5,0,3:0:0:0:
356,368,62426,1,0,0:1:0:0:
366,345,62596,2,0,P|359:267|363:220,1,107.999996704102,0|8,3:0|0:2,0:0:0:0:
441,70,62935,2,0,B|486:87|486:87|487:131,1,85.4999977169037,0|0,3:1|0:0,0:0:0:0:
383,15,63104,6,0,B|230:-30|264:107|152:113,1,256.499993150711,14|0,0:1|0:0,0:0:0:0:
69,20,63443,2,0,B|11:88|11:88|62:177,1,170.999995433807,4|0,3:1|0:1,0:0:0:0:
330,210,63782,2,0,B|269:269|269:269|187:242,1,170.999995433807,0|0,3:0|3:0,0:0:0:0:
372,105,64121,1,0,0:1:0:0:
433,286,64291,1,0,3:0:0:0:
309,364,64460,1,0,3:0:0:0:
434,195,64630,6,0,P|450:263|458:298,1,85.4999977169037,10|0,0:1|0:0,0:0:0:0:
445,186,64799,2,0,P|455:127|465:77,1,85.4999977169037,2|0,3:1|0:0,0:0:0:0:
397,3,64969,1,4,3:2:0:0:
266,332,65138,5,8,1:3:0:0:
284,304,65223,1,0,0:0:0:0:
258,267,65308,1,0,3:0:0:0:
287,228,65392,1,0,3:0:0:0:
319,193,65477,5,8,3:3:0:0:
271,160,65562,1,0,3:0:0:0:
234,128,65647,1,0,3:0:0:0:
190,99,65732,1,0,3:0:0:0:
218,52,65816,6,0,P|198:191|173:345,1,256.499993150711,14|0,0:1|0:0,0:0:0:0:
65,384,66155,6,0,P|52:352|41:321,1,67.5000025749208,2|8,3:2|0:2,0:0:0:0:
238,229,66494,5,0,3:0:0:0:
86,166,66664,1,0,3:0:0:0:
17,219,66833,5,8,0:2:0:0:
128,244,67003,1,0,3:0:0:0:
190,133,67172,1,0,3:0:0:0:
44,94,67342,1,8,0:1:0:0:
26,236,67511,5,0,3:0:0:0:
262,217,67681,1,0,3:0:0:0:
154,38,67850,2,0,P|146:114|140:155,1,107.999996704102,8|0,0:2|3:0,0:0:0:0:
377,365,68189,2,0,P|386:293|399:183,1,170.999995433807,8|0,0:1|3:0,0:0:0:0:
458,42,68528,5,8,3:3:0:0:
481,62,68613,1,0,0:1:0:0:
466,86,68698,1,8,0:2:0:0:
315,9,68867,6,0,B|243:75|243:75|285:203,1,170.999995433807,0|8,3:0|0:1,0:0:0:0:
512,227,69206,5,0,1:0:0:0:
457,203,69290,1,0,1:0:0:0:
400,220,69375,1,0,1:0:0:0:
347,248,69460,1,0,1:0:0:0:
288,260,69544,5,8,1:1:0:0:
281,254,69630,1,0,1:0:0:0:
274,248,69715,1,0,1:1:0:0:
267,242,69799,1,0,1:0:0:0:
260,236,69884,2,0,P|265:195|277:131,1,85.4999977169037,8|0,3:3|0:0,0:0:0:0:
185,307,70054,2,0,P|96:352|81:360,1,85.4999977169037,8|0,0:1|0:0,0:0:0:0:
299,346,70223,6,0,P|410:366|474:384,1,170.999995433807,8|0,0:1|3:0,0:0:0:0:
137,199,70562,2,0,P|37:187|29:186,1,85.4999977169037,0|0,0:3|0:0,0:0:0:0:
145,191,70732,1,0,1:0:0:0:
152,185,70816,1,0,1:0:0:0:
158,159,70901,1,8,1:3:0:0:
126,108,70986,1,0,3:0:0:0:
179,71,71070,1,8,3:3:0:0:
148,17,71155,1,8,3:3:0:0:
202,0,71240,6,0,P|336:16|476:38,1,256.499993150711,14|0,0:1|0:0,0:0:0:0:
440,190,71579,5,6,3:1:0:0:
247,276,71748,1,0,0:0:0:0:
48,211,71918,5,2,3:1:0:0:
246,304,72087,1,0,0:0:0:0:
432,269,72257,5,2,3:1:0:0:
245,329,72426,1,0,0:0:0:0:
146,215,72596,1,2,3:1:0:0:
338,170,72765,1,10,0:1:0:0:
244,205,72935,6,0,P|246:92|254:3,1,170.999995433807,0|0,3:0|1:1,0:0:0:0:
406,15,73274,6,0,P|432:114|413:147,1,85.4999977169037,0|0,3:1|2:0,0:0:0:0:
78,86,73443,2,0,P|84:44|108:9,1,85.4999977169037,0|0,0:1|2:0,0:0:0:0:
244,138,73613,5,0,1:1:0:0:
239,148,73698,1,0,3:0:0:0:
249,164,73782,1,0,0:0:0:0:
240,176,73867,1,0,0:0:0:0:
247,189,73952,6,0,P|248:302|243:391,1,170.999995433807,14|0,3:1|0:0,0:0:0:0:
358,141,74291,5,6,3:1:0:0:
164,69,74460,1,0,0:0:0:0:
110,153,74630,5,2,3:1:0:0:
324,52,74799,1,0,0:0:0:0:
437,147,74969,5,2,3:1:0:0:
78,41,75138,1,8,0:1:0:0:
240,313,75308,5,2,3:1:0:0:
240,313,75477,2,0,P|249:189|257:109,1,170.999995433807,2|0,0:1|3:0,0:0:0:0:
436,337,75816,6,0,P|399:358|358:367,1,85.4999977169037,8|0,0:2|0:0,0:0:0:0:
329,284,75986,2,0,P|367:264|409:257,1,85.4999977169037
153,374,76155,5,0,3:0:0:0:
99,351,76239,1,0,3:0:0:0:
58,311,76324,1,8,0:1:0:0:
34,258,76409,1,0,1:0:0:0:
31,201,76493,1,0,1:0:0:0:
50,146,76578,1,0,0:1:0:0:
87,102,76664,6,0,P|215:126|373:159,1,256.499993150711,14|0,0:1|0:0,0:0:0:0:
511,243,77003,1,0,3:0:0:0:
413,17,77172,6,0,P|460:92|427:186,1,170.999995433807,10|0,0:1|3:0,0:0:0:0:
304,271,77511,1,0,3:0:0:0:
158,183,77681,1,10,0:1:0:0:
304,56,77850,1,2,3:1:0:0:
227,200,78020,5,8,3:3:0:0:
209,242,78104,1,0,3:0:0:0:
226,287,78189,1,0,3:0:0:0:
265,314,78274,1,0,3:0:0:0:
307,310,78359,1,0,3:1:0:0:
288,296,78443,5,0,0:1:0:0:
250,289,78528,1,0,0:1:0:0:
203,305,78613,1,0,0:1:0:0:
165,341,78698,1,0,0:1:0:0:
109,355,78782,1,0,3:0:0:0:
58,335,78867,1,0,3:0:0:0:
51,324,78952,1,0,3:0:0:0:
50,314,79037,1,8,3:3:0:0:
58,306,79121,1,8,3:0:0:0:
67,310,79206,1,8,3:3:0:0:
61,322,79291,1,8,3:3:0:0:
60,312,79376,5,4,0:3:0:0:
191,290,84799,6,0,P|124:300|58:313,1,135.000005149842,0|0,3:0|0:0,0:0:0:0:
274,343,85308,2,0,P|327:332|364:328,1,67.5000025749208,0|0,3:0|0:0,0:0:0:0:
390,258,85816,1,8,0:2:0:0:
310,214,86664,1,0,3:0:0:0:
261,282,87003,1,0,3:0:0:0:
340,329,87172,1,8,0:2:0:0:
422,154,87342,2,0,L|417:177,4,16.8750006437302,0|0|0|0|0,3:0|2:0|3:0|2:0|3:0,2:0:0:0:
170,216,87681,6,0,P|182:157|200:75,1,135.000005149842,0|8,3:0|0:2,0:0:0:0:
128,28,88359,1,0,3:0:0:0:
62,112,88528,1,8,0:2:0:0:
241,159,88698,2,0,L|273:154,4,16.8750006437302,0|0|0|0|0,3:0|2:0|3:0|2:0|3:0,2:0:0:0:
339,108,89037,5,0,3:0:0:0:
421,124,89206,2,0,L|427:135,8,8.43750032186509,0|0|0|0|0|0|0|0|8,2:0|2:0|2:0|2:0|2:0|2:0|2:0|2:0|2:2,2:0:0:0:
404,211,89545,1,0,0:0:0:0:
322,190,89715,1,0,3:0:0:0:
471,266,89884,2,0,L|506:262,3,33.7500012874604,8|0|0|0,2:2|2:0|2:0|2:0,2:0:0:0:
482,287,90223,6,0,P|433:294|409:297,1,72,0|0,3:0|0:0,0:0:0:0:
163,343,90732,1,0,3:0:0:0:
247,321,90901,2,0,P|295:314|325:310,1,67.5000025749208
250,237,91240,1,8,0:2:0:0:
324,379,91409,5,0,0:0:0:0:
51,282,91748,1,0,3:0:0:0:
189,98,92087,1,0,3:0:0:0:
396,238,92426,1,0,3:0:0:0:
283,326,92596,6,0,P|276:280|273:270,1,54,8|0,0:2|0:0,0:0:0:0:
249,237,92935,6,0,P|256:180|260:149,2,67.5000025749208,0|0|0,3:0|0:0|0:0,0:0:0:0:
314,120,93443,1,8,0:2:0:0:
256,31,93613,1,0,0:0:0:0:
200,105,93782,1,0,3:0:0:0:
340,71,93952,5,8,0:2:0:0:
159,37,94121,2,0,L|129:48,2,24.7500007553101,0|0|0,3:0|3:0|3:0,3:0:0:0:
65,18,94460,5,0,3:0:0:0:
217,126,94630,2,0,L|228:129,8,8.43750032186509,0|0|0|0|0|0|0|8|8,2:0|2:0|2:0|2:0|2:0|2:0|2:0|2:2|2:2,2:0:0:0:
255,25,95138,5,0,3:0:0:0:
130,144,95308,1,8,0:2:0:0:
317,173,95477,1,0,0:0:0:0:
309,169,95562,1,0,0:0:0:0:
302,167,95647,6,0,P|289:267|285:315,1,135.000005149842,0|0,3:0|0:0,0:0:0:0:
237,367,96155,1,8,0:2:0:0:
367,300,96325,1,0,0:0:0:0:
226,194,96494,1,0,3:0:0:0:
139,314,96664,1,8,0:2:0:0:
139,314,96833,1,0,3:0:0:0:
294,255,97003,5,0,0:0:0:0:
122,172,97172,2,0,L|126:200,4,16.8750006437302,0|0|0|0|0,3:0|2:0|2:0|2:0|2:0,2:0:0:0:
167,100,97511,5,8,0:2:0:0:
325,60,97850,1,0,3:0:0:0:
254,83,98020,1,8,0:2:0:0:
488,134,98189,2,0,L|494:107,3,16.8750006437302,0|0|0|0,2:0|2:0|2:0|2:0,2:0:0:0:
498,132,98359,6,0,P|451:145|349:171,1,135.000005149842,0|0,3:0|0:0,0:0:0:0:
433,75,98867,1,8,0:2:0:0:
510,204,99037,1,0,0:0:0:0:
415,286,99206,1,0,3:0:0:0:
422,204,99376,5,8,0:2:0:0:
292,296,99545,2,0,L|265:289,2,24.7500007553101,0|0|0,3:0|3:0|3:0,3:0:0:0:
187,215,99884,1,0,3:0:0:0:
289,142,100054,1,0,0:0:0:0:
326,225,100223,5,8,0:2:0:0:
177,132,100393,1,0,0:0:0:0:
101,208,100562,1,0,3:0:0:0:
190,233,100732,2,0,L|186:212,7,16.8750006437302,8|0|0|0|0|0|0|0,2:2|2:0|2:0|2:0|2:0|2:0|2:0|2:0,2:0:0:0:
205,248,101070,6,0,P|197:293|191:325,1,72,0|0,3:0|0:0,0:0:0:0:
247,380,101579,1,8,0:2:0:0:
121,189,101748,2,0,P|130:150|141:102,1,76.5000014591217,0|0,0:0|3:0,0:0:0:0:
100,14,102087,1,8,0:2:0:0:
37,93,102257,1,0,3:0:0:0:
211,142,102426,1,0,0:0:0:0:
213,30,102596,5,0,3:0:0:0:
216,40,102681,1,0,3:0:0:0:
219,50,102765,1,0,3:0:0:0:
43,194,102935,1,8,0:2:0:0:
26,94,103274,5,0,3:0:0:0:
224,153,103443,1,8,0:2:0:0:
145,225,103613,1,0,0:0:0:0:
150,236,103698,1,0,0:0:0:0:
154,245,103782,6,0,P|144:160|142:141,1,99.0000030212403,0|0,3:0|0:0,0:0:0:0:
97,83,104291,5,8,0:2:0:0:
44,186,104460,1,0,0:0:0:0:
262,142,104630,1,0,3:0:0:0:
203,83,104799,1,8,0:2:0:0:
111,263,104969,5,0,3:0:0:0:
115,255,105053,1,0,3:0:0:0:
118,246,105138,1,0,3:0:0:0:
200,226,105308,1,0,3:0:0:0:
254,292,105477,1,0,3:0:0:0:
170,340,105647,6,0,P|177:284|191:187,1,148.500004531861,0|0,3:0|0:0,0:0:0:0:
256,192,106494,12,0,107829,2:0:0:0:
332,27,108867,6,0,P|404:42|446:51,1,108,4|0,0:3|0:0,0:0:0:0:
336,51,109206,6,0,B|218:-32|200:111|72:118,1,256.499993150711,6|0,3:1|0:0,0:0:0:0:
40,49,109545,5,6,3:1:0:0:
244,139,109715,1,0,0:2:0:0:
163,289,109884,1,2,3:1:0:0:
25,212,110054,1,0,3:0:0:0:
144,202,110223,6,0,P|232:225|330:254,1,170.999995433807,8|0,0:2|3:1,0:0:0:0:
84,347,110562,5,2,3:1:0:0:
400,203,110732,2,0,B|442:276|442:276|390:367,1,170.999995433807,10|0,0:2|3:0,0:0:0:0:
308,247,111070,1,0,3:0:0:0:
433,131,111240,1,0,0:1:0:0:
481,185,111409,1,0,3:0:0:0:
321,147,111579,6,0,P|315:91|295:6,1,107.999996704102,12|0,0:2|3:0,0:0:0:0:
212,214,111918,2,0,P|194:303|245:392,1,170.999995433807,14|0,0:1|3:0,0:0:0:0:
43,112,112257,5,4,3:1:0:0:
213,62,112426,1,0,0:1:0:0:
387,44,112596,5,0,3:0:0:0:
266,2,112765,1,0,3:0:0:0:
137,245,112935,5,8,0:2:0:0:
305,315,113104,1,0,3:0:0:0:
352,180,113274,1,0,3:0:0:0:
202,336,113443,5,10,0:1:0:0:
397,372,113613,1,2,3:1:0:0:
287,238,113782,1,2,3:1:0:0:
432,191,113952,6,0,P|423:244|418:292,1,85.4999977169037,8|0,3:3|0:0,0:0:0:0:
414,163,114121,1,0,3:0:0:0:
422,111,114206,1,0,3:0:0:0:
475,80,114291,1,8,3:3:0:0:
500,34,114376,1,0,3:0:0:0:
487,14,114461,1,8,0:3:0:0:
477,10,114545,1,8,0:3:0:0:
495,19,114630,6,0,P|437:101|257:94,1,256.499993150711,14|0,0:1|0:0,0:0:0:0:
97,19,114969,6,0,B|148:17|148:17|173:76,1,107.999996704102,2|8,3:2|0:2,0:0:0:0:
34,104,115308,5,4,3:1:0:0:
305,27,115477,1,0,3:0:0:0:
230,192,115647,5,0,0:1:0:0:
111,166,115816,1,0,3:1:0:0:
221,290,115986,5,0,3:1:0:0:
396,216,116155,1,8,0:2:0:0:
302,117,116325,1,0,3:2:0:0:
318,250,116494,6,0,P|309:356|304:416,2,135.000005149842,0|0|0,3:1|0:1|3:0,0:0:0:0:
413,325,117003,5,12,0:2:0:0:
230,192,117172,1,0,3:0:0:0:
281,19,117342,6,0,P|293:96|300:133,1,67.5000025749208,8|0,0:3|0:0,0:0:0:0:
323,225,117511,1,0,0:1:0:0:
143,100,117681,5,4,3:1:0:0:
122,89,117765,1,0,1:1:0:0:
102,111,117850,2,0,B|72:147|72:147|103:216,1,85.4999977169037,8|0,0:1|0:0,0:0:0:0:
215,362,118020,2,0,P|225:257|232:136,1,170.999995433807,0|0,1:1|3:0,0:0:0:0:
251,214,118274,1,0,0:1:0:0:
211,236,118359,6,0,P|112:265|98:271,1,85.4999977169037,8|0,0:2|0:0,0:0:0:0:
311,119,118528,2,0,P|410:150|422:154,1,85.4999977169037,8|0,3:3|0:0,0:0:0:0:
146,28,118698,5,8,3:3:0:0:
202,124,118867,1,8,1:2:0:0:
301,72,119037,1,0,0:0:0:0:
238,7,119206,1,0,0:1:0:0:
429,210,119376,5,8,3:3:0:0:
301,243,119545,1,0,0:1:0:0:
309,238,119630,1,0,0:1:0:0:
317,234,119715,2,0,P|355:298|326:347,1,107.999996704102,8|0,0:3|3:0,0:0:0:0:
352,157,120054,6,0,P|345:63|498:11,1,256.499993150711,6|0,3:1|0:0,0:0:0:0:
409,49,120393,5,6,3:1:0:0:
156,28,120562,1,0,0:0:0:0:
145,161,120732,5,2,3:1:0:0:
427,138,120901,1,0,0:0:0:0:
406,286,121070,5,2,3:1:0:0:
171,255,121240,1,0,0:0:0:0:
275,370,121409,5,2,3:1:0:0:
290,159,121579,2,0,P|374:211|386:218,1,85.4999977169037,2|0,0:1|0:0,0:0:0:0:
282,173,121748,2,0,P|174:221|167:224,1,85.4999977169037,0|0,3:2|0:0,0:0:0:0:
274,156,121918,2,0,P|278:63|279:55,1,85.4999977169037,0|0,0:1|0:0,0:0:0:0:
337,1,122087,5,2,3:1:0:0:
90,82,122257,1,0,0:1:0:0:
67,132,122341,1,0,0:1:0:0:
59,187,122426,1,2,3:1:0:0:
65,241,122511,1,0,0:0:0:0:
86,291,122595,1,0,0:0:0:0:
119,337,122680,1,0,0:0:0:0:
162,368,122765,6,0,P|246:345|460:296,1,256.499993150711,6|0,3:1|0:0,0:0:0:0:
505,344,123104,6,0,P|426:315|400:308,1,85.4999977169037,6|0,3:1|2:0,0:0:0:0:
266,234,123274,1,0,0:0:0:0:
250,238,123359,1,0,0:0:0:0:
261,248,123443,2,0,P|247:147|239:90,1,85.4999977169037,2|0,3:1|2:0,0:0:0:0:
241,71,123613,1,0,0:0:0:0:
360,173,123782,5,2,3:1:0:0:
137,80,123952,1,8,0:2:0:0:
278,0,124121,1,2,3:1:0:0:
82,180,124291,5,2,0:1:0:0:
250,238,124460,1,0,3:0:0:0:
412,176,124630,2,0,P|455:188|514:210,1,85.4999977169037,8|0,0:2|0:0,0:0:0:0:
397,195,124799,5,0,0:0:0:0:
341,181,124883,1,0,0:0:0:0:
293,207,124968,1,0,3:0:0:0:
250,238,125053,1,0,0:0:0:0:
196,253,125138,6,0,B|171:214|171:214|199:186,1,85.4999977169037,2|0,0:1|1:0,0:0:0:0:
374,299,125308,2,0,B|346:337|346:337|280:321,1,85.4999977169037,0|0,0:1|0:1,0:0:0:0:
195,356,125477,5,14,0:1:0:0:
84,222,125647,1,0,3:0:0:0:
265,119,125816,1,2,3:1:0:0:
242,212,125986,5,8,0:1:0:0:
337,133,126155,1,0,3:0:0:0:
184,8,126325,1,0,3:0:0:0:
71,137,126494,1,10,0:1:0:0:
274,269,126664,6,0,P|240:203|246:164,1,67.5000025749208,2|0,3:1|0:0,0:0:0:0:
322,32,126833,1,0,1:0:0:0:
345,57,126918,1,0,1:0:0:0:
345,90,127003,1,0,1:0:0:0:
327,107,127087,1,0,1:0:0:0:
312,112,127172,5,0,1:0:0:0:
300,110,127257,1,0,1:0:0:0:
299,103,127342,1,0,1:0:0:0:
317,95,127426,1,0,1:0:0:0:
362,89,127511,1,0,1:0:0:0:
407,104,127596,1,0,3:0:0:0:
451,148,127681,1,0,3:3:0:0:
459,206,127765,1,0,3:3:0:0:
434,253,127850,1,8,3:3:0:0:
389,281,127935,1,8,3:3:0:0:
332,281,128020,1,8,3:3:0:0:
294,248,128104,1,8,3:3:0:0:
298,238,128189,5,4,0:3:0:0:
307,247,129376,5,0,3:1:0:0:
307,247,129460,1,0,3:1:0:0:
307,247,129545,1,0,3:1:0:0:
124,278,129715,1,0,3:1:0:0:
124,278,130054,5,0,3:1:0:0:
383,317,130223,2,0,P|470:272|447:147,1,225,8|0,0:1|2:1,0:1:0:0:
425,126,130732,5,0,3:1:0:0:
429,138,130816,1,0,3:1:0:0:
432,149,130901,1,0,3:1:0:0:
493,337,131155,1,0,3:1:0:0:
493,337,131409,5,0,3:1:0:0:
274,306,131579,2,0,P|208:318|86:340,1,180,8|0,0:1|2:1,0:1:0:0:
128,206,132087,1,0,3:1:0:0:
134,215,132172,1,0,3:1:0:0:
140,226,132257,1,0,3:1:0:0:
96,338,132426,1,0,3:1:0:0:
96,338,132681,5,0,0:1:0:0:
96,338,132765,1,0,3:1:0:0:
41,117,132935,2,0,B|94:83|127:135|191:148,1,135,8|0,0:1|2:1,0:1:0:0:
212,121,133274,6,0,B|251:66|251:66|182:31,1,116.999994644165,0|0,0:1|3:1,0:1:0:0:
194,48,133528,1,0,3:1:0:0:
184,53,133613,1,0,3:1:0:0:
319,196,133782,1,0,0:1:0:0:
335,199,133867,1,0,3:1:0:0:
219,327,134037,1,0,0:1:0:0:
206,337,134121,1,0,3:1:0:0:
407,371,134291,6,0,B|371:324|371:324|422:294,1,116.999994644165,8|0,0:1|0:1,0:1:0:0:
496,184,134630,6,0,P|500:218|482:251,1,58.4999973220826,8|0,0:1|0:1,0:1:0:0:
335,199,134799,1,0,3:1:0:0:
328,192,134884,1,0,3:1:0:0:
328,179,134969,2,0,P|329:96|335:15,2,116.999994644165,0|0|0,3:1|3:1|0:1,0:1:0:0:
385,0,135477,5,0,3:1:0:0:
97,97,135647,2,0,P|90:155|229:256,1,225,8|0,0:1|2:1,0:1:0:0:
286,288,136155,5,0,3:1:0:0:
290,276,136240,1,0,3:1:0:0:
294,266,136325,1,0,3:1:0:0:
270,133,136579,6,0,P|276:165|280:193,1,45,0|0,3:1|3:1,0:1:0:0:
268,6,136833,6,0,P|261:64|260:69,1,45,0|0,3:1|2:1,0:1:0:0:
402,243,137003,2,0,P|448:197|423:100,1,135,8|0,0:1|3:1,0:1:0:0:
426,112,137342,1,0,0:1:0:0:
257,7,137511,5,0,3:1:0:0:
260,19,137596,1,0,3:1:0:0:
263,28,137681,1,0,3:1:0:0:
263,238,137850,2,0,P|273:158|280:121,1,90,0|0,3:1|0:1,0:1:0:0:
283,332,138189,5,0,3:1:0:0:
182,83,138359,2,0,B|140:141|140:141|204:204,1,135,8|0,0:1|2:1,0:1:0:0:
263,238,138698,6,0,B|287:206|287:206|264:181,1,67.5000025749208,0|0,0:1|3:1,0:1:0:0:
407,314,140393,6,0,P|428:180|452:48,3,270.000010299683,4|0|0|0,3:1|3:0|3:0|3:0,0:0:0:0:
381,113,141664,5,0,0:0:0:0:
389,122,141748,1,0,3:0:0:0:
498,279,141918,1,8,0:1:0:0:
244,175,142087,5,0,3:0:0:0:
276,67,142257,1,8,0:3:0:0:
139,141,142426,6,0,P|155:216|166:268,1,116.999994644165,0|8,3:0|0:3,0:0:0:0:
55,87,142765,5,0,3:0:0:0:
15,317,142935,1,8,0:3:0:0:
0,322,143020,1,8,0:3:0:0:
9,310,143104,6,0,P|93:322|250:340,1,202.500007724762,4|0,3:1|0:0,0:0:0:0:
302,352,143443,1,0,3:0:0:0:
512,281,143613,2,0,P|406:304|376:310,2,135.000005149842,8|0|4,0:1|3:0|0:3,0:0:0:0:
287,270,144121,5,0,3:0:0:0:
369,69,144291,1,12,0:1:0:0:
478,186,144460,1,0,3:0:0:0:
210,118,144630,5,8,0:3:0:0:
278,45,144799,2,0,P|289:128|299:188,1,135.000005149842,12|0,0:1|0:0,0:0:0:0:
207,278,145138,6,0,P|192:202|191:195,1,67.5000025749208,0|0,3:0|0:0,0:0:0:0:
221,296,145308,1,0,0:0:0:0:
212,312,145393,1,0,0:0:0:0:
213,322,145477,1,0,3:0:0:0:
216,332,145562,1,0,3:0:0:0:
218,342,145647,1,0,1:1:0:0:
221,351,145732,1,0,1:1:0:0:
210,366,145816,6,0,B|175:381|175:381|144:344,1,67.5000025749208,0|0,3:0|0:0,0:0:0:0:
303,292,145986,2,0,B|373:191|373:191|518:274,1,233.999989288331,0|0,3:0|3:0,0:0:0:0:
378,340,146494,6,0,B|274:364|274:364|209:248|209:248|98:222,1,337.500012874604,12|0,0:1|0:0,0:0:0:0:
29,260,147003,5,0,3:0:0:0:
17,273,147087,1,0,3:0:0:0:
50,283,147172,1,0,3:0:0:0:
236,171,147426,1,0,3:0:0:0:
228,191,147511,1,0,3:0:0:0:
58,109,147681,1,0,3:0:0:0:
123,333,147850,6,0,P|117:256|111:206,2,107.999996704102,8|0|0,0:1|0:0|0:0,0:0:0:0:
139,115,148359,1,0,3:0:0:0:
145,100,148443,1,0,3:0:0:0:
137,93,148528,1,0,3:0:0:0:
45,144,148698,5,0,3:0:0:0:
231,45,148867,1,0,0:0:0:0:
116,13,149037,1,0,3:0:0:0:
197,158,149206,2,0,P|211:223|222:279,1,107.999996704102,12|0,0:1|0:0,0:0:0:0:
123,246,149545,5,0,0:0:0:0:
300,200,149715,1,0,3:0:0:0:
302,189,149799,1,0,3:0:0:0:
305,178,149884,2,0,P|316:105|322:76,1,72,0|0,3:0|0:0,0:0:0:0:
426,131,150223,5,4,0:1:0:0:
197,158,150393,1,4,3:1:0:0:
276,37,150562,1,8,0:1:0:0:
423,215,150732,2,0,P|407:278|411:351,1,108
448,338,151070,5,0,3:0:0:0:
449,320,151155,1,0,3:0:0:0:
421,296,151240,2,0,B|319:318|255:333,1,125.999996154785,10|0,0:1|3:0,0:0:0:0:
86,374,151579,1,0,3:0:0:0:
15,188,151748,6,0,P|110:209|173:221,1,125.999996154785,8|0,0:1|3:0,0:0:0:0:
316,238,152087,1,0,3:0:0:0:
402,19,152257,6,0,P|311:62|298:151,1,188.999994232178,8|0,0:1|0:0,0:0:0:0:
392,173,152596,6,0,P|442:155|452:136,1,45,0|0,3:0|0:0,0:0:0:0:
345,85,152765,1,12,0:1:0:0:
135,165,152935,1,0,3:0:0:0:
316,238,153104,1,0,3:0:0:0:
192,18,153274,6,0,P|200:95|202:119,1,90,8|0,0:1|3:0,0:0:0:0:
49,297,153613,2,0,P|40:224|39:218,1,62.9999980773926,12|0,0:1|0:0,0:0:0:0:
28,324,153782,1,0,3:0:0:0:
59,345,153867,1,0,3:0:0:0:
49,366,153952,6,0,P|185:350|253:255,1,216,10|0,0:1|0:0,0:0:0:0:
307,249,154291,2,0,P|295:155|291:122,1,72,0|0,3:0|0:0,0:0:0:0:
149,26,154460,5,10,0:1:0:0:
30,155,154630,1,0,3:0:0:0:
156,235,154799,1,0,3:0:0:0:
280,88,154969,6,0,P|225:90|129:154,1,144,10|0,0:1|3:0,0:0:0:0:
373,63,155308,2,0,B|388:25|388:25|347:-32,1,72,0|0,3:0|0:0,0:0:0:0:
415,139,155477,6,0,P|410:247|408:378,1,216,14|0,0:1|0:0,0:0:0:0:
460,293,155816,5,0,3:0:0:0:
322,212,155986,1,8,0:3:0:0:
458,69,156155,1,0,3:0:0:0:
508,217,156325,5,8,0:1:0:0:
214,127,156494,2,0,P|210:162|208:198,1,72,8|8,0:3|2:3,0:0:0:0:
53,222,156664,5,4,3:3:0:0:
256,192,156748,12,0,158020,2:0:0:0:
53,222,170223,6,0,P|38:167|56:107,1,94.499997116089,2|0,2:2|2:2,2:2:0:0:
67,107,170562,1,0,2:2:0:0:
177,294,170901,2,0,P|194:217|177:159,1,125.999996154785,0|0,2:2|2:2,2:2:0:0:
183,172,171409,1,0,2:2:0:0:
265,195,171579,1,0,2:2:0:0:
265,195,171664,1,0,2:2:0:0:
265,195,171748,1,0,2:2:0:0:
292,114,171918,1,0,2:2:0:0:
215,99,172087,1,0,2:2:0:0:
215,99,172172,1,0,2:2:0:0:
215,99,172257,1,0,2:2:0:0:
183,172,172426,1,0,2:2:0:0:
366,263,172596,6,0,P|289:278|277:282,1,62.9999980773926,0|0,2:2|2:2,2:2:0:0:
293,285,172850,1,0,2:2:0:0:
285,298,172935,1,2,2:2:0:0:
442,315,173274,1,0,2:2:0:0:
482,246,173443,1,0,2:2:0:0:
346,141,173613,1,0,2:2:0:0:
412,180,173782,1,0,2:2:0:0:
199,283,173952,1,0,2:2:0:0:
245,215,174121,1,0,2:2:0:0:
355,384,174291,1,0,2:2:0:0:
338,374,174376,1,0,2:2:0:0:
316,372,174460,1,0,2:2:0:0:
306,362,174545,1,0,2:2:0:0:
282,362,174630,1,0,2:2:0:0:
255,182,174969,6,0,L|259:222,3,31.4999990386963,0|0|0|0,2:2|2:2|2:2|2:2,2:2:0:0:
242,156,175308,1,0,2:2:0:0:
262,146,175393,1,0,2:2:0:0:
254,133,175477,1,0,2:2:0:0:
258,379,178020,6,0,P|272:337|223:292,1,108,4|0,0:3|0:0,0:0:0:0:
168,333,178359,6,0,P|149:235|287:132,1,270,14|0,3:1|0:0,0:0:0:0:
431,186,178698,5,6,3:1:0:0:
360,320,178867,1,8,1:1:0:0:
153,184,179037,1,2,3:1:0:0:
217,52,179206,1,0,3:1:0:0:
0,90,179376,6,0,P|106:65|162:54,1,135.000005149842,8|0,0:2|3:0,0:0:0:0:
512,72,179715,2,0,P|414:93|306:125,1,180,2|10,3:1|0:2,0:0:0:0:
74,234,180054,6,0,B|51:275|51:275|85:323,1,90,0|0,3:2|0:0,0:0:0:0:
144,349,180223,5,0,3:0:0:0:
256,279,180393,1,0,0:2:0:0:
186,160,180562,1,0,3:0:0:0:
376,307,180732,5,8,0:1:0:0:
464,356,180901,2,0,B|487:315|487:315|453:267,1,90,2|0,3:2|0:0,0:0:0:0:
374,209,181070,6,0,P|330:125|427:2,1,270,14|0,3:1|0:0,0:0:0:0:
508,173,181409,2,0,P|499:245|438:288,1,125.999996154785,4|8,3:1|0:1,0:0:0:0:
217,61,181748,5,2,3:1:0:0:
420,92,181918,1,0,3:0:0:0:
255,197,182087,5,10,0:1:0:0:
292,0,182257,1,2,3:1:0:0:
86,74,182426,1,2,3:1:0:0:
339,65,182596,6,0,L|267:98,1,72,12|0,0:2|2:0,0:0:0:0:
201,69,182765,2,0,L|259:110,1,72,0|0,3:0|2:0,0:0:0:0:
270,185,182935,2,0,L|276:113,1,72,0|0,3:0|2:0,0:0:0:0:
288,281,183104,6,0,P|288:362|300:385,1,72,8|0,0:1|0:0,0:0:0:0:
305,270,183274,5,0,1:0:0:0:
278,254,183359,1,0,0:1:0:0:
221,252,183443,1,8,3:3:0:0:
166,278,183528,1,0,3:0:0:0:
127,295,183613,1,0,3:3:0:0:
102,297,183698,1,8,3:3:0:0:
89,291,183782,6,0,B|66:198|66:198|191:110,1,180,14|0,0:1|0:0,0:0:0:0:
398,19,184121,6,0,B|452:47|452:47|437:111,1,125.999996154785,2|0,3:2|0:2,0:0:0:0:
178,74,184460,1,0,3:0:0:0:
129,13,184630,1,0,3:0:0:0:
210,6,184799,5,8,0:1:0:0:
96,83,184969,1,0,3:0:0:0:
178,268,185138,6,0,P|184:228|196:190,1,80.9999975280763,4|0,3:1|0:0,0:0:0:0:
306,270,185308,1,8,0:2:0:0:
114,336,185477,1,0,3:0:0:0:
200,362,185647,5,0,3:1:0:0:
46,202,185816,1,0,0:1:0:0:
294,112,185986,1,0,3:0:0:0:
436,258,186155,2,0,L|416:362,1,80.9999975280763,4|0,0:2|0:0,0:0:0:0:
426,83,186325,6,0,P|439:120|420:155,1,80.9999975280763,2|0,3:1|0:0,0:0:0:0:
208,72,186494,1,8,3:3:0:0:
195,55,186579,1,0,0:0:0:0:
196,43,186664,1,8,0:2:0:0:
213,35,186748,1,0,0:0:0:0:
232,34,186833,5,4,3:1:0:0:
279,60,186917,1,0,0:1:0:0:
294,112,187002,1,0,0:1:0:0:
268,159,187087,1,0,0:0:0:0:
256,157,187172,1,0,1:1:0:0:
246,155,187257,1,0,3:0:0:0:
197,190,187341,1,8,3:3:0:0:
186,248,187426,1,0,1:1:0:0:
217,299,187511,6,0,B|246:325|246:325|346:273,1,80.9999975280763,8|0,0:1|2:0,0:0:0:0:
83,156,187681,2,0,P|105:278|110:310,1,80.9999975280763,0|0,3:0|2:0,0:0:0:0:
383,352,187850,2,0,P|398:257|403:237,1,80.9999975280763,0|0,3:0|2:0,0:0:0:0:
486,110,188020,5,8,0:1:0:0:
502,102,188104,1,0,0:0:0:0:
508,119,188189,2,0,B|297:-7|390:222|179:187,1,360,0|0,0:0|1:3,0:0:0:0:
27,41,188698,5,0,0:1:0:0:
49,70,188782,1,0,0:1:0:0:
90,69,188867,1,0,0:1:0:0:
211,24,189037,2,0,B|261:26|261:26|284:120,1,90,8|8,0:3|3:3,0:0:0:0:
401,260,189206,6,0,B|352:227|352:227|384:142,1,135,4|0,3:3|0:0,0:0:0:0:
411,159,189545,5,0,0:0:0:0:
264,187,189715,1,0,3:0:0:0:
118,213,189884,1,8,0:1:0:0:
264,187,190054,1,0,0:0:0:0:
411,159,190223,1,0,0:0:0:0:
264,187,190393,1,0,3:0:0:0:
12,150,190562,6,0,P|119:133|132:132,1,85.4999977169037,4|0,0:1|0:0,0:0:0:0:
478,236,190732,2,0,P|371:253|358:254,1,85.4999977169037,0|0,3:1|0:0,0:0:0:0:
261,120,191070,6,0,B|257:145|265:183|264:188,1,67.5000025749208,0|8,3:0|0:1,0:0:0:0:
273,205,191325,5,0,0:0:0:0:
263,217,191409,1,0,0:1:0:0:
271,228,191494,1,0,0:1:0:0:
268,269,191579,1,10,0:1:0:0:
269,324,191664,1,0,0:0:0:0:
278,371,191748,6,0,B|313:332|313:332|275:257,1,85.4999977169037,0|0,0:1|0:0,0:0:0:0:
121,214,191918,2,0,P|109:145|200:46,1,188.999994232178,4|0,3:3|0:0,0:0:0:0:
201,88,192257,5,2,0:1:0:0:
403,187,192426,1,0,3:0:0:0:
364,57,192596,5,10,0:1:0:0:
203,219,192765,1,0,0:0:0:0:
290,142,192935,5,0,0:1:0:0:
290,142,193104,1,0,3:0:0:0:
428,296,193274,6,0,B|395:327|395:327|346:309,1,85.4999977169037,2|0,0:1|0:0,0:0:0:0:
449,123,193443,2,0,P|447:228|449:248,1,85.4999977169037,2|0,3:1|0:0,0:0:0:0:
349,16,193613,2,0,P|338:124|340:219,1,170.999995433807,0|0,3:0|3:0,0:0:0:0:
311,220,193867,1,0,0:1:0:0:
284,213,193952,2,0,B|263:175|263:175|318:105,1,85.4999977169037,8|0,0:1|0:0,0:0:0:0:
199,216,194121,5,0,0:1:0:0:
174,212,194206,1,0,0:1:0:0:
163,226,194291,1,8,0:1:0:0:
120,251,194376,1,0,0:1:0:0:
64,232,194460,2,0,B|73:280|79:332|80:339,1,85.4999977169037,0|0,0:1|0:1,0:0:0:0:
99,155,194630,6,0,P|111:69|293:25,1,270,14|0,0:1|0:0,0:0:0:0:
444,62,194969,2,0,P|430:153|430:170,1,67.5000025749208,0|0,3:0|0:0,0:0:0:0:
206,264,195138,5,8,0:1:0:0:
457,344,195308,1,0,3:0:0:0:
297,224,195477,5,0,3:0:0:0:
86,355,195647,1,8,0:1:0:0:
244,373,195816,6,0,P|292:299|282:280,1,67.5000025749208,2|0,3:1|0:0,0:0:0:0:
205,181,195986,1,8,0:3:0:0:
185,164,196070,1,0,0:0:0:0:
183,143,196155,1,0,0:1:0:0:
201,112,196240,1,0,0:1:0:0:
255,91,196325,1,0,0:1:0:0:
281,60,196409,1,0,0:1:0:0:
269,26,196494,1,0,0:1:0:0:
223,1,196579,1,0,0:1:0:0:
162,17,196664,1,0,3:1:0:0:
142,58,196748,1,0,3:1:0:0:
171,85,196833,1,8,3:3:0:0:
204,77,196918,1,8,3:3:0:0:
201,67,197003,6,0,P|205:145|208:185,1,90,4|0,0:3|0:0,0:0:0:0:
363,371,197342,6,0,B|423:280|423:280|360:151,1,193.500002952576,14|0,0:1|3:0,0:0:0:0:
275,366,197681,5,0,3:0:0:0:
77,12,197850,2,0,B|16:81|16:81|61:174,1,166.499999364853,10|0,0:1|3:0,0:0:0:0:
439,139,198189,5,0,3:0:0:0:
165,47,198359,1,8,0:1:0:0:
6,281,198528,6,0,P|148:249|419:198,1,387.000005905151,2|2,3:1|0:1,0:0:0:0:
496,252,199037,2,0,P|416:270|402:274,1,62.9999980773926,8|0,1:3|3:0,0:0:0:0:
480,233,199206,1,8,3:3:0:0:
490,216,199291,1,0,0:0:0:0:
502,195,199376,5,0,1:1:0:0:
461,173,199460,1,0,1:1:0:0:
420,158,199545,1,4,1:1:0:0:
377,142,199630,1,0,1:1:0:0:
336,125,199715,1,8,3:3:0:0:
294,107,199799,1,8,3:3:0:0:
253,90,199884,1,8,3:3:0:0:
212,73,199969,1,8,3:3:0:0:
262,38,200054,5,4,0:3:0:0:
