osu file format v14

[General]
AudioFilename: audio.mp3
AudioLeadIn: 0
PreviewTime: 59489
Countdown: 0
SampleSet: Soft
StackLeniency: 0.4
Mode: 0
LetterboxInBreaks: 0
WidescreenStoryboard: 0

[Editor]
Bookmarks: 49658,84912,92709
DistanceSpacing: 1.4
BeatDivisor: 4
GridSize: 4
TimelineZoom: 1.7

[Metadata]
Title:Time and Again
TitleUnicode:Time and Again
Artist:FELT
ArtistUnicode:FELT
Creator:Zxozmo
Version:Extra
Source:東方星蓮船 ~ Undefined Fantastic Object
Tags:Maika 舞花 Mika 美歌 NAGI☆Flying Fantastica touhou ZUN Byakuren Hijiri 感情の摩天楼 Emotional Skyscraper Cosmic Mind C93
BeatmapID:1623223
BeatmapSetID:772152

[Difficulty]
HPDrainRate:5
CircleSize:4
OverallDifficulty:9
ApproachRate:9.2
SliderMultiplier:1.4
SliderTickRate:1

[Events]
//Background and Video events
0,0,"thumb-1920-838068.jpg",0,0
//Break Periods
2,9689,10492
2,79688,84342
//Storyboard Layer 0 (Background)
//Storyboard Layer 1 (Fail)
//Storyboard Layer 2 (Pass)
//Storyboard Layer 3 (Foreground)
//Storyboard Sound Samples

[TimingPoints]
845,338.983050847458,4,2,0,40,1,0
6099,-100,4,2,0,50,0,0
11692,-100,4,2,0,70,0,0
22539,-66.6666666666667,4,2,0,70,0,0
33387,-100,4,2,0,60,0,0
55082,-133.333333333333,4,2,0,60,0,0
59489,-66.6666666666667,4,2,0,60,0,0
60506,-66.6666666666667,4,2,0,80,0,1
68641,-66.6666666666667,4,2,0,80,0,0
71353,-66.6666666666667,4,2,0,80,0,1
79489,-100,4,2,0,80,0,0
84912,-100,4,2,0,60,0,0
109319,-66.6666666666667,4,2,0,80,0,1
117455,-66.6666666666667,4,2,0,80,0,0
120167,-66.6666666666667,4,2,0,80,0,1
128302,-200,4,3,0,80,0,0
132878,-166.666666666667,4,3,0,80,0,0
134234,-142.857142857143,4,3,0,80,0,0
135590,-125,4,3,0,80,0,0
136946,-111.111111111111,4,3,0,80,0,0
138811,-100,4,3,0,80,0,0
139234,-100,4,2,0,80,0,0
140675,-100,4,2,0,50,0,0
143048,-100,4,2,0,80,0,0
143387,-100,4,2,0,50,0,0
144234,-100,4,2,0,80,0,0
144573,-100,4,2,0,50,0,0
151183,-66.6666666666667,4,3,0,80,0,0
158302,-133.333333333333,4,2,0,20,0,0
169319,-100,4,2,0,25,0,0
170336,-100,4,2,0,35,0,0
172200,-83.3333333333333,4,2,0,35,0,0
175760,-133.333333333333,4,2,0,10,0,0
177455,-133.333333333333,4,2,0,70,0,0
178472,-66.6666666666667,4,2,0,80,0,1
186607,-66.6666666666667,4,2,0,80,0,0
189319,-66.6666666666667,4,2,0,80,0,1
200167,-66.6666666666667,4,2,0,80,0,0

[HitObjects]
172,40,845,5,0,0:0:0:0:
172,40,1014,1,0,0:0:0:0:
180,136,1183,2,0,P|193:166|236:203,1,70
300,88,1522,1,0,0:0:0:0:
172,40,1692,2,0,P|140:48|92:108,1,105
72,172,2031,6,0,B|64:208|64:208|76:244|76:244|64:296,1,105
44,348,2370,2,0,L|92:360,1,35
224,352,2539,1,0,0:0:0:0:
218,263,2709,1,0,0:0:0:0:
141,305,2877,1,0,0:0:0:0:
296,312,3048,2,0,P|304:244|280:200,1,105
224,172,3387,6,0,P|207:122|217:72,1,105
284,36,3726,1,0,0:0:0:0:
316,122,3895,1,0,0:0:0:0:
374,52,4065,1,0,0:0:0:0:
410,138,4234,1,0,0:0:0:0:
472,72,4404,1,0,0:0:0:0:
472,72,4743,5,0,0:0:0:0:
472,72,6099,5,0,0:0:0:0:
400,136,6268,1,0,0:0:0:0:
504,160,6437,1,0,0:0:0:0:
384,216,6607,2,0,P|353:202|316:159,1,70
472,72,6945,1,0,0:0:0:0:
464,240,7115,2,0,P|434:282|385:300,1,105
312,276,7454,6,0,B|256:252|256:252|188:252,1,105
152,292,7793,2,0,L|108:292,1,35
108,292,7962,1,0,0:0:0:0:
32,240,8133,1,0,0:0:0:0:
16,328,8302,1,0,0:0:0:0:
128,192,8472,2,0,P|177:175|227:185,1,105
304,164,8811,6,0,P|314:113|297:64,1,105
221,85,9151,2,0,P|210:135|227:184,1,105
280,244,9489,1,0,0:0:0:0:
280,244,11692,5,0,0:0:0:0:
199,157,11861,1,0,0:0:0:0:
303,129,12030,2,0,P|336:136|380:172,1,70
280,244,12369,1,0,0:0:0:0:
199,157,12539,2,0,P|192:123|226:55,1,105
160,12,12878,6,0,P|141:38|69:63,1,105
110,134,13217,2,0,L|123:181,1,35
169,229,13386,1,0,0:0:0:0:
280,244,13556,1,0,0:0:0:0:
199,157,13726,1,0,0:0:0:0:
222,295,13895,2,0,P|282:324|331:309,1,105
388,280,14234,6,0,P|418:218|402:169,1,105
357,130,14573,1,0,0:0:0:0:
300,224,14743,1,0,0:0:0:0:
199,157,14912,1,0,0:0:0:0:
357,130,15081,1,0,0:0:0:0:
199,157,15251,1,0,0:0:0:0:
199,157,15590,5,0,0:0:0:0:
199,157,16946,6,0,P|251:160|301:146,1,105
332,79,17285,1,0,0:0:0:0:
163,89,17454,2,0,P|127:121|114:172,1,70
147,269,17793,1,0,0:0:0:0:
261,323,17963,2,0,B|297:297|300:263|300:263|299:222,1,105
229,256,18302,6,0,B|221:195|221:195|187:136,1,105
267,126,18641,2,0,L|284:156,1,35
300,232,18810,1,0,0:0:0:0:
147,269,18980,1,0,0:0:0:0:
199,156,19150,1,0,0:0:0:0:
380,194,19319,2,0,P|383:244|361:291,1,105
416,345,19658,6,0,P|450:304|499:288,1,105
496,211,19998,2,0,P|458:218|430:216,1,35
380,194,20167,1,0,0:0:0:0:
380,194,20845,6,0,P|395:201|406:214,1,35
199,226,21014,2,0,P|182:231|165:233,1,35
262,51,21183,2,0,P|270:36|283:23,1,35
285,157,21522,1,0,0:0:0:0:
408,86,21861,6,0,P|389:79|371:80,1,35
144,88,22031,2,0,P|155:102|172:112,1,35
294,309,22200,2,0,P|299:290|296:272,1,35
285,157,22539,6,0,P|260:92|208:40,1,105.000004005432,4|0,0:0|0:0,0:0:0:0:
108,196,22878,1,0,0:0:0:0:
308,232,23048,2,0,P|353:207|377:147,1,105.000004005432
480,28,23387,1,0,0:0:0:0:
456,200,23556,6,0,P|429:244|438:308,1,105.000004005432
320,368,23895,1,0,0:0:0:0:
244,184,24065,2,0,B|199:157|199:157|135:166,1,105.000004005432
212,280,24404,1,0,0:0:0:0:
264,108,24573,2,0,P|212:80|144:96,1,105.000004005432
52,240,24912,2,0,B|65:290|65:290|120:332,1,105.000004005432
180,356,25167,1,0,0:0:0:0:
200,360,25251,6,0,P|232:360|292:308,1,105.000004005432
264,108,25590,1,0,0:0:0:0:
212,280,25760,2,0,L|112:188,1,105.000004005432
80,88,26099,1,0,0:0:0:0:
264,108,26268,6,0,B|352:140|352:140|408:208,1,157.500006008148
444,248,26607,1,0,0:0:0:0:
212,280,26777,1,0,0:0:0:0:
184,136,26946,2,0,P|200:56|308:40,1,157.500006008148
336,40,27285,1,0,0:0:0:0:
472,112,27455,1,0,0:0:0:0:
444,248,27624,5,0,0:0:0:0:
438,273,27708,1,0,0:0:0:0:
432,299,27793,1,0,0:0:0:0:
427,324,27878,1,0,0:0:0:0:
420,352,27963,2,0,P|370:334|319:293,1,105.000004005432
280,148,28302,5,0,0:0:0:0:
472,112,28472,2,0,L|448:224,1,105.000004005432
328,303,28811,1,0,0:0:0:0:
224,208,28980,2,0,B|203:149|203:149|215:90,1,105.000004005432
116,28,29319,5,0,0:0:0:0:
124,208,29489,2,0,B|144:266|144:266|135:308,1,105.000004005432
212,107,29828,1,0,0:0:0:0:
324,224,29997,2,0,P|346:269|388:300,1,105.000004005432
300,100,30336,2,0,P|277:54|235:23,1,105.000004005432
152,20,30590,1,0,0:0:0:0:
152,20,30675,5,0,0:0:0:0:
16,116,30845,1,0,0:0:0:0:
132,212,31014,1,0,0:0:0:0:
150,229,31098,1,0,0:0:0:0:
170,247,31183,2,0,L|293:270,1,105.000004005432
88,284,31522,5,0,0:0:0:0:
122,315,31606,1,0,0:0:0:0:
160,348,31692,2,0,L|283:371,1,105.000004005432
444,348,32031,2,0,B|456:316|456:316|456:288,1,52.5000020027161
432,132,32200,2,0,B|400:120|400:120|372:120,1,52.5000020027161
254,206,32370,2,0,B|202:230|202:230|134:203|134:203|118:151,1,157.500006008148
76,104,32709,6,0,B|32:148|32:148|56:244,1,157.500006008148
132,284,33048,1,0,0:0:0:0:
132,284,33387,6,0,B|164:296|164:296|240:296,1,105,12|0,0:0|0:0,0:0:0:0:
280,276,33726,1,0,0:0:0:0:
296,176,33895,1,2,0:0:0:0:
192,208,34065,1,0,0:0:0:0:
360,248,34234,1,10,0:0:0:0:
199,296,34404,2,0,B|164:296|164:296|132:284,1,70,2|0,0:0|0:0,0:0:0:0:
192,208,34658,1,0,0:0:0:0:
192,208,34743,6,0,B|227:208|227:208|259:220,1,70
360,248,35082,1,0,0:0:0:0:
408,144,35251,2,0,P|392:108|360:76,1,70,8|0,0:0|0:0,0:0:0:0:
256,32,35590,1,0,0:0:0:0:
320,152,35760,1,0,0:0:0:0:
256,32,35929,2,0,L|220:88,1,35
116,244,36099,1,8,0:0:0:0:
68,158,36268,5,0,0:0:0:0:
192,132,36438,1,0,0:0:0:0:
208,244,36607,1,0,0:0:0:0:
192,132,36777,2,0,L|224:176,1,35
208,244,36946,2,0,L|229:273,1,35
116,244,37116,2,0,B|68:196|68:196|68:132,1,105
12,96,37455,6,0,B|40:16|40:16|92:16,1,105
108,88,37794,2,0,L|91:88,4,17.5
360,180,38302,1,0,0:0:0:0:
197,196,38472,1,0,0:0:0:0:
368,188,38641,5,0,0:0:0:0:
368,188,38726,1,0,0:0:0:0:
368,188,38811,2,0,B|320:168|276:188|276:188|240:208|176:192,1,175
132,156,39319,1,0,0:0:0:0:
276,104,39489,1,0,0:0:0:0:
320,252,39658,1,0,0:0:0:0:
356,100,39828,2,0,P|336:52|312:36,1,70
196,104,40167,6,0,P|216:152|240:168,1,70
356,100,40506,1,0,0:0:0:0:
200,28,40675,2,0,P|152:40|120:72,1,70
112,124,40929,1,0,0:0:0:0:
112,124,41014,6,0,L|136:184,1,35
180,324,41183,2,0,P|120:344|80:328,1,105
28,276,41522,2,0,B|40:196|40:196|24:148|24:148|32:92,1,175
28,28,42031,1,0,0:0:0:0:
124,156,42201,2,0,B|136:188|136:188|124:280,1,105
180,324,42539,1,0,0:0:0:0:
180,324,42624,1,0,0:0:0:0:
180,324,42709,6,0,B|216:324|216:324|248:308|248:308|264:256,1,105
208,220,43048,2,0,L|216:176,1,35
272,136,43218,2,0,L|276:108,4,17.5
336,252,43556,2,0,L|324:312,1,35
272,380,43726,1,0,0:0:0:0:
208,220,43895,1,0,0:0:0:0:
180,324,44065,1,0,0:0:0:0:
180,324,44150,1,0,0:0:0:0:
180,324,44234,1,0,0:0:0:0:
180,324,44573,5,0,0:0:0:0:
208,220,44743,1,0,0:0:0:0:
272,380,44912,1,0,0:0:0:0:
344,252,45082,1,0,0:0:0:0:
180,324,45251,1,0,0:0:0:0:
344,252,45420,1,0,0:0:0:0:
180,324,45590,2,0,B|216:328,1,35
364,336,45760,6,0,B|408:304|408:304|428:252,1,105
344,252,46099,2,0,L|376:132,1,105
368,72,46437,2,0,B|332:80|332:80|300:120,1,70,8|0,0:0|0:0,0:0:0:0:
344,252,46777,1,0,0:0:0:0:
344,252,46861,1,0,0:0:0:0:
344,252,46946,1,0,0:0:0:0:
436,168,47115,1,2,0:0:0:0:
368,72,47285,1,8,0:0:0:0:
344,252,47455,6,0,B|288:240|288:240|236:180,1,105
224,136,47793,1,0,0:0:0:0:
364,72,47963,1,0,0:0:0:0:
220,32,48133,1,0,0:0:0:0:
220,32,48217,1,0,0:0:0:0:
220,32,48302,2,0,L|260:72,1,35
364,160,48472,6,0,B|400:196|400:196|424:224|424:268,1,105
344,252,48811,2,0,B|308:216|308:216|284:188|284:144,1,105
364,160,49150,1,8,0:0:0:0:
408,320,49319,1,8,0:0:0:0:
408,320,49658,6,0,B|352:344|352:344|300:320|300:320|220:320,1,175
184,276,50167,1,2,0:0:0:0:
285,167,50336,2,0,L|379:167,1,70
468,72,50675,2,0,B|416:72,1,35,2|0,0:0|0:0,0:0:0:0:
304,24,50845,1,0,0:0:0:0:
260,36,50929,1,0,0:0:0:0:
216,52,51014,6,0,B|184:84,1,35
140,132,51183,2,0,B|112:120|100:72|100:72|60:32,1,105
32,120,51522,2,0,P|48:156|108:204,1,105,8|0,0:0|0:0,0:0:0:0:
172,216,51861,1,0,0:0:0:0:
228,72,52031,1,0,0:0:0:0:
124,158,52200,5,2,0:0:0:0:
96,198,52285,1,2,0:0:0:0:
96,240,52370,2,0,B|112:288|176:304|176:304|224:288|224:288|272:304,1,175
296,308,52878,1,0,0:0:0:0:
344,176,53048,2,0,B|328:143|328:143|277:109,1,70
172,68,53387,2,0,L|124:100,1,35
32,180,53556,1,0,0:0:0:0:
36,200,53641,1,0,0:0:0:0:
40,220,53726,6,0,B|48:244|48:244|68:260,1,35
184,288,53895,2,0,B|208:284|208:284|232:264,1,35
296,180,54065,2,0,B|296:154|296:154|283:132,1,35
172,68,54234,2,0,B|124:104|140:184|140:184|176:208|176:208|252:208|272:304,1,315
184,288,55082,2,0,B|200:376|296:384|296:384|388:332|340:208|288:176,1,393.750015020371
232,136,56438,2,0,B|280:40|280:40|304:136|388:112|424:188|432:296,1,393.750015020371
448,352,57794,2,0,B|352:368|336:272|336:272|304:320|240:336|240:336|208:304|192:240|208:208|208:208,1,393.750015020371
216,156,59150,1,0,0:0:0:0:
216,156,59489,5,0,0:0:0:0:
336,136,59658,1,0,0:0:0:0:
292,232,59828,1,0,0:0:0:0:
272,52,59997,1,0,0:0:0:0:
424,112,60167,1,0,0:0:0:0:
436,120,60251,1,0,0:0:0:0:
448,128,60336,1,0,0:0:0:0:
460,136,60421,1,0,0:0:0:0:
472,148,60506,6,0,L|360:232,1,105.000004005432
176,328,60845,1,0,0:0:0:0:
280,112,61014,1,0,0:0:0:0:
356,304,61183,1,0,0:0:0:0:
152,168,61354,1,0,0:0:0:0:
356,304,61522,1,0,0:0:0:0:
280,112,61692,1,0,0:0:0:0:
176,328,61862,1,0,0:0:0:0:
356,144,62032,2,0,P|324:48|224:56,1,210.000008010865
172,104,62455,5,0,0:0:0:0:
160,120,62540,2,0,B|116:168|116:168|104:240,1,105.000004005432
232,376,62878,2,0,B|276:328|276:328|288:256,1,105.000004005432
288,208,63133,1,0,0:0:0:0:
288,180,63218,6,0,B|288:56,1,105.000004005432
178,228,63557,1,0,0:0:0:0:
413,137,63726,1,0,0:0:0:0:
188,26,63895,1,0,0:0:0:0:
288,180,64066,1,0,0:0:0:0:
96,128,64234,1,0,0:0:0:0:
288,180,64404,1,0,0:0:0:0:
77,263,64573,2,0,L|65:331,1,52.5000020027161
221,274,64743,6,0,L|229:198,1,52.5000020027161
272,92,64913,2,0,P|348:108|380:208,1,157.500006008148
360,244,65251,5,0,0:0:0:0:
320,278,65335,1,0,0:0:0:0:
270,290,65420,1,0,0:0:0:0:
221,274,65505,1,0,0:0:0:0:
175,248,65589,1,0,0:0:0:0:
124,241,65674,1,0,0:0:0:0:
77,263,65759,1,0,0:0:0:0:
75,312,65844,1,0,0:0:0:0:
108,352,65929,2,0,B|132:372|188:372|188:372|248:372,1,105.000004005432
360,244,66268,5,0,0:0:0:0:
329,89,66438,2,0,B|305:69|249:69|249:69|189:69,1,105.000004005432
175,248,66778,1,0,0:0:0:0:
360,244,66946,6,0,L|328:80,1,157.500006008148
372,28,67286,1,0,0:0:0:0:
468,180,67456,1,0,0:0:0:0:
264,148,67624,1,0,0:0:0:0:
272,188,67709,1,0,0:0:0:0:
280,228,67794,2,0,L|275:295,1,52.5000020027161
158,281,67963,1,0,0:0:0:0:
360,244,68133,2,0,L|348:388,1,105.000004005432
232,384,68472,1,0,0:0:0:0:
176,207,68642,5,0,0:0:0:0:
167,244,68726,1,0,0:0:0:0:
158,281,68812,2,0,L|131:382,1,105.000004005432
264,148,69150,5,0,0:0:0:0:
271,189,69234,1,0,0:0:0:0:
280,228,69319,2,0,L|305:362,1,105.000004005432
296,56,69659,5,0,0:0:0:0:
326,86,69743,1,0,0:0:0:0:
359,115,69828,2,0,L|434:188,1,105.000004005432
416,308,70167,5,0,0:0:0:0:
393,285,70251,1,0,0:0:0:0:
370,262,70336,1,0,0:0:0:0:
232,132,70506,1,0,0:0:0:0:
299,331,70675,1,0,0:0:0:0:
460,180,70845,1,0,0:0:0:0:
248,256,71014,1,0,0:0:0:0:
460,180,71183,1,0,0:0:0:0:
299,331,71353,6,0,B|263:367|203:347|203:347|153:369,1,157.500006008148
80,360,71692,5,0,0:0:0:0:
248,256,71861,1,0,0:0:0:0:
8,168,72031,1,0,0:0:0:0:
248,256,72200,1,0,0:0:0:0:
80,360,72369,1,0,0:0:0:0:
125,111,72539,1,0,0:0:0:0:
248,256,72709,1,0,0:0:0:0:
236,264,72794,1,0,0:0:0:0:
224,272,72878,2,0,B|216:200|132:176|132:176|108:144|132:96,1,210.000008010865
176,44,73302,5,0,0:0:0:0:
200,36,73387,2,0,P|264:48|300:84,1,105.000004005432
332,148,73641,1,0,0:0:0:0:
324,184,73726,2,0,L|260:192,1,52.5000020027161
128,212,73895,2,0,L|64:220,1,52.5000020027161
88,84,74065,2,0,P|136:132|240:88,1,157.500006008148
292,116,74403,5,0,0:0:0:0:
215,287,74573,1,0,0:0:0:0:
382,120,74743,1,0,0:0:0:0:
246,197,74912,1,0,0:0:0:0:
422,201,75082,1,0,0:0:0:0:
341,30,75251,1,0,0:0:0:0:
337,197,75420,1,0,0:0:0:0:
337,226,75506,1,0,0:0:0:0:
337,255,75590,2,0,L|336:320,1,52.5000020027161
512,208,75760,6,0,P|492:144|424:112,1,105.000004005432
296,124,76099,1,0,0:0:0:0:
390,232,76268,1,0,0:0:0:0:
337,255,76352,1,0,0:0:0:0:
280,255,76437,1,0,0:0:0:0:
227,233,76522,5,0,0:0:0:0:
187,192,76606,1,0,0:0:0:0:
166,138,76691,1,0,0:0:0:0:
170,81,76777,2,0,L|109:235,1,157.500006008148
112,312,77116,5,0,0:0:0:0:
319,157,77285,2,0,L|266:287,1,105.000004005432
112,312,77624,2,0,L|173:158,1,157.500006008148
160,72,77963,2,0,B|176:44|176:44|224:8,1,52.5000020027161
306,20,78133,1,0,0:0:0:0:
363,20,78217,1,0,0:0:0:0:
419,20,78302,5,0,0:0:0:0:
384,66,78387,1,0,0:0:0:0:
382,123,78471,1,0,0:0:0:0:
414,170,78556,1,0,0:0:0:0:
451,214,78641,5,0,0:0:0:0:
397,192,78725,1,0,0:0:0:0:
340,195,78810,1,0,0:0:0:0:
289,223,78895,1,0,0:0:0:0:
253,267,78980,5,0,0:0:0:0:
244,209,79064,1,0,0:0:0:0:
212,162,79149,1,0,0:0:0:0:
163,132,79234,1,0,0:0:0:0:
108,126,79319,1,0,0:0:0:0:
52,136,79403,1,0,0:0:0:0:
11,176,79488,5,0,0:0:0:0:
252,90,84912,6,0,B|328:138,1,70,12|0,0:0|0:0,0:0:0:0:
424,196,85251,1,0,0:0:0:0:
312,268,85420,1,2,0:0:0:0:
312,128,85590,1,0,0:0:0:0:
424,196,85759,1,0,0:0:0:0:
312,268,85929,2,0,B|277:268|277:268|245:256,1,70
180,212,86183,1,0,0:0:0:0:
168,196,86268,6,0,B|160:288,1,70
72,364,86607,1,0,0:0:0:0:
76,216,86776,2,0,L|83:135,1,70
16,20,87115,1,0,0:0:0:0:
152,128,87285,1,0,0:0:0:0:
76,216,87454,2,0,L|128:248,1,35
180,212,87624,1,8,0:0:0:0:
204,60,87793,5,0,0:0:0:0:
272,164,87963,1,0,0:0:0:0:
152,128,88132,1,0,0:0:0:0:
272,164,88302,2,0,L|304:208,1,35
320,84,88471,2,0,L|341:113,1,35
368,4,88641,2,0,B|440:100,1,105
472,152,88980,6,0,B|456:204|456:204|472:260,1,105
432,320,89319,2,0,L|448:336,4,17.5
208,148,89827,1,0,0:0:0:0:
269,298,89997,1,0,0:0:0:0:
216,156,90166,5,0,0:0:0:0:
216,156,90251,1,0,0:0:0:0:
216,156,90336,2,0,B|200:200|200:200|228:276|228:276|288:308,1,175
348,308,90844,1,0,0:0:0:0:
312,204,91014,1,0,0:0:0:0:
268,96,91183,1,0,0:0:0:0:
136,164,91353,2,0,P|156:212|180:228,1,70
312,204,91692,5,0,0:0:0:0:
188,108,91862,2,0,P|152:88|88:100,1,105
44,152,92200,2,0,L|36:264,1,105
80,316,92539,6,0,L|116:276,1,35
148,232,92708,2,0,B|192:244|192:244|224:224|224:224|268:232,1,105
320,248,93048,2,0,B|332:200|296:168|296:168|296:80,1,175
220,108,93556,1,0,0:0:0:0:
220,148,93641,2,0,B|208:196|244:228|244:228|244:316,1,175
304,360,94149,1,0,0:0:0:0:
316,364,94234,6,0,B|352:364|352:364|384:348|384:348|400:296,1,105
324,284,94573,2,0,L|324:236,1,35
344,136,94743,2,0,L|344:108,4,17.5
472,256,95082,2,0,L|472:220,1,35
344,136,95251,1,0,0:0:0:0:
324,284,95420,1,0,0:0:0:0:
200,140,95590,1,0,0:0:0:0:
200,140,95675,1,0,0:0:0:0:
200,140,95759,1,0,0:0:0:0:
200,140,96098,5,0,0:0:0:0:
324,284,96268,1,0,0:0:0:0:
344,136,96437,1,0,0:0:0:0:
472,256,96607,1,0,0:0:0:0:
324,284,96776,1,0,0:0:0:0:
200,140,96945,1,0,0:0:0:0:
344,136,97115,2,0,B|368:164,1,35
252,28,97285,6,0,B|196:44|196:44|144:28,1,105
76,32,97624,2,0,L|44:152,1,105
104,184,97963,2,0,B|88:244|88:244|128:296,1,105,8|0,0:0|0:0,0:0:0:0:
192,292,98302,1,0,0:0:0:0:
208,301,98386,1,0,0:0:0:0:
225,310,98472,2,0,L|272:312,1,35
432,296,98640,5,2,0:0:0:0:
328,148,98810,1,8,0:0:0:0:
504,160,98980,2,0,B|471:225,1,70
352,348,99318,1,0,0:0:0:0:
328,148,99488,1,0,0:0:0:0:
216,252,99658,1,0,0:0:0:0:
201,237,99742,1,0,0:0:0:0:
186,222,99827,2,0,L|184:160,1,35
176,24,99997,6,0,B|124:41|124:41|88:77,1,105
80,160,100336,2,0,B|131:142|131:142|167:106,1,105
176,24,100675,1,0,0:0:0:0:
256,192,100844,1,0,0:0:0:0:
256,192,101183,6,0,B|312:168|312:168|364:192|364:192|444:192,1,175
488,228,101692,1,2,0:0:0:0:
380,116,101861,2,0,L|296:76,1,70
312,256,102200,2,0,B|368:284,1,35,2|0,0:0|0:0,0:0:0:0:
280,376,102370,1,0,0:0:0:0:
261,365,102454,1,0,0:0:0:0:
243,353,102539,6,0,B|207:329,1,35
76,220,102708,2,0,B|88:192|132:188|132:188|168:136,1,105
184,88,103048,2,0,B|240:104|240:104|300:88,1,105
352,60,103386,1,0,0:0:0:0:
312,256,103556,2,0,P|352:276|404:272,1,70
460,272,103811,1,0,0:0:0:0:
472,254,103895,6,0,B|464:202|416:182|416:182|368:198|368:198|328:174,1,175
280,124,104403,1,0,0:0:0:0:
312,256,104573,2,0,B|392:304,1,70
226,300,104912,2,0,B|202:292|202:292|170:268,1,35
88,160,105081,1,0,0:0:0:0:
108,140,105166,1,0,0:0:0:0:
128,120,105251,6,0,B|144:108|144:108|158:104,1,35
268,192,105421,2,0,B|292:188|292:188|320:172,1,35
340,52,105590,2,0,B|356:40|356:40|370:36,1,35
440,172,105759,2,0,B|420:204|420:248|420:248|376:272|340:252|340:252|304:276|296:312|296:312|248:276|212:312,1,315
256,192,106607,12,0,107963,0:0:0:0:
360,116,108302,5,0,0:0:0:0:
332,224,108472,1,0,0:0:0:0:
472,160,108641,1,0,0:0:0:0:
448,272,108811,1,0,0:0:0:0:
360,116,108980,1,0,0:0:0:0:
345,105,109064,1,0,0:0:0:0:
331,95,109149,1,0,0:0:0:0:
317,84,109234,1,0,0:0:0:0:
303,74,109319,6,0,P|220:92|184:144,1,105.000004005432
176,296,109658,1,0,0:0:0:0:
280,161,109827,1,0,0:0:0:0:
364,364,109996,1,0,0:0:0:0:
160,192,110167,1,0,0:0:0:0:
392,256,110335,1,0,0:0:0:0:
176,296,110505,1,0,0:0:0:0:
392,256,110675,1,0,0:0:0:0:
198,117,110845,2,0,P|90:141|91:239,1,210.000008010865
152,288,111268,5,0,0:0:0:0:
176,296,111353,2,0,B|300:296,1,105.000004005432
303,117,111692,2,0,B|179:117,1,105.000004005432
220,196,111946,5,0,0:0:0:0:
232,208,112031,2,0,B|296:208|296:208|344:224|344:224|392:224,1,157.500006008148
464,224,112370,1,0,0:0:0:0:
303,117,112539,1,0,0:0:0:0:
400,340,112708,1,0,0:0:0:0:
220,196,112879,1,0,0:0:0:0:
400,340,113047,1,0,0:0:0:0:
220,196,113217,1,0,0:0:0:0:
472,224,113387,2,0,B|476:192|476:192|472:160,1,52.5000020027161
282,89,113556,6,0,B|278:121|278:121|282:153,1,52.5000020027161
216,288,113726,2,0,P|152:248|144:160,1,157.500006008148
172,84,114065,5,0,0:0:0:0:
228,72,114149,1,0,0:0:0:0:
282,89,114234,1,0,0:0:0:0:
325,128,114319,1,0,0:0:0:0:
347,176,114403,1,0,0:0:0:0:
333,232,114488,1,0,0:0:0:0:
355,284,114573,1,0,0:0:0:0:
404,312,114658,1,0,0:0:0:0:
461,324,114743,6,0,B|492:180,1,105.000004005432
500,72,115081,5,0,0:0:0:0:
377,181,115251,2,0,B|355:284,1,105.000004005432
384,68,115590,5,0,0:0:0:0:
261,177,115760,2,0,B|238:279,1,105.000004005432
112,368,116099,1,0,0:0:0:0:
344,272,116269,1,0,0:0:0:0:
160,128,116438,1,0,0:0:0:0:
344,272,116607,1,0,0:0:0:0:
112,368,116776,1,0,0:0:0:0:
160,128,116946,2,0,P|244:120|252:200,1,157.500006008148
216,236,117285,1,0,0:0:0:0:
364,352,117455,5,0,0:0:0:0:
392,340,117539,1,0,0:0:0:0:
416,320,117625,2,0,P|432:268|416:216,1,105.000004005432
260,312,117963,5,0,0:0:0:0:
284,280,118047,1,0,0:0:0:0:
301,246,118133,2,0,P|288:192|249:155,1,105.000004005432
120,280,118472,5,0,0:0:0:0:
128,232,118556,1,0,0:0:0:0:
130,187,118642,2,0,P|92:147|39:135,1,105.000004005432
48,328,118980,5,0,0:0:0:0:
73,353,119064,1,0,0:0:0:0:
108,367,119150,1,0,0:0:0:0:
304,296,119319,2,0,L|324:136,1,157.500006008148
372,76,119658,1,0,0:0:0:0:
392,264,119827,1,0,0:0:0:0:
232,128,119996,1,0,0:0:0:0:
304,296,120166,6,0,P|380:352|464:328,1,157.500006008148
484,288,120505,5,0,0:0:0:0:
404,140,120674,1,0,0:0:0:0:
232,128,120844,1,0,0:0:0:0:
304,296,121013,1,0,0:0:0:0:
484,288,121182,1,0,0:0:0:0:
404,140,121352,1,0,0:0:0:0:
232,128,121522,1,0,0:0:0:0:
204,152,121607,1,0,0:0:0:0:
188,184,121692,2,0,P|232:296|320:288,1,210.000008010865
388,324,122115,5,0,0:0:0:0:
407,297,122200,2,0,L|403:125,1,157.500006008148
344,72,122539,1,0,0:0:0:0:
316,104,122624,1,0,0:0:0:0:
292,140,122709,2,0,L|292:224,1,52.5000020027161
196,372,122878,2,0,L|192:200,1,157.500006008148
156,144,123216,5,0,0:0:0:0:
308,272,123386,1,0,0:0:0:0:
344,72,123556,1,0,0:0:0:0:
308,272,123725,1,0,0:0:0:0:
240,52,123895,1,0,0:0:0:0:
400,216,124064,1,0,0:0:0:0:
175,157,124233,1,0,0:0:0:0:
156,144,124319,1,0,0:0:0:0:
138,132,124403,1,0,0:0:0:0:
120,120,124489,1,0,0:0:0:0:
104,104,124573,6,0,L|268:140,1,157.500006008148
328,120,124912,2,0,L|396:136,1,52.5000020027161
496,260,125082,1,0,0:0:0:0:
446,288,125166,1,0,0:0:0:0:
389,295,125251,1,0,0:0:0:0:
332,285,125336,1,0,0:0:0:0:
277,269,125420,1,0,0:0:0:0:
219,271,125505,1,0,0:0:0:0:
164,289,125590,2,0,P|76:276|68:200,1,157.500006008148
96,148,125929,5,0,0:0:0:0:
252,52,126098,2,0,L|199:182,1,105.000004005432
332,285,126437,2,0,L|393:131,1,157.500006008148
332,64,126776,6,0,L|302:142,1,52.5000020027161
176,224,126946,1,0,0:0:0:0:
128,243,127030,1,0,0:0:0:0:
79,229,127116,5,0,0:0:0:0:
92,279,127200,1,0,0:0:0:0:
123,320,127285,1,0,0:0:0:0:
169,345,127370,1,0,0:0:0:0:
221,351,127455,5,0,0:0:0:0:
226,299,127539,1,0,0:0:0:0:
251,253,127624,1,0,0:0:0:0:
292,221,127709,1,0,0:0:0:0:
343,208,127794,5,0,0:0:0:0:
304,172,127878,1,0,0:0:0:0:
257,150,127963,1,0,0:0:0:0:
205,145,128048,1,0,0:0:0:0:
154,158,128132,1,0,0:0:0:0:
110,186,128217,1,0,0:0:0:0:
84,232,128302,6,0,P|68:112|144:56,1,227.5
228,56,129489,1,0,0:0:0:0:
220,84,129573,1,0,0:0:0:0:
212,112,129658,1,0,0:0:0:0:
292,221,129828,2,0,L|304:165,1,52.5
356,112,130167,5,0,0:0:0:0:
372,232,130336,2,0,L|360:300,1,70
288,380,130845,1,0,0:0:0:0:
260,372,130929,1,0,0:0:0:0:
232,364,131014,1,0,0:0:0:0:
128,256,131184,2,0,L|184:268,1,52.5
260,284,131523,5,0,0:0:0:0:
104,340,131692,2,0,P|60:312|48:288,1,70
152,176,132200,1,0,0:0:0:0:
144,204,132284,1,0,0:0:0:0:
136,232,132369,1,0,0:0:0:0:
84,108,132539,2,0,L|96:52,1,52.5
40,4,132878,5,0,0:0:0:0:
12,172,133048,2,0,L|0:244,1,62.9999980773926
56,304,133387,2,0,L|64:268,1,20.9999993591309
104,192,133556,1,0,0:0:0:0:
107,173,133640,1,0,0:0:0:0:
111,154,133725,1,0,0:0:0:0:
176,48,133895,2,0,B|212:56|212:56|252:48,1,62.9999980773926
308,32,134234,5,0,0:0:0:0:
404,136,134404,2,0,B|396:176|396:176|404:220,1,73.4999977569581
428,280,134743,2,0,L|392:280,1,24.4999992523194
300,232,134912,1,0,0:0:0:0:
272,232,134996,1,0,0:0:0:0:
245,232,135081,1,0,0:0:0:0:
132,356,135251,2,0,L|216:356,1,73.4999977569581
276,308,135590,5,0,0:0:0:0:
160,216,135760,2,0,P|184:172|252:148,1,112
300,232,136268,1,0,0:0:0:0:
328,232,136352,1,0,0:0:0:0:
355,232,136437,1,0,0:0:0:0:
436,152,136607,2,0,B|412:112|412:112|368:84,1,84
304,80,136946,5,0,0:0:0:0:
300,232,137116,2,0,B|328:276|328:276|432:320,1,157.499995193482
452,244,137624,1,0,0:3:0:0:
418,229,137708,1,0,0:3:0:0:
385,215,137793,1,0,0:3:0:0:
196,196,137963,2,0,L|240:268,1,62.9999980773926
340,320,138302,1,0,0:0:0:0:
272,164,138472,2,0,P|224:120|168:120,1,94.499997116089
120,156,138811,5,0,0:0:0:0:
108,176,138895,2,0,L|112:312,1,105
28,224,139234,1,0,0:0:0:0:
28,212,139319,2,0,L|24:152,1,35
112,16,139658,5,0,0:0:0:0:
112,36,139742,1,0,0:0:0:0:
112,57,139827,1,0,0:0:0:0:
209,99,139996,1,0,0:0:0:0:
210,120,140081,1,0,0:0:0:0:
210,141,140167,2,0,L|214:277,1,105
264,308,140506,6,0,P|316:328|372:312,1,105
416,256,140845,2,0,P|364:236|308:252,1,105
264,308,141183,2,0,B|236:256|236:256|248:200,1,105
180,176,141522,2,0,B|164:228|164:228|96:212,1,105
104,292,141861,2,0,B|160:308|160:308|191:357,1,105
264,308,142200,2,0,P|248:240|272:188,1,105
312,144,142539,2,0,P|322:93|306:44,1,105
220,40,142878,1,0,0:0:0:0:
112,120,143048,5,0,0:0:0:0:
94,102,143133,1,0,0:0:0:0:
72,80,143217,2,0,L|80:208,1,105
136,244,143556,2,0,B|184:200|184:200|248:176,1,105
300,208,143895,2,0,B|337:193|337:193|385:149,1,105
464,132,144234,1,8,0:0:0:0:
296,120,144404,1,4,0:0:0:0:
436,212,144573,2,0,L|352:288,1,105
276,288,144912,2,0,L|175:339,1,105
104,320,145251,5,0,0:0:0:0:
115,300,145335,1,0,0:0:0:0:
123,279,145420,1,0,0:0:0:0:
127,256,145505,1,0,0:0:0:0:
124,231,145590,1,0,0:0:0:0:
107,193,145674,1,0,0:0:0:0:
102,153,145759,1,0,0:0:0:0:
109,113,145844,1,0,0:0:0:0:
128,77,145928,5,0,0:0:0:0:
356,36,146099,2,0,B|344:72|356:96|356:96|368:124|356:168,1,105
328,208,146438,5,0,0:0:0:0:
109,113,146607,2,0,P|100:176|136:248,1,140
275,348,147116,1,0,0:0:0:0:
291,336,147200,1,0,0:0:0:0:
308,324,147285,5,0,0:0:0:0:
472,204,147455,2,0,P|480:136|448:88,1,105
396,72,147794,5,0,0:0:0:0:
340,236,147963,2,0,B|300:200|258:201|258:201|200:208|164:172,1,175
152,112,148472,1,0,0:0:0:0:
180,104,148556,1,0,0:0:0:0:
208,112,148641,5,0,0:0:0:0:
340,236,148811,1,0,0:0:0:0:
340,236,148980,5,0,0:0:0:0:
282,68,149150,1,0,0:0:0:0:
195,312,149319,1,0,0:0:0:0:
397,144,149489,1,0,0:0:0:0:
143,192,149658,1,0,0:0:0:0:
397,144,149828,1,0,0:0:0:0:
397,144,150167,5,0,0:0:0:0:
234,346,150336,1,0,0:0:0:0:
268,111,150506,1,0,0:0:0:0:
95,303,150675,1,0,0:0:0:0:
138,77,150845,1,0,0:0:0:0:
138,77,151183,5,0,0:0:0:0:
138,77,151268,1,0,0:0:0:0:
138,77,151353,2,0,L|120:188,1,105.000004005432
268,111,151692,1,0,0:0:0:0:
48,120,151861,2,0,L|30:231,1,105.000004005432
144,372,152200,1,0,0:0:0:0:
254,213,152370,6,0,B|270:157|270:157|266:93,1,105.000004005432
132,192,152709,1,0,0:0:0:0:
304,300,152878,2,0,B|336:252|336:252|360:164,1,105.000004005432
292,52,153217,1,0,0:0:0:0:
132,192,153387,1,0,0:0:0:0:
168,40,153556,1,0,0:0:0:0:
348,206,153726,2,0,B|388:256|388:256|404:308,1,105.000004005432
264,364,154065,5,0,0:0:0:0:
476,216,154234,1,0,0:0:0:0:
228,184,154404,1,0,0:0:0:0:
476,216,154573,2,0,B|436:166|436:166|420:114,1,105.000004005432
328,16,154912,1,0,0:0:0:0:
228,184,155082,6,0,L|200:72,1,105.000004005432
124,224,155421,1,0,0:0:0:0:
316,132,155590,1,0,0:0:0:0:
108,92,155760,1,0,0:0:0:0:
256,276,155929,1,0,0:0:0:0:
202,82,156099,2,0,L|228:184,1,105.000004005432
336,356,156438,1,0,0:0:0:0:
327,173,156607,5,0,0:0:0:0:
316,132,156691,1,0,0:0:0:0:
306,91,156776,1,0,0:0:0:0:
256,192,156861,12,0,158471,0:0:0:0:
172,156,158641,6,0,L|188:252,1,78.7500030040742
244,284,158980,1,0,0:0:0:0:
252,132,159150,1,0,0:0:0:0:
252,132,159234,1,0,0:0:0:0:
252,132,159319,2,0,P|204:80|136:84,1,131.25000500679
172,156,159828,5,0,0:0:0:0:
244,284,159997,1,0,0:0:0:0:
252,132,160167,1,0,0:0:0:0:
368,208,160336,1,0,0:0:0:0:
244,284,160506,1,0,0:0:0:0:
252,132,160675,1,0,0:0:0:0:
348,312,160845,1,0,0:0:0:0:
256,136,161014,2,0,L|344:96,1,78.7500030040742
380,56,161353,5,0,0:0:0:0:
368,208,161523,1,0,0:0:0:0:
360,260,161607,1,0,0:0:0:0:
348,312,161692,1,0,0:0:0:0:
212,356,161861,1,0,0:0:0:0:
88,240,162031,2,0,L|244:248,1,131.25000500679
292,208,162539,5,0,0:0:0:0:
174,77,162708,1,0,0:0:0:0:
292,208,162878,1,0,0:0:0:0:
88,240,163047,1,0,0:0:0:0:
292,208,163217,1,0,0:0:0:0:
88,240,163386,1,0,0:0:0:0:
174,77,163556,2,0,L|78:257,1,183.750007009506
40,308,164234,6,0,P|72:320|128:316,1,78.7500030040742
180,272,164573,2,0,P|219:270|256:283,1,78.7500030040742
332,264,164912,2,0,B|392:292|440:264|440:264|456:228|424:184|424:184|472:160|468:96,1,288.750011014939
388,116,165929,6,0,P|352:156|348:200,1,78.7500030040742
332,264,166268,2,0,P|294:274|256:266,1,78.7500030040742
204,204,166607,1,0,0:0:0:0:
56,264,166777,1,0,0:0:0:0:
96,116,166946,1,0,0:0:0:0:
160,272,167116,2,0,L|200:348,1,78.7500030040742
272,364,167455,1,0,0:0:0:0:
452,52,169319,5,0,0:0:0:0:
368,160,169489,1,0,0:0:0:0:
312,24,169658,1,0,0:0:0:0:
460,160,169828,1,0,0:0:0:0:
312,24,169997,1,0,0:0:0:0:
460,160,170167,2,0,L|440:212,1,35
400,288,170336,6,0,P|336:308|284:280,1,105
260,232,170675,5,0,0:0:0:0:
344,228,170844,1,0,0:0:0:0:
216,304,171014,1,0,0:0:0:0:
216,160,171183,1,0,0:0:0:0:
156,240,171353,1,0,0:0:0:0:
120,164,171522,1,0,0:0:0:0:
260,232,171692,1,0,0:0:0:0:
236,196,171777,1,0,0:0:0:0:
216,160,171861,2,0,L|168:60,1,105
208,4,172200,5,0,0:0:0:0:
244,24,172285,1,0,0:0:0:0:
280,44,172370,1,0,0:0:0:0:
356,216,172539,1,0,0:0:0:0:
216,160,172709,1,0,0:0:0:0:
420,160,172878,2,0,P|432:252|328:296,1,209.999993591309
276,332,173387,5,0,0:0:0:0:
216,160,173556,1,0,0:0:0:0:
356,216,173726,1,0,0:0:0:0:
204,288,173895,1,0,0:0:0:0:
336,104,174065,1,0,0:0:0:0:
196,24,174234,1,0,0:0:0:0:
216,160,174404,1,0,0:0:0:0:
408,60,174573,1,0,0:0:0:0:
408,60,175082,5,0,0:0:0:0:
256,124,175421,1,0,0:0:0:0:
392,216,175760,5,0,0:0:0:0:
368,236,176099,1,0,0:0:0:0:
232,208,176268,5,0,0:0:0:0:
208,228,176607,1,0,0:0:0:0:
184,252,176946,1,0,0:0:0:0:
184,252,177455,5,0,0:0:0:0:
100,136,177624,1,0,0:0:0:0:
268,236,177794,1,0,0:0:0:0:
184,120,177963,1,0,0:0:0:0:
352,220,178133,1,0,0:0:0:0:
328,188,178217,1,0,0:0:0:0:
304,156,178302,1,0,0:0:0:0:
100,136,178472,6,0,L|184:252,1,105.000004005432
316,348,178811,1,0,0:0:0:0:
216,156,178980,1,0,0:0:0:0:
192,336,179149,1,0,0:0:0:0:
384,264,179320,1,0,0:0:0:0:
161,221,179488,1,0,0:0:0:0:
376,136,179658,1,0,0:0:0:0:
161,221,179828,1,0,0:0:0:0:
320,80,179998,2,0,P|440:88|452:164,1,210.000008010865
416,240,180421,5,0,0:0:0:0:
384,264,180506,2,0,B|324:256|324:256|248:292,1,105.000004005432
136,340,180845,2,0,B|95:359|95:359|35:351,1,105.000004005432
12,264,181099,1,0,0:0:0:0:
16,228,181184,6,0,B|32:176|32:176|16:104,1,105.000004005432
52,60,181523,1,0,0:0:0:0:
164,260,181692,1,0,0:0:0:0:
236,108,181861,1,0,0:0:0:0:
16,228,182032,1,0,0:0:0:0:
144,84,182200,1,0,0:0:0:0:
16,228,182370,1,0,0:0:0:0:
236,108,182539,2,0,L|248:176,1,52.5000020027161
340,264,182709,6,0,L|349:212,1,52.5000020027161
424,56,182878,2,0,L|452:220,1,157.500006008148
460,264,183217,5,0,0:0:0:0:
425,309,183301,1,0,0:0:0:0:
376,340,183386,1,0,0:0:0:0:
319,344,183471,1,0,0:0:0:0:
265,326,183555,1,0,0:0:0:0:
213,300,183640,1,0,0:0:0:0:
157,290,183725,1,0,0:0:0:0:
100,300,183810,1,0,0:0:0:0:
48,325,183895,6,0,P|24:272|36:196,1,105.000004005432
184,104,184234,1,0,0:0:0:0:
312,277,184404,2,0,P|259:301|183:289,1,105.000004005432
88,184,184744,1,0,0:0:0:0:
200,376,184912,6,0,P|276:375|352:344,1,157.500006008148
425,309,185252,1,0,0:0:0:0:
260,164,185422,1,0,0:0:0:0:
412,176,185590,1,0,0:0:0:0:
420,216,185675,1,0,0:0:0:0:
428,256,185760,2,0,L|423:323,1,52.5000020027161
260,164,185929,1,0,0:0:0:0:
508,180,186099,2,0,L|499:284,1,105.000004005432
388,56,186438,1,0,0:0:0:0:
186,146,186608,5,0,0:0:0:0:
223,155,186692,1,0,0:0:0:0:
260,164,186778,2,0,L|361:191,1,105.000004005432
192,56,187116,5,0,0:0:0:0:
155,65,187200,1,0,0:0:0:0:
118,74,187286,2,0,L|17:101,1,105.000004005432
224,232,187624,5,0,0:0:0:0:
261,241,187708,1,0,0:0:0:0:
298,250,187794,2,0,L|399:277,1,105.000004005432
172,148,188133,5,0,0:0:0:0:
133,159,188218,1,0,0:0:0:0:
96,172,188302,1,0,0:0:0:0:
298,250,188472,2,0,L|399:277,1,105.000004005432
308,144,188811,1,0,0:0:0:0:
352,344,188980,1,0,0:0:0:0:
448,152,189149,1,0,0:0:0:0:
352,344,189319,6,0,B|268:348|268:348|196:316,1,157.500006008148
148,256,189658,5,0,0:0:0:0:
268,112,189827,1,0,0:0:0:0:
104,144,189997,1,0,0:0:0:0:
288,268,190166,1,0,0:0:0:0:
268,112,190335,1,0,0:0:0:0:
148,256,190505,1,0,0:0:0:0:
320,180,190675,1,0,0:0:0:0:
348,140,190760,1,0,0:0:0:0:
360,100,190845,2,0,P|296:28|176:76,1,210.000008010865
120,80,191268,5,0,0:0:0:0:
112,102,191353,2,0,L|152:274,1,157.500006008148
232,344,191692,2,0,L|221:289,1,52.5000020027161
240,156,191861,2,0,L|250:207,1,52.5000020027161
372,344,192031,2,0,L|329:157,1,157.500006008148
352,120,192369,5,0,0:0:0:0:
148,60,192539,1,0,0:0:0:0:
248,244,192709,1,0,0:0:0:0:
248,36,192878,1,0,0:0:0:0:
144,220,193048,1,0,0:0:0:0:
352,120,193217,1,0,0:0:0:0:
148,224,193387,1,0,0:0:0:0:
188,200,193472,1,0,0:0:0:0:
229,177,193556,6,0,B|272:148|272:148|256:96|296:32|368:36,1,210.000008010865
500,164,194065,1,0,0:0:0:0:
384,316,194234,1,0,0:0:0:0:
330,338,194318,1,0,0:0:0:0:
273,342,194403,5,0,0:0:0:0:
218,326,194488,1,0,0:0:0:0:
164,306,194572,1,0,0:0:0:0:
106,305,194657,1,0,0:0:0:0:
51,321,194743,2,0,L|128:184,1,157.500006008148
124,112,195082,5,0,0:0:0:0:
320,100,195251,2,0,L|252:225,1,105.000004005432
384,316,195590,2,0,L|461:179,1,157.500006008148
444,108,195929,2,0,B|424:84|424:84|376:52,1,52.5000020027161
258,40,196099,1,0,0:0:0:0:
239,94,196183,1,0,0:0:0:0:
257,148,196268,5,0,0:0:0:0:
203,128,196352,1,0,0:0:0:0:
145,129,196437,1,0,0:0:0:0:
92,151,196522,1,0,0:0:0:0:
51,191,196607,5,0,0:0:0:0:
108,195,196691,1,0,0:0:0:0:
162,214,196776,1,0,0:0:0:0:
211,247,196861,1,0,0:0:0:0:
248,291,196946,5,0,0:0:0:0:
295,251,197030,1,0,0:0:0:0:
350,218,197115,1,0,0:0:0:0:
383,166,197200,1,0,0:0:0:0:
373,104,197284,1,0,0:0:0:0:
322,71,197369,1,0,0:0:0:0:
268,88,197455,6,0,B|186:78|186:78|106:30,1,157.500006008148
44,52,197794,1,0,0:0:0:0:
213,240,197963,2,0,B|295:250|295:250|375:298,1,157.500006008148
439,278,198302,1,0,0:0:0:0:
396,60,198472,1,0,0:0:0:0:
213,240,198641,6,0,B|223:157|223:157|264:80,1,157.500006008148
144,116,198980,2,0,B|133:198|133:198|93:276,1,157.500006008148
132,343,199319,5,0,0:0:0:0:
187,355,199403,1,0,0:0:0:0:
244,345,199488,1,0,0:0:0:0:
295,319,199573,1,0,0:0:0:0:
340,282,199657,1,0,0:0:0:0:
300,246,199742,1,0,0:0:0:0:
263,203,199827,1,0,0:0:0:0:
241,150,199912,1,0,0:0:0:0:
247,93,199996,1,0,0:0:0:0:
277,45,200081,1,0,0:0:0:0:
320,5,200166,5,0,0:0:0:0:
