osu file format v14

[General]
AudioFilename: audio.mp3
AudioLeadIn: 0
PreviewTime: 90227
Countdown: 0
SampleSet: Soft
StackLeniency: 0.3
Mode: 0
LetterboxInBreaks: 0
WidescreenStoryboard: 1

[Editor]
Bookmarks: 1797,24122,46448,68773,91099,113424,135750,158076,180401,201157,203076
DistanceSpacing: 1
BeatDivisor: 4
GridSize: 32
TimelineZoom: 1.4

[Metadata]
Title:The Sun and Moon
TitleUnicode:The Sun and Moon
Artist:FELT
ArtistUnicode:FELT
Creator:buckfro
Version:Insane
Source:
Tags:pure heart 027 vivienne nagi☆ renko orange★jam nagi* orange*jam rock english
BeatmapID:3525262
BeatmapSetID:1371517

[Difficulty]
HPDrainRate:5.5
CircleSize:4.5
OverallDifficulty:7.5
ApproachRate:8
SliderMultiplier:3
SliderTickRate:1

[Events]
//Background and Video events
0,0,"bg.jpg",0,0
//Break Periods
2,177810,178953
//Storyboard Layer 0 (Background)
//Storyboard Layer 1 (Fail)
//Storyboard Layer 2 (Pass)
//Storyboard Layer 3 (Foreground)
//Storyboard Layer 4 (Overlay)
//Storyboard Sound Samples

[TimingPoints]
1797,697.674418604651,4,2,1,35,1,0
1797,-117.647058823529,4,2,1,35,0,0
3715,-153.846153846153,4,2,1,35,0,0
4587,-117.647058823529,4,2,1,35,0,0
8599,-153.846153846153,4,2,1,35,0,0
9645,-117.647058823529,4,2,1,35,0,0
14355,-222.222222222221,4,2,1,35,0,0
14878,-117.647058823529,4,2,1,35,0,0
17145,-222.22222222222,4,2,1,35,0,0
17843,-153.846153846153,4,2,1,35,0,0
18541,-117.647058823529,4,2,1,35,0,0
24122,-117.647058823529,4,2,1,40,0,0
24645,-153.846153846153,4,2,1,40,0,0
25343,-222.22222222222,4,2,1,40,0,0
25866,-285.714285714286,4,2,1,40,0,0
26128,-285.714285714286,4,2,99,5,0,0
26215,-153.846153846154,4,2,1,40,0,0
26477,-153.846153846154,4,2,99,5,0,0
26564,-117.647058823529,4,2,1,40,0,0
26913,-117.647058823529,4,2,1,40,0,0
27436,-153.846153846153,4,2,1,40,0,0
28134,-222.222222222221,4,2,1,40,0,0
28657,-285.714285714286,4,2,1,40,0,0
28919,-285.714285714286,4,2,99,5,0,0
29006,-153.846153846154,4,2,1,40,0,0
29267,-153.846153846154,4,2,99,5,0,0
29355,-117.647058823529,4,2,1,40,0,0
29703,-117.647058823529,4,2,1,40,0,0
30227,-153.846153846153,4,2,1,40,0,0
30924,-117.647058823529,4,2,1,40,0,0
32669,-117.647058823529,4,2,99,5,0,0
32756,-117.647058823529,4,2,1,40,0,0
32930,-117.647058823529,4,2,99,5,0,0
33017,-117.647058823529,4,2,1,40,0,0
34587,-222.222222222221,4,2,1,40,0,0
35285,-117.647058823529,4,2,1,40,0,0
35983,-153.846153846153,4,2,1,40,0,0
36506,-222.222222222221,4,2,1,40,0,0
37203,-285.714285714286,4,2,1,40,0,0
37465,-285.714285714286,4,2,99,5,0,0
37552,-153.846153846153,4,2,1,40,0,0
37814,-153.846153846153,4,2,99,5,0,0
37901,-117.647058823529,4,2,1,40,0,0
39296,-222.222222222221,4,2,1,40,0,0
39820,-285.714285714286,4,2,1,40,0,0
40081,-285.714285714286,4,2,99,5,0,0
40169,-153.846153846154,4,2,1,40,0,0
40430,-153.846153846154,4,2,99,5,0,0
40517,-117.647058823529,4,2,1,40,0,0
40866,-105.263157894737,4,2,1,40,0,0
41913,-285.714285714287,4,2,1,40,0,0
42959,-222.222222222223,4,2,1,40,0,0
43657,-117.64705882353,4,2,1,40,0,0
45052,-357.142857142857,4,2,1,40,0,0
45750,-175.438596491228,4,2,2,60,0,0
46448,-117.647058823529,4,2,5,50,0,0
46622,-117.647058823529,4,2,1,50,0,0
48715,-95.238095238095,4,2,1,50,0,0
49238,-117.647058823529,4,2,1,50,0,0
52029,-117.647058823529,4,2,5,50,0,0
52203,-117.647058823529,4,2,1,50,0,0
54296,-95.238095238095,4,2,1,50,0,0
54820,-117.647058823529,4,2,1,50,0,0
57610,-117.647058823529,4,2,5,50,0,0
58134,-117.647058823529,4,2,1,50,0,0
63192,-117.647058823529,4,2,5,50,0,0
63366,-117.647058823529,4,2,1,50,0,0
63715,-117.647058823529,4,2,1,50,0,0
68773,-95.2380952380951,4,2,5,55,0,0
69122,-95.2380952380951,4,2,1,55,0,0
74355,-95.2380952380951,4,2,5,55,0,0
74703,-95.2380952380951,4,2,1,55,0,0
77581,-95.2380952380951,4,2,1,55,0,0
77669,-95.2380952380951,4,2,1,55,0,0
78279,-95.2380952380951,4,2,99,5,0,0
78366,-95.2380952380951,4,2,1,55,0,0
79936,-95.2380952380951,4,2,5,55,0,0
80285,-95.2380952380951,4,2,1,55,0,0
85517,-95.2380952380951,4,2,5,55,0,0
85866,-95.2380952380951,4,2,1,55,0,0
91099,-74.0740740740741,4,2,3,70,0,1
111331,-74.0740740740741,4,2,4,70,0,1
111506,-74.0740740740741,4,2,3,70,0,1
113424,-86.9565217391304,4,2,5,60,0,0
113773,-86.9565217391304,4,2,1,60,0,0
119006,-86.9565217391304,4,2,5,60,0,0
119529,-86.9565217391304,4,2,99,5,0,0
119703,-86.9565217391304,4,2,1,60,0,0
121971,-86.9565217391304,4,2,99,5,0,0
122058,-86.9565217391304,4,2,1,60,0,0
122233,-86.9565217391304,4,2,99,5,0,0
122320,-86.9565217391304,4,2,1,60,0,0
122669,-86.9565217391304,4,2,99,5,0,0
122756,-86.9565217391304,4,2,1,60,0,0
122930,-86.9565217391304,4,2,99,5,0,0
123017,-86.9565217391304,4,2,1,60,0,0
124587,-86.9565217391304,4,2,5,60,0,0
124936,-86.9565217391304,4,2,1,60,0,0
130169,-86.9565217391304,4,2,5,60,0,0
130343,-86.9565217391304,4,2,1,60,0,0
133831,-86.9565217391304,4,2,99,5,0,0
134006,-86.9565217391304,4,2,1,60,0,0
134180,-86.9565217391304,4,2,1,5,0,0
134355,-86.9565217391304,4,2,1,60,0,0
134529,-86.9565217391304,4,2,99,5,0,0
134703,-86.9565217391304,4,2,1,60,0,0
134878,-86.9565217391304,4,2,99,5,0,0
135052,-105.263157894737,4,2,1,60,0,0
135576,-105.263157894737,4,2,99,5,0,0
135750,-95.2380952380951,4,2,5,65,0,0
136273,-95.2380952380951,4,2,99,5,0,0
136448,-95.2380952380951,4,2,1,65,0,0
141331,-95.2380952380951,4,2,5,65,0,0
141855,-95.2380952380951,4,2,1,65,0,0
146913,-95.2380952380951,4,2,5,65,0,0
147087,-95.2380952380951,4,2,1,65,0,0
152494,-95.2380952380951,4,2,5,65,0,0
152669,-95.2380952380951,4,2,1,65,0,0
155023,-95.2380952380951,4,2,99,5,0,0
155110,-95.2380952380951,4,2,1,65,0,0
155285,-285.714285714286,4,2,1,60,0,0
158076,-117.647058823529,4,2,1,40,0,0
180401,-74.074074074074,4,2,3,70,0,1
201157,-86.9565217391304,4,2,1,60,0,0
202378,-181.818181818181,4,2,1,60,0,0
203076,-175.438596491228,4,2,99,5,0,0

[Colours]
Combo1 : 255,204,51
Combo2 : 37,88,124
Combo3 : 255,228,132
Combo4 : 200,200,200
Combo5 : 252,150,1
Combo6 : 58,168,194
Combo7 : 209,64,9
Combo8 : 170,170,170

[HitObjects]
108,245,1797,5,2,0:2:0:0:
85,222,1971,1,2,0:2:0:0:
108,203,2145,1,2,0:2:0:0:
127,222,2320,1,2,0:2:0:0:
108,323,2494,6,0,P|127:347|157:355,1,63.7500012159348,2|2,0:2|0:2,0:0:0:0:
158,355,2843,1,2,0:2:0:0:
91,316,3017,2,0,P|60:320|38:342,1,63.7500012159348,2|0,0:2|0:0,0:0:0:0:
105,304,3366,2,0,P|117:275|108:245,1,63.7500012159348,2|0,0:2|0:0,0:0:0:0:
151,174,3715,2,0,P|106:160|60:178,2,97.4999955368044,2|2|2,0:2|0:2|0:2,0:0:0:0:
252,100,4587,5,2,0:2:0:0:
242,110,4762,1,2,0:2:0:0:
252,119,4936,1,2,0:2:0:0:
261,110,5110,1,2,0:2:0:0:
339,46,5285,2,0,P|369:37|398:49,1,63.7500012159348,2|2,0:2|0:2,0:0:0:0:
450,108,5634,1,2,0:2:0:0:
450,108,5808,1,0,0:0:0:0:
336,160,5983,6,0,P|366:169|395:157,1,63.7500012159348,2|0,0:2|0:0,0:0:0:0:
496,227,6331,2,0,P|488:196|463:177,1,63.7500012159348,2|0,0:2|0:0,0:0:0:0:
476,55,6680,2,0,P|453:76|449:107,1,63.7500012159348,2|0,0:2|0:0,0:0:0:0:
411,225,7029,1,2,0:2:0:0:
456,344,7378,5,6,0:2:0:0:
479,321,7552,1,2,0:2:0:0:
456,302,7727,1,2,0:2:0:0:
437,321,7901,1,2,0:2:0:0:
371,349,8076,6,0,P|340:358|311:348,1,63.7500012159348,2|0,0:2|0:0,0:0:0:0:
311,348,8424,1,2,0:2:0:0:
384,339,8599,2,0,P|418:307|465:313,2,97.4999955368044,2|2|2,0:2|0:2|0:2,0:0:0:0:
312,281,9645,2,0,P|252:265|228:208,1,127.50000243187,2|0,0:2|0:0,0:0:0:0:
224,293,10169,5,2,0:2:0:0:
234,303,10343,1,2,0:2:0:0:
224,312,10517,1,2,0:2:0:0:
215,303,10692,1,2,0:2:0:0:
156,255,10866,2,0,P|124:252|97:267,1,63.7500012159348,2|2,0:2|0:2,0:0:0:0:
56,329,11215,1,2,0:2:0:0:
56,329,11390,1,2,0:2:0:0:
116,211,11564,6,0,P|129:239|156:255,1,63.7500012159348,2|0,0:2|0:0,0:0:0:0:
196,360,11913,2,0,P|214:334|214:302,1,63.7500012159348,2|0,0:2|0:0,0:0:0:0:
286,215,12262,2,0,P|254:213|227:228,2,63.7500012159348,2|2|2,0:2|0:2|0:2,0:0:0:0:
385,241,12959,5,6,0:2:0:0:
408,218,13134,1,2,0:2:0:0:
385,199,13308,1,2,0:2:0:0:
366,218,13483,1,2,0:2:0:0:
387,128,13657,2,0,P|403:100|431:86,2,63.7500012159348,2|2|2,0:2|0:2|0:2,0:0:0:0:
385,255,14355,6,0,P|381:288|355:308,1,67.4999979400635,2|2,0:2|0:2,0:0:0:0:
384,240,14878,6,0,P|326:256|282:213,1,127.50000243187,2|0,0:2|0:0,0:0:0:0:
398,228,15401,2,0,P|429:216|459:229,1,63.7500012159348,2|2,0:2|0:2,0:0:0:0:
433,321,15750,1,2,0:2:0:0:
419,304,15924,1,2,0:2:0:0:
438,302,16099,1,2,0:2:0:0:
397,228,16273,2,0,P|426:216|456:226,2,63.7500012159348,2|0|2,0:2|0:0|0:2,0:0:0:0:
342,177,16971,1,2,0:2:0:0:
329,100,17145,6,0,P|335:68|362:48,1,67.4999979400635,2|2,0:2|0:2,0:0:0:0:
361,48,17669,1,0,0:0:0:0:
262,58,17843,2,0,P|217:74|174:54,1,97.4999955368044,2|2,0:2|0:2,0:0:0:0:
46,16,18541,53,6,0:2:0:0:
89,71,18715,1,2,0:2:0:0:
87,141,18890,1,2,0:2:0:0:
59,204,19064,2,0,P|36:225|5:232,1,63.7500012159348,2|0,0:2|0:0,0:0:0:0:
132,202,19413,5,2,0:2:0:0:
191,238,19587,1,2,0:2:0:0:
225,299,19762,2,0,P|230:329|214:356,1,63.7500012159348,2|0,0:2|0:0,0:0:0:0:
266,235,20110,1,2,0:2:0:0:
305,176,20285,1,2,0:2:0:0:
315,106,20459,2,0,P|303:76|277:58,1,63.7500012159348,2|0,0:2|0:0,0:0:0:0:
374,151,20808,1,2,0:2:0:0:
423,100,20983,2,0,P|434:70|460:52,1,63.7500012159348,2|0,0:2|0:0,0:0:0:0:
374,151,21331,5,6,0:2:0:0:
346,215,21506,1,2,0:2:0:0:
354,284,21680,1,2,0:2:0:0:
398,336,21855,2,0,P|426:352|458:351,1,63.7500012159348,2|0,0:2|0:0,0:0:0:0:
354,284,22203,1,6,0:2:0:0:
308,337,22378,2,0,P|280:352|248:351,1,63.7500012159348,2|0,0:2|0:0,0:0:0:0:
346,215,22727,5,6,0:2:0:0:
392,162,22901,2,0,P|419:146|451:147,1,63.7500012159348,2|0,0:2|0:0,0:0:0:0:
324,145,23250,1,6,0:2:0:0:
278,92,23424,2,0,P|250:76|218:77,1,63.7500012159348,2|0,0:2|0:0,0:0:0:0:
346,79,23773,2,0,P|373:63|405:64,1,63.7500012159348,2|0,0:2|0:0,0:0:0:0:
346,214,24122,6,0,P|297:254|235:248,1,127.50000243187,6|0,0:2|0:0,0:0:0:0:
296,319,24645,2,0,P|251:302|227:261,1,97.4999955368044,2|0,0:2|0:0,0:0:0:0:
182,205,25169,1,2,0:2:0:0:
206,331,25343,2,0,P|199:297|217:267,1,67.4999979400635,2|0,0:2|0:0,0:0:0:0:
124,149,25866,6,0,P|104:145|90:131,1,39.3749987983704,2|0,0:2|3:0,3:0:0:0:
9,128,26215,2,0,P|40:145|74:137,1,73.1249966526033,2|0,0:2|0:0,0:0:0:0:
90,132,26564,2,0,P|61:167|65:214,1,95.6250018239022,2|0,0:2|0:0,0:0:0:0:
42,312,26913,6,0,P|94:279|152:301,1,127.50000243187,6|0,0:2|0:0,0:0:0:0:
259,353,27436,2,0,P|228:317|236:270,1,97.4999955368044,2|0,0:2|0:0,0:0:0:0:
193,211,27959,1,2,0:2:0:0:
298,297,28134,2,0,P|329:285|345:255,1,67.4999979400635,2|0,0:2|0:0,0:0:0:0:
390,202,28657,6,0,P|405:215|413:233,1,39.3749987983704,2|0,0:2|0:0,0:0:0:0:
388,189,29006,2,0,P|356:171|321:177,1,73.1249966526033,2|0,0:2|0:0,0:0:0:0:
390,202,29355,2,0,P|413:166|402:102,1,95.6250018239022,2|0,0:2|0:0,0:0:0:0:
466,49,29703,6,0,P|403:28|342:56,1,127.50000243187,6|0,0:2|0:0,0:0:0:0:
225,154,30227,2,0,P|266:131|279:85,1,97.4999955368044,2|0,0:2|0:0,0:0:0:0:
347,124,30750,1,2,0:2:0:0:
283,13,30924,2,0,P|219:9|162:35,1,127.50000243187,2|0,0:2|0:0,0:0:0:0:
67,92,31448,1,2,0:2:0:0:
50,202,31622,2,0,P|44:171|21:149,1,63.7500012159348,2|0,0:2|0:0,0:0:0:0:
140,213,31971,2,0,P|116:234|111:265,1,63.7500012159348,2|0,0:2|0:0,0:0:0:0:
29,343,32494,6,0,P|59:334|90:339,1,63.7500012159348,2|0,0:2|0:0,0:0:0:0:
105,335,32756,2,0,P|135:343|166:338,1,63.7500012159348,2|0,0:2|0:0,0:0:0:0:
179,329,33017,1,2,0:2:0:0:
328,333,33192,2,0,P|298:341|267:336,1,63.7500012159348,2|0,0:2|0:0,0:0:0:0:
341,325,33453,2,0,P|387:313|433:327,1,95.6250018239022,2|0,0:2|0:0,0:0:0:0:
505,210,33890,6,0,P|482:233|477:264,1,63.7500012159348,2|0,0:2|0:0,0:0:0:0:
421,179,34238,2,0,P|416:148|393:125,1,63.7500012159348,2|0,0:2|0:0,0:0:0:0:
332,210,34587,6,0,P|338:194|349:182,1,33.7499989700318,2|0,0:2|0:0,0:0:0:0:
392,247,34936,2,0,P|403:259|409:274,1,33.7499989700318,2|0,0:2|0:0,0:0:0:0:
451,348,35285,6,0,P|452:285|486:232,1,127.50000243187,6|0,0:2|0:0,0:0:0:0:
409,275,35808,1,2,0:2:0:0:
419,188,35983,2,0,P|415:139|388:100,1,97.4999955368044,2|0,0:2|0:0,0:0:0:0:
502,22,36506,2,0,P|461:39|398:17,1,101.249996910095,2|0,0:2|0:0,0:0:0:0:
284,46,37203,6,0,P|302:37|321:42,1,39.3749987983704,2|0,0:2|0:0,0:0:0:0:
269,52,37552,2,0,P|236:36|201:42,1,73.1249966526033,2|0,0:2|0:0,0:0:0:0:
129,31,37901,1,2,0:2:0:0:
226,110,38076,6,0,P|199:141|232:280,1,191.250003647804,2|0,0:2|0:0,0:0:0:0:
152,239,38773,2,0,P|120:241|91:228,1,63.7500012159348,2|0,0:2|0:0,0:0:0:0:
138,165,39122,1,2,0:2:0:0:
226,275,39296,2,0,P|244:303|247:336,1,67.4999979400635,2|0,0:2|0:0,0:0:0:0:
323,311,39820,6,0,P|340:319|359:316,1,39.3749987983704,2|0,0:2|0:0,0:0:0:0:
323,311,40169,2,0,P|359:315|385:345,1,73.1249966526033,2|0,0:2|0:0,0:0:0:0:
323,311,40517,2,0,P|366:300|391:250,1,95.6250018239022,0|0,0:1|0:0,0:0:0:0:
465,230,40866,6,0,P|401:231|331:173,1,142.49999619484,2|0,0:2|0:0,0:0:0:0:
169,170,41390,2,0,P|235:176|267:117,1,142.49999619484,2|0,0:2|0:0,0:0:0:0:
429,94,41913,2,0,P|388:53|352:99,1,131.249995994568,2|0,0:2|0:0,0:0:0:0:
442,105,42959,2,0,P|471:77|465:45,1,67.4999979400635,2|0,0:2|0:0,0:0:0:0:
423,178,43657,5,2,0:2:0:0:
409,195,43831,1,2,0:2:0:0:
428,197,44006,1,2,0:2:0:0:
411,268,44180,2,0,P|412:302|394:323,1,63.7500012159348,2|0,0:2|0:0,0:0:0:0:
464,362,44529,1,2,0:2:0:0:
336,335,44703,2,0,P|362:318|393:323,1,63.7500012159348,2|0,0:2|0:0,0:0:0:0:
316,335,45052,6,0,P|291:351|260:347,1,63.000000769043,2|0,0:2|0:0,0:0:0:0:
336,334,45750,6,0,P|337:271|307:215,1,128.249998434448,6|0,0:2|0:0,0:0:0:0:
325,139,46448,38,0,L|262:149,2,63.7500012159348,6|0|0,3:2|1:0|1:0,0:0:0:0:
395,125,46971,1,2,3:2:0:0:
381,55,47145,1,10,1:2:0:0:
395,125,47320,1,2,0:2:0:0:
409,195,47494,1,2,3:2:0:0:
325,139,47669,38,0,L|262:149,1,63.7500012159348,2|0,3:2|1:0,0:0:0:0:
409,195,48017,2,0,L|472:205,1,63.7500012159348,2|0,3:2|1:0,0:0:0:0:
325,139,48366,2,0,L|262:149,1,63.7500012159348,2|8,3:2|1:2,0:0:0:0:
409,195,48715,2,0,L|253:219,1,157.499995193482,2|2,0:2|0:2,0:0:0:0:
226,318,49238,6,0,L|289:328,1,63.7500012159348,4|0,3:2|0:0,0:0:0:0:
219,314,49587,2,0,L|156:304,1,63.7500012159348,0|0,1:0|3:0,0:0:0:0:
16,276,49936,1,10,1:2:0:0:
86,290,50110,1,2,0:2:0:0:
156,304,50285,1,2,3:2:0:0:
226,318,50459,1,2,3:2:0:0:
293,246,50634,6,0,L|356:236,1,63.7500012159348,2|0,1:2|3:0,0:0:0:0:
349,316,50983,2,0,L|412:326,1,63.7500012159348,2|0,1:2|3:0,0:0:0:0:
293,246,51331,6,0,L|356:236,1,63.7500012159348,10|0,1:2|0:0,0:0:0:0:
354,160,51680,2,0,L|417:170,1,63.7500012159348,2|0,3:2|0:0,0:0:0:0:
270,104,52029,38,0,L|207:114,2,63.7500012159348,4|0|0,3:2|0:0|1:0,0:0:0:0:
340,90,52552,1,2,3:2:0:0:
354,160,52727,1,10,1:2:0:0:
340,90,52901,1,2,0:2:0:0:
326,20,53076,1,2,1:2:0:0:
270,104,53250,38,0,L|207:114,1,63.7500012159348,2|0,3:2|1:0,0:0:0:0:
68,62,53599,2,0,L|131:72,1,63.7500012159348,2|0,3:2|1:0,0:0:0:0:
270,104,53948,2,0,L|207:114,1,63.7500012159348,2|8,3:2|1:2,0:0:0:0:
326,20,54296,2,0,L|481:44,1,157.499995193482,2|2,1:2|0:2,0:0:0:0:
493,149,54820,6,0,L|430:159,1,63.7500012159348,4|0,3:2|1:0,0:0:0:0:
353,172,55169,2,0,L|416:162,1,63.7500012159348,0|0,1:0|3:0,0:0:0:0:
381,312,55517,1,10,1:2:0:0:
367,242,55692,1,2,0:2:0:0:
353,172,55866,1,2,3:2:0:0:
339,102,56041,1,2,3:2:0:0:
232,42,56215,6,0,L|169:52,1,63.7500012159348,2|0,1:2|3:0,0:0:0:0:
123,129,56564,2,0,L|60:119,1,63.7500012159348,2|0,1:2|3:0,0:0:0:0:
208,128,56913,1,10,1:2:0:0:
222,198,57087,1,2,0:2:0:0:
272,269,57262,2,0,L|209:279,1,63.7500012159348,2|0,3:2|0:0,0:0:0:0:
20,250,57610,6,0,L|208:279,1,191.250003647804,6|0,3:2|0:0,0:0:0:0:
370,324,58308,1,10,1:2:0:0:
300,338,58483,1,2,0:2:0:0:
230,352,58657,1,2,3:2:0:0:
160,366,58831,1,2,3:2:0:0:
35,313,59006,6,0,L|98:303,1,63.7500012159348,2|0,1:2|3:0,0:0:0:0:
168,249,59355,1,0,1:0:0:0:
166,155,59529,2,0,L|229:165,1,63.7500012159348,0|8,3:0|1:2,0:0:0:0:
168,249,59878,2,0,L|231:259,1,63.7500012159348,2|0,1:2|3:0,0:0:0:0:
331,236,60227,1,2,0:2:0:0:
419,292,60401,22,0,L|229:258,1,191.250003647804,6|2,3:2|3:2,0:0:0:0:
331,236,61099,2,0,L|457:213,1,127.50000243187,10|0,1:2|3:0,0:0:0:0:
419,292,61622,1,2,3:2:0:0:
331,236,61796,2,0,L|268:226,1,63.7500012159348,2|0,1:2|3:0,0:0:0:0:
335,157,62145,2,0,L|398:147,1,63.7500012159348,2|0,1:2|3:0,0:0:0:0:
268,226,62494,2,0,L|205:216,1,63.7500012159348,10|0,1:2|0:0,0:0:0:0:
130,207,62843,1,2,3:2:0:0:
130,207,63017,1,2,1:2:0:0:
256,323,63192,6,0,L|381:300,1,127.50000243187,6|0,3:2|1:0,0:0:0:0:
452,281,63715,1,0,3:0:0:0:
268,226,63890,2,0,L|205:216,1,63.7500012159348,10|0,1:2|1:0,0:0:0:0:
130,207,64238,1,2,3:2:0:0:
17,143,64413,6,0,L|205:109,1,191.250003647804,2|2,3:2|1:2,0:0:0:0:
278,92,65110,1,2,3:2:0:0:
331,236,65285,2,0,L|268:226,1,63.7500012159348,10|0,1:2|1:0,0:0:0:0:
388,147,65634,2,0,L|325:157,1,63.7500012159348,2|0,3:2|0:0,0:0:0:0:
137,123,65983,6,0,L|325:157,1,191.250003647804,6|0,3:2|3:0,0:0:0:0:
205,181,66680,1,10,1:2:0:0:
135,195,66855,1,2,3:2:0:0:
72,273,67029,2,0,L|135:283,1,63.7500012159348,2|8,3:2|1:2,0:0:0:0:
209,292,67378,1,2,1:2:0:0:
72,273,67552,2,0,L|9:283,1,63.7500012159348,2|0,3:2|1:0,0:0:0:0:
82,178,67901,5,0,3:0:0:0:
82,178,67988,1,0,1:0:0:0:
82,178,68076,2,0,L|72:115,1,63.7500012159348,8|0,1:2|1:0,0:0:0:0:
54,26,68424,1,0,3:0:0:0:
320,32,68773,6,0,L|291:186,1,157.499995193482,6|2,3:2|1:2,0:0:0:0:
271,275,69296,1,2,3:2:0:0:
384,352,69471,2,0,L|369:274,1,78.7499975967408,8|0,1:0|1:0,0:0:0:0:
414,199,69820,1,10,3:1:0:0:
369,274,69994,2,0,L|397:119,1,157.499995193482,2|8,3:2|1:0,0:0:0:0:
468,34,70517,6,0,L|483:112,1,78.7499975967408,10|0,1:1|3:0,0:0:0:0:
414,199,70866,2,0,L|399:277,1,78.7499975967408,10|0,1:2|1:0,0:0:0:0:
455,353,71215,1,10,3:1:0:0:
309,348,71390,1,0,1:0:0:0:
309,348,71477,1,0,1:0:0:0:
309,348,71564,6,0,L|280:194,1,157.499995193482,14|10,3:1|1:1,0:0:0:0:
263,102,72087,1,0,3:0:0:0:
160,10,72262,2,0,L|145:88,1,78.7499975967408,0|0,1:0|1:0,0:0:0:0:
124,176,72610,1,10,3:1:0:0:
145,87,72785,2,0,L|173:242,1,157.499995193482,2|0,3:2|1:0,0:0:0:0:
280,193,73308,6,0,L|265:271,1,78.7499975967408,10|0,1:1|3:0,0:0:0:0:
90,313,73657,2,0,L|75:235,1,78.7499975967408,10|0,1:2|1:0,0:0:0:0:
173,242,74006,2,0,L|188:320,1,78.7499975967408,10|0,3:1|0:0,0:0:0:0:
156,170,74355,6,0,L|128:15,1,157.499995193482,6|10,3:2|1:1,0:0:0:0:
99,111,74878,1,2,3:2:0:0:
173,242,75052,2,0,L|188:320,1,78.7499975967408,8|0,1:2|1:0,0:0:0:0:
279,254,75401,1,10,3:1:0:0:
173,242,75576,6,0,L|201:87,1,157.499995193482,2|8,3:2|1:2,0:0:0:0:
288,40,76099,1,10,1:1:0:0:
367,97,76273,2,0,L|382:175,1,78.7499975967408,2|8,3:2|1:2,0:0:0:0:
279,254,76622,2,0,L|294:176,1,78.7499975967408,2|0,1:2|3:0,0:0:0:0:
472,182,76971,1,0,1:0:0:0:
472,182,77058,1,0,1:0:0:0:
472,182,77145,6,0,L|457:260,1,78.7499975967408,10|8,3:1|1:2,0:0:0:0:
428,340,77407,2,0,L|443:262,1,78.7499975967408,2|0,0:2|1:0,0:0:0:0:
431,267,77669,1,2,3:2:0:0:
382,175,77843,6,0,L|367:97,1,78.7499975967408,2|0,1:2|3:0,0:0:0:0:
368,16,78105,2,0,L|353:94,1,78.7499975967408,2|0,0:2|0:0,0:0:0:0:
341,91,78366,1,2,3:2:0:0:
294,176,78541,6,0,L|279:254,1,78.7499975967408,10|8,3:1|1:2,0:0:0:0:
225,143,78890,2,0,L|210:65,1,78.7499975967408,10|0,3:1|3:0,0:0:0:0:
64,160,79238,1,10,1:2:0:0:
22,244,79413,1,8,3:3:0:0:
73,322,79587,1,10,3:3:0:0:
166,316,79762,1,8,3:3:0:0:
333,370,79936,6,0,L|361:215,1,157.499995193482,6|8,3:2|1:1,0:0:0:0:
381,304,80459,1,2,3:2:0:0:
346,138,80634,2,0,L|361:216,1,78.7499975967408,10|0,1:2|1:0,0:0:0:0:
381,304,80983,1,10,3:1:0:0:
361,215,81157,2,0,L|389:60,1,157.499995193482,2|8,3:2|1:1,0:0:0:0:
457,1,81680,1,8,1:1:0:0:
389,60,81855,2,0,L|404:138,1,78.7499975967408,2|8,3:2|1:2,0:0:0:0:
490,197,82203,2,0,L|475:275,1,78.7499975967408,2|0,1:2|3:0,0:0:0:0:
333,370,82552,1,2,1:2:0:0:
333,370,82640,1,0,1:0:0:0:
333,370,82727,6,0,L|361:215,1,157.499995193482,6|8,3:2|1:1,0:0:0:0:
334,131,83250,1,0,3:0:0:0:
256,56,83424,2,0,L|241:134,1,78.7499975967408,10|0,1:2|1:0,0:0:0:0:
334,131,83773,1,10,3:3:0:0:
241,133,83948,6,0,L|213:288,1,157.499995193482,2|0,3:2|3:0,0:0:0:0:
129,367,84471,2,0,L|114:289,1,78.7499975967408,10|0,1:1|3:0,0:0:0:0:
318,287,84820,2,0,L|303:365,1,78.7499975967408,10|0,1:2|3:0,0:0:0:0:
213,288,85169,2,0,L|198:210,1,78.7499975967408,2|0,3:2|0:0,0:0:0:0:
226,55,85517,6,0,L|198:210,1,157.499995193482,6|8,3:2|1:1,0:0:0:0:
217,302,86041,1,2,3:2:0:0:
303,364,86215,2,0,L|318:286,1,78.7499975967408,8|0,1:2|1:0,0:0:0:0:
383,222,86564,1,2,3:2:0:0:
290,132,86738,6,0,L|318:287,1,157.499995193482,2|8,3:2|1:2,0:0:0:0:
303,364,87262,2,0,L|318:286,1,78.7499975967408,8|0,1:1|3:0,0:0:0:0:
290,132,87610,2,0,L|305:54,1,78.7499975967408,10|0,1:2|1:0,0:0:0:0:
388,20,87959,1,2,3:2:0:0:
498,30,88134,1,2,1:2:0:0:
498,30,88221,1,0,1:0:0:0:
498,30,88308,5,0,3:0:0:0:
422,162,88483,1,8,1:2:0:0:
346,294,88657,1,8,1:2:0:0:
424,338,88831,5,2,3:2:0:0:
348,206,89006,1,8,1:2:0:0:
269,309,89180,6,0,L|347:294,1,78.7499975967408,10|8,3:3|1:1,0:0:0:0:
84,216,89529,2,0,L|162:231,1,78.7499975967408,14|0,1:2|0:0,0:0:0:0:
269,309,89878,2,0,L|347:294,1,78.7499975967408,14|0,1:2|0:0,0:0:0:0:
432,345,90227,1,0,3:0:0:0:
432,345,90314,1,0,0:0:0:0:
432,345,90401,5,10,3:2:0:0:
346,294,90576,1,0,3:0:0:0:
348,206,90750,2,0,L|426:191,1,78.7499975967408,2|0,3:2|0:0,0:0:0:0:
448,34,91099,6,0,B|484:70|484:70|449:106,1,101.250000386238,6|0,3:2|0:0,0:0:0:0:
348,206,91448,2,0,B|311:242|311:242|275:207,1,101.250000386238,2|0,3:2|1:0,0:0:0:0:
197,81,91796,1,10,1:2:0:0:
294,51,91971,1,2,1:2:0:0:
366,122,92145,1,2,3:2:0:0:
357,300,92320,6,0,B|327:328|327:328|168:298,1,202.500000772476,2|10,3:2|3:1,0:0:0:0:
109,201,92843,1,0,1:0:0:0:
139,104,93017,1,2,3:2:0:0:
79,298,93192,5,10,1:1:0:0:
109,201,93366,1,2,1:2:0:0:
139,104,93541,2,0,B|175:68|175:68|211:103,1,101.250000386238,2|0,3:2|1:0,0:0:0:0:
388,34,93890,6,0,B|320:101|320:101|395:176,1,202.500000772476,14|2,3:1|1:2,0:0:0:0:
415,320,94413,2,0,B|450:284|450:284|414:248,1,101.250000386238,2|8,3:2|1:2,0:0:0:0:
273,278,94762,2,0,B|309:313|309:313|345:277,1,101.250000386238,2|0,1:2|3:0,0:0:0:0:
508,203,95110,6,0,B|478:231|478:231|319:201,1,202.500000772476,2|8,3:2|3:1,0:0:0:0:
179,275,95634,2,0,B|197:292|197:292|272:278,1,101.250000386238,10|0,1:1|3:0,0:0:0:0:
70,164,95983,2,0,B|145:176|145:176|157:199,1,101.250000386238,10|0,1:2|0:0,0:0:0:0:
182,368,96331,2,0,B|165:350|165:350|179:275,1,101.250000386238,10|0,3:1|0:0,0:0:0:0:
29,106,96680,6,0,B|20:155|20:155|71:164,1,101.250000386238,6|2,3:2|1:2,0:0:0:0:
179,274,97029,2,0,B|228:283|228:283|237:232,1,101.250000386238,2|0,3:2|0:0,0:0:0:0:
291,147,97378,1,10,1:2:0:0:
260,50,97552,1,2,1:2:0:0:
159,42,97727,1,2,3:2:0:0:
330,78,97901,6,0,B|348:61|348:61|423:75,1,101.250000386238,2|0,3:1|1:0,0:0:0:0:
489,231,98250,2,0,B|472:213|472:213|486:138,1,101.250000386238,10|0,3:1|1:0,0:0:0:0:
508,59,98599,1,2,3:2:0:0:
489,231,98773,5,8,1:2:0:0:
392,261,98948,1,2,1:2:0:0:
295,291,99122,2,0,B|259:327|259:327|294:363,1,101.250000386238,2|0,3:2|0:0,0:0:0:0:
473,354,99471,6,0,B|454:317|454:317|294:291,1,202.500000772476,6|2,3:1|1:2,0:0:0:0:
199,257,99994,1,2,3:2:0:0:
38,309,100169,2,0,B|56:326|56:326|131:312,1,101.250000386238,10|0,1:2|0:0,0:0:0:0:
202,169,100517,5,6,3:2:0:0:
133,16,100692,1,8,1:2:0:0:
66,153,100866,5,10,1:1:0:0:
18,258,101041,1,0,3:0:0:0:
86,351,101215,1,0,3:0:0:0:
199,339,101390,1,0,3:0:0:0:
347,208,101564,6,0,B|311:173|311:173|275:209,1,101.250000386238,14|0,1:1|1:0,0:0:0:0:
199,339,101913,2,0,B|234:303|234:303|198:267,1,101.250000386238,2|0,3:2|0:0,0:0:0:0:
6,140,102262,6,0,B|31:117|31:117|163:140|163:140|181:169,1,202.500000772476,4|8,3:2|3:1,0:0:0:0:
198,267,102785,1,0,1:0:0:0:
29,211,102959,2,0,B|47:194|47:194|122:208,1,101.250000386238,10|0,1:2|0:0,0:0:0:0:
116,296,103308,1,2,3:2:0:0:
199,339,103483,6,0,B|217:356|217:356|292:342,1,101.250000386238,2|0,3:2|1:0,0:0:0:0:
473,315,103831,2,0,B|455:332|455:332|380:318,1,101.250000386238,10|0,3:1|1:0,0:0:0:0:
432,178,104180,6,0,B|468:214|468:214|433:250,1,101.250000386238,2|8,3:2|1:2,0:0:0:0:
340,66,104529,2,0,B|351:88|351:88|426:100,1,101.250000386238,2|0,1:2|3:0,0:0:0:0:
509,109,104878,1,2,1:2:0:0:
340,66,105052,6,0,B|311:83|311:83|288:216|288:216|311:240,1,202.500000772476,6|0,3:2|1:0,0:0:0:0:
375,302,105576,1,0,3:0:0:0:
219,243,105750,2,0,B|236:226|236:226|311:240,1,101.250000386238,10|0,1:2|1:0,0:0:0:0:
392,216,106099,1,2,3:2:0:0:
461,134,106273,2,0,B|469:83|469:83|419:74,1,101.250000386238,2|0,3:2|1:0,0:0:0:0:
297,75,106622,2,0,B|246:66|246:66|255:15,1,101.250000386238,2|0,3:2|1:0,0:0:0:0:
261,190,106971,2,0,B|269:139|269:139|219:130,1,101.250000386238,2|8,3:2|1:1,0:0:0:0:
73,188,107320,2,0,B|103:159|103:159|262:190,1,202.500000772476,2|2,1:2|1:2,0:0:0:0:
362,91,107843,5,4,3:2:0:0:
431,244,108017,1,0,1:0:0:0:
370,324,108192,1,0,3:0:0:0:
268,324,108366,1,0,3:0:0:0:
168,193,108541,2,0,B|185:176|185:176|260:190,1,101.250000386238,8|0,1:1|0:0,0:0:0:0:
319,251,108890,1,0,3:0:0:0:
507,250,109064,2,0,B|477:221|477:221|318:252,1,202.500000772476,8|0,1:1|3:0,0:0:0:0:
268,324,109587,6,0,B|251:341|251:341|176:327,1,101.250000386238,10|0,3:1|3:0,0:0:0:0:
353,327,109936,2,0,B|370:344|370:344|445:330,1,101.250000386238,10|0,1:1|3:0,0:0:0:0:
319,252,110285,2,0,B|302:235|302:235|316:160,1,101.250000386238,2|0,3:2|3:0,0:0:0:0:
454,66,110634,5,6,3:1:0:0:
499,170,110808,1,0,3:0:0:0:
431,263,110983,1,2,3:2:0:0:
319,251,111157,1,2,3:2:0:0:
207,342,111331,5,8,1:2:0:0:
96,356,111506,2,0,B|79:339|79:339|93:264,1,101.250000386238,2|0,3:2|3:0,0:0:0:0:
26,207,111855,5,6,3:2:0:0:
85,50,112029,1,8,3:2:0:0:
185,36,112203,1,0,3:0:0:0:
257,108,112378,2,0,B|274:125|274:125|260:200,1,101.250000386238,2|0,3:2|3:0,0:0:0:0:
364,336,112727,1,10,3:2:0:0:
264,350,112901,1,0,3:0:0:0:
192,278,113076,2,0,B|175:261|175:261|189:186,1,101.250000386238,2|0,3:2|1:0,0:0:0:0:
22,248,113424,6,0,L|191:278,1,172.500003290176,4|0,3:2|3:0,0:0:0:0:
264,350,113948,1,2,1:2:0:0:
422,263,114122,2,0,L|337:278,1,86.2500016450882,8|0,1:2|0:0,0:0:0:0:
269,223,114471,1,2,3:2:0:0:
269,136,114645,1,2,3:2:0:0:
269,49,114820,2,0,L|353:33,1,86.2500016450882,10|8,1:1|3:1,0:0:0:0:
424,83,115169,1,2,1:2:0:0:
353,207,115343,6,0,L|269:223,1,86.2500016450882,2|8,3:2|1:2,0:0:0:0:
269,136,115692,2,0,L|184:120,1,86.2500016450882,2|0,1:2|3:0,0:0:0:0:
103,149,116041,1,2,1:2:0:0:
269,223,116215,6,0,L|299:54,1,172.500003290176,6|10,3:2|1:1,0:0:0:0:
444,153,116738,2,0,L|429:237,1,86.2500016450882,2|0,3:2|1:0,0:0:0:0:
346,338,117087,1,2,1:2:0:0:
269,293,117262,1,2,3:2:0:0:
192,248,117436,1,2,3:2:0:0:
99,287,117610,2,0,L|114:203,1,86.2500016450882,10|0,1:1|3:0,0:0:0:0:
37,157,117959,1,2,1:2:0:0:
192,248,118134,6,0,L|207:164,1,86.2500016450882,2|8,3:2|1:2,0:0:0:0:
269,293,118483,2,0,L|284:209,1,86.2500016450882,2|8,1:2|3:1,0:0:0:0:
278,130,118831,1,2,1:2:0:0:
462,209,119006,6,0,L|207:163,1,258.750004935265,6|0,3:2|0:0,0:0:0:0:
363,116,119703,2,0,L|278:131,1,86.2500016450882,8|0,1:2|0:0,0:0:0:0:
207,163,120052,1,0,3:0:0:0:
108,70,120227,2,0,L|362:115,1,258.750004935265,2|0,3:2|1:0,0:0:0:0:
193,55,120924,2,0,L|108:70,1,86.2500016450882,2|8,3:2|1:2,0:0:0:0:
207,163,121273,1,2,0:2:0:0:
284,208,121448,1,2,3:2:0:0:
361,253,121622,1,2,1:2:0:0:
448,131,121796,6,0,L|363:116,1,86.2500016450882,2|0,3:2|0:0,0:0:0:0:
349,116,122058,2,0,L|364:31,1,86.2500016450882,2|0,1:2|0:0,0:0:0:0:
376,25,122320,1,2,3:2:0:0:
327,194,122494,6,0,L|312:279,1,86.2500016450882,10|0,1:2|0:0,0:0:0:0:
312,292,122756,2,0,L|227:276,1,86.2500016450882,2|0,1:2|0:0,0:0:0:0:
222,265,123017,1,10,3:3:0:0:
327,194,123192,6,0,L|412:209,1,86.2500016450882,10|0,1:1|3:0,0:0:0:0:
252,181,123541,2,0,L|167:166,1,86.2500016450882,2|0,1:2|3:0,0:0:0:0:
58,33,123890,5,8,1:2:0:0:
83,133,124064,1,2,1:2:0:0:
110,233,124238,1,2,3:2:0:0:
137,333,124413,1,2,1:2:0:0:
297,364,124587,6,0,L|327:195,1,172.500003290176,4|8,3:2|3:1,0:0:0:0:
415,208,125110,1,2,1:2:0:0:
239,180,125285,2,0,L|254:96,1,86.2500016450882,10|0,1:2|0:0,0:0:0:0:
346,112,125634,1,2,3:2:0:0:
415,208,125808,2,0,L|400:292,1,86.2500016450882,2|8,1:2|1:1,0:0:0:0:
296,363,126157,2,0,L|281:279,1,86.2500016450882,2|0,3:2|0:0,0:0:0:0:
239,180,126506,2,0,L|224:96,1,86.2500016450882,2|8,3:2|1:2,0:0:0:0:
331,27,126855,2,0,L|346:111,1,86.2500016450882,2|0,1:2|3:0,0:0:0:0:
328,200,127203,1,2,0:2:0:0:
479,50,127378,6,0,L|225:95,1,258.750004935265,6|0,3:2|3:0,0:0:0:0:
66,26,128076,2,0,L|151:39,1,86.2500016450882,8|2,1:2|0:2,0:0:0:0:
224,95,128424,1,0,3:2:0:0:
224,182,128599,1,0,3:0:0:0:
224,269,128773,2,0,L|139:256,1,86.2500016450882,10|0,1:1|3:0,0:0:0:0:
90,175,129122,1,2,1:2:0:0:
90,175,129296,1,2,3:2:0:0:
224,95,129471,5,8,1:2:0:0:
224,182,129645,1,2,1:2:0:0:
224,269,129820,1,8,3:1:0:0:
24,215,130169,5,6,3:2:0:0:
124,242,130343,1,0,3:0:0:0:
224,269,130517,1,10,3:1:0:0:
324,294,130692,1,0,3:0:0:0:
470,196,130866,6,0,L|443:366,1,172.500003290176,8|0,1:2|3:0,0:0:0:0:
470,196,131390,2,0,L|443:25,1,172.500003290176,4|0,1:2|3:0,0:0:0:0:
419,128,131913,1,0,3:0:0:0:
419,128,132087,1,0,3:0:0:0:
254,3,132262,5,8,3:2:0:0:
227,103,132436,1,2,3:2:0:0:
167,170,132610,1,2,3:2:0:0:
185,239,132784,1,2,3:2:0:0:
256,288,132959,6,0,L|341:275,1,86.2500016450882,2|0,3:2|3:0,0:0:0:0:
430,259,133308,1,0,3:0:0:0:
430,259,133483,1,0,3:0:0:0:
256,288,133657,6,0,L|171:275,1,86.2500016450882,10|0,1:2|0:0,0:0:0:0:
256,192,134006,2,0,L|341:179,1,86.2500016450882,2|0,3:2|0:0,0:0:0:0:
171,83,134355,2,0,L|256:96,1,86.2500016450882,10|0,3:1|0:0,0:0:0:0:
256,192,134703,2,0,L|341:179,1,86.2500016450882,10|0,3:3|0:0,0:0:0:0:
411,49,135052,6,0,L|378:260,1,213.749994292259,14|0,3:1|0:0,0:0:0:0:
508,263,135750,6,0,L|274:299,1,236.249992790222,6|0,3:2|0:0,0:0:0:0:
119,323,136448,2,0,L|196:311,1,78.7499975967408,8|0,1:2|0:0,0:0:0:0:
275,299,136796,1,2,3:2:0:0:
119,323,136971,2,0,L|42:311,1,78.7499975967408,2|2,3:2|1:2,0:0:0:0:
140,246,137320,2,0,L|217:234,1,78.7499975967408,8|2,3:1|1:2,0:0:0:0:
296,222,137669,1,2,1:2:0:0:
62,234,137843,2,0,L|139:246,1,78.7499975967408,10|0,1:2|0:0,0:0:0:0:
296,222,138192,2,0,L|219:234,1,78.7499975967408,2|0,3:2|0:0,0:0:0:0:
353,160,138541,6,0,L|508:183,1,157.499995193482,6|2,3:2|1:2,0:0:0:0:
428,92,139064,1,0,3:0:0:0:
272,68,139238,2,0,L|195:80,1,78.7499975967408,8|0,1:2|0:0,0:0:0:0:
117,92,139587,1,2,3:2:0:0:
194,80,139762,2,0,L|271:68,1,78.7499975967408,2|2,3:2|1:0,0:0:0:0:
197,160,140110,2,0,L|274:148,1,78.7499975967408,10|10,3:1|1:3,0:0:0:0:
353,160,140459,1,2,3:2:0:0:
506,105,140634,6,0,L|429:93,1,78.7499975967408,10|0,1:2|0:0,0:0:0:0:
353,160,140983,2,0,L|430:172,1,78.7499975967408,10|0,3:1|0:0,0:0:0:0:
275,148,141331,6,0,L|120:171,1,157.499995193482,6|0,3:2|3:0,0:0:0:0:
40,184,141855,1,0,0:0:0:0:
190,244,142029,2,0,L|267:256,1,78.7499975967408,8|0,1:2|0:0,0:0:0:0:
346,268,142378,1,2,3:2:0:0:
256,335,142552,2,0,L|333:347,1,78.7499975967408,2|2,3:2|1:0,0:0:0:0:
190,244,142901,6,0,L|113:256,1,78.7499975967408,10|0,1:1|3:0,0:0:0:0:
34,268,143250,1,0,3:2:0:0:
179,323,143424,2,0,L|256:335,1,78.7499975967408,8|0,1:2|0:0,0:0:0:0:
268,256,143773,2,0,L|345:268,1,78.7499975967408,0|0,3:2|0:0,0:0:0:0:
436,129,144122,6,0,L|281:152,1,157.499995193482,6|0,3:2|1:0,0:0:0:0:
201,165,144645,1,0,3:0:0:0:
179,323,144820,2,0,L|256:335,1,78.7499975967408,8|0,1:2|0:0,0:0:0:0:
335,347,145169,1,2,3:2:0:0:
190,244,145343,2,0,L|113:256,1,78.7499975967408,10|10,1:2|3:1,0:0:0:0:
7,368,145692,5,8,1:2:0:0:
34,268,145866,1,8,3:3:0:0:
61,168,146041,1,0,3:0:0:0:
253,52,146215,5,8,3:2:0:0:
280,152,146390,1,8,3:3:0:0:
307,252,146564,1,8,3:3:0:0:
484,116,146913,5,6,3:2:0:0:
382,134,147087,1,2,0:2:0:0:
280,152,147262,2,0,L|203:165,1,78.7499975967408,10|0,3:1|0:0,0:0:0:0:
34,272,147610,2,0,L|111:284,1,78.7499975967408,10|0,1:2|0:0,0:0:0:0:
256,352,147959,5,2,3:2:0:0:
356,325,148134,2,0,L|433:313,1,78.7499975967408,2|2,3:2|1:0,0:0:0:0:
301,191,148483,5,10,3:1:0:0:
199,173,148657,1,2,1:2:0:0:
98,154,148831,1,2,3:2:0:0:
301,191,149006,5,10,1:2:0:0:
403,209,149180,1,2,1:2:0:0:
403,209,149267,1,2,1:2:0:0:
403,209,149355,2,0,L|480:220,1,78.7499975967408,2|2,3:2|1:2,0:0:0:0:
278,347,149703,6,0,L|302:191,1,157.499995193482,6|2,3:2|1:2,0:0:0:0:
274,102,150227,1,0,3:0:0:0:
114,59,150401,2,0,L|102:136,1,78.7499975967408,10|0,3:2|0:0,0:0:0:0:
202,164,150750,1,2,3:2:0:0:
281,109,150924,1,2,3:2:0:0:
281,109,151012,1,2,1:2:0:0:
281,109,151099,6,0,L|437:133,1,157.499995193482,10|0,1:1|3:0,0:0:0:0:
486,207,151622,1,0,3:0:0:0:
485,73,151796,5,8,1:2:0:0:
383,91,151971,1,2,1:2:0:0:
281,109,152145,2,0,L|203:121,1,78.7499975967408,10|0,3:1|0:0,0:0:0:0:
33,25,152494,5,6,3:2:0:0:
60,125,152669,1,2,3:2:0:0:
87,225,152843,1,10,3:1:0:0:
114,325,153017,2,0,L|191:337,1,78.7499975967408,2|8,3:2|1:2,0:0:0:0:
327,282,153366,5,2,1:2:0:0:
354,182,153541,1,2,3:2:0:0:
381,82,153715,2,0,L|225:57,1,157.499995193482,14|0,3:1|3:0,0:0:0:0:
137,113,154238,2,0,L|60:125,1,78.7499975967408,2|0,1:2|3:0,0:0:0:0:
226,58,154587,2,0,L|303:70,1,78.7499975967408,10|0,1:1|0:0,0:0:0:0:
381,82,154849,2,0,L|369:159,1,78.7499975967408,2|0,1:2|0:0,0:0:0:0:
355,234,155110,1,2,3:2:0:0:
497,340,155285,6,0,L|441:23,1,314.999990386963,6|0,3:2|0:0,0:0:0:0:
33,33,158076,6,0,P|36:65|60:85,1,63.7500012159348,2|2,0:2|0:2,0:0:0:0:
70,156,158424,2,0,P|98:168|128:158,1,63.7500012159348,2|2,0:2|0:2,0:0:0:0:
194,184,158773,2,0,P|218:165|225:134,1,63.7500012159348,2|2,0:2|0:2,0:0:0:0:
273,83,159122,1,2,0:2:0:0:
194,184,159296,2,0,P|160:249|183:306,2,127.50000243187,2|2|2,0:2|0:2|0:2,0:0:0:0:
264,191,160169,1,2,0:2:0:0:
333,180,160343,1,2,0:2:0:0:
384,131,160517,2,0,P|407:110|416:80,1,63.7500012159348,2|0,0:2|0:0,0:0:0:0:
469,194,160866,6,0,P|477:224|501:244,1,63.7500012159348,2|0,0:2|0:0,0:0:0:0:
498,315,161215,1,2,0:2:0:0:
370,250,161390,2,0,P|408:200|474:195,1,127.50000243187,2|0,0:2|0:0,0:0:0:0:
508,135,161913,1,2,0:2:0:0:
370,250,162087,2,0,P|331:200|265:195,1,127.50000243187,2|0,0:2|0:0,0:0:0:0:
141,200,162610,6,0,P|173:198|196:177,1,63.7500012159348,2|0,0:2|0:0,0:0:0:0:
124,207,162959,2,0,P|110:235|117:266,1,63.7500012159348,2|0,0:2|0:0,0:0:0:0:
126,188,163308,2,0,P|108:161|78:152,1,63.7500012159348,2|0,0:2|0:0,0:0:0:0:
33,27,163657,6,0,P|51:54|81:63,1,63.7500012159348,6|2,0:2|0:2,0:0:0:0:
145,87,164006,1,2,0:2:0:0:
210,62,164180,1,2,0:2:0:0:
265,20,164355,2,0,P|296:11|327:18,1,63.7500012159348,2|2,0:2|0:2,0:0:0:0:
394,39,164703,1,2,0:2:0:0:
482,141,164878,2,0,P|458:213|489:272,2,127.50000243187,2|2|0,0:2|0:2|0:0,0:0:0:0:
421,104,165750,1,2,0:2:0:0:
353,120,165924,1,2,0:2:0:0:
300,166,166099,2,0,P|291:197|303:226,1,63.7500012159348,2|0,0:2|0:0,0:0:0:0:
422,342,166448,6,0,P|400:319|369:315,1,63.7500012159348,2|0,0:2|0:0,0:0:0:0:
300,299,166796,1,2,0:2:0:0:
422,342,166971,2,0,P|413:279|444:225,1,127.50000243187,2|0,0:2|0:0,0:0:0:0:
467,159,167494,2,0,P|464:113|444:92,1,63.7500012159348,2|0,0:2|0:0,0:0:0:0:
444,226,167843,2,0,P|377:229|332:192,1,127.50000243187,2|0,0:2|0:0,0:0:0:0:
297,131,168366,1,2,0:2:0:0:
282,62,168541,2,0,P|294:32|321:16,1,63.7500012159348,2|0,0:2|0:0,0:0:0:0:
221,112,168890,2,0,P|209:82|182:66,1,63.7500012159348,2|0,0:2|0:0,0:0:0:0:
32,160,169238,6,0,P|43:130|70:114,2,63.7500012159348,6|2|2,0:2|0:2|0:2,0:0:0:0:
39,230,169762,1,2,0:2:0:0:
80,284,169936,2,0,P|109:298|140:291,1,63.7500012159348,2|0,0:2|0:0,0:0:0:0:
202,259,170285,1,2,0:2:0:0:
258,219,170459,2,0,P|284:200|315:201,1,63.7500012159348,2|0,0:2|0:0,0:0:0:0:
338,134,170808,2,0,P|366:146|381:174,1,63.7500012159348,2|0,0:2|0:0,0:0:0:0:
493,122,171157,2,0,P|478:149|449:162,1,63.7500012159348,2|0,0:2|0:0,0:0:0:0:
258,219,171506,2,0,P|284:200|315:201,1,63.7500012159348,2|0,0:2|0:0,0:0:0:0:
449,273,171855,6,0,P|426:195|460:155,1,127.50000243187,6|0,0:2|0:0,0:0:0:0:
459,92,172378,1,2,0:2:0:0:
414,37,172552,1,2,0:2:0:0:
345,21,172727,2,0,P|306:25|283:46,1,63.7500012159348,2|0,0:2|0:0,0:0:0:0:
231,81,173076,1,2,0:2:0:0:
116,143,173250,2,0,P|54:153|0:123,2,127.50000243187,2|2|2,0:2|0:2|0:2,0:0:0:0:
186,138,174122,1,2,0:2:0:0:
250,160,174296,2,0,P|298:201|308:263,1,127.50000243187,2|0,0:2|0:0,0:0:0:0:
409,151,174820,6,0,P|418:89|466:48,1,127.50000243187,6|2,0:2|0:2,0:0:0:0:
349,50,175343,2,0,P|407:27|465:48,1,127.50000243187,2|2,0:2|0:2,0:0:0:0:
491,113,175866,1,2,0:2:0:0:
484,183,176041,2,0,P|425:205|367:184,1,127.50000243187,2|0,0:2|0:0,0:0:0:0:
207,104,176564,6,0,P|237:97|264:113,1,63.7500012159348,2|0,0:2|0:0,0:0:0:0:
316,235,176913,2,0,P|295:211|294:180,1,63.7500012159348,2|0,0:2|0:0,0:0:0:0:
376,73,177262,2,0,P|366:102|339:118,1,63.7500012159348,2|0,0:2|0:0,0:0:0:0:
294,136,177610,5,6,0:2:0:0:
26,78,179703,5,2,3:2:0:0:
26,78,180401,6,0,B|62:42|62:42|98:77,1,101.250000386238,6|0,3:2|0:0,0:0:0:0:
226,82,180750,2,0,B|262:119|262:119|227:155,1,101.250000386238,2|0,3:2|1:0,0:0:0:0:
152,289,181099,1,10,1:2:0:0:
218,363,181273,1,2,1:2:0:0:
318,337,181448,1,2,3:2:0:0:
465,357,181622,6,0,B|437:327|437:327|467:168,1,202.500000772476,2|10,3:2|3:1,0:0:0:0:
400,74,182145,1,0,1:0:0:0:
298,77,182320,1,2,1:2:0:0:
501,70,182494,5,10,1:2:0:0:
400,74,182669,1,2,1:2:0:0:
298,77,182843,2,0,B|275:88|275:88|263:163,1,101.250000386238,2|0,3:2|1:0,0:0:0:0:
154,343,183192,6,0,B|222:276|222:276|166:184,1,202.500000772476,6|2,1:1|3:2,0:0:0:0:
62,28,183715,2,0,B|27:64|27:64|63:100,1,101.250000386238,2|8,3:2|1:1,0:0:0:0:
204,70,184064,2,0,B|168:35|168:35|132:71,1,101.250000386238,2|0,1:2|3:0,0:0:0:0:
202,258,184413,6,0,B|174:228|174:228|204:69,1,202.500000772476,2|0,3:2|3:0,0:0:0:0:
369,22,184936,2,0,B|351:39|351:39|276:25,1,101.250000386238,2|0,1:1|3:0,0:0:0:0:
453,79,185285,2,0,B|470:97|470:97|456:172,1,101.250000386238,10|0,1:2|0:0,0:0:0:0:
369,22,185634,2,0,B|346:33|346:33|334:108,1,101.250000386238,10|0,3:1|0:0,0:0:0:0:
287,322,185983,6,0,B|336:331|336:331|345:280,1,101.250000386238,6|2,3:2|1:2,0:0:0:0:
455,172,186331,2,0,B|464:123|464:123|413:114,1,101.250000386238,2|0,3:2|0:0,0:0:0:0:
252,81,186680,1,10,1:2:0:0:
205,171,186855,1,2,1:2:0:0:
271,248,187029,1,2,3:2:0:0:
252,81,187203,6,0,B|234:98|234:98|159:84,1,101.250000386238,2|0,3:2|1:0,0:0:0:0:
71,200,187552,2,0,B|54:182|54:182|68:107,1,101.250000386238,10|0,3:1|3:0,0:0:0:0:
97,24,187901,1,2,3:2:0:0:
183,174,188076,5,8,1:2:0:0:
244,253,188250,1,2,0:2:0:0:
305,333,188424,2,0,B|327:321|327:321|339:246,1,101.250000386238,2|0,3:2|0:0,0:0:0:0:
127,270,188773,6,0,B|146:307|146:307|306:333,1,202.500000772476,14|2,3:1|1:2,0:0:0:0:
410,314,189296,1,2,3:2:0:0:
478,184,189471,2,0,B|429:175|429:175|420:226,1,101.250000386238,8|0,1:2|0:0,0:0:0:0:
306,333,189820,5,6,3:2:0:0:
237,180,189994,1,8,1:2:0:0:
110,125,190169,5,2,3:2:0:0:
161,19,190343,1,8,3:1:0:0:
275,12,190517,1,0,3:0:0:0:
338,106,190692,1,0,3:0:0:0:
235,252,190866,6,0,B|200:216|200:216|236:180,1,101.250000386238,14|0,3:1|3:0,0:0:0:0:
410,107,191215,2,0,B|374:142|374:142|338:106,1,101.250000386238,2|0,3:2|0:0,0:0:0:0:
61,150,191564,6,0,B|86:127|86:127|218:150|218:150|236:179,1,202.500000772476,6|0,3:2|3:0,0:0:0:0:
316,198,192087,1,0,1:0:0:0:
244,58,192262,2,0,B|226:75|226:75|151:61,1,101.250000386238,10|0,1:2|0:0,0:0:0:0:
43,41,192610,1,2,3:2:0:0:
59,222,192785,6,0,B|24:186|24:186|60:150,1,101.250000386238,2|0,3:2|1:0,0:0:0:0:
188,224,193134,2,0,B|224:260|224:260|189:296,1,101.250000386238,10|0,3:1|0:0,0:0:0:0:
17,298,193483,6,0,B|28:320|28:320|103:332,1,101.250000386238,2|8,3:2|1:2,0:0:0:0:
188,224,193831,2,0,B|205:207|205:207|280:221,1,101.250000386238,2|0,1:2|3:0,0:0:0:0:
368,241,194180,1,2,1:2:0:0:
309,47,194355,6,0,B|280:64|280:64|257:197|257:197|280:221,1,202.500000772476,6|0,3:2|1:0,0:0:0:0:
304,305,194878,1,0,3:0:0:0:
454,275,195052,2,0,B|443:253|443:253|368:240,1,101.250000386238,10|0,1:2|1:0,0:0:0:0:
280,221,195401,1,2,3:2:0:0:
220,130,195576,2,0,B|228:81|228:81|279:89,1,101.250000386238,2|0,3:2|1:0,0:0:0:0:
410,40,195924,2,0,B|461:48|461:48|453:99,1,101.250000386238,10|0,3:1|1:0,0:0:0:0:
454,275,196273,2,0,B|443:253|443:253|368:240,1,101.250000386238,2|8,3:2|1:2,0:0:0:0:
220,130,196622,2,0,B|249:160|249:160|218:319,1,202.500000772476,2|0,1:2|1:0,0:0:0:0:
0,350,197145,5,6,3:2:0:0:
72,198,197320,1,0,3:0:0:0:
173,194,197494,1,2,3:2:0:0:
238,272,197669,1,0,3:0:0:0:
374,355,197843,6,0,B|395:344|395:344|408:269,1,101.250000386238,8|0,1:1|0:0,0:0:0:0:
358,185,198192,1,0,3:0:0:0:
421,8,198366,2,0,B|383:26|383:26|358:186,1,202.500000772476,8|0,1:2|3:0,0:0:0:0:
408,268,198890,6,0,B|391:285|391:285|316:271,1,101.250000386238,2|0,1:2|3:0,0:0:0:0:
488,216,199238,2,0,B|471:199|471:199|485:124,1,101.250000386238,10|0,1:2|3:0,0:0:0:0:
358,185,199587,2,0,B|341:168|341:168|355:93,1,101.250000386238,2|0,3:2|3:0,0:0:0:0:
223,15,199936,5,6,3:1:0:0:
117,56,200110,1,0,3:0:0:0:
99,170,200285,1,2,3:2:0:0:
187,241,200459,1,0,3:0:0:0:
23,349,200634,6,0,B|31:298|31:298|82:306,1,101.250000386238,14|0,1:2|0:0,0:0:0:0:
187,241,200983,1,0,3:0:0:0:
23,349,201157,6,0,L|70:81,1,258.750004935265,6|2,1:2|0:2,0:0:0:0:
68,94,202029,5,2,0:2:0:0:
144,106,202203,1,2,0:2:0:0:
68,94,202378,2,0,L|40:257,1,165.000005035401,2|0,0:2|0:0,0:0:0:0:
