osu file format v14

[General]
AudioFilename: audio.mp3
AudioLeadIn: 0
PreviewTime: 67727
Countdown: 0
SampleSet: Soft
StackLeniency: 0.5
Mode: 0
LetterboxInBreaks: 0
WidescreenStoryboard: 1

[Editor]
Bookmarks: 202378
DistanceSpacing: 1.7
BeatDivisor: 8
GridSize: 16
TimelineZoom: 2.4

[Metadata]
Title:The Sun and Moon
TitleUnicode:The Sun and Moon
Artist:FELT
ArtistUnicode:FELT
Creator:Sylvarus
Version:Hard
Source:
Tags:Pure Heart 027 Vivienne NAGI☆ Renko ORANGE★JAM nagi* orange*jam rock english
BeatmapID:2191317
BeatmapSetID:1036438

[Difficulty]
HPDrainRate:4
CircleSize:4.4
OverallDifficulty:7
ApproachRate:8
SliderMultiplier:1.5
SliderTickRate:1

[Events]
//Background and Video events
0,0,"sunmoonbg.jpg",0,0
//Break Periods
2,158424,177610
//Storyboard Layer 0 (Background)
//Storyboard Layer 1 (Fail)
//Storyboard Layer 2 (Pass)
//Storyboard Layer 3 (Foreground)
//Storyboard Layer 4 (Overlay)
//Storyboard Sound Samples

[TimingPoints]
1797,697.674418604651,4,2,1,30,1,0
1797,-200,4,2,1,30,0,0
24122,-166.666666666667,4,2,1,40,0,0
43657,-200,4,2,1,30,0,0
45750,-100,4,2,1,30,0,0
46360,-100,4,2,1,5,0,0
46448,-125,4,2,1,50,0,0
51593,-125,4,2,1,5,0,0
51680,-125,4,2,1,50,0,0
51942,-125,4,2,1,5,0,0
52029,-125,4,2,1,50,0,0
60314,-125,4,2,1,5,0,0
60401,-125,4,2,1,50,0,0
63192,-100,4,2,1,50,0,0
65634,-125,4,2,1,50,0,0
65895,-125,4,2,1,5,0,0
65983,-125,4,2,1,50,0,0
68773,-100,4,2,1,60,0,0
79762,-100,4,2,2,60,0,0
79936,-100,4,2,1,60,0,0
88134,-100,4,2,2,60,0,0
88483,-100,4,2,1,60,0,0
91012,-100,4,2,1,5,0,0
91099,-76.9230769230769,4,2,1,80,0,1
93802,-76.9230769230769,4,2,1,5,0,1
93890,-76.9230769230769,4,2,1,80,0,1
99384,-76.9230769230769,4,2,1,5,0,1
99471,-76.9230769230769,4,2,1,80,0,1
101826,-76.9230769230769,4,2,1,5,0,1
101913,-100,4,2,1,80,0,1
102174,-100,4,2,1,5,0,1
102262,-76.9230769230769,4,2,1,80,0,1
106797,-76.9230769230769,4,2,2,80,0,1
106971,-76.9230769230769,4,2,1,80,0,1
107320,-76.9230769230769,4,2,2,80,0,1
107843,-76.9230769230769,4,2,1,80,0,1
110459,-76.9230769230769,4,2,2,80,0,1
110634,-76.9230769230769,4,2,1,80,0,1
111855,-76.9230769230769,4,2,2,80,0,1
112029,-76.9230769230769,4,2,1,80,0,1
113424,-83.3333333333333,4,2,1,70,0,0
129122,-83.3333333333333,4,2,2,70,0,0
129297,-83.3333333333333,4,2,1,70,0,0
129645,-83.3333333333333,4,2,2,70,0,0
130169,-83.3333333333333,4,2,1,70,0,0
132785,-83.3333333333333,4,2,2,70,0,0
132959,-83.3333333333333,4,2,1,70,0,0
133657,-100,4,2,1,70,0,0
135663,-100,4,2,1,5,0,0
135750,-83.3333333333333,4,2,1,60,0,0
137843,-100,4,2,1,60,0,0
141244,-100,4,2,1,5,0,0
141331,-83.3333333333333,4,2,1,60,0,0
143424,-100,4,2,1,60,0,0
146128,-100,4,2,1,5,0,0
146215,-100,4,2,1,60,0,0
146826,-100,4,2,1,5,0,0
146913,-83.3333333333333,4,2,1,60,0,0
151448,-83.3333333333333,4,2,2,60,0,0
151623,-83.3333333333333,4,2,1,60,0,0
151971,-83.3333333333333,4,2,2,60,0,0
152494,-83.3333333333333,4,2,1,60,0,0
154500,-83.3333333333333,4,2,1,5,0,0
154587,-83.3333333333333,4,2,1,60,0,0
155110,-83.3333333333333,4,2,2,60,0,0
155285,-133.333333333333,4,2,1,60,0,0
155372,-133.333333333333,4,2,1,5,0,0
158076,-133.333333333333,4,2,1,30,0,0
179703,-100,4,2,1,60,0,0
180314,-100,4,2,1,5,0,0
180401,-76.9230769230769,4,2,1,80,0,1
183105,-76.9230769230769,4,2,1,5,0,1
183192,-76.9230769230769,4,2,1,80,0,1
188686,-76.9230769230769,4,2,1,5,0,1
188773,-76.9230769230769,4,2,1,80,0,1
191128,-76.9230769230769,4,2,1,5,0,1
191215,-100,4,2,1,80,0,1
191477,-100,4,2,1,5,0,1
191564,-76.9230769230769,4,2,1,80,0,1
196099,-76.9230769230769,4,2,2,80,0,1
196273,-76.9230769230769,4,2,1,80,0,1
196622,-76.9230769230769,4,2,2,80,0,1
197145,-76.9230769230769,4,2,1,80,0,1
199761,-76.9230769230769,4,2,2,80,0,1
199936,-76.9230769230769,4,2,1,80,0,1
201157,-100,4,2,1,80,0,0
201244,-100,4,2,1,5,0,0

[Colours]
Combo1 : 242,24,57
Combo2 : 255,157,60
Combo3 : 255,89,89

[HitObjects]
259,293,1797,6,0,L|284:291,3,18.75,0|0|0|0,0:2|0:2|0:2|0:2,0:2:0:0:
313,301,2494,2,0,L|350:297,1,37.5,2|2,0:0|0:0,0:0:0:0:
387,297,3017,2,0,L|424:301,1,37.5,2|2,0:0|0:0,0:0:0:0:
420,223,3715,2,0,L|382:226,2,37.5,2|2|2,0:0|0:0|0:0,0:0:0:0:
490,255,4587,6,0,L|488:230,3,18.75,0|0|0|0,0:2|0:0|0:0|0:0,0:0:0:0:
499,202,5285,2,0,L|495:165,1,37.5,2|2,0:0|0:0,0:0:0:0:
428,129,5983,2,0,L|432:92,1,37.5,2|2,0:0|0:0,0:0:0:0:
499,58,6680,2,0,L|495:20,1,37.5,2|2,0:0|0:0,0:0:0:0:
374,15,7378,6,0,L|348:17,3,18.75,0|0|0|0,0:2|0:2|0:2|0:2,0:0:0:0:
330,45,8076,2,0,L|292:48,1,37.5,2|2,0:0|0:0,0:0:0:0:
265,22,8599,2,0,L|227:18,1,37.5,2|2,0:0|0:0,0:0:0:0:
159,39,9296,1,2,0:0:0:0:
87,15,9645,2,0,L|49:18,1,37.5,2|2,0:0|0:0,0:0:0:0:
38,91,10169,6,0,L|35:114,3,18.75
51,143,10866,2,0,L|47:184,1,37.5,2|2,0:0|0:0,0:0:0:0:
119,203,11564,2,0,L|122:244,1,37.5,2|2,0:0|0:0,0:0:0:0:
191,188,12262,2,0,L|194:165,2,18.75,2|0|2,0:0|0:0|0:0,0:0:0:0:
278,138,12959,6,0,L|304:136,3,18.75
326,160,13657,2,0,L|329:203,1,37.5,2|2,0:0|0:0,0:0:0:0:
382,250,14355,2,0,L|376:308,1,56.25,2|2,0:0|0:0,0:0:0:0:
282,366,15401,2,0,L|279:339,1,18.75,2|2,0:0|0:0,0:0:0:0:
242,286,15750,6,0,L|222:284,3,18.75
166,236,16622,1,0,0:0:0:0:
112,289,16971,1,2,0:0:0:0:
112,289,17145,2,0,L|68:285,1,37.5,2|2,0:0|0:0,0:0:0:0:
26,358,17843,2,0,L|69:354,1,37.5,2|2,0:0|0:0,0:0:0:0:
143,375,18541,6,0,L|145:352,3,18.75
193,299,19413,2,0,L|209:291,2,18.75
119,284,20110,2,0,L|103:273,2,18.75
193,299,20808,1,0,0:0:0:0:
193,299,20983,2,0,L|209:291,1,18.75
261,238,21331,6,0,L|263:215,3,18.75
309,160,22203,2,0,L|325:152,1,18.75
280,92,22727,1,0,0:0:0:0:
280,92,22901,2,0,L|242:88,1,37.5
207,103,23424,1,2,0:0:0:0:
147,57,23773,1,2,0:0:0:0:
98,132,24122,6,0,P|93:158|99:184,1,44.999998626709,2|0,0:0|0:0,0:0:0:0:
113,217,24645,2,0,P|81:227|55:258,1,67.4999979400635,2|2,0:0|0:0,0:0:0:0:
54,286,25343,1,2,0:0:0:0:
98,132,25866,5,2,0:0:0:0:
113,217,26215,1,2,0:0:0:0:
54,286,26564,1,2,0:0:0:0:
164,371,26913,6,0,P|170:353|167:321,1,44.999998626709,2|0,0:0|0:0,0:0:0:0:
124,290,27436,2,0,P|167:311|188:310,1,67.4999979400635,2|2,0:0|0:0,0:0:0:0:
214,290,28134,1,2,0:0:0:0:
164,371,28657,5,2,0:0:0:0:
124,290,29006,1,2,0:0:0:0:
214,290,29355,1,2,0:0:0:0:
337,323,29703,6,0,P|345:297|342:275,1,44.999998626709,2|0,0:0|0:0,0:0:0:0:
305,253,30227,2,0,P|296:226|303:183,1,67.4999979400635,2|2,0:0|0:0,0:0:0:0:
342,171,30924,2,0,L|413:164,1,67.4999979400635,2|2,0:0|0:0,0:0:0:0:
438,185,31622,2,0,L|488:189,1,44.999998626709,2|2,0:0|0:0,0:0:0:0:
490,53,32494,6,0,L|519:21,2,33.7499989700318,2|2|2,0:0|0:0|0:0,0:0:0:0:
446,64,33192,2,0,L|403:54,1,33.7499989700318,2|2,0:0|0:0,0:0:0:0:
438,185,33890,5,2,0:0:0:0:
342,171,34238,1,2,0:0:0:0:
288,98,34587,1,2,0:0:0:0:
198,111,34936,1,2,0:0:0:0:
125,191,35285,6,0,P|100:190|77:174,1,44.999998626709
37,180,35808,2,0,P|47:149|42:110,1,67.4999979400635,2|2,0:0|0:0,0:0:0:0:
29,92,36506,2,0,L|74:96,1,44.999998626709,2|0,0:0|0:0,0:0:0:0:
125,191,37203,5,2,0:0:0:0:
37,180,37552,1,2,0:0:0:0:
29,92,37901,2,0,B|20:53|34:55|26:19,1,67.4999979400635,2|0,0:0|0:0,0:0:0:0:
140,61,38773,6,0,L|190:55,1,44.999998626709,2|2,0:0|0:0,0:0:0:0:
223,79,39296,2,0,L|298:82,1,67.4999979400635,2|2,0:0|0:0,0:0:0:0:
364,134,40169,1,2,0:0:0:0:
417,61,40517,1,2,0:0:0:0:
469,162,40866,6,0,P|474:187|470:210,1,44.999998626709,2|0,0:0|0:0,0:0:0:0:
441,240,41390,2,0,P|434:267|437:287,1,44.999998626709,2|0,0:0|0:0,0:0:0:0:
466,317,41913,2,0,B|397:293|397:337|328:314,1,134.999995880127,2|2,0:0|0:0,0:0:0:0:
290,212,43657,6,0,L|271:213,3,18.75
232,277,44529,2,0,L|207:274,1,18.75
155,323,45052,1,0,0:0:0:0:
153,214,45750,6,0,P|145:178|192:214,1,131.25
207,225,46448,6,0,L|210:260,3,30,4|0|0|0,1:2|0:0|0:0|1:0,0:0:0:0:
251,309,47145,2,0,L|310:314,1,60,10|2,0:2|1:2,0:0:0:0:
376,290,47669,1,2,1:2:0:0:
488,369,48017,1,2,1:2:0:0:
376,290,48366,1,2,1:2:0:0:
310,314,48541,2,0,L|251:309,1,60,8|0,0:2|0:0,0:0:0:0:
315,191,49238,6,0,L|311:158,3,30,0|0|0|0,1:0|0:0|0:0|1:0,0:0:0:0:
302,92,49936,2,0,L|368:86,1,60,10|2,0:2|1:2,0:0:0:0:
411,134,50459,1,2,1:2:0:0:
490,21,50808,1,0,1:0:0:0:
411,134,51157,1,0,1:0:0:0:
361,86,51332,2,0,L|306:91,1,45,10|0,0:2|0:0,0:0:0:0:
286,75,51680,2,0,L|230:70,1,45,2|0,1:2|0:0,0:0:0:0:
214,93,52029,6,0,L|216:122,3,30,0|0|0|0,1:0|0:0|0:0|1:0,0:0:0:0:
167,172,52727,2,0,L|161:238,1,60,10|2,0:2|1:2,0:0:0:0:
123,289,53250,1,2,1:2:0:0:
251,340,53599,1,2,1:2:0:0:
123,289,53948,1,2,1:2:0:0:
162,232,54123,2,0,L|167:172,1,60,8|0,0:2|1:2,0:0:0:0:
29,113,54820,6,0,L|31:83,3,30,0|0|0|0,1:0|0:0|0:0|1:0,0:0:0:0:
77,32,55517,2,0,L|143:26,1,60,10|2,0:2|1:2,0:0:0:0:
184,77,56041,1,2,1:2:0:0:
313,29,56390,1,0,1:0:0:0:
184,77,56737,1,0,1:0:0:0:
136,26,56913,2,0,L|77:32,1,60,10|2,0:2|1:2,0:0:0:0:
23,159,57610,6,0,P|9:216|39:279,1,120,4|10,1:2|0:2,0:0:0:0:
160,321,58657,2,0,L|201:317,1,30,2|2,1:2|1:2,0:0:0:0:
233,264,59006,2,0,L|356:274,1,120,2|8,0:0|0:2,0:0:0:0:
490,276,60052,2,0,P|465:248|463:231,1,45
471,206,60401,6,0,P|466:164|401:171,1,120,0|8,1:0|0:2,0:0:0:0:
490,356,61622,1,2,1:2:0:0:
431,319,61796,2,0,L|363:324,1,60,2|2,0:0|0:0,0:0:0:0:
240,371,62494,2,0,L|172:365,1,60,10|2,0:2|1:2,0:0:0:0:
114,244,63192,6,0,B|197:221|197:266|265:245,1,150,0|8,1:0|0:2,0:0:0:0:
264,111,64238,1,0,1:0:0:0:
264,111,64413,2,0,B|263:65|208:47|208:47|168:91|195:135,1,187.5,0|8,1:0|0:2,0:0:0:0:
324,180,65634,2,0,P|348:152|350:135,1,45,0|0,1:0|0:0,0:0:0:0:
343,110,65983,6,0,P|347:68|412:75,1,120,0|8,1:0|0:2,0:0:0:0:
510,170,67029,1,0,1:0:0:0:
454,210,67203,1,12,0:2:0:0:
324,180,67552,1,0,1:0:0:0:
286,238,67727,6,0,L|220:243,1,60,2|10,0:0|0:2,0:0:0:0:
104,307,68424,1,2,1:2:0:0:
178,151,68773,6,0,L|265:143,1,74.9999999999999,6|0,1:2|0:2,0:0:0:0:
315,102,69296,2,0,P|286:77|241:72,1,74.9999999999999,2|0,1:2|0:0,0:0:0:0:
175,79,69820,1,2,1:2:0:0:
175,79,69994,2,0,L|100:72,1,74.9999999999999,2|8,1:2|0:2,0:2:0:0:
37,31,70517,1,2,0:2:0:0:
15,140,70866,1,10,0:2:0:0:
72,225,71215,1,2,1:2:0:0:
18,358,71564,6,0,L|93:351,1,74.9999999999999,2|0,1:2|0:2,0:0:0:0:
148,300,72087,2,0,P|189:299|224:320,1,74.9999999999999,2|0,1:2|0:0,0:0:0:0:
271,368,72610,1,2,1:2:0:0:
271,368,72785,2,0,L|345:374,1,74.9999999999999,2|8,1:2|0:2,0:0:0:0:
408,332,73308,1,2,1:2:0:0:
510,375,73657,1,10,0:2:0:0:
502,263,74006,1,2,1:2:0:0:
375,139,74355,6,0,L|367:224,1,74.9999999999999,6|0,1:2|0:2,0:0:0:0:
320,271,74878,2,0,P|284:261|247:267,1,74.9999999999999,2|0,1:2|0:0,0:0:0:0:
179,300,75401,1,2,1:2:0:0:
179,300,75576,2,0,L|169:186,1,112.5,2|0,1:2|0:2,0:0:0:0:
207,123,76273,2,0,L|281:116,1,74.9999999999999,2|2,1:2|0:2,0:0:0:0:
459,73,77145,6,0,L|496:18,2,56.2499999999999,2|2|2,1:2|0:0|1:2,0:0:0:0:
388,99,77843,2,0,L|322:93,2,56.2499999999999,10|2|2,0:2|0:0|1:2,0:0:0:0:
443,150,78541,2,0,P|441:196|428:223,1,74.9999999999999,2|2,1:2|0:2,0:0:0:0:
356,200,79064,1,10,0:3:0:0:
298,248,79238,2,0,L|285:294,1,37.5,10|8,0:2|0:3,0:0:0:0:
356,315,79587,2,0,L|369:361,1,37.5,6|4,0:3|0:3,0:0:0:0:
259,364,79936,6,0,P|227:346|207:309,1,74.9999999999999,4|0,1:2|0:2,0:0:0:0:
218,239,80459,1,2,1:2:0:0:
218,239,80634,2,0,L|143:232,1,74.9999999999999,10|0,0:2|1:2,0:0:0:0:
102,169,81157,2,0,P|108:132|129:101,1,74.9999999999999,2|8,1:2|0:2,0:0:0:0:
233,142,81855,1,2,1:2:0:0:
328,110,82203,1,2,0:0:0:0:
388,10,82552,6,0,B|441:23|441:-7|501:11,1,112.5,2|0,0:2|0:2,0:0:0:0:
317,34,83424,2,0,L|232:26,1,74.9999999999999,10|0,0:2|1:2,0:0:0:0:
170,2,83948,2,0,P|131:-8|92:4,1,74.9999999999999,2|0,1:2|1:0,0:0:0:0:
29,31,84471,1,2,0:2:0:0:
0,139,84820,1,10,0:2:0:0:
72,156,84994,1,8,0:3:0:0:
22,212,85169,1,6,0:3:0:0:
193,227,85517,6,0,P|152:224|118:239,1,74.9999999999999,6|0,1:2|0:2,0:0:0:0:
95,308,86041,2,0,P|112:345|142:366,1,74.9999999999999,2|0,1:2|0:0,0:0:0:0:
212,382,86564,2,0,B|268:394|268:363|327:380,1,112.5,2|8,1:2|0:2,0:0:0:0:
393,353,87262,1,2,0:2:0:0:
309,278,87610,1,10,0:2:0:0:
372,185,87959,1,2,1:2:0:0:
309,143,88134,1,2,0:2:0:0:
305,148,88221,1,2,0:2:0:0:
301,154,88308,5,2,1:2:0:0:
232,99,88483,1,8,0:2:0:0:
232,99,88657,2,0,L|228:135,1,37.5,8|0,0:2|1:0,0:0:0:0:
174,204,89006,1,8,0:2:0:0:
102,150,89180,2,0,L|60:153,1,37.5,8|0,0:3|0:0,0:0:0:0:
27,239,89529,6,0,P|63:230|97:244,1,74.9999999999999,12|12,0:2|0:2,0:0:0:0:
137,365,90227,1,8,1:2:0:0:
141,360,90314,1,8,0:2:0:0:
145,354,90401,1,10,0:2:0:0:
207,312,90576,1,8,0:3:0:0:
276,339,90750,2,0,L|344:332,1,56.25,6|0,0:3|0:0,0:0:0:0:
372,306,91099,6,0,P|409:294|432:301,1,48.7499977684022,6|0,1:2|0:0,0:0:0:0:
460,224,91448,2,0,P|488:250|494:273,1,48.7499977684022,2|0,1:2|0:0,0:0:0:0:
486,346,91796,1,10,0:2:0:0:
418,295,91971,1,2,0:0:0:0:
460,224,92145,1,2,1:2:0:0:
391,177,92320,2,0,L|288:168,1,97.4999955368044,2|10,1:2|0:2,0:0:0:0:
389,29,93017,1,2,1:2:0:0:
389,29,93192,2,0,L|437:24,1,48.7499977684022,10|0,0:2|0:0,0:0:0:0:
390,104,93541,2,0,L|300:96,1,73.1249966526033,2|0,1:2|0:0,0:0:0:0:
280,77,93890,6,0,P|245:74|218:85,1,48.7499977684022,2|0,1:2|0:0,0:0:0:0:
170,17,94238,1,2,0:0:0:0:
170,17,94413,2,0,P|149:45|145:74,1,48.7499977684022,2|8,1:2|0:2,0:0:0:0:
178,134,94762,2,0,L|171:205,1,48.7499977684022,2|0,0:0|1:0,0:0:0:0:
104,228,95110,2,0,L|94:122,1,97.4999955368044,2|8,1:2|0:2,0:0:0:0:
57,56,95634,2,0,P|30:32|23:11,1,48.7499977684022,2|0,0:0|1:0,0:0:0:0:
95,131,95983,2,0,P|60:142|39:137,1,48.7499977684022,10|0,0:2|0:0,0:0:0:0:
178,134,96331,2,0,P|170:169|156:185,1,48.7499977684022,2|0,1:2|0:0,0:0:0:0:
49,140,96680,5,6,1:2:0:0:
56,222,96855,1,2,0:0:0:0:
64,304,97029,2,0,L|58:372,1,48.7499977684022,2|0,1:2|0:0,0:0:0:0:
136,252,97378,1,10,0:2:0:0:
56,222,97552,1,2,0:0:0:0:
64,304,97727,1,2,1:2:0:0:
136,252,97901,2,0,L|247:261,1,97.4999955368044,2|10,1:2|0:2,0:0:0:0:
206,98,98599,2,0,L|157:101,1,48.7499977684022,2|8,1:2|0:2,0:0:0:0:
147,178,98948,1,2,0:0:0:0:
147,178,99123,2,0,L|237:186,1,73.1249966526033,2|0,1:2|0:0,0:0:0:0:
256,189,99471,6,0,P|289:183|319:192,1,48.7499977684022,2|0,1:2|0:0,0:0:0:0:
361,115,99820,1,2,0:0:0:0:
361,115,99994,2,0,P|382:140|389:171,1,48.7499977684022,2|12,1:2|0:2,0:0:0:0:
356,271,100517,1,2,1:2:0:0:
407,315,100692,1,12,0:2:0:0:
455,266,100866,2,0,L|450:217,1,48.7499977684022,2|12,0:0|0:2,0:0:0:0:
479,340,101215,1,0,1:0:0:0:
479,340,101390,1,0,1:0:0:0:
407,315,101564,2,0,P|369:319|340:345,1,73.1249966526033,10|0,0:2|0:0,0:0:0:0:
324,359,101913,6,0,P|336:327|329:293,1,56.25,2|0,1:2|0:0,0:0:0:0:
281,250,102262,6,0,L|172:240,1,97.4999955368044,4|0,1:2|0:0,0:0:0:0:
222,380,102959,2,0,P|189:385|164:374,1,48.7499977684022,10|0,0:2|0:0,0:0:0:0:
108,338,103308,1,2,1:2:0:0:
108,338,103483,2,0,P|114:299|106:273,1,48.7499977684022,2|0,1:2|0:0,0:0:0:0:
183,241,103831,2,0,P|152:216|125:210,1,48.7499977684022,10|0,0:2|0:0,0:0:0:0:
179,88,104180,2,0,P|173:127|181:153,1,48.7499977684022,2|8,1:2|0:2,0:0:0:0:
249,172,104529,2,0,P|255:133|247:107,1,48.7499977684022,2|0,0:0|1:0,0:0:0:0:
238,23,104878,6,0,B|314:-7|314:51|389:21,1,146.249993305207,2|0,0:0|0:0,0:0:0:0:
470,161,105750,2,0,P|445:163|417:156,1,48.7499977684022,10|0,0:2|0:0,0:0:0:0:
360,213,106099,1,2,1:2:0:0:
360,213,106273,2,0,P|345:192|337:165,1,48.7499977684022,2|0,1:2|0:0,0:0:0:0:
316,90,106622,2,0,P|340:87|368:94,1,48.7499977684022,10|2,0:2|0:2,0:0:0:0:
448,118,106971,2,0,P|438:141|418:160,1,48.7499977684022,2|8,1:2|0:2,0:0:0:0:
360,213,107320,2,0,L|350:326,1,97.4999955368044,2|2,0:2|0:0,0:0:0:0:
440,379,107843,5,4,1:2:0:0:
512,313,108017,1,8,0:2:0:0:
429,263,108192,1,2,1:2:0:0:
429,263,108366,1,0,1:0:0:0:
494,200,108541,2,0,L|489:151,1,48.7499977684022,8|0,0:2|0:0,0:0:0:0:
445,60,108890,5,4,1:2:0:0:
399,160,109064,2,0,P|451:140|503:161,1,97.4999955368044,12|8,0:2|0:2,0:0:0:0:
445,60,109587,2,0,L|394:54,1,48.7499977684022,10|8,0:3|1:3,0:0:0:0:
317,28,109936,1,10,0:2:0:0:
243,66,110110,1,8,0:3:0:0:
177,15,110285,2,0,L|125:10,1,48.7499977684022,6|4,0:3|0:3,0:0:0:0:
151,121,110634,5,2,1:2:0:0:
151,121,110808,1,0,1:0:0:0:
243,66,110983,1,2,1:2:0:0:
243,66,111157,1,2,1:2:0:0:
257,169,111331,2,0,L|252:218,1,48.7499977684022,12|10,0:2|0:3,0:0:0:0:
180,259,111680,2,0,L|185:308,1,48.7499977684022,4|6,0:3|0:3,0:0:0:0:
256,376,112029,5,8,0:2:0:0:
184,307,112203,1,0,1:0:0:0:
116,365,112378,2,0,P|62:379|11:367,1,97.4999955368044,2|10,1:2|0:2,0:0:0:0:
98,215,113076,1,4,0:3:0:0:
23,239,113250,1,4,0:3:0:0:
17,235,113337,1,4,0:3:0:0:
11,231,113424,6,0,L|5:138,1,89.9999972534181,4|0,1:2|1:2,0:0:0:0:
73,3,114122,2,0,P|106:24|129:85,1,89.9999972534181,8|2,0:2|1:2,0:0:0:0:
126,145,114645,1,2,1:2:0:0:
128,68,114820,2,0,P|146:35|197:10,1,89.9999972534181,2|0,0:0|0:0,0:0:0:0:
267,19,115343,1,2,1:2:0:0:
344,94,115692,1,2,0:0:0:0:
480,24,116041,6,0,P|449:60|459:145,1,134.999995880127,2|0,0:0|0:0,0:0:0:0:
433,214,116738,1,0,1:2:0:0:
375,264,116913,2,0,P|382:311|415:348,1,89.9999972534181,8|2,0:2|1:2,0:0:0:0:
476,377,117436,1,2,1:2:0:0:
408,343,117610,2,0,P|370:341|326:371,1,89.9999972534181,2|0,0:0|0:0,0:0:0:0:
250,363,118134,2,0,L|149:354,1,89.9999972534181,2|0,1:2|0:0,0:0:0:0:
141,131,118831,6,0,P|175:141|155:232,1,134.999995880127,2|0,0:0|1:2,0:0:0:0:
22,260,119703,1,8,0:2:0:0:
119,377,120052,1,2,1:2:0:0:
119,377,120227,2,0,P|150:341|203:329,1,89.9999972534181,2|8,1:2|0:2,0:0:0:0:
283,207,120924,1,0,1:2:0:0:
283,207,121099,2,0,L|275:300,1,89.9999972534181,8|2,0:2|1:2,0:0:0:0:
219,162,121796,6,0,L|140:152,2,67.4999979400635,2|2|2,1:2|0:0|1:2,0:0:0:0:
289,131,122494,2,0,L|334:73,2,67.4999979400635,14|2|10,0:2|0:0|0:2,0:0:0:0:
283,207,123192,2,0,L|287:269,1,44.999998626709,2|0,0:0|1:2,0:0:0:0:
354,285,123541,2,0,L|361:222,1,44.999998626709,10|0,0:3|1:2,0:0:0:0:
399,174,123890,1,10,0:2:0:0:
456,224,124064,1,2,0:0:0:0:
495,158,124238,2,0,L|497:102,1,44.999998626709,2|2,1:2|0:0,0:0:0:0:
470,40,124587,6,0,P|433:55|374:42,1,89.9999972534181,4|0,1:2|1:2,0:0:0:0:
231,44,125285,2,0,P|262:38|289:43,2,44.999998626709,10|2|2,0:2|0:0|1:2,0:0:0:0:
182,103,125808,2,0,L|175:207,1,89.9999972534181,2|10,1:2|0:2,0:0:0:0:
29,239,126506,2,0,L|38:334,1,89.9999972534181,2|2,1:2|0:0,0:0:0:0:
186,363,127203,6,0,B|259:361|240:314|316:314,1,134.999995880127,2|0,0:0|0:0,0:0:0:0:
459,341,128076,1,8,0:2:0:0:
408,283,128250,1,2,0:0:0:0:
408,283,128424,2,0,L|413:222,1,44.999998626709,2|0,1:2|1:2,0:0:0:0:
472,191,128773,2,0,P|437:167|381:168,1,89.9999972534181,2|2,0:0|0:2,0:0:0:0:
321,187,129296,2,0,P|289:177|248:126,1,89.9999972534181,2|2,1:2|0:2,0:0:0:0:
441,6,130169,6,0,P|435:30|441:59,1,44.999998626709,6|8,1:2|0:2,0:0:0:0:
491,103,130517,1,2,1:2:0:0:
437,49,130692,2,0,P|389:46|350:70,1,89.9999972534181,2|0,1:2|0:0,0:0:0:0:
302,123,131215,5,4,1:2:0:0:
363,229,131390,2,0,P|336:203|285:197,1,89.9999972534181,12|8,0:2|0:2,0:0:0:0:
213,224,131913,2,0,L|205:278,1,44.999998626709,8|8,0:3|1:3,0:0:0:0:
276,298,132262,2,0,L|284:354,1,44.999998626709,8|10,0:2|0:3,0:0:0:0:
214,377,132610,1,6,0:3:0:0:
158,324,132785,1,6,0:3:0:0:
96,367,132959,6,0,L|32:374,1,44.999998626709,2|0,1:2|0:0,0:0:0:0:
6,298,133308,2,0,L|52:303,1,44.999998626709,2|0,1:2|1:0,0:0:0:0:
132,220,133657,2,0,L|83:233,1,37.5,14|0,0:2|0:0,0:0:0:0:
8,159,134006,2,0,L|52:170,1,37.5,2|0,1:2|0:0,0:0:0:0:
138,88,134355,5,10,0:2:0:0:
250,186,134703,1,8,1:3:0:0:
304,46,135052,2,0,P|341:36|425:89,1,131.25,10|0,0:2|0:0,0:0:0:0:
416,115,135750,6,0,B|396:132|384:162|384:162|340:274|486:290|485:159|385:162|385:162|335:179|319:241,1,404.999987640381,6|8,1:2|0:2,0:0:0:0:
495,281,137669,1,0,1:2:0:0:
441,332,137843,2,0,L|354:338,1,75,8|0,0:2|1:2,0:0:0:0:
231,271,138541,6,0,P|230:131|351:201,1,337.5,0|8,1:2|0:2,0:0:0:0:
276,331,140459,1,0,1:2:0:0:
231,271,140634,1,8,0:2:0:0:
81,277,140983,2,0,P|114:279|135:297,1,56.25,2|0,1:2|0:0,0:0:0:0:
155,321,141331,6,0,B|135:219|213:190|213:190|310:153|322:49|231:14|195:74,1,404.999987640381,2|8,1:2|0:2,0:0:0:0:
27,14,143250,1,0,1:2:0:0:
3,85,143424,2,0,L|10:167,1,75,8|0,0:2|1:2,0:0:0:0:
97,281,144122,6,0,P|179:264|246:295,1,150,0|12,1:2|0:2,0:0:0:0:
383,251,145169,1,0,1:2:0:0:
319,211,145343,1,8,0:2:0:0:
301,138,145517,2,0,P|293:104|247:153,1,131.25,2|0,0:0|0:0,0:0:0:0:
229,178,146215,2,0,P|201:129|166:173,1,131.25,10|0,0:2|0:0,0:0:0:0:
156,217,146913,5,6,1:2:0:0:
137,286,147087,1,2,0:0:0:0:
86,231,147262,2,0,P|60:218|32:215,1,44.999998626709,2|0,1:2|0:0,0:0:0:0:
11,139,147610,2,0,P|51:141|114:111,1,89.9999972534181,10|2,0:2|1:2,0:0:0:0:
160,58,148134,2,0,B|210:42|210:42|253:62,1,89.9999972534181,2|10,1:2|0:2,0:0:0:0:
312,30,148657,1,2,0:0:0:0:
244,57,148831,2,0,B|241:92|241:92|248:115|248:115|244:157,1,89.9999972534181,2|2,1:2|0:0,0:0:0:0:
249,152,149267,1,2,0:0:0:0:
254,158,149355,2,0,P|282:166|297:189,1,44.999998626709,2|2,1:2|0:0,0:0:0:0:
365,228,149703,6,0,B|390:201|381:161|381:161|417:202|490:173,1,179.999994506836,2|8,1:2|0:2,0:0:0:0:
436,6,150750,2,0,B|416:1|416:1|373:10,1,44.999998626709,2|2,1:2|0:0,0:0:0:0:
384,9,151012,1,2,0:0:0:0:
376,12,151099,2,0,B|329:26|300:15|300:15|272:88|208:78,1,179.999994506836,2|8,0:0|0:2,0:0:0:0:
64,19,152145,2,0,B|45:33|45:33|29:55,1,44.999998626709,2|0,1:2|0:0,0:0:0:0:
16,170,152494,5,6,1:2:0:0:
78,125,152669,1,10,0:2:0:0:
138,176,152843,1,2,1:2:0:0:
197,125,153017,2,0,B|244:116|244:116|290:143,1,89.9999972534181,2|2,1:2|0:0,0:0:0:0:
346,202,153541,5,6,1:2:0:0:
361,112,153715,2,0,P|318:112|270:152,1,89.9999972534181,14|12,0:2|0:2,0:0:0:0:
247,207,154238,2,0,B|243:231|237:239|237:239|233:284,1,67.4999979400635,10|0,0:3|0:0,0:0:0:0:
210,311,154587,2,0,B|190:316|178:332|178:332|162:340|135:334|135:334,2,67.4999979400635,14|2|6,0:2|0:0|0:3,0:0:0:0:
315,243,155285,6,0,B|397:202|468:291|468:291|420:387|318:371|318:371|378:353|396:322,1,450.000017166138,2|0,0:0|0:0,0:0:0:0:
408,234,179703,6,0,P|436:233|398:179,1,131.25,0|0,0:2|0:0,0:0:0:0:
366,175,180401,6,0,P|337:148|331:125,1,48.7499977684022,6|0,1:2|0:0,0:0:0:0:
251,140,180750,2,0,P|259:102|276:86,1,48.7499977684022,2|0,1:2|0:0,0:0:0:0:
343,56,181098,1,10,0:2:0:0:
334,140,181273,1,2,0:0:0:0:
251,140,181447,1,2,1:2:0:0:
245,223,181622,2,0,L|236:325,1,97.4999955368044,2|10,1:2|0:2,0:0:0:0:
106,201,182320,1,2,1:2:0:0:
106,201,182494,2,0,L|111:140,1,48.7499977684022,10|0,0:2|0:0,0:0:0:0:
176,215,182843,2,0,L|167:304,1,73.1249966526033,2|0,1:2|0:0,0:0:0:0:
139,317,183192,6,0,P|108:334|87:333,1,48.7499977684022,2|0,1:2|0:0,0:0:0:0:
14,353,183541,1,2,0:0:0:0:
14,353,183715,2,0,P|14:317|26:299,1,48.7499977684022,2|8,1:2|0:2,0:0:0:0:
40,225,184064,2,0,P|39:189|27:171,1,48.7499977684022,2|0,0:0|1:0,0:0:0:0:
0,91,184413,2,0,P|54:103|100:74,1,97.4999955368044,2|8,1:2|0:2,0:0:0:0:
146,24,184936,2,0,P|127:10|104:4,1,48.7499977684022,2|0,0:0|1:0,0:0:0:0:
90,85,185285,2,0,P|67:94|50:111,1,48.7499977684022,10|0,0:2|0:0,0:0:0:0:
113,164,185634,2,0,P|110:188|116:211,1,48.7499977684022,2|0,1:2|0:0,0:0:0:0:
251,240,185983,5,6,1:2:0:0:
193,181,186157,1,2,0:0:0:0:
263,137,186331,2,0,L|269:67,1,48.7499977684022,2|0,1:2|0:0,0:0:0:0:
204,33,186680,1,10,0:2:0:0:
267,88,186855,1,2,0:0:0:0:
335,41,187029,1,2,1:2:0:0:
385,106,187203,2,0,L|394:216,1,97.4999955368044,2|10,1:2|0:2,0:0:0:0:
512,52,187901,2,0,L|507:-1,1,48.7499977684022,2|8,1:2|0:2,0:0:0:0:
451,81,188250,1,2,0:0:0:0:
451,81,188424,2,0,L|458:165,1,73.1249966526033,2|0,1:2|0:0,0:0:0:0:
488,181,188773,6,0,P|497:203|499:227,1,48.7499977684022,2|0,1:2|0:0,0:0:0:0:
475,307,189122,1,2,0:0:0:0:
475,307,189296,2,0,P|471:331|476:354,1,48.7499977684022,2|12,1:2|0:2,0:0:0:0:
264,230,189820,1,2,1:2:0:0:
327,194,189994,1,12,0:2:0:0:
343,269,190169,2,0,L|347:325,1,48.7499977684022,2|12,0:0|0:2,0:0:0:0:
405,219,190517,1,0,1:0:0:0:
405,219,190692,1,0,1:0:0:0:
327,194,190866,2,0,P|300:175|283:131,1,73.1249966526033,10|0,0:2|0:0,0:0:0:0:
286,107,191215,6,0,P|272:129|238:145,1,56.25,6|0,1:3|0:0,0:0:0:0:
172,133,191564,6,0,L|181:239,1,97.4999955368044,4|0,1:2|1:2,0:0:0:0:
320,374,192262,2,0,P|290:356|265:356,1,48.7499977684022,10|0,0:2|0:0,0:0:0:0:
250,276,192610,1,2,1:2:0:0:
250,276,192785,2,0,P|219:292|206:314,1,48.7499977684022,2|0,1:2|0:0,0:0:0:0:
129,293,193134,2,0,P|128:327|140:349,1,48.7499977684022,10|0,0:2|0:0,0:0:0:0:
211,303,193483,2,0,P|211:268|199:246,1,48.7499977684022,2|8,1:2|0:2,0:0:0:0:
140,205,193831,2,0,P|139:170|151:148,1,48.7499977684022,2|0,0:0|1:0,0:0:0:0:
87,74,194180,6,0,B|87:153|22:137|23:225,1,146.249993305207,2|0,0:0|0:0,0:0:0:0:
6,10,195052,2,0,L|71:4,1,48.7499977684022,8|2,0:2|0:0,0:0:0:0:
136,16,195401,1,2,1:2:0:0:
136,15,195576,2,0,P|160:15|182:25,1,48.7499977684022,2|0,1:2|0:0,0:0:0:0:
258,57,195924,2,0,P|246:78|226:92,1,48.7499977684022,10|2,0:2|0:2,0:0:0:0:
161,143,196273,2,0,P|148:122|146:98,1,48.7499977684022,2|8,1:2|0:2,0:0:0:0:
182,25,196622,2,0,L|298:34,1,97.4999955368044,2|0,0:2|0:0,0:0:0:0:
377,161,197145,5,6,1:2:0:0:
291,120,197320,1,8,0:2:0:0:
367,62,197494,1,2,1:2:0:0:
367,62,197669,1,0,1:0:0:0:
377,161,197843,2,0,L|383:231,1,48.7499977684022,8|0,0:2|0:0,0:0:0:0:
414,294,198192,5,4,1:2:0:0:
472,203,198366,2,0,P|436:220|372:202,1,97.4999955368044,12|8,0:2|0:2,0:0:0:0:
312,256,198890,2,0,L|255:260,1,48.7499977684022,10|8,0:3|1:3,0:0:0:0:
188,295,199238,1,10,0:2:0:0:
244,356,199413,1,8,0:3:0:0:
165,380,199587,2,0,L|108:384,1,48.7499977684022,6|4,0:3|0:3,0:0:0:0:
41,324,199936,5,2,1:2:0:0:
41,324,200110,1,0,1:0:0:0:
104,247,200285,1,2,1:2:0:0:
104,247,200459,1,2,1:2:0:0:
23,185,200634,2,0,L|17:125,1,48.7499977684022,12|0,0:2|0:0,0:0:0:0:
36,46,200983,5,6,0:3:0:0:
99,143,201157,2,0,B|124:181|187:187|194:89|127:91|99:117|99:117|63:148|18:136,1,262.5,14|0,0:2|0:0,0:0:0:0:
