osu file format v14

[General]
AudioFilename: audio.mp3
AudioLeadIn: 0
PreviewTime: 64859
Countdown: 0
SampleSet: Soft
StackLeniency: 0.7
Mode: 0
LetterboxInBreaks: 0
WidescreenStoryboard: 1

[Editor]
DistanceSpacing: 0.7
BeatDivisor: 4
GridSize: 32
TimelineZoom: 3.399999

[Metadata]
Title:Summer Fever
TitleUnicode:Summer Fever
Artist:FELT
ArtistUnicode:FELT
Creator:Camo
Version:Sagu's Expert
Source:東方花映塚 ~ Phantasmagoria of Flower View.
Tags:owc2022gfhd1 owc osu! world cup 2022 grand finals hidden 1 monsieursebas censoled fooders kyrie irving lecandy visionary sagu オリエンタルダークフライト Oriental Dark Flight ZUN 霧雨魔理沙 Marisa Kirisame Vivienne Renko Maurits"禅"Cornelis 上海アリス幻樂団 Team Shanghai Alice touhou project 2hu 東方project th9 flower reflecting mound kaeizuka fortunes gate english jazz video game pop
BeatmapID:4134832
BeatmapSetID:1888937

[Difficulty]
HPDrainRate:5
CircleSize:4
OverallDifficulty:8.6
ApproachRate:9.2
SliderMultiplier:1.72
SliderTickRate:1

[Events]
//Background and Video events
0,0,"98661691_p0.jpg",0,0
//Break Periods
//Storyboard Layer 0 (Background)
//Storyboard Layer 1 (Fail)
//Storyboard Layer 2 (Pass)
//Storyboard Layer 3 (Foreground)
//Storyboard Layer 4 (Overlay)
//Storyboard Sound Samples

[TimingPoints]
-641,500,4,2,1,70,1,0
359,-50,4,2,1,70,0,0
859,-125,4,2,1,70,0,0
1359,-41.6666666666667,4,2,1,70,0,0
1859,-50,4,2,1,70,0,0
2859,-50,4,2,2,70,0,0
2984,-50,4,2,1,70,0,0
3859,-50,4,2,2,70,0,0
4109,-50,4,2,1,70,0,0
4234,-50,4,2,2,70,0,0
4484,-50,4,2,1,70,0,0
4859,-50,4,2,2,70,0,0
4984,-62.5,4,2,1,70,0,0
5359,-50,4,2,1,70,0,0
6859,-50,4,2,2,70,0,0
6984,-50,4,2,1,70,0,0
7984,-50,4,2,2,70,0,0
8109,-50,4,2,1,70,0,0
8234,-50,4,2,2,70,0,0
8359,-41.6666666666667,4,2,2,70,0,0
8484,-41.6666666666667,4,2,1,70,0,0
8859,-41.6666666666667,4,2,2,70,0,0
8984,-41.6666666666667,4,2,1,70,0,0
9108,-41.6666666666667,4,2,2,70,0,0
9234,-41.6666666666667,4,2,1,70,0,0
9359,-33.3333333333334,4,2,1,70,0,0
10359,-50,4,2,1,70,0,0
10859,-50,4,2,2,70,0,0
10984,-50,4,2,1,70,0,0
11859,-50,4,2,2,70,0,0
12109,-50,4,2,1,70,0,0
12234,-50,4,2,2,70,0,0
12484,-50,4,2,1,70,0,0
12859,-50,4,2,2,70,0,0
12984,-62.5,4,2,1,70,0,0
13359,-50,4,2,1,70,0,0
15109,-125,4,2,1,70,0,0
15359,-38.4615384615385,4,2,1,70,0,0
15859,-45.4545454545455,4,2,2,70,0,0
16359,-55.5555555555555,4,2,2,70,0,0
16483,-55.5555555555555,4,2,1,70,0,0
16859,-55.5555555555555,4,2,2,70,0,0
16984,-55.5555555555555,4,2,1,70,0,0
17109,-166.666666666666,4,2,2,70,0,0
17233,-166.666666666666,4,2,1,70,0,0
17359,-41.6666666666667,4,2,1,80,0,0
17608,-41.6666666666667,4,2,3,80,0,0
17859,-41.6666666666667,4,2,1,80,0,0
18109,-41.6666666666667,4,2,3,80,0,0
18234,-50,4,2,7,80,0,0
18609,-50,4,2,4,80,0,0
18859,-50,4,2,2,80,0,0
18984,-50,4,2,1,80,0,0
19109,-62.5,4,2,1,80,0,0
19359,-50,4,2,1,80,0,0
19734,-50,4,2,3,80,0,0
20109,-50,4,2,1,80,0,0
20234,-62.5,4,2,2,80,0,0
20484,-62.5,4,2,1,80,0,0
20734,-50,4,2,1,80,0,0
20859,-50,4,2,2,80,0,0
20984,-50,4,2,1,80,0,0
21109,-50,4,2,2,80,0,0
21234,-50,4,2,1,80,0,0
21359,-41.6666666666667,4,2,1,80,0,0
21608,-41.6666666666667,4,2,3,80,0,0
21859,-41.6666666666667,4,2,1,80,0,0
22109,-41.6666666666667,4,2,3,80,0,0
22234,-41.6666666666667,4,2,7,80,0,0
22609,-50,4,2,4,80,0,0
22859,-50,4,2,2,80,0,0
22984,-50,4,2,1,80,0,0
23484,-41.6666666666667,4,2,1,80,0,0
23859,-41.6666666666667,4,2,2,80,0,0
24109,-41.6666666666667,4,2,1,80,0,0
24234,-41.6666666666667,4,2,2,80,0,0
24483,-41.6666666666667,4,2,1,80,0,0
24859,-41.6666666666667,4,2,2,80,0,0
24984,-41.6666666666667,4,2,1,80,0,0
25109,-125,4,2,2,80,0,0
25234,-125,4,2,1,80,0,0
25359,-41.6666666666667,4,2,1,80,0,0
25608,-41.6666666666667,4,2,3,80,0,0
25859,-41.6666666666667,4,2,1,80,0,0
26109,-41.6666666666667,4,2,3,80,0,0
26234,-50,4,2,7,80,0,0
26609,-50,4,2,4,80,0,0
26859,-50,4,2,2,80,0,0
26984,-50,4,2,1,80,0,0
27109,-62.5,4,2,1,80,0,0
27359,-50,4,2,1,80,0,0
27734,-50,4,2,3,80,0,0
27859,-50,4,2,4,80,0,0
28109,-50,4,2,1,80,0,0
28234,-50,4,2,2,80,0,0
28484,-50,4,2,1,80,0,0
28859,-50,4,2,2,80,0,0
28984,-50,4,2,3,80,0,0
29109,-50,4,2,2,80,0,0
29234,-50,4,2,3,80,0,0
29359,-41.6666666666667,4,2,3,80,0,0
29859,-41.6666666666667,4,2,1,80,0,0
29984,-41.6666666666667,4,2,3,80,0,0
30234,-41.6666666666667,4,2,7,80,0,0
30609,-41.6666666666667,4,2,4,80,0,0
30859,-41.6666666666667,4,2,2,80,0,0
31108,-41.6666666666667,4,2,1,80,0,0
31359,-50,4,2,1,80,0,0
31859,-50,4,2,2,80,0,0
32109,-50,4,2,1,80,0,0
32234,-50,4,2,2,80,0,0
32484,-50,4,2,1,80,0,0
32859,-50,4,2,2,80,0,0
32984,-50,4,2,1,80,0,0
33109,-83.3333333333335,4,2,2,80,0,0
33233,-83.3333333333335,4,2,3,80,0,0
33359,-50,4,2,3,70,0,0
33609,-50,4,2,4,70,0,0
34609,-50,4,2,1,70,0,0
34859,-50,4,2,4,70,0,0
35359,-55.5555555555555,4,2,4,70,0,0
35484,-55.5555555555555,4,2,1,70,0,0
35859,-55.5555555555555,4,2,4,70,0,0
36234,-55.5555555555555,4,2,1,70,0,0
36859,-55.5555555555555,4,2,2,70,0,0
37109,-55.5555555555555,4,2,4,70,0,0
37359,-50,4,2,4,70,0,0
38609,-50,4,2,1,70,0,0
38859,-50,4,2,4,70,0,0
39359,-45.4545454545455,4,2,1,70,0,0
39859,-45.4545454545455,4,2,2,70,0,0
40109,-45.4545454545455,4,2,1,70,0,0
40859,-45.4545454545455,4,2,2,70,0,0
41109,-62.5,4,2,1,70,0,0
41359,-50,4,2,3,70,0,0
41609,-50,4,2,4,70,0,0
42609,-50,4,2,1,70,0,0
42859,-50,4,2,4,70,0,0
43359,-55.5555555555555,4,2,4,70,0,0
43484,-55.5555555555555,4,2,1,70,0,0
43859,-55.5555555555555,4,2,4,70,0,0
44234,-55.5555555555555,4,2,1,70,0,0
44859,-55.5555555555555,4,2,2,70,0,0
45109,-55.5555555555555,4,2,4,70,0,0
45359,-50,4,2,4,70,0,0
46609,-50,4,2,1,70,0,0
46859,-50,4,2,4,70,0,0
47359,-45.4545454545455,4,2,4,70,0,0
47484,-45.4545454545455,4,2,1,70,0,0
47859,-45.4545454545455,4,2,4,70,0,0
48234,-45.4545454545455,4,2,1,70,0,0
48859,-45.4545454545455,4,2,2,70,0,0
49109,-83.3333333333335,4,2,3,70,0,0
49359,-50,4,2,3,70,0,0
49609,-50,4,2,4,70,0,0
50359,-50,4,2,1,70,0,0
50859,-50,4,2,4,70,0,0
51359,-55.5555555555555,4,2,4,70,0,0
51484,-55.5555555555555,4,2,1,70,0,0
51859,-55.5555555555555,4,2,4,70,0,0
52234,-55.5555555555555,4,2,1,70,0,0
52858,-55.5555555555555,4,2,2,70,0,0
53109,-55.5555555555555,4,2,4,70,0,0
53359,-50,4,2,4,70,0,0
54609,-50,4,2,1,70,0,0
54859,-50,4,2,4,70,0,0
55359,-45.4545454545455,4,2,1,70,0,0
55859,-45.4545454545455,4,2,2,70,0,0
56109,-45.4545454545455,4,2,1,70,0,0
56859,-45.4545454545455,4,2,2,70,0,0
57109,-45.4545454545455,4,2,1,70,0,0
57359,-45.4545454545455,4,2,3,70,0,0
57609,-45.4545454545455,4,2,4,70,0,0
58609,-45.4545454545455,4,2,1,70,0,0
58859,-45.4545454545455,4,2,4,70,0,0
59359,-50,4,2,4,70,0,0
59484,-50,4,2,1,70,0,0
59859,-50,4,2,4,70,0,0
60234,-50,4,2,1,70,0,0
60859,-50,4,2,2,70,0,0
61109,-50,4,2,1,70,0,0
61359,-45.4545454545455,4,2,1,70,0,0
61859,-45.4545454545455,4,2,4,70,0,0
62421,-45.4545454545455,4,2,1,5,0,0
62484,-45.4545454545455,4,2,4,70,0,0
62609,-45.4545454545455,4,2,1,70,0,0
62859,-45.4545454545455,4,2,4,70,0,0
63359,-62.5,4,2,4,70,0,0
64234,-62.5,4,2,1,70,0,0
64359,-50,4,2,4,70,0,0
64859,-41.6666666666667,4,2,2,70,0,0
65109,-41.6666666666667,4,2,1,70,0,0
65359,-38.4615384615385,4,2,1,90,0,1
65984,-38.4615384615385,4,2,3,90,0,1
66234,-38.4615384615385,4,2,7,90,0,1
66609,-38.4615384615385,4,2,1,90,0,1
66858,-38.4615384615385,4,2,2,90,0,1
66984,-38.4615384615385,4,2,3,90,0,1
67109,-38.4615384615385,4,2,1,90,0,1
67234,-38.4615384615385,4,2,3,90,0,1
67608,-38.4615384615385,4,2,1,90,0,1
67858,-38.4615384615385,4,2,2,90,0,1
67984,-38.4615384615385,4,2,3,90,0,1
68234,-38.4615384615385,4,2,4,90,0,1
68484,-38.4615384615385,4,2,1,90,0,1
68859,-38.4615384615385,4,2,2,90,0,1
68984,-38.4615384615385,4,2,3,90,0,1
69108,-38.4615384615385,4,2,2,90,0,1
69234,-38.4615384615385,4,2,3,90,0,1
69858,-38.4615384615385,4,2,1,90,0,1
69984,-38.4615384615385,4,2,3,90,0,1
70234,-38.4615384615385,4,2,7,90,0,1
70609,-38.4615384615385,4,2,1,90,0,1
70859,-38.4615384615385,4,2,2,90,0,1
70984,-38.4615384615385,4,2,3,90,0,1
71108,-38.4615384615385,4,2,1,90,0,1
71234,-38.4615384615385,4,2,3,90,0,1
71859,-38.4615384615385,4,2,4,90,0,1
71983,-38.4615384615385,4,2,3,90,0,1
72234,-38.4615384615385,4,2,4,90,0,1
72483,-38.4615384615385,4,2,2,90,0,1
72609,-38.4615384615385,4,2,1,90,0,1
72734,-38.4615384615385,4,2,3,90,0,1
72859,-38.4615384615385,4,2,2,90,0,1
72984,-38.4615384615385,4,2,3,90,0,1
73108,-38.4615384615385,4,2,5,90,0,1
73234,-38.4615384615385,4,2,4,90,0,1
73359,-38.4615384615385,4,2,1,90,0,1
73734,-38.4615384615385,4,2,3,90,0,1
73858,-38.4615384615385,4,2,1,90,0,1
73984,-38.4615384615385,4,2,3,90,0,1
74234,-38.4615384615385,4,2,7,90,0,1
74609,-38.4615384615385,4,2,1,90,0,1
74859,-38.4615384615385,4,2,2,90,0,1
74984,-38.4615384615385,4,2,3,90,0,1
75109,-38.4615384615385,4,2,1,90,0,1
75234,-38.4615384615385,4,2,3,90,0,1
75359,-38.4615384615385,4,2,1,90,0,1
75609,-38.4615384615385,4,2,3,90,0,1
75858,-38.4615384615385,4,2,2,90,0,1
75984,-38.4615384615385,4,2,3,90,0,1
76234,-38.4615384615385,4,2,4,90,0,1
76859,-38.4615384615385,4,2,2,90,0,1
76984,-38.4615384615385,4,2,3,90,0,1
77109,-38.4615384615385,4,2,2,90,0,1
77234,-38.4615384615385,4,2,3,90,0,1
77359,-38.4615384615385,4,2,1,90,0,1
77608,-38.4615384615385,4,2,3,90,0,1
77858,-38.4615384615385,4,2,1,90,0,1
77984,-38.4615384615385,4,2,3,90,0,1
78234,-38.4615384615385,4,2,7,90,0,1
78609,-38.4615384615385,4,2,1,90,0,1
78859,-38.4615384615385,4,2,2,90,0,1
78984,-38.4615384615385,4,2,3,90,0,1
79609,-38.4615384615385,4,2,7,90,0,1
79734,-38.4615384615385,4,2,3,90,0,1
79983,-38.4615384615385,4,2,2,90,0,1
80109,-38.4615384615385,4,2,1,90,0,1
80234,-38.4615384615385,4,2,2,90,0,1
80609,-38.4615384615385,4,2,1,90,0,1
80734,-38.4615384615385,4,2,3,90,0,1
80859,-38.4615384615385,4,2,2,90,0,1
80984,-38.4615384615385,4,2,1,90,0,1
81109,-100,4,2,5,90,0,1
81359,-41.6666666666667,4,2,1,80,0,0
81734,-45.4545454545455,4,2,1,80,0,0
82859,-45.4545454545455,4,2,2,80,0,0
82984,-45.4545454545455,4,2,1,80,0,0
83734,-41.6666666666667,4,2,1,80,0,0
83983,-41.6666666666667,4,2,2,80,0,0
84109,-41.6666666666667,4,2,1,80,0,0
84234,-41.6666666666667,4,2,2,80,0,0
84484,-45.4545454545455,4,2,1,80,0,0
84859,-45.4545454545455,4,2,2,80,0,0
84984,-62.5,4,2,1,80,0,0
85359,-41.6666666666667,4,2,1,80,0,0
85734,-45.4545454545455,4,2,1,80,0,0
86859,-45.4545454545455,4,2,2,80,0,0
86984,-45.4545454545455,4,2,1,80,0,0
87359,-50,4,2,1,80,0,0
87859,-50,4,2,2,80,0,0
88109,-50,4,2,1,80,0,0
88234,-50,4,2,2,80,0,0
88359,-45.4545454545455,4,2,2,80,0,0
88484,-45.4545454545455,4,2,1,80,0,0
88859,-45.4545454545455,4,2,2,80,0,0
88984,-45.4545454545455,4,2,1,80,0,0
89109,-45.4545454545455,4,2,2,80,0,0
89234,-45.4545454545455,4,2,1,80,0,0
90859,-45.4545454545455,4,2,2,80,0,0
90984,-45.4545454545455,4,2,1,80,0,0
91359,-50,4,2,1,80,0,0
91859,-50,4,2,2,80,0,0
92109,-50,4,2,1,80,0,0
92234,-50,4,2,2,80,0,0
92484,-50,4,2,1,80,0,0
92859,-50,4,2,2,80,0,0
92984,-62.5,4,2,1,80,0,0
93359,-45.4545454545455,4,2,1,80,0,0
94109,-50,4,2,1,80,0,0
94859,-50,4,2,2,80,0,0
94984,-50,4,2,1,80,0,0
95359,-35.7142857142857,4,2,1,80,0,0
95859,-41.6666666666667,4,2,2,80,0,0
96109,-41.6666666666667,4,2,1,80,0,0
96234,-41.6666666666667,4,2,2,80,0,0
96359,-50,4,2,2,80,0,0
96484,-50,4,2,1,80,0,0
96859,-62.5,4,2,2,80,0,0
96984,-62.5,4,2,1,80,0,0
97109,-62.5,4,2,2,80,0,0
97234,-62.5,4,2,3,80,0,0
97359,-50,4,2,3,70,0,0
97609,-50,4,2,4,70,0,0
98609,-50,4,2,1,70,0,0
98859,-50,4,2,4,70,0,0
99359,-55.5555555555555,4,2,4,70,0,0
99484,-55.5555555555555,4,2,1,70,0,0
99859,-55.5555555555555,4,2,4,70,0,0
100234,-55.5555555555555,4,2,1,70,0,0
100859,-55.5555555555555,4,2,2,70,0,0
101109,-55.5555555555555,4,2,1,70,0,0
101359,-50,4,2,1,70,0,0
101859,-50,4,2,4,70,0,0
102609,-50,4,2,1,70,0,0
102859,-50,4,2,4,70,0,0
103359,-45.4545454545455,4,2,1,70,0,0
103859,-45.4545454545455,4,2,2,70,0,0
104109,-45.4545454545455,4,2,1,70,0,0
104859,-45.4545454545455,4,2,2,70,0,0
105109,-62.5,4,2,1,70,0,0
105359,-50,4,2,3,70,0,0
105609,-50,4,2,4,70,0,0
106609,-50,4,2,1,70,0,0
106859,-50,4,2,4,70,0,0
107484,-55.5555555555555,4,2,1,70,0,0
107859,-55.5555555555555,4,2,4,70,0,0
108234,-55.5555555555555,4,2,1,70,0,0
108859,-55.5555555555555,4,2,2,70,0,0
109109,-55.5555555555555,4,2,4,70,0,0
109359,-50,4,2,4,70,0,0
110609,-50,4,2,1,70,0,0
110859,-50,4,2,4,70,0,0
111359,-45.4545454545455,4,2,4,70,0,0
111484,-45.4545454545455,4,2,1,70,0,0
111859,-45.4545454545455,4,2,4,70,0,0
112234,-45.4545454545455,4,2,1,70,0,0
112859,-45.4545454545455,4,2,2,70,0,0
113109,-83.3333333333335,4,2,6,70,0,0
113359,-83.3333333333335,4,2,6,80,0,0
113421,-83.3333333333335,4,2,6,80,0,0
114234,-41.6666666666668,4,2,1,80,0,0
114484,-38.4615384615385,4,2,1,80,0,0
114734,-35.7142857142857,4,2,1,80,0,0
114984,-33.3333333333334,4,2,1,80,0,0
115109,-83.3333333333335,4,2,1,80,0,0
115359,-50,4,2,7,70,0,0
115484,-50,4,2,1,70,0,0
115734,-50,4,2,3,70,0,0
115859,-50,4,2,5,70,0,0
116109,-50,4,2,3,70,0,0
116234,-50,4,2,1,70,0,0
116859,-50,4,2,6,70,0,0
116984,-50,4,2,1,70,0,0
117109,-50,4,2,3,70,0,0
117234,-50,4,2,1,70,0,0
117609,-50,4,2,3,70,0,0
117859,-50,4,2,5,70,0,0
118109,-50,4,2,3,70,0,0
118234,-50,4,2,1,70,0,0
118609,-50,4,2,3,70,0,0
118859,-50,4,2,5,70,0,0
119109,-50,4,2,3,70,0,0
119234,-50,4,2,1,70,0,0
119359,-45.4545454545455,4,2,1,70,0,0
119859,-45.4545454545455,4,2,6,70,0,0
120109,-45.4545454545455,4,2,1,70,0,0
120859,-45.4545454545455,4,2,6,70,0,0
120984,-45.4545454545455,4,2,1,70,0,0
121109,-62.5,4,2,3,70,0,0
121359,-50,4,2,6,70,0,0
121609,-50,4,2,3,70,0,0
121859,-50,4,2,5,70,0,0
122109,-50,4,2,3,70,0,0
122234,-50,4,2,1,70,0,0
122609,-50,4,2,3,70,0,0
122859,-50,4,2,5,70,0,0
123109,-50,4,2,3,70,0,0
123359,-55.5555555555555,4,2,7,70,0,0
123484,-55.5555555555555,4,2,1,70,0,0
123859,-55.5555555555555,4,2,5,70,0,0
124108,-55.5555555555555,4,2,1,70,0,0
124859,-55.5555555555555,4,2,6,70,0,0
125109,-55.5555555555555,4,2,3,70,0,0
125234,-55.5555555555555,4,2,1,70,0,0
125359,-50,4,2,7,70,0,0
125609,-50,4,2,3,70,0,0
125859,-50,4,2,5,70,0,0
126109,-50,4,2,3,70,0,0
126234,-50,4,2,1,70,0,0
126609,-50,4,2,3,70,0,0
126859,-50,4,2,5,70,0,0
127109,-50,4,2,3,70,0,0
127359,-62.5,4,2,7,70,0,0
127859,-62.5,4,2,5,70,0,0
128234,-62.5,4,2,1,70,0,0
128359,-62.5,4,2,7,70,0,0
128609,-62.5,4,2,3,70,0,0
128859,-62.5,4,2,2,70,0,0
128984,-62.5,4,2,3,70,0,0
129359,-38.4615384615385,4,2,1,90,0,1
129984,-38.4615384615385,4,2,3,90,0,1
130234,-38.4615384615385,4,2,7,90,0,1
130609,-38.4615384615385,4,2,1,90,0,1
130858,-38.4615384615385,4,2,2,90,0,1
130984,-38.4615384615385,4,2,3,90,0,1
131109,-38.4615384615385,4,2,1,90,0,1
131234,-38.4615384615385,4,2,3,90,0,1
131608,-38.4615384615385,4,2,1,90,0,1
131858,-38.4615384615385,4,2,2,90,0,1
131984,-38.4615384615385,4,2,3,90,0,1
132234,-38.4615384615385,4,2,4,90,0,1
132484,-38.4615384615385,4,2,1,90,0,1
132859,-38.4615384615385,4,2,2,90,0,1
132984,-38.4615384615385,4,2,3,90,0,1
133109,-38.4615384615385,4,2,2,90,0,1
133234,-38.4615384615385,4,2,3,90,0,1
133858,-38.4615384615385,4,2,1,90,0,1
133984,-38.4615384615385,4,2,3,90,0,1
134234,-38.4615384615385,4,2,7,90,0,1
134609,-38.4615384615385,4,2,1,90,0,1
134859,-38.4615384615385,4,2,2,90,0,1
134984,-38.4615384615385,4,2,3,90,0,1
135108,-38.4615384615385,4,2,1,90,0,1
135234,-38.4615384615385,4,2,3,90,0,1
135859,-38.4615384615385,4,2,4,90,0,1
135983,-38.4615384615385,4,2,3,90,0,1
136234,-38.4615384615385,4,2,4,90,0,1
136483,-38.4615384615385,4,2,2,90,0,1
136609,-38.4615384615385,4,2,1,90,0,1
136734,-38.4615384615385,4,2,3,90,0,1
136859,-38.4615384615385,4,2,2,90,0,1
136984,-38.4615384615385,4,2,3,90,0,1
137108,-38.4615384615385,4,2,5,90,0,1
137234,-38.4615384615385,4,2,4,90,0,1
137359,-38.4615384615385,4,2,1,90,0,1
137734,-38.4615384615385,4,2,3,90,0,1
137858,-38.4615384615385,4,2,1,90,0,1
137984,-38.4615384615385,4,2,3,90,0,1
138234,-38.4615384615385,4,2,7,90,0,1
138609,-38.4615384615385,4,2,1,90,0,1
138858,-38.4615384615385,4,2,2,90,0,1
138984,-38.4615384615385,4,2,3,90,0,1
139109,-38.4615384615385,4,2,1,90,0,1
139234,-38.4615384615385,4,2,3,90,0,1
139359,-38.4615384615385,4,2,1,90,0,1
139609,-38.4615384615385,4,2,3,90,0,1
139858,-38.4615384615385,4,2,2,90,0,1
139984,-38.4615384615385,4,2,3,90,0,1
140234,-38.4615384615385,4,2,4,90,0,1
140483,-38.4615384615385,4,2,1,90,0,1
140609,-38.4615384615385,4,2,4,90,0,1
140859,-38.4615384615385,4,2,2,90,0,1
140984,-38.4615384615385,4,2,3,90,0,1
141109,-38.4615384615385,4,2,2,90,0,1
141234,-38.4615384615385,4,2,3,90,0,1
141359,-38.4615384615385,4,2,1,90,0,1
141608,-38.4615384615385,4,2,3,90,0,1
141858,-38.4615384615385,4,2,1,90,0,1
141984,-38.4615384615385,4,2,3,90,0,1
142234,-38.4615384615385,4,2,7,90,0,1
142609,-38.4615384615385,4,2,1,90,0,1
142859,-38.4615384615385,4,2,2,90,0,1
142984,-38.4615384615385,4,2,3,90,0,1
143609,-38.4615384615385,4,2,7,90,0,1
143734,-38.4615384615385,4,2,3,90,0,1
143983,-38.4615384615385,4,2,2,90,0,1
144109,-38.4615384615385,4,2,1,90,0,1
144234,-38.4615384615385,4,2,2,90,0,1
144609,-38.4615384615385,4,2,1,90,0,1
144734,-38.4615384615385,4,2,3,90,0,1
144859,-38.4615384615385,4,2,2,90,0,1
144984,-38.4615384615385,4,2,1,90,0,1
145109,-83.3333333333335,4,2,5,90,0,1
145359,-41.6666666666667,4,2,1,80,0,0
145608,-41.6666666666667,4,2,3,80,0,0
145859,-41.6666666666667,4,2,1,80,0,0
146109,-41.6666666666667,4,2,3,80,0,0
146234,-50,4,2,7,80,0,0
146609,-50,4,2,4,80,0,0
146859,-50,4,2,2,80,0,0
146984,-50,4,2,1,80,0,0
147109,-55.5555555555555,4,2,1,80,0,0
147359,-50,4,2,1,80,0,0
147734,-50,4,2,3,80,0,0
147984,-50,4,2,2,80,0,0
148109,-50,4,2,1,80,0,0
148234,-55.5555555555555,4,2,2,80,0,0
148484,-55.5555555555555,4,2,1,80,0,0
148609,-50,4,2,1,80,0,0
148859,-50,4,2,2,80,0,0
148984,-50,4,2,1,80,0,0
149109,-50,4,2,2,80,0,0
149234,-50,4,2,1,80,0,0
149359,-45.4545454545455,4,2,1,80,0,0
149609,-45.4545454545455,4,2,3,80,0,0
149859,-45.4545454545455,4,2,1,80,0,0
150109,-45.4545454545455,4,2,3,80,0,0
150234,-41.6666666666667,4,2,7,80,0,0
150609,-50,4,2,4,80,0,0
150859,-45.4545454545455,4,2,2,80,0,0
150984,-45.4545454545455,4,2,1,80,0,0
151359,-41.6666666666667,4,2,1,80,0,0
151859,-41.6666666666667,4,2,2,80,0,0
152109,-41.6666666666667,4,2,1,80,0,0
152234,-41.6666666666667,4,2,2,80,0,0
152359,-50,4,2,2,80,0,0
152484,-50,4,2,1,80,0,0
152859,-50,4,2,2,80,0,0
152984,-50,4,2,1,80,0,0
153109,-50,4,2,2,80,0,0
153234,-50,4,2,1,80,0,0
153359,-45.4545454545455,4,2,1,80,0,0
153609,-45.4545454545455,4,2,3,80,0,0
153859,-45.4545454545455,4,2,1,80,0,0
154109,-45.4545454545455,4,2,3,80,0,0
154234,-50,4,2,7,80,0,0
154609,-50,4,2,4,80,0,0
154859,-50,4,2,2,80,0,0
154984,-50,4,2,1,80,0,0
155359,-45.4545454545455,4,2,1,80,0,0
155609,-50,4,2,1,80,0,0
155734,-50,4,2,3,80,0,0
155859,-50,4,2,2,80,0,0
156109,-50,4,2,1,80,0,0
156234,-50,4,2,2,80,0,0
156484,-50,4,2,1,80,0,0
156859,-50,4,2,2,80,0,0
156984,-50,4,2,3,80,0,0
157109,-50,4,2,2,80,0,0
157234,-50,4,2,3,80,0,0
157359,-38.4615384615385,4,2,3,80,0,0
157609,-41.6666666666667,4,2,3,80,0,0
157859,-41.6666666666667,4,2,1,80,0,0
157984,-41.6666666666667,4,2,3,80,0,0
158234,-41.6666666666667,4,2,7,80,0,0
158609,-41.6666666666667,4,2,4,80,0,0
158859,-41.6666666666667,4,2,2,80,0,0
159108,-41.6666666666667,4,2,1,80,0,0
159359,-50,4,2,1,80,0,0
159859,-50,4,2,2,80,0,0
160109,-50,4,2,1,80,0,0
160234,-50,4,2,2,80,0,0
160484,-50,4,2,1,80,0,0
160859,-50,4,2,2,80,0,0
160984,-45.4545454545455,4,2,1,80,0,0
161359,-33.3333333333334,4,2,1,80,0,0
162234,-50,4,2,1,80,0,0
162859,-50,4,2,2,80,0,0
162984,-50,4,2,1,80,0,0
163359,-45.4545454545455,4,2,1,80,0,0
163859,-45.4545454545455,4,2,2,80,0,0
164109,-45.4545454545455,4,2,1,80,0,0
164234,-45.4545454545455,4,2,2,80,0,0
164359,-50,4,2,2,80,0,0
164484,-50,4,2,1,80,0,0
164859,-45.4545454545455,4,2,2,80,0,0
165234,-45.4545454545455,4,2,1,80,0,0
165359,-38.4615384615385,4,2,1,80,0,0
165859,-45.4545454545455,4,2,1,80,0,0
166359,-50,4,2,1,80,0,0
166859,-50,4,2,2,80,0,0
167109,-50,4,2,1,80,0,0
167359,-45.4545454545455,4,2,1,80,0,0
167859,-45.4545454545455,4,2,2,80,0,0
168109,-45.4545454545455,4,2,1,80,0,0
168234,-45.4545454545455,4,2,2,80,0,0
168484,-45.4545454545455,4,2,1,80,0,0
168859,-45.4545454545455,4,2,2,80,0,0
168984,-45.4545454545455,4,2,1,80,0,0
169359,-125,4,2,1,80,0,0
169609,-35.7142857142858,4,2,1,80,0,0
170359,-50,4,2,1,80,0,0
170859,-50,4,2,2,80,0,0
170984,-50,4,2,1,80,0,0
171359,-45.4545454545455,4,2,1,80,0,0
171859,-45.4545454545455,4,2,2,80,0,0
172109,-45.4545454545455,4,2,1,80,0,0
172234,-45.4545454545455,4,2,2,80,0,0
172609,-45.4545454545455,4,2,1,80,0,0
172859,-45.4545454545455,4,2,2,80,0,0
172984,-45.4545454545455,4,2,1,80,0,0
173109,-45.4545454545455,4,2,2,80,0,0
173234,-45.4545454545455,4,2,1,80,0,0
173359,-100,4,2,1,80,0,0
173609,-35.7142857142857,4,2,1,80,0,0
174109,-45.4545454545455,4,2,1,80,0,0
174859,-45.4545454545455,4,2,2,80,0,0
174984,-45.4545454545455,4,2,1,80,0,0
175109,-50,4,2,1,80,0,0
175359,-31.25,4,2,1,80,0,0
175609,-38.4615384615385,4,2,1,80,0,0
175859,-45.4545454545455,4,2,2,80,0,0
176359,-62.5,4,2,2,80,0,0
176525,-62.5,4,2,1,80,0,0
176609,-45.4545454545455,4,2,1,80,0,0
176859,-45.4545454545455,4,2,2,80,0,0
177234,-45.4545454545455,4,2,1,80,0,0
177359,-50,4,2,4,60,0,0
177609,-50,4,2,1,60,0,0
177734,-62.5,4,2,1,60,0,0
179359,-50,4,2,1,60,0,0
179859,-62.5,4,2,1,60,0,0
181359,-50,4,2,1,60,0,0
181734,-62.5,4,2,1,60,0,0
183359,-50,4,2,1,60,0,0
183859,-62.5,4,2,1,60,0,0
185359,-50,4,2,3,70,0,0
185859,-62.5,4,2,3,70,0,0
185984,-62.5,4,2,1,70,0,0
187359,-50,4,2,1,70,0,0
187859,-62.5,4,2,1,70,0,0
189109,-62.5,4,2,3,70,0,0
189359,-41.6666666666667,4,2,3,70,0,0
189608,-41.6666666666667,4,2,4,70,0,0
189859,-41.6666666666667,4,2,3,70,0,0
190109,-41.6666666666667,4,2,4,70,0,0
190859,-41.6666666666667,4,2,3,70,0,0
191109,-41.6666666666667,4,2,4,70,0,0
191359,-500,4,2,4,70,0,0
192609,-500,4,2,1,70,0,0
193109,-500,4,2,3,70,0,0
193359,-38.4615384615385,4,2,1,90,0,1
193984,-38.4615384615385,4,2,3,90,0,1
194234,-38.4615384615385,4,2,7,90,0,1
194609,-38.4615384615385,4,2,1,90,0,1
194858,-38.4615384615385,4,2,2,90,0,1
194984,-38.4615384615385,4,2,3,90,0,1
195109,-38.4615384615385,4,2,1,90,0,1
195234,-38.4615384615385,4,2,3,90,0,1
195608,-38.4615384615385,4,2,1,90,0,1
195858,-38.4615384615385,4,2,2,90,0,1
195984,-38.4615384615385,4,2,3,90,0,1
196234,-38.4615384615385,4,2,4,90,0,1
196484,-38.4615384615385,4,2,1,90,0,1
196859,-38.4615384615385,4,2,2,90,0,1
196984,-38.4615384615385,4,2,3,90,0,1
197108,-38.4615384615385,4,2,2,90,0,1
197234,-38.4615384615385,4,2,3,90,0,1
197858,-38.4615384615385,4,2,1,90,0,1
197984,-38.4615384615385,4,2,3,90,0,1
198234,-38.4615384615385,4,2,7,90,0,1
198609,-38.4615384615385,4,2,1,90,0,1
198859,-38.4615384615385,4,2,2,90,0,1
198984,-38.4615384615385,4,2,3,90,0,1
199108,-38.4615384615385,4,2,1,90,0,1
199234,-38.4615384615385,4,2,3,90,0,1
199859,-38.4615384615385,4,2,4,90,0,1
199983,-38.4615384615385,4,2,3,90,0,1
200234,-38.4615384615385,4,2,4,90,0,1
200483,-38.4615384615385,4,2,2,90,0,1
200609,-38.4615384615385,4,2,1,90,0,1
200734,-38.4615384615385,4,2,3,90,0,1
200859,-38.4615384615385,4,2,2,90,0,1
200984,-38.4615384615385,4,2,3,90,0,1
201108,-38.4615384615385,4,2,5,90,0,1
201234,-38.4615384615385,4,2,4,90,0,1
201359,-38.4615384615385,4,2,1,90,0,1
201734,-38.4615384615385,4,2,3,90,0,1
201858,-38.4615384615385,4,2,1,90,0,1
201984,-38.4615384615385,4,2,3,90,0,1
202234,-38.4615384615385,4,2,7,90,0,1
202609,-38.4615384615385,4,2,1,90,0,1
202859,-38.4615384615385,4,2,2,90,0,1
202984,-38.4615384615385,4,2,3,90,0,1
203109,-38.4615384615385,4,2,1,90,0,1
203234,-38.4615384615385,4,2,3,90,0,1
203858,-38.4615384615385,4,2,2,90,0,1
203984,-38.4615384615385,4,2,3,90,0,1
204234,-38.4615384615385,4,2,4,90,0,1
204483,-38.4615384615385,4,2,1,90,0,1
204609,-38.4615384615385,4,2,4,90,0,1
204859,-38.4615384615385,4,2,2,90,0,1
204984,-38.4615384615385,4,2,3,90,0,1
205109,-38.4615384615385,4,2,2,90,0,1
205234,-38.4615384615385,4,2,3,90,0,1
205359,-38.4615384615385,4,2,1,90,0,1
205608,-38.4615384615385,4,2,3,90,0,1
205858,-38.4615384615385,4,2,1,90,0,1
205984,-38.4615384615385,4,2,3,90,0,1
206234,-38.4615384615385,4,2,7,90,0,1
206609,-38.4615384615385,4,2,1,90,0,1
206859,-38.4615384615385,4,2,2,90,0,1
206984,-38.4615384615385,4,2,3,90,0,1
207609,-38.4615384615385,4,2,7,90,0,1
207734,-38.4615384615385,4,2,3,90,0,1
208109,-38.4615384615385,4,2,1,90,0,1
208234,-38.4615384615385,4,2,2,90,0,1
208609,-38.4615384615385,4,2,1,90,0,1
208859,-38.4615384615385,4,2,2,90,0,1
208984,-38.4615384615385,4,2,1,90,0,1
209109,-38.4615384615385,4,2,5,90,0,1
209359,-41.6666666666667,4,2,1,80,0,0
209859,-50,4,2,1,80,0,0
210859,-50,4,2,2,80,0,0
210984,-50,4,2,1,80,0,0
211734,-41.6666666666667,4,2,1,80,0,0
212234,-41.6666666666667,4,2,2,80,0,0
212484,-41.6666666666667,4,2,1,80,0,0
212858,-41.6666666666667,4,2,2,80,0,0
212984,-41.6666666666667,4,2,1,80,0,0
213108,-41.6666666666667,4,2,2,80,0,0
213234,-41.6666666666667,4,2,1,80,0,0
213859,-50,4,2,1,80,0,0
214234,-50,4,2,2,80,0,0
214359,-50,4,2,1,80,0,0
214859,-50,4,2,2,80,0,0
214984,-50,4,2,1,80,0,0
215859,-50,4,2,2,80,0,0
216109,-50,4,2,1,80,0,0
216234,-50,4,2,2,80,0,0
216359,-45.4545454545455,4,2,2,80,0,0
216484,-45.4545454545455,4,2,1,80,0,0
216859,-45.4545454545455,4,2,2,80,0,0
216984,-45.4545454545455,4,2,1,80,0,0
217109,-45.4545454545455,4,2,2,80,0,0
217234,-45.4545454545455,4,2,1,80,0,0
217359,-41.6666666666667,4,2,1,80,0,0
217984,-45.4545454545455,4,2,1,80,0,0
218859,-45.4545454545455,4,2,2,80,0,0
218984,-45.4545454545455,4,2,1,80,0,0
219359,-41.6666666666667,4,2,1,80,0,0
219983,-41.6666666666667,4,2,2,80,0,0
220359,-45.4545454545455,4,2,2,80,0,0
220609,-45.4545454545455,4,2,1,80,0,0
220859,-45.4545454545455,4,2,2,80,0,0
220984,-45.4545454545455,4,2,1,80,0,0
221109,-45.4545454545455,4,2,2,80,0,0
221234,-45.4545454545455,4,2,1,80,0,0
222859,-45.4545454545455,4,2,2,80,0,0
222984,-45.4545454545455,4,2,1,80,0,0
223359,-33.3333333333334,4,2,1,80,0,0
223859,-38.4615384615385,4,2,2,80,0,0
224233,-38.4615384615385,4,2,6,80,0,0
224359,-45.4545454545455,4,2,1,80,0,0
224859,-45.4545454545455,4,2,2,80,0,0
224984,-45.4545454545455,4,2,1,80,0,0
225109,-45.4545454545455,4,2,2,80,0,0
225234,-45.4545454545455,4,2,1,80,0,0
225609,-45.4545454545455,4,2,1,70,0,0
228359,-50,4,2,1,60,0,0
230359,-50,4,2,1,50,0,0
232359,-50,4,2,1,40,0,0
233609,-50,4,2,1,30,0,0
233859,-50,4,2,1,5,0,0

[Colours]
Combo1 : 147,120,108
Combo2 : 192,192,192
Combo3 : 219,198,174
Combo4 : 130,124,131

[HitObjects]
128,293,609,5,0,0:0:0:0:
40,239,859,2,0,P|90:239|120:286,1,103.2,0|0,3:3|0:0,0:0:0:0:
69,359,1359,6,0,B|183:325|104:263|242:243,1,206.399993701172,4|8,1:2|2:3,0:0:0:0:
308,295,1734,1,4,1:3:0:0:
271,162,1859,2,0,P|282:99|296:63,1,86,8|4,2:2|2:3,0:0:0:0:
433,122,2109,1,8,1:3:0:0:
499,76,2234,1,2,1:3:0:0:
431,208,2359,6,0,P|385:188|327:189,1,86,0|8,1:1|2:3,0:0:0:0:
370,56,2609,2,0,P|327:60|288:78,1,86,6|0,2:3|1:1,0:0:0:0:
173,166,2859,1,12,2:2:0:0:
46,90,2984,2,0,B|27:49|27:49|59:0,1,86,8|0,2:3|1:1,0:0:0:0:
86,167,3234,1,0,0:0:0:0:
209,88,3359,6,0,B|171:76|171:76|166:71|166:71|109:54,2,86,0|2|8,1:1|2:3|2:3,0:0:0:0:
52,263,3734,2,0,B|90:251|90:251|95:246|95:246|152:229,2,86,4|10|4,1:3|2:3|2:3,0:0:0:0:
190,291,4109,1,8,1:3:0:0:
86,167,4234,1,10,2:3:0:0:
208,89,4359,6,0,B|227:48|227:48|195:-1,1,86,0|8,0:0|2:3,0:0:0:0:
173,165,4609,2,0,L|264:192,1,86,6|0,2:3|1:1,0:0:0:0:
348,135,4859,5,12,2:2:0:0:
423,215,4984,2,0,P|354:202|349:118,1,137.6,8|8,2:3|2:3,0:0:0:0:
392,70,5359,6,0,B|382:127|382:127|359:158|359:158|342:235,1,172,4|8,1:2|2:3,0:0:0:0:
194,303,5734,2,0,B|199:331|199:331|210:347|210:347|219:385,1,86,4|8,1:3|2:2,0:0:0:0:
408,292,5984,1,4,2:3:0:0:
478,354,6109,2,0,L|508:261,1,86,8|2,1:3|1:3,0:0:0:0:
385,381,6359,6,0,P|337:360|303:354,1,86,0|8,1:1|2:3,0:0:0:0:
432,205,6609,2,0,P|480:184|514:178,1,86,6|0,2:3|1:1,0:0:0:0:
408,292,6859,1,12,2:2:0:0:
259,273,6984,2,0,B|216:266|216:266|179:296,2,86,8|0|0,2:3|1:1|0:0,0:0:0:0:
195,113,7359,6,0,B|202:75|202:75|208:68|208:68|219:11,2,86,0|2|8,1:1|2:3|2:3,0:0:0:0:
322,82,7734,2,0,B|315:44|315:44|309:37|309:37|298:-20,2,86,4|0|4,1:3|0:0|2:3,0:0:0:0:
266,172,8109,5,8,1:3:0:0:
266,172,8234,1,10,2:3:0:0:
333,231,8359,5,0,0:0:0:0:
178,198,8484,2,0,P|132:211|119:263,1,103.199996850586,8|0,2:3|0:0,0:0:0:0:
297,356,8734,1,0,1:1:0:0:
211,384,8859,1,12,2:2:0:0:
211,384,8984,2,0,B|206:344|206:344|202:334|202:334|194:279,1,103.199996850586,8|0,2:3|1:1,0:0:0:0:
372,328,9234,1,8,2:3:0:0:
272,277,9359,6,0,B|150:298|229:360|80:374,1,193.50000738144,4|0,1:2|0:0,0:0:0:0:
100,369,9609,1,8,2:3:0:0:
79,265,9734,1,4,1:3:0:0:
155,196,9859,5,8,2:2:0:0:
167,147,9984,1,4,2:3:0:0:
86,93,10109,5,8,1:3:0:0:
87,78,10234,1,2,1:3:0:0:
251,117,10359,6,0,P|307:91|281:14,1,129,0|0,1:1|0:0,0:0:0:0:
292,19,10609,1,6,2:3:0:0:
211,40,10734,2,0,L|108:4,1,86,0|12,1:1|2:2,0:0:0:0:
86,176,10984,2,0,L|189:140,2,86,8|0|0,2:3|0:0|0:0,0:0:0:0:
2,161,11359,5,0,1:1:0:0:
103,255,11484,2,0,B|172:307|172:307|256:281,1,172,2|4,2:3|1:3,0:0:0:0:
321,184,11859,6,0,B|325:222|325:222|330:228|330:228|337:283,1,86,10|4,2:3|2:3,0:0:0:0:
409,305,12109,1,8,1:3:0:0:
382,123,12234,2,0,B|320:141|320:141|290:184|290:184|228:202,1,172,10|8,2:3|2:3,0:0:0:0:
185,130,12609,2,0,B|190:90|190:90|195:84|195:84|199:46,1,86,6|0,2:3|1:1,0:0:0:0:
116,0,12859,5,12,2:2:0:0:
20,91,12984,2,0,P|39:14|112:7,1,137.6,8|8,2:3|2:3,0:0:0:0:
107,82,13359,6,0,B|121:190|155:128|168:245,1,172,4|8,1:2|2:3,0:0:0:0:
80,371,13734,2,0,P|34:350|-5:342,1,86,4|8,1:3|2:2,0:0:0:0:
131,304,13984,1,4,2:3:0:0:
203,343,14109,2,0,P|241:324|283:314,1,86,8|2,1:3|1:3,0:0:0:0:
387,286,14359,5,0,1:1:0:0:
316,234,14484,1,8,2:3:0:0:
477,297,14609,5,6,2:3:0:0:
298,325,14734,1,0,1:1:0:0:
378,367,14859,5,0,0:0:0:0:
378,367,14984,1,8,2:3:0:0:
372,174,15109,6,0,L|391:128,1,34.4,0|0,1:1|0:0,0:0:0:0:
357,3,15359,6,0,B|458:77|458:77|423:131|385:122|385:122|376:127|376:127|317:111|280:157,1,335.399984646607,4|4,1:2|1:3,0:0:0:0:
202,204,15859,6,0,B|188:194|168:190|168:190|238:225|228:293|228:293|261:237|342:244,1,283.800008660889,10|10,3:3|2:3,0:0:0:0:
281,372,16359,6,0,P|271:325|255:281,1,77.3999976379395,0|8,3:3|2:3,0:0:0:0:
198,123,16609,5,6,2:3:0:0:
198,123,16734,1,0,1:1:0:0:
279,157,16859,5,12,3:2:0:0:
126,193,16984,1,8,2:3:0:0:
164,41,17109,6,0,P|159:28|155:13,1,25.7999992126465,0|8,1:1|2:3,0:0:0:0:
214,213,17359,6,0,P|231:111|257:12,1,206.399993701172,6|10,1:2|2:3,0:0:0:0:
114,112,17734,1,4,1:3:0:0:
78,37,17859,2,0,P|34:35|9:101,1,103.199996850586,10|4,2:2|2:3,0:0:0:0:
126,193,18109,1,10,1:3:0:0:
279,157,18234,6,0,B|380:171|318:225|449:239,1,172,2|8,1:3|2:3,0:0:0:0:
487,185,18609,2,0,P|503:128|517:94,1,86,6|0,2:3|1:1,0:0:0:0:
472,35,18859,5,14,2:2:0:0:
316,82,18984,1,8,2:3:0:0:
388,117,19109,2,0,B|404:86|404:86|390:49,1,68.8,2|0,1:2|0:0,0:0:0:0:
338,230,19359,6,0,L|361:326,2,86,2|0|8,1:2|0:0|2:3,0:0:0:0:
425,235,19734,6,0,B|324:249|386:303|255:317,1,172,6|0,1:3|0:0,0:0:0:0:
220,259,20109,1,8,1:3:0:0:
135,353,20234,6,0,P|103:339|70:329,1,68.8,10|0,2:3|0:0,0:0:0:0:
10,381,20484,1,8,2:3:0:0:
136,258,20609,5,6,2:3:0:0:
136,258,20734,2,0,B|152:221|152:221|134:165,1,86,0|12,1:1|2:2,0:0:0:0:
2,209,20984,2,0,B|-14:246|-14:246|4:302,1,86,8|0,2:3|1:1,0:0:0:0:
59,140,21234,1,8,2:3:0:0:
227,174,21359,6,0,P|294:159|297:32,1,206.399993701172,6|10,1:2|2:3,0:0:0:0:
236,0,21734,1,4,1:3:0:0:
61,130,21859,6,0,P|27:122|26:59,1,103.199996850586,10|4,2:2|2:3,0:0:0:0:
84,16,22109,1,10,1:3:0:0:
188,72,22234,6,0,B|254:62|254:62|285:14|285:14|378:-6,1,206.399993701172,2|8,1:3|2:3,0:0:0:0:
275,107,22609,2,0,L|168:74,1,86,6|0,2:3|1:1,0:0:0:0:
359,83,22859,6,0,B|371:126|371:126|331:179,2,86,14|8|2,2:2|2:3|1:2,0:0:0:0:
268,191,23234,1,2,2:2:0:0:
327,316,23359,5,0,1:1:0:0:
247,356,23484,2,0,B|181:346|181:346|150:298|150:298|57:278,1,206.399993701172,0|4,0:0|1:3,0:0:0:0:
119,212,23859,6,0,P|161:236|155:284,1,103.199996850586,10|4,2:3|2:3,0:0:0:0:
104,362,24109,1,8,1:3:0:0:
256,272,24234,6,0,L|490:226,1,206.399993701172,10|8,2:3|2:3,0:0:0:0:
459,252,24609,2,0,L|350:222,1,103.199996850586,6|0,2:3|1:1,0:0:0:0:
268,191,24859,5,12,2:2:0:0:
332,301,24984,1,8,2:3:0:0:
237,385,25109,6,0,L|242:349,1,34.4,0|8,1:1|2:3,0:0:0:0:
175,266,25359,6,0,B|155:143|102:227|82:48,1,206.399993701172,6|10,1:2|2:3,0:0:0:0:
278,75,25734,1,4,1:3:0:0:
181,107,25859,2,0,P|195:44|215:-1,1,103.199996850586,10|0,2:2|0:0,0:0:0:0:
341,131,26109,1,10,1:3:0:0:
404,84,26234,6,0,P|338:99|230:180,1,172,2|8,1:3|2:3,0:0:0:0:
469,140,26609,2,0,P|497:112|488:67,1,86,6|0,2:3|1:1,0:0:0:0:
335,16,26859,5,14,2:2:0:0:
490,60,26984,1,8,2:3:0:0:
415,0,27109,2,0,L|410:71,1,68.8,2|0,1:2|0:0,0:0:0:0:
405,181,27359,6,0,P|484:201|503:281,1,172,2|8,1:2|2:3,0:0:0:0:
495,278,27734,2,0,P|491:221|527:195,1,86,6|10,1:3|2:3,0:0:0:0:
467,366,27984,5,4,2:3:0:0:
399,328,28109,1,8,1:3:0:0:
342,384,28234,1,10,2:3:0:0:
342,384,28484,5,8,2:3:0:0:
374,253,28609,2,0,B|367:166|341:213|329:103,1,129,6|0,2:3|0:0,0:0:0:0:
329,119,28859,5,14,2:2:0:0:
264,173,28984,2,0,P|215:157|163:143,1,86,10|0,2:3|1:1,0:0:0:0:
31,173,29234,1,10,2:3:0:0:
147,222,29359,6,0,B|124:235|113:263|113:263|44:213|100:125,1,206.399993701172,4|10,1:2|2:3,0:0:0:0:
175,0,29734,1,4,1:3:0:0:
24,87,29859,1,10,2:2:0:0:
103,117,29984,2,0,P|122:74|86:31,1,103.199996850586,6|8,2:3|1:3,0:0:0:0:
11,0,30234,6,0,P|111:20|208:82,1,206.399993701172,2|8,1:3|2:3,0:0:0:0:
259,128,30609,2,0,P|309:116|353:91,1,103.199996850586,6|0,2:3|1:1,0:0:0:0:
259,19,30859,6,0,B|241:149|193:77|172:201,1,206.399993701172,14|2,2:2|1:2,0:0:0:0:
124,336,31234,1,0,0:0:0:0:
42,218,31359,6,0,P|126:220|189:293,1,172,2|0,1:2|0:0,0:0:0:0:
261,329,31734,1,4,1:3:0:0:
393,230,31859,2,0,P|351:231|319:264,2,86,10|4|8,2:3|2:3|1:3,0:0:0:0:
201,384,32234,6,0,P|212:312|253:214,1,172,10|8,2:3|2:3,0:0:0:0:
245,226,32546,1,0,0:0:0:0:
242,232,32609,2,0,P|239:277|268:321,1,86,6|0,2:3|1:1,0:0:0:0:
406,241,32859,5,12,2:2:0:0:
350,345,32984,1,8,2:3:0:0:
308,164,33109,6,0,P|302:138|294:114,1,51.599998425293,0|8,1:1|2:3,0:0:0:0:
150,101,33359,6,0,B|247:91|191:35|314:18,1,172,6|2,1:2|2:2,0:0:0:0:
471,105,33734,1,0,1:1:0:0:
394,160,33859,2,0,P|387:108|372:72,1,86,10|0,2:3|0:0,0:0:0:0:
308,173,34109,5,2,1:2:0:0:
308,173,34234,2,0,P|394:186|468:245,1,172,2|0,1:2|0:0,0:0:0:0:
263,303,34609,2,0,P|220:309|182:339,1,86,2|0,1:2|1:1,0:0:0:0:
329,252,34859,1,10,2:3:0:0:
329,252,34984,1,0,0:0:0:0:
240,217,35109,2,0,P|197:210|160:181,1,86,2|0,1:2|0:0,0:0:0:0:
16,297,35359,5,2,1:3:0:0:
79,356,35484,2,0,B|106:327|106:327|95:257,1,77.3999976379395,8|0,2:2|0:0,0:0:0:0:
83,152,35734,5,0,1:1:0:0:
21,213,35859,2,0,B|-5:185|-5:185|0:144,1,77.3999976379395,10|0,2:3|0:0,0:0:0:0:
171,172,36109,5,2,1:2:0:0:
171,172,36234,2,0,P|246:141|230:49,1,154.799995275879,10|0,2:2|0:0,0:0:0:0:
84,67,36609,1,0,1:1:0:0:
84,67,36734,1,0,1:1:0:0:
157,8,36859,2,0,P|164:64|170:102,1,77.3999976379395,10|0,2:3|0:0,0:0:0:0:
191,258,37109,5,2,1:2:0:0:
111,231,37234,1,2,2:2:0:0:
199,269,37359,2,0,P|257:239|389:242,1,172,2|2,1:3|2:2,0:0:0:0:
437,261,37734,1,0,1:1:0:0:
512,120,37859,2,0,P|477:149|464:188,1,86,10|0,2:3|0:0,0:0:0:0:
445,270,38109,1,0,0:0:0:0:
287,195,38234,6,0,B|308:100|348:155|365:35,1,172,2|0,1:2|0:0,0:0:0:0:
295,5,38609,1,2,2:2:0:0:
381,124,38734,1,0,1:1:0:0:
225,138,38859,2,0,P|185:120|129:110,1,86,10|0,2:3|0:0,0:0:0:0:
302,96,39109,1,2,1:2:0:0:
302,96,39234,1,2,2:2:0:0:
198,224,39359,5,2,1:3:0:0:
283,189,39484,2,0,B|272:265|272:265|245:293|245:293|228:395,1,189.200005773926,8|0,2:2|1:1,0:0:0:0:
248,361,39859,2,0,B|343:329,1,94.600002886963,10|0,2:3|0:0,0:0:0:0:
411,384,40109,1,0,1:1:0:0:
512,271,40234,6,0,B|439:211|439:211|344:251,1,189.200005773926,8|0,2:2|1:1,0:0:0:0:
426,304,40609,1,0,1:1:0:0:
426,304,40734,1,0,1:1:0:0:
374,154,40859,5,10,2:3:0:0:
449,129,40984,1,8,2:2:0:0:
403,64,41109,2,0,B|399:28|399:28|428:6,1,68.8,2|0,1:2|0:0,0:0:0:0:
493,62,41359,6,0,L|439:240,1,172,6|2,1:2|2:2,0:0:0:0:
318,93,41734,1,0,1:1:0:0:
379,163,41859,2,0,L|272:185,1,86,10|0,2:3|0:0,0:0:0:0:
255,29,42109,1,2,1:2:0:0:
138,119,42234,6,0,P|77:101|78:-15,1,172,2|0,1:2|0:0,0:0:0:0:
232,108,42609,2,0,P|214:151|207:197,1,86,2|0,1:2|1:1,0:0:0:0:
168,39,42859,1,10,2:3:0:0:
168,39,42984,1,0,0:0:0:0:
123,205,43109,2,0,P|141:248|148:294,1,86,2|0,1:2|0:0,0:0:0:0:
125,369,43359,5,2,1:3:0:0:
228,267,43484,2,0,B|323:292|270:355|379:366,1,154.799995275879,8|0,2:2|1:1,0:0:0:0:
359,360,43859,2,0,P|368:317|399:274,1,77.3999976379395,10|0,2:3|0:0,0:0:0:0:
213,350,44109,1,0,1:1:0:0:
307,258,44234,6,0,P|290:174|234:92,1,154.799995275879,10|0,2:2|0:0,0:0:0:0:
466,66,44609,5,0,1:1:0:0:
466,66,44734,1,0,1:1:0:0:
396,114,44859,2,0,P|364:85|322:75,1,77.3999976379395,10|0,2:3|0:0,0:0:0:0:
438,200,45109,6,0,P|469:171|511:161,1,77.3999976379395,2|0,1:2|0:0,0:0:0:0:
488,277,45359,2,0,B|400:265|439:200|328:188,1,172,2|2,1:3|2:2,0:0:0:0:
219,262,45734,1,0,1:1:0:0:
309,265,45859,2,0,P|298:312|293:351,1,86,10|0,2:3|0:0,0:0:0:0:
260,191,46109,1,2,2:2:0:0:
136,264,46234,6,0,P|57:265|30:169,1,172,2|0,1:2|0:0,0:0:0:0:
198,63,46609,2,0,P|179:29|123:23,1,86,2|0,2:2|1:1,0:0:0:0:
55,60,46859,1,10,2:3:0:0:
196,146,46984,1,0,0:0:0:0:
105,185,47109,2,0,P|112:155|128:95,1,86,2|0,1:2|0:0,0:0:0:0:
0,264,47359,5,2,1:3:0:0:
23,188,47484,2,0,P|40:275|57:377,1,189.200005773926,8|0,2:2|1:1,0:0:0:0:
250,215,47859,2,0,P|232:127|215:25,1,189.200005773926,10|0,2:3|1:1,0:0:0:0:
100,193,48234,6,0,B|205:213|134:271|247:300,1,189.200005773926,10|0,2:2|1:1,0:0:0:0:
401,238,48609,1,0,1:1:0:0:
401,238,48734,1,0,1:1:0:0:
323,264,48859,1,10,2:3:0:0:
449,301,48984,1,8,2:2:0:0:
420,164,49109,6,0,L|435:109,1,51.599998425293,0|0,1:1|0:0,0:0:0:0:
512,115,49359,6,0,B|416:102|469:40|370:15,1,172,6|2,1:2|2:2,0:0:0:0:
266,128,49734,1,0,1:1:0:0:
356,98,49859,2,0,P|342:143|332:192,1,86,10|0,2:3|0:0,0:0:0:0:
311,262,50109,1,2,1:2:0:0:
470,308,50234,6,0,P|428:298|386:307,2,86,2|2|0,1:2|2:3|0:0,0:0:0:0:
316,353,50609,1,2,1:2:0:0:
225,275,50734,1,0,1:1:0:0:
230,358,50859,5,10,2:3:0:0:
230,358,50984,1,0,0:0:0:0:
129,293,51109,5,2,1:2:0:0:
41,320,51234,1,8,0:0:0:0:
140,374,51359,5,2,1:3:0:0:
140,374,51484,2,0,L|164:184,1,154.799995275879,8|0,2:2|1:1,0:0:0:0:
31,166,51859,2,0,B|28:204|28:204|65:240,2,77.3999976379395,10|0|0,2:3|0:0|1:1,0:0:0:0:
112,144,52234,1,10,2:2:0:0:
66,35,52359,5,0,0:0:0:0:
66,35,52484,2,0,B|100:46|100:46|106:52|106:52|144:63,1,77.3999976379395,0|0,0:0|1:1,0:0:0:0:
199,127,52734,2,0,B|226:100|226:100|223:60,1,77.3999976379395,0|10,1:1|2:3,0:0:0:0:
112,144,52984,1,2,0:0:0:0:
254,195,53109,5,2,1:2:0:0:
254,195,53234,1,2,2:2:0:0:
341,52,53359,2,0,P|399:46|506:125,1,172,2|2,1:3|2:2,0:0:0:0:
335,173,53734,1,0,1:1:0:0:
276,114,53859,2,0,P|210:117|189:145,1,86,10|0,2:3|0:0,0:0:0:0:
339,182,54109,1,2,2:2:0:0:
411,99,54234,6,0,B|423:203|471:147|486:269,1,172,2|0,1:2|0:0,0:0:0:0:
480,262,54609,2,0,P|490:213|505:167,1,86,2|0,2:2|1:1,0:0:0:0:
396,252,54859,1,10,2:3:0:0:
396,252,54984,1,0,0:0:0:0:
428,331,55109,1,2,1:2:0:0:
362,384,55234,1,2,2:2:0:0:
245,292,55359,5,2,1:3:0:0:
330,307,55484,2,0,B|264:320|264:320|235:360|235:360|161:375,1,189.200005773926,8|0,2:2|1:1,0:0:0:0:
162,366,55859,2,0,L|142:272,1,94.600002886963,10|0,2:3|0:0,0:0:0:0:
128,196,56109,1,0,1:1:0:0:
245,292,56234,1,8,2:2:0:0:
290,136,56359,5,2,2:3:0:0:
290,136,56484,2,0,L|310:237,1,94.600002886963,0|0,1:1|1:1,0:0:0:0:
170,362,56734,2,0,L|151:269,1,94.600002886963,0|10,1:1|2:3,0:0:0:0:
211,160,56984,5,8,2:2:0:0:
113,113,57109,1,2,1:2:0:0:
175,19,57234,1,0,0:0:0:0:
83,26,57359,6,0,B|83:15|83:15|46:-16|-8:8,1,94.600002886963,6|0,1:2|0:0,0:0:0:0:
123,107,57609,2,0,P|178:70|268:72,1,141.900004330444,2|0,2:2|0:0,0:0:0:0:
266,70,57859,1,10,2:3:0:0:
343,121,57984,2,0,B|351:127|351:127|393:126|409:85|409:85|404:72,1,94.600002886963,0|2,0:0|1:2,0:0:0:0:
343,2,58234,6,0,B|350:12|350:12|331:115|286:45|266:180,1,189.200005773926,2|0,1:2|0:0,0:0:0:0:
315,228,58609,1,2,1:2:0:0:
315,228,58734,1,0,1:1:0:0:
191,276,58859,2,0,P|139:257|94:252,1,94.600002886963,10|0,2:3|0:0,0:0:0:0:
219,354,59109,2,0,P|261:345|273:301,1,94.600002886963,2|0,1:2|0:0,0:0:0:0:
187,191,59359,5,2,1:3:0:0:
100,252,59484,2,0,P|91:174|24:72,1,172,8|0,2:2|1:1,0:0:0:0:
154,106,59859,2,0,P|171:51|202:17,1,86,10|0,2:3|0:0,0:0:0:0:
93,27,60109,1,0,1:1:0:0:
242,97,60234,6,0,B|332:114|285:180|401:184,1,172,10|0,2:2|0:0,0:0:0:0:
466,137,60609,1,0,1:1:0:0:
466,137,60734,2,0,P|481:94|500:48,1,86,0|10,1:1|2:3,0:0:0:0:
388,100,60984,5,0,0:0:0:0:
459,226,61109,1,2,1:2:0:0:
459,226,61234,1,2,2:2:0:0:
311,230,61359,6,0,B|293:235|293:235|264:271|311:321,1,94.600002886963,2|0,1:3|0:0,0:0:0:0:
395,378,61609,2,0,P|476:364|485:308,1,141.900004330444,2|0,2:2|0:0,0:0:0:0:
484,304,61859,1,10,2:3:0:0:
459,226,61984,2,0,B|451:219|451:219|441:179|473:152|473:152|484:153,1,94.600002886963,0|2,0:0|2:2,0:0:0:0:
399,289,62234,6,0,B|394:282|394:282|298:291|351:358|232:369,1,189.200005773926,2|0,1:2|0:0,0:0:0:0:
128,247,62609,2,0,P|81:237|41:210,1,94.600002886963,2|0,2:2|1:1,0:0:0:0:
205,201,62859,2,0,P|291:216|296:303,1,189.200005773926,10|2,2:3|1:2,0:0:0:0:
132,384,63234,1,0,0:0:0:0:
181,316,63359,5,2,1:3:0:0:
181,316,63859,6,0,P|177:290|108:120,1,206.4,10|10,2:3|2:2,0:0:0:0:
68,59,64359,1,2,2:3:0:0:
68,59,64609,5,2,1:2:0:0:
187,100,64734,1,0,1:1:0:0:
235,172,64859,5,10,2:3:0:0:
310,149,64984,1,8,2:2:0:0:
248,41,65109,5,2,1:2:0:0:
192,243,65234,1,2,2:2:0:0:
329,70,65359,6,0,P|419:74|431:205,1,223.599989764405,6|8,1:2|2:3,0:0:0:0:
311,292,65734,2,0,P|250:259|176:246,1,111.799994882202,4|8,1:3|2:2,0:0:0:0:
361,223,65984,1,6,2:3:0:0:
222,338,66109,1,8,1:3:0:0:
310,376,66234,6,0,B|296:250|246:306|238:127,1,223.599989764405,2|8,1:3|2:3,0:0:0:0:
307,88,66609,1,6,2:3:0:0:
381,144,66734,2,0,P|428:102|418:48,1,111.799994882202,0|12,1:1|2:2,0:0:0:0:
301,98,66984,5,10,2:3:0:0:
208,54,67109,1,2,1:2:0:0:
135,120,67234,1,10,2:3:0:0:
81,28,67359,6,0,B|177:85|177:85|159:209,1,223.599989764405,0|8,1:1|2:3,0:0:0:0:
51,233,67734,2,0,L|167:200,1,111.799994882202,0|10,0:0|2:3,0:0:0:0:
143,289,67984,1,6,2:3:0:0:
49,150,68109,1,8,1:3:0:0:
0,305,68234,6,0,B|54:321|54:321|83:361|83:361|168:376,1,167.699992323304,10|0,2:3|0:0,0:0:0:0:
155,374,68484,1,8,2:3:0:0:
232,329,68609,2,0,B|264:287|264:287|240:230,1,111.799994882202,6|0,2:3|1:1,0:0:0:0:
159,282,68859,1,12,2:2:0:0:
249,227,68984,2,0,L|365:260,1,111.799994882202,10|2,2:3|1:2,0:0:0:0:
188,151,69234,1,10,2:3:0:0:
210,70,69359,6,0,P|115:54|50:141,1,167.699992323304,4|0,1:2|0:0,0:0:0:0:
64,109,69609,1,8,2:3:0:0:
278,28,69734,2,0,P|344:20|392:58,1,111.799994882202,6|8,1:3|2:2,0:0:0:0:
424,108,69984,1,6,2:3:0:0:
458,2,70109,1,8,1:3:0:0:
348,140,70234,6,0,L|388:346,1,167.699992323304,2|0,1:3|0:0,0:0:0:0:
383,319,70484,1,8,2:3:0:0:
470,283,70609,2,0,L|491:173,1,111.799994882202,6|0,2:3|1:1,0:0:0:0:
456,356,70859,1,12,2:2:0:0:
300,293,70984,6,0,P|240:280|210:339,1,111.799994882202,10|2,2:3|1:2,0:0:0:0:
277,370,71234,1,10,1:3:0:0:
211,212,71359,6,0,B|230:69|278:163|298:-5,1,223.599989764405,0|10,1:1|2:3,0:0:0:0:
304,181,71734,1,4,1:3:0:0:
230,74,71859,2,0,P|178:59|166:7,1,111.799994882202,10|6,2:3|2:3,0:0:0:0:
432,112,72109,1,8,1:3:0:0:
359,70,72234,6,0,P|232:97|138:155,1,223.599989764405,10|12,2:3|2:2,0:0:0:0:
103,208,72609,1,10,2:3:0:0:
103,208,72734,1,8,1:2:0:0:
15,167,72859,5,14,2:2:0:0:
5,262,72984,2,0,P|46:216|9:161,1,111.799994882202,10|8,2:3|1:2,0:0:0:0:
184,231,73234,1,10,2:2:0:0:
294,0,73359,6,0,P|235:20|233:163,1,223.599989764405,6|8,1:2|2:3,0:0:0:0:
388,290,73734,2,0,P|417:280|418:208,1,111.799994882202,6|8,1:3|2:2,0:0:0:0:
290,216,73984,1,6,2:3:0:0:
370,148,74109,1,8,1:3:0:0:
336,74,74234,6,0,L|305:344,1,223.599989764405,2|0,1:3|0:0,0:0:0:0:
161,351,74609,2,0,P|149:278|139:233,1,111.799994882202,6|0,2:3|1:1,0:0:0:0:
332,377,74859,5,12,2:2:0:0:
224,274,74984,1,10,2:3:0:0:
78,310,75109,1,2,1:2:0:0:
78,310,75234,1,10,2:3:0:0:
137,233,75359,6,0,B|104:130|84:195|52:63,1,167.699992323304,2|0,1:2|0:0,0:0:0:0:
59,73,75609,1,10,2:3:0:0:
187,139,75734,2,0,P|230:87|211:44,1,111.799994882202,6|10,1:3|2:3,0:0:0:0:
135,30,75984,5,6,2:3:0:0:
135,30,76109,1,8,1:3:0:0:
294,2,76234,2,0,P|367:0|469:100,1,223.599989764405,10|0,2:3|0:0,0:0:0:0:
357,160,76609,2,0,P|321:152|262:193,1,111.799994882202,6|0,2:3|1:1,0:0:0:0:
450,180,76859,5,12,2:2:0:0:
450,180,76984,1,10,2:3:0:0:
341,75,77109,1,2,1:2:0:0:
487,105,77234,1,10,2:3:0:0:
435,21,77359,6,0,P|418:84|383:263,1,223.599989764405,6|10,1:2|2:3,0:0:0:0:
497,354,77734,2,0,P|501:291|465:256,1,111.799994882202,6|8,1:3|2:2,0:0:0:0:
312,289,77984,2,0,P|308:352|344:387,1,111.799994882202,6|8,2:3|1:3,0:0:0:0:
408,319,78234,6,0,B|329:286|383:238|280:211,1,167.699992323304,2|0,1:3|0:0,0:0:0:0:
274,209,78484,1,8,2:3:0:0:
218,333,78609,2,0,P|175:334|111:367,1,111.799994882202,6|0,2:3|1:1,0:0:0:0:
88,234,78859,5,14,2:2:0:0:
141,153,78984,2,0,P|164:113|126:48,1,111.799994882202,10|0,2:3|1:1,0:0:0:0:
54,108,79234,1,10,1:3:0:0:
150,160,79359,6,0,P|215:111|292:135,1,167.699992323304,0|0,1:1|0:0,0:0:0:0:
302,145,79609,1,8,2:3:0:0:
218,333,79734,2,0,P|131:268|28:300,1,223.599989764405,6|4,1:3|2:3,0:0:0:0:
225,341,80109,1,8,1:3:0:0:
304,274,80234,6,0,B|313:140|355:218|379:67,1,223.599989764405,10|12,2:3|2:2,0:0:0:0:
342,0,80609,1,10,2:3:0:0:
342,0,80734,1,8,1:2:0:0:
412,146,80859,5,12,2:2:0:0:
310,285,80984,1,8,2:3:0:0:
381,344,81109,6,0,L|431:330,1,43,8|8,1:2|2:2,0:0:0:0:
504,335,81359,6,0,B|387:298|484:241|338:201,1,206.399993701172,4|8,1:2|2:3,0:0:0:0:
218,297,81734,2,0,L|108:335,1,94.600002886963,4|8,1:3|2:2,0:0:0:0:
306,277,81984,2,0,B|324:324|324:324|281:360,1,94.600002886963,4|8,2:3|1:3,0:0:0:0:
244,207,82234,1,2,1:3:0:0:
149,235,82359,2,0,B|132:191|132:191|171:158,1,94.600002886963,0|8,1:1|2:3,0:0:0:0:
330,66,82609,5,6,2:3:0:0:
330,66,82734,1,0,1:1:0:0:
244,198,82859,1,12,2:2:0:0:
249,113,82984,2,0,P|242:65|218:1,1,94.600002886963,8|0,2:3|1:1,0:0:0:0:
326,164,83234,1,0,0:0:0:0:
490,144,83359,6,0,B|447:129|447:129|445:124|445:124|390:107,2,94.600002886963,0|2|8,1:1|2:3|2:3,0:0:0:0:
458,31,83734,2,0,B|470:58|470:58|451:126|451:126|441:131|441:131|424:194|424:194|440:220,1,206.399993701172,4|4,1:3|2:3,0:0:0:0:
499,280,84109,1,8,1:3:0:0:
364,253,84234,2,0,B|349:249|349:249|282:281|282:281|263:273,1,103.199996850586,10|0,2:3|0:0,0:0:0:0:
385,384,84484,6,0,P|426:356|405:298,1,94.600002886963,8|6,2:3|2:3,0:0:0:0:
304,358,84734,1,0,1:1:0:0:
190,294,84859,5,12,2:2:0:0:
227,384,84984,2,0,P|180:375|188:289,1,137.6,8|8,2:3|2:3,0:0:0:0:
218,215,85359,5,4,1:2:0:0:
81,172,85484,2,0,B|65:148|65:148|72:98|72:98|92:78,1,103.199996850586,0|8,0:0|2:3,0:0:0:0:
214,207,85734,2,0,L|-19:234,1,189.200005773926,4|4,1:3|2:3,0:0:0:0:
156,136,86109,1,8,1:3:0:0:
156,136,86234,1,2,1:3:0:0:
235,100,86359,2,0,B|248:54|248:54|217:18,1,94.600002886963,0|8,1:1|2:3,0:0:0:0:
25,20,86609,5,6,2:3:0:0:
25,20,86734,1,0,1:1:0:0:
99,67,86859,5,12,2:2:0:0:
136,53,86984,1,8,2:3:0:0:
209,14,87109,5,0,1:1:0:0:
292,43,87234,1,0,0:0:0:0:
375,0,87359,6,0,P|404:36|406:83,2,86,0|2|8,0:0|2:3|2:3,0:0:0:0:
429,156,87734,1,4,1:3:0:0:
362,206,87859,2,0,P|355:291|423:370,1,172,10|8,2:3|1:3,0:0:0:0:
438,160,88234,1,10,2:3:0:0:
334,124,88359,6,0,P|294:118|236:165,3,94.600002886963,0|8|6|0,0:0|2:3|2:3|1:1,0:0:0:0:
263,226,88859,5,12,2:2:0:0:
263,226,88984,1,8,2:3:0:0:
161,139,89109,1,0,1:1:0:0:
161,139,89234,1,8,2:3:0:0:
8,225,89359,6,0,P|8:313|92:339,1,189.200005773926,4|8,1:2|2:3,0:0:0:0:
103,333,89734,2,0,P|65:330|20:367,1,94.600002886963,4|8,1:3|2:2,0:0:0:0:
101,242,89984,2,0,B|88:197|88:197|81:192|81:192|67:140,2,94.600002886963,4|8|2,2:3|1:3|1:3,0:0:0:0:
178,384,90359,6,0,B|191:339|191:339|198:334|198:334|212:282,1,94.600002886963,0|8,1:1|2:3,0:0:0:0:
268,172,90609,1,6,2:3:0:0:
180,215,90734,2,0,B|225:202|225:202|230:195|230:195|282:181,1,94.600002886963,0|12,1:1|2:2,0:0:0:0:
425,208,90984,1,8,2:3:0:0:
467,76,91109,2,0,B|482:32|482:32|428:-17,1,94.600002886963,0|0,1:1|0:0,0:0:0:0:
215,28,91359,6,0,B|201:68|201:68|250:113,1,86,0|2,1:1|2:3,0:0:0:0:
314,88,91609,1,8,2:3:0:0:
400,128,91734,2,0,B|359:116|359:116|355:110|355:110|309:97,1,86,4|10,1:3|2:3,0:0:0:0:
138,123,91984,5,4,2:3:0:0:
201,33,92109,1,8,1:3:0:0:
49,82,92234,2,0,P|5:57|7:10,1,86,10|0,2:3|0:0,0:0:0:0:
110,6,92484,5,8,2:3:0:0:
144,133,92609,2,0,P|151:181|154:236,1,86,6|0,2:3|1:1,0:0:0:0:
136,322,92859,5,12,2:2:0:0:
68,249,92984,2,0,P|136:252|130:326,1,137.6,8|8,2:3|2:3,0:0:0:0:
53,345,93359,5,4,1:2:0:0:
53,345,93484,1,0,0:0:0:0:
158,224,93609,1,8,2:3:0:0:
230,276,93734,6,0,B|334:238|260:213|395:175,1,189.200005773926,4|4,1:3|2:3,0:0:0:0:
435,251,94109,2,0,P|456:297|464:336,1,86,8|2,1:3|1:3,0:0:0:0:
470,142,94359,2,0,P|489:104|499:62,1,86,0|8,1:1|2:3,0:0:0:0:
342,103,94609,5,6,2:3:0:0:
342,103,94734,1,0,1:1:0:0:
259,85,94859,5,12,2:2:0:0:
212,156,94984,1,8,2:3:0:0:
229,11,95109,5,0,1:1:0:0:
294,169,95234,1,0,0:0:0:0:
135,102,95359,5,0,1:1:0:0:
135,102,95484,2,0,B|80:95|49:159|49:159|52:167|52:167|120:182|130:253,1,240.799992651367,2|4,2:3|1:3,0:0:0:0:
38,258,95859,6,0,P|108:265|166:322,1,154.799995275879,10|0,2:3|0:0,0:0:0:0:
169,331,96109,1,8,1:3:0:0:
245,291,96234,1,10,2:3:0:0:
309,364,96359,5,0,0:0:0:0:
309,364,96484,2,0,B|286:262|259:316|241:200,1,172,8|0,2:3|1:1,0:0:0:0:
290,72,96859,6,0,P|298:38|312:7,1,68.8,12|8,2:2|2:3,0:0:0:0:
220,120,97109,1,0,1:1:0:0:
220,120,97234,1,8,2:3:0:0:
332,209,97359,6,0,P|395:229|433:123,1,172,6|2,1:2|2:2,0:0:0:0:
417,49,97734,1,0,1:1:0:0:
512,0,97859,2,0,P|498:57|493:105,1,86,10|0,2:3|0:0,0:0:0:0:
360,128,98109,5,2,1:2:0:0:
360,128,98234,2,0,P|373:197|378:301,1,172,2|0,1:2|0:0,0:0:0:0:
431,362,98609,2,0,P|475:343|532:334,1,86,2|0,1:2|1:1,0:0:0:0:
344,383,98859,1,10,2:3:0:0:
344,383,98984,1,0,0:0:0:0:
287,271,99109,2,0,P|331:290|388:299,1,86,2|0,1:2|0:0,0:0:0:0:
291,190,99359,5,2,1:3:0:0:
221,150,99484,2,0,P|203:112|218:73,1,77.3999976379395,8|2,2:2|2:2,0:0:0:0:
165,217,99734,5,0,1:1:0:0:
95,257,99859,2,0,P|77:294|92:333,1,77.3999976379395,10|0,2:3|0:0,0:0:0:0:
210,290,100109,5,2,1:2:0:0:
211,368,100234,2,0,B|208:267|167:310|159:202,1,154.799995275879,10|0,2:2|0:0,0:0:0:0:
60,99,100609,1,0,1:1:0:0:
60,99,100734,1,0,1:1:0:0:
34,174,100859,2,0,P|78:178|123:141,1,77.3999976379395,10|0,2:3|0:0,0:0:0:0:
191,53,101109,5,2,1:2:0:0:
131,0,101234,1,2,2:2:0:0:
195,62,101359,2,0,P|161:126|163:232,1,172,2|2,1:3|2:2,0:0:0:0:
210,290,101734,1,0,1:1:0:0:
79,382,101859,2,0,P|121:341|159:341,1,86,10|0,2:3|0:0,0:0:0:0:
219,296,102109,1,0,0:0:0:0:
354,384,102234,6,0,B|362:321|362:321|385:291|385:291|399:193,1,172,2|0,1:2|0:0,0:0:0:0:
410,140,102609,1,2,2:2:0:0:
309,247,102734,1,0,1:1:0:0:
266,92,102859,2,0,L|248:5,1,86,10|0,2:3|0:0,0:0:0:0:
325,162,103109,1,2,1:2:0:0:
325,162,103234,1,2,2:2:0:0:
226,290,103359,5,2,1:3:0:0:
294,331,103484,2,0,B|244:246|244:246|131:258,1,189.200005773926,8|0,2:2|1:1,0:0:0:0:
89,384,103859,2,0,L|-8:352,1,94.600002886963,10|0,2:3|0:0,0:0:0:0:
78,290,104109,1,0,1:1:0:0:
13,223,104234,6,0,L|52:60,1,141.900004330444,8|0,2:2|0:0,0:0:0:0:
50,71,104484,1,0,1:1:0:0:
98,191,104609,1,0,1:1:0:0:
98,191,104734,1,0,1:1:0:0:
239,198,104859,5,10,2:3:0:0:
174,152,104984,1,8,2:2:0:0:
244,113,105109,2,0,B|248:77|248:77|219:55,1,68.8,2|0,1:2|0:0,0:0:0:0:
135,71,105359,6,0,B|219:51|178:21|295:-2,1,172,6|2,1:2|2:2,0:0:0:0:
336,162,105734,1,0,1:1:0:0:
398,102,105859,2,0,P|359:83|317:75,1,86,10|0,2:3|0:0,0:0:0:0:
459,47,106109,1,2,1:2:0:0:
498,181,106234,6,0,P|502:242|403:260,1,172,2|0,1:2|0:0,0:0:0:0:
250,153,106609,2,0,P|274:214|283:259,1,86,2|0,1:2|1:1,0:0:0:0:
418,188,106859,1,10,2:3:0:0:
418,188,106984,1,0,0:0:0:0:
335,304,107109,2,0,P|311:365|302:410,1,86,2|0,1:2|0:0,0:0:0:0:
336,162,107359,5,2,1:3:0:0:
276,240,107484,2,0,B|228:231|228:231|191:197|191:197|137:186,1,154.799995275879,8|0,2:2|1:1,0:0:0:0:
132,196,107859,2,0,L|221:180,1,77.3999976379395,10|0,2:3|0:0,0:0:0:0:
79,130,108109,1,0,1:1:0:0:
21,255,108234,6,0,B|-11:327|-11:327|53:395,1,154.799995275879,10|0,2:2|0:0,0:0:0:0:
86,315,108609,1,0,1:1:0:0:
86,315,108734,1,0,1:1:0:0:
166,334,108859,6,0,B|181:298|181:298|149:264,1,77.3999976379395,10|0,2:3|0:0,0:0:0:0:
14,170,109109,2,0,B|-12:142|-12:142|3:106,1,77.3999976379395,2|0,1:2|0:0,0:0:0:0:
121,37,109359,6,0,L|87:240,1,172,2|2,1:3|2:2,0:0:0:0:
90,215,109734,1,0,0:0:0:0:
201,109,109859,2,0,L|218:210,1,86,10|0,2:3|0:0,0:0:0:0:
235,277,110109,1,2,2:2:0:0:
296,158,110234,6,0,P|372:189|378:273,1,172,2|0,1:2|0:0,0:0:0:0:
177,343,110609,2,0,P|146:294|170:255,1,86,2|0,2:2|1:1,0:0:0:0:
307,240,110859,5,10,2:3:0:0:
356,350,110984,1,0,0:0:0:0:
471,308,111109,2,0,P|415:280|367:279,1,86,2|0,1:2|0:0,0:0:0:0:
235,277,111359,5,2,1:3:0:0:
290,164,111484,2,0,B|280:246|280:246|270:268|270:268|261:350,1,189.200005773926,8|0,2:2|1:1,0:0:0:0:
482,185,111859,2,0,B|493:104|493:104|503:82|503:82|512:0,1,189.200005773926,10|0,2:3|1:1,0:0:0:0:
429,55,112234,6,0,B|341:19|341:19|254:88,1,189.200005773926,10|0,2:2|1:1,0:0:0:0:
353,112,112609,1,0,1:1:0:0:
353,112,112734,1,0,1:1:0:0:
221,8,112859,1,10,2:3:0:0:
104,126,112984,1,8,2:2:0:0:
51,49,113109,6,0,L|3:29,1,51.599998425293,0|0,1:1|0:0,0:0:0:0:
184,153,113359,6,0,L|212:145,1,25.7999992126465,14|0,1:2|0:0,0:0:0:0:
210,150,114234,6,0,P|194:221|122:226,1,154.799995275879,2|0,1:2|0:0,0:0:0:0:
29,211,114484,6,0,B|52:243|52:243|128:250|159:337,1,167.699992323304,2|0,2:2|0:0,0:0:0:0:
322,286,114734,6,0,B|273:283|248:328|248:328|258:275|203:238,1,180.599994488526,2|0,1:2|0:0,0:0:0:0:
293,205,114984,1,2,2:2:0:0:
408,269,115109,6,0,B|432:246|461:253|461:253|443:262,1,77.3999976379395,4|0,1:3|0:0,0:0:0:0:
411,279,115359,5,10,1:3:0:0:
385,187,115484,2,0,B|407:82|430:154|449:30,1,172,8|0,2:2|1:1,0:0:0:0:
315,123,115859,2,0,P|288:115|276:59,1,86,10|0,2:3|0:0,0:0:0:0:
479,106,116109,1,6,1:3:0:0:
362,56,116234,6,0,P|243:105|175:146,1,172,10|0,2:2|0:0,0:0:0:0:
79,31,116609,1,4,1:3:0:0:
79,31,116734,2,0,P|27:16|-10:-8,1,86,0|10,1:1|2:3,0:0:0:0:
164,0,116984,1,2,2:2:0:0:
110,123,117109,5,6,1:3:0:0:
110,123,117234,1,2,2:2:0:0:
207,216,117359,2,0,B|180:333|148:263|122:380,1,172,10|6,1:3|2:3,0:0:0:0:
1,245,117734,1,0,1:1:0:0:
52,180,117859,2,0,P|51:130|2:101,1,86,10|0,2:3|0:0,0:0:0:0:
0,259,118109,1,6,2:3:0:0:
115,235,118234,6,0,P|191:234|252:311,1,172,2|0,1:2|0:0,0:0:0:0:
68,306,118609,2,0,P|30:305|0:344,1,86,6|0,2:3|1:1,0:0:0:0:
208,371,118859,5,10,2:3:0:0:
208,371,118984,1,0,0:0:0:0:
264,311,119109,1,6,1:3:0:0:
339,344,119234,1,2,2:2:0:0:
240,229,119359,5,10,1:3:0:0:
294,170,119484,2,0,B|270:106|270:106|226:80|226:80|205:-28,1,189.200005773926,8|0,2:2|1:1,0:0:0:0:
229,9,119859,2,0,B|239:58|239:58|207:95,1,94.600002886963,10|0,2:3|0:0,0:0:0:0:
152,147,120109,1,4,1:3:0:0:
349,101,120234,6,0,B|442:80|442:80|501:155,1,189.200005773926,8|0,2:2|1:1,0:0:0:0:
490,164,120609,2,0,B|457:124|457:124|471:63,1,94.600002886963,4|0,1:3|1:1,0:0:0:0:
394,194,120859,5,10,2:3:0:0:
474,261,120984,1,8,2:2:0:0:
420,343,121109,2,0,P|385:347|350:367,1,68.8,6|0,1:3|0:0,0:0:0:0:
271,261,121359,6,0,B|173:235|256:183|119:153,1,172,14|6,1:2|2:3,0:0:0:0:
18,241,121734,1,0,1:1:0:0:
88,292,121859,2,0,P|103:331|96:373,1,86,10|0,2:3|0:0,0:0:0:0:
30,237,122109,1,6,1:3:0:0:
92,81,122234,6,0,P|77:27|53:4,2,86,2|0|0,1:2|0:0|0:0,0:0:0:0:
65,157,122609,1,6,1:3:0:0:
174,88,122734,1,0,1:1:0:0:
216,163,122859,5,10,2:3:0:0:
216,163,122984,1,0,0:0:0:0:
166,240,123109,5,6,1:3:0:0:
215,314,123234,1,0,0:0:0:0:
354,268,123359,5,10,1:3:0:0:
354,268,123484,2,0,P|434:284|462:361,1,154.799995275879,8|0,2:2|1:1,0:0:0:0:
512,233,123859,2,0,P|472:233|440:267,2,77.3999976379395,10|0|4,2:3|0:0|1:3,0:0:0:0:
373,351,124234,1,10,2:2:0:0:
269,261,124359,5,10,2:3:0:0:
269,261,124484,2,0,B|235:254|235:254|229:257|229:257|183:245,1,77.3999976379395,0|4,0:0|1:3,0:0:0:0:
321,194,124734,1,0,1:1:0:0:
308,39,124859,5,10,2:3:0:0:
308,39,124984,1,0,0:0:0:0:
240,177,125109,1,6,1:3:0:0:
240,177,125234,1,2,2:2:0:0:
159,54,125359,6,0,P|222:45|298:125,1,172,10|6,1:3|2:3,0:0:0:0:
372,86,125734,1,0,1:1:0:0:
484,198,125859,2,0,P|452:202|415:162,1,86,10|0,2:3|0:0,0:0:0:0:
376,94,126109,1,6,2:3:0:0:
339,192,126234,6,0,B|315:297|272:225|248:355,1,172,2|0,1:2|0:0,0:0:0:0:
264,344,126609,2,0,P|264:279|236:249,1,86,6|0,2:3|1:1,0:0:0:0:
164,139,126859,5,10,2:3:0:0:
92,112,126984,1,0,0:0:0:0:
37,183,127109,5,6,1:3:0:0:
0,198,127234,1,0,0:0:0:0:
35,58,127359,5,10,1:3:0:0:
35,58,127859,6,0,P|80:157|104:264,1,206.4,10|10,2:3|2:2,0:0:0:0:
81,335,128359,1,10,2:3:0:0:
81,335,128609,5,6,1:3:0:0:
187,219,128734,1,4,1:3:0:0:
237,359,128859,5,14,2:3:0:0:
262,283,128984,1,8,2:2:0:0:
354,372,129109,5,10,1:3:0:0:
310,208,129234,1,10,2:3:0:0:
184,301,129359,6,0,B|66:270|155:196|2:166,1,223.599989764405,6|8,1:2|2:3,0:0:0:0:
198,79,129734,2,0,P|248:116|224:176,1,111.799994882202,4|8,1:3|2:2,0:0:0:0:
86,97,129984,1,6,2:3:0:0:
19,253,130109,1,8,1:3:0:0:
160,148,130234,6,0,P|249:107|380:129,1,223.599989764405,2|8,1:3|2:3,0:0:0:0:
444,167,130609,1,6,2:3:0:0:
506,0,130734,2,0,P|466:28|443:91,1,111.799994882202,0|12,1:1|2:2,0:0:0:0:
512,214,130984,5,10,2:3:0:0:
458,278,131109,1,2,1:2:0:0:
381,238,131234,1,10,2:3:0:0:
313,337,131359,6,0,B|364:243|364:243|291:152,1,223.599989764405,0|8,1:1|2:3,0:0:0:0:
86,120,131734,2,0,B|50:74|50:74|75:28,1,111.799994882202,4|10,1:3|2:3,0:0:0:0:
225,112,131984,1,6,2:3:0:0:
134,194,132109,1,8,1:3:0:0:
157,65,132234,6,0,B|170:124|170:124|200:145|200:145|224:231,1,167.699992323304,10|0,2:3|0:0,0:0:0:0:
221,225,132484,1,8,2:3:0:0:
91,270,132609,2,0,B|81:306|81:306|63:319|63:319|49:369,1,111.799994882202,6|0,2:3|1:1,0:0:0:0:
167,289,132859,5,12,2:2:0:0:
167,289,132984,1,10,2:3:0:0:
210,361,133109,5,2,1:2:0:0:
289,331,133234,1,10,2:3:0:0:
357,382,133359,6,0,P|435:352|440:258,1,167.699992323304,4|0,1:2|0:0,0:0:0:0:
434,261,133609,1,8,2:3:0:0:
348,159,133734,2,0,P|307:124|315:71,1,111.799994882202,6|8,1:3|2:2,0:0:0:0:
360,290,133984,1,6,2:3:0:0:
431,178,134109,1,8,1:3:0:0:
301,231,134234,6,0,L|130:185,1,167.699992323304,2|0,1:3|0:0,0:0:0:0:
126,184,134484,1,8,2:3:0:0:
97,275,134609,2,0,L|214:244,1,111.799994882202,6|0,2:3|1:1,0:0:0:0:
168,334,134859,1,12,2:2:0:0:
37,207,134984,6,0,P|16:167|63:120,1,111.799994882202,10|2,2:3|1:2,0:0:0:0:
196,80,135234,1,10,1:3:0:0:
133,26,135359,6,0,P|177:121|195:259,1,223.599989764405,0|10,1:1|2:3,0:0:0:0:
165,318,135734,1,4,1:3:0:0:
281,214,135859,2,0,P|291:265|217:309,1,111.799994882202,10|6,2:3|2:3,0:0:0:0:
112,384,136109,1,8,1:3:0:0:
14,282,136234,6,0,B|129:302|68:363|214:386,1,223.599989764405,10|12,2:3|2:2,0:0:0:0:
335,313,136609,1,10,2:3:0:0:
335,313,136734,1,8,1:2:0:0:
290,384,136859,5,14,2:2:0:0:
419,325,136984,2,0,B|437:275|437:275|388:244,1,111.799994882202,10|8,2:3|1:2,0:0:0:0:
428,176,137234,1,10,2:2:0:0:
242,299,137359,6,0,B|143:246|143:246|178:138,1,223.599989764405,6|8,1:2|2:3,0:0:0:0:
336,9,137734,2,0,B|385:40|385:40|367:90,1,111.799994882202,6|8,1:3|2:2,0:0:0:0:
242,88,137984,1,6,2:3:0:0:
315,154,138109,1,8,1:3:0:0:
284,225,138234,6,0,L|253:-45,1,223.599989764405,2|8,1:3|2:3,0:0:0:0:
166,133,138609,1,6,2:3:0:0:
109,69,138734,2,0,L|-7:46,1,111.799994882202,0|12,1:1|2:2,0:0:0:0:
184,28,138984,5,10,2:3:0:0:
94,172,139109,1,2,1:2:0:0:
94,172,139234,1,10,2:3:0:0:
158,237,139359,6,0,B|217:221|217:221|236:177|236:177|338:149,1,167.699992323304,2|0,1:2|0:0,0:0:0:0:
307,161,139609,1,10,2:3:0:0:
418,287,139734,2,0,B|437:234|437:234|385:188,1,111.799994882202,6|6,1:3|1:3,0:0:0:0:
250,241,139984,2,0,B|231:294|231:294|283:340,1,111.799994882202,6|8,2:3|1:3,0:0:0:0:
333,259,140234,6,0,L|368:34,1,223.599989764405,10|8,2:3|2:3,0:0:0:0:
437,1,140609,5,6,2:3:0:0:
437,1,140734,1,0,1:1:0:0:
376,114,140859,5,12,2:2:0:0:
477,200,140984,1,10,2:3:0:0:
463,116,141109,5,2,1:2:0:0:
394,193,141234,1,10,2:3:0:0:
289,87,141359,6,0,P|208:74|116:172,1,223.599989764405,6|10,1:2|2:3,0:0:0:0:
123,380,141734,2,0,P|148:348|126:284,1,111.799994882202,6|8,1:3|2:2,0:0:0:0:
60,234,141984,1,6,2:3:0:0:
60,234,142109,1,8,1:3:0:0:
177,224,142234,6,0,B|279:251|211:307|354:328,1,167.699992323304,2|0,1:3|0:0,0:0:0:0:
321,316,142484,1,8,2:3:0:0:
407,204,142609,2,0,P|468:190|492:138,1,111.799994882202,6|0,2:3|1:1,0:0:0:0:
317,234,142859,5,14,2:2:0:0:
409,291,142984,2,0,P|419:348|353:375,1,111.799994882202,10|0,2:3|1:1,0:0:0:0:
324,241,143234,1,10,1:3:0:0:
216,300,143359,6,0,P|230:220|151:118,1,167.699992323304,0|0,1:1|0:0,0:0:0:0:
185,135,143609,1,8,2:3:0:0:
398,194,143734,2,0,P|333:107|365:4,1,223.599989764405,6|4,1:3|2:3,0:0:0:0:
407,204,144109,1,8,1:3:0:0:
299,122,144234,6,0,B|165:113|243:71|92:47,1,223.599989764405,10|12,2:3|2:2,0:0:0:0:
21,83,144609,1,10,2:3:0:0:
21,83,144734,1,8,1:2:0:0:
165,10,144859,5,12,2:2:0:0:
97,153,144984,1,8,2:3:0:0:
198,251,145109,6,0,P|213:280|216:312,1,51.599998425293,8|8,1:2|2:2,0:0:0:0:
314,200,145359,6,0,P|257:273|233:383,1,206.399993701172,6|10,1:2|2:3,0:0:0:0:
126,295,145734,1,4,1:3:0:0:
55,338,145859,2,0,P|6:318|6:265,1,103.199996850586,10|0,2:2|0:0,0:0:0:0:
73,232,146109,1,10,1:3:0:0:
157,367,146234,6,0,B|254:348|187:292|306:273,1,172,2|8,1:3|2:3,0:0:0:0:
348,329,146609,2,0,P|395:340|428:369,1,86,6|0,2:3|1:1,0:0:0:0:
472,257,146859,5,14,2:2:0:0:
309,195,146984,1,8,2:3:0:0:
378,245,147109,2,0,B|401:214|401:214|388:165,1,77.3999976379395,2|0,1:2|0:0,0:0:0:0:
259,125,147359,6,0,P|247:69|221:47,1,86,2|0,1:2|0:0,0:0:0:0:
164,3,147609,1,8,2:3:0:0:
314,30,147734,6,0,B|217:49|284:105|165:124,1,172,6|4,1:3|2:3,0:0:0:0:
120,69,148109,1,8,1:3:0:0:
54,150,148234,2,0,P|89:156|124:184,1,77.3999976379395,10|0,2:3|0:0,0:0:0:0:
219,289,148484,5,8,2:3:0:0:
212,202,148609,2,0,B|188:238|188:238|214:314,1,86,6|0,2:3|1:1,0:0:0:0:
296,371,148859,1,12,2:2:0:0:
303,284,148984,2,0,B|327:320|327:320|301:396,1,86,8|0,2:3|1:1,0:0:0:0:
296,203,149234,1,8,2:3:0:0:
460,226,149359,6,0,P|505:209|495:143,2,94.600002886963,6|0|10,1:2|0:0|2:3,0:0:0:0:
467,100,149734,1,4,1:3:0:0:
291,123,149859,6,0,P|246:106|256:40,1,94.600002886963,10|0,2:2|0:0,0:0:0:0:
284,0,150109,1,10,1:3:0:0:
445,0,150234,6,0,B|435:66|435:66|387:97|387:97|367:190,1,206.399993701172,2|8,1:3|2:3,0:0:0:0:
383,178,150609,2,0,L|371:63,1,86,6|0,2:3|1:1,0:0:0:0:
312,234,150859,2,0,B|346:269|346:269|396:261,2,94.600002886963,14|8|2,2:2|2:3|1:2,0:0:0:0:
284,158,151234,1,2,2:2:0:0:
206,307,151359,5,2,1:2:0:0:
151,246,151484,2,0,B|28:208|122:153|-11:117,1,206.399993701172,0|4,0:0|1:3,0:0:0:0:
35,201,151859,2,0,P|84:162|137:177,1,103.199996850586,10|4,2:3|2:3,0:0:0:0:
231,230,152109,1,8,1:3:0:0:
206,144,152234,1,10,2:3:0:0:
281,80,152359,6,0,B|290:41|290:41|296:37|296:37|307:-8,3,86,0|8|6|0,0:0|2:3|2:3|1:1,0:0:0:0:
243,237,152859,5,12,2:2:0:0:
243,237,152984,1,8,2:3:0:0:
350,135,153109,1,0,1:1:0:0:
350,135,153234,1,8,2:3:0:0:
339,230,153359,6,0,B|354:289|354:289|404:316|404:316|431:408,1,189.200005773926,6|10,1:2|2:3,0:0:0:0:
487,310,153734,1,4,1:3:0:0:
430,238,153859,2,0,L|448:140,1,94.600002886963,10|0,2:2|0:0,0:0:0:0:
339,230,154109,1,10,1:3:0:0:
490,320,154234,6,0,L|302:361,1,172,2|8,1:3|2:3,0:0:0:0:
251,215,154609,2,0,B|212:205|212:205|207:201|207:201|165:191,1,86,6|0,2:3|1:1,0:0:0:0:
237,307,154859,5,14,2:2:0:0:
237,307,154984,1,8,2:3:0:0:
335,236,155109,1,2,1:2:0:0:
271,129,155234,1,0,0:0:0:0:
389,36,155359,6,0,P|446:48|438:137,1,141.900004330444,2|0,1:2|0:0,0:0:0:0:
443,130,155609,2,0,B|404:139|404:139|399:143|399:143|357:154,1,86,8|6,2:3|1:3,0:0:0:0:
414,225,155859,1,10,2:3:0:0:
492,196,155984,1,4,2:3:0:0:
456,298,156109,2,0,B|445:336|445:336|441:341|441:341|432:380,1,86,8|10,1:3|2:3,0:0:0:0:
347,273,156359,6,0,P|302:260|267:226,1,86,0|8,0:0|2:3,0:0:0:0:
199,346,156609,2,0,P|154:359|119:393,1,86,6|0,2:3|1:1,0:0:0:0:
335,372,156859,5,14,2:2:0:0:
273,321,156984,2,0,P|259:277|270:227,1,86,10|0,2:3|1:1,0:0:0:0:
310,90,157234,1,10,2:3:0:0:
339,186,157359,6,0,P|356:127|292:101,1,111.799994882202,4|0,1:2|0:0,0:0:0:0:
240,144,157609,2,0,B|186:127|225:103|125:80,1,103.199996850586,10|4,2:3|1:3,0:0:0:0:
20,55,157859,1,10,2:2:0:0:
61,123,157984,2,0,P|123:116|143:64,1,103.199996850586,6|8,2:3|1:3,0:0:0:0:
145,8,158234,6,0,P|112:86|95:225,1,206.399993701172,2|8,1:3|2:3,0:0:0:0:
46,270,158609,2,0,P|77:332|82:382,1,103.199996850586,6|0,2:3|1:1,0:0:0:0:
1,192,158859,6,0,B|131:241|40:275|177:313,1,206.399993701172,14|2,2:2|1:2,0:0:0:0:
321,302,159234,1,2,2:2:0:0:
203,384,159359,6,0,P|205:300|278:237,1,172,2|0,1:2|0:0,0:0:0:0:
310,165,159734,1,4,1:3:0:0:
215,33,159859,2,0,P|216:75|249:107,2,86,10|0|8,2:3|0:0|1:3,0:0:0:0:
369,225,160234,6,0,P|297:214|199:173,1,172,10|8,2:3|2:3,0:0:0:0:
431,165,160609,2,0,P|467:159|516:138,1,86,6|0,2:3|1:1,0:0:0:0:
367,109,160859,1,12,2:2:0:0:
298,167,160984,6,0,B|257:46|223:129|195:14,1,189.200005773926,8|0,2:3|0:0,0:0:0:0:
255,251,161359,6,0,B|209:234|170:282|279:325|339:283|354:209|289:178|289:178|295:178|295:178|272:146|205:144|251:194|172:219|0:135|82:-128|428:-191|432:131|343:6|262:6|281:103,1,774.000029525758,4|8,1:2|1:3,0:0:0:0:
308,160,162234,1,2,1:3:0:0:
164,171,162359,6,0,P|121:141|68:139,1,86,0|8,1:1|2:3,0:0:0:0:
12,158,162609,1,6,2:3:0:0:
108,53,162734,1,0,1:1:0:0:
32,76,162859,2,0,P|22:25|-10:-9,1,86,12|8,2:2|2:3,0:0:0:0:
3,172,163109,2,0,B|23:259|43:199|73:297,1,129,0|0,1:1|0:0,0:0:0:0:
52,357,163359,6,0,P|88:301|209:298,1,189.200005773926,0|8,1:1|2:3,0:0:0:0:
264,341,163734,1,4,1:3:0:0:
449,281,163859,6,0,P|457:235|417:195,1,94.600002886963,10|4,2:3|2:3,0:0:0:0:
282,261,164109,1,8,1:3:0:0:
419,198,164234,1,10,2:3:0:0:
357,356,164359,6,0,P|358:307|374:250,1,86,0|8,0:0|2:3,0:0:0:0:
404,117,164609,1,6,2:3:0:0:
404,117,164734,1,0,1:1:0:0:
248,181,164859,6,0,P|231:105|178:5,1,189.200005773926,12|0,2:2|1:1,0:0:0:0:
179,6,165234,1,8,2:3:0:0:
334,178,165359,6,0,B|367:148|403:173|403:173|425:165|420:216|508:200|515:135|482:109,1,223.599989764405,4|8,1:2|2:3,0:0:0:0:
349,60,165734,1,4,1:3:0:0:
287,106,165859,2,0,L|194:75,1,94.600002886963,8|0,2:2|0:0,0:0:0:0:
127,127,166109,1,8,1:3:0:0:
188,77,166234,1,2,1:3:0:0:
177,202,166359,6,0,B|200:240|200:240|182:291,1,86,0|8,1:1|2:3,0:0:0:0:
12,303,166609,2,0,B|-1:342|-1:342|21:380,1,86,6|0,2:3|1:1,0:0:0:0:
148,353,166859,2,0,B|115:338|115:338|84:248|84:248|34:223,1,172,12|0,2:2|1:1,0:0:0:0:
47,229,167234,1,0,0:0:0:0:
145,108,167359,6,0,B|173:77|143:18|82:29|66:66|66:66|61:64|61:64|36:86|-21:66|-27:1|30:-8,1,283.800008660889,0|4,1:1|1:3,0:0:0:0:
221,18,167859,2,0,P|176:152|165:211,1,189.200005773926,10|8,2:3|1:3,0:0:0:0:
155,273,168234,1,10,2:3:0:0:
97,169,168359,5,0,0:0:0:0:
228,101,168484,1,8,2:3:0:0:
246,177,168609,5,6,2:3:0:0:
272,185,168734,1,0,1:1:0:0:
348,152,168859,5,12,2:2:0:0:
318,252,168984,1,8,2:3:0:0:
414,98,169109,5,0,0:0:0:0:
465,202,169234,1,8,2:3:0:0:
347,43,169359,6,0,P|320:33|301:27,1,34.4,4|0,1:2|0:0,0:0:0:0:
425,14,169609,6,0,B|476:26|492:-22|517:-8|517:-8|482:156|402:46|369:212|369:212|418:157|479:205,1,481.599985302735,8|0,2:3|0:0,0:0:0:0:
258,169,170234,1,2,1:3:0:0:
345,165,170359,6,0,P|379:196|371:267,1,86,0|0,1:1|0:0,0:0:0:0:
356,309,170609,1,6,2:3:0:0:
462,215,170734,1,0,1:1:0:0:
347,311,170859,2,0,P|302:325|245:283,1,86,12|8,2:2|2:3,0:0:0:0:
219,239,171109,2,0,B|140:218|183:185|84:174,1,129,0|0,1:1|0:0,0:0:0:0:
48,224,171359,6,0,P|98:124|98:43,1,189.200005773926,0|8,1:1|2:3,0:0:0:0:
159,107,171734,1,4,1:3:0:0:
336,50,171859,6,0,P|345:87|308:125,1,94.600002886963,10|4,2:3|2:3,0:0:0:0:
227,158,172109,1,8,1:3:0:0:
227,158,172234,1,10,2:3:0:0:
96,36,172359,6,0,P|42:25|4:-3,1,94.600002886963
245,75,172609,2,0,P|191:86|153:114,1,94.600002886963,6|0,2:3|1:1,0:0:0:0:
179,3,172859,5,12,2:2:0:0:
79,112,172984,2,0,P|77:156|116:180,1,94.600002886963,8|0,2:3|1:1,0:0:0:0:
221,168,173234,1,8,2:3:0:0:
237,302,173359,6,0,P|246:339|249:355,1,43,4|0,1:2|0:0,0:0:0:0:
285,221,173609,6,0,B|297:251|269:295|215:283|208:255|208:255|203:257|203:257|181:237|115:240|111:308,1,240.799992651367,8|4,2:3|1:3,0:0:0:0:
65,351,173984,1,4,2:3:0:0:
51,346,174109,2,0,B|25:329|19:307|19:307|39:283|37:234,1,94.600002886963,8|2,1:3|1:3,0:0:0:0:
156,350,174359,6,0,B|228:319|181:261|289:220,1,189.200005773926,0|6,1:1|2:3,0:0:0:0:
434,284,174734,1,0,1:1:0:0:
385,351,174859,2,0,P|346:330|356:278,1,94.600002886963,12|8,2:2|2:3,0:0:0:0:
466,197,175109,2,0,P|439:242|431:292,1,86,0|0,1:1|0:0,0:0:0:0:
270,341,175359,6,0,P|245:230|207:133,1,183.466666666667,0|0,1:1|0:0,0:0:0:0:
183,89,175609,6,0,P|179:39|146:21,2,74.5333299214683,8|0|0,2:3|0:0|0:0,0:0:0:0:
121,144,175859,6,0,B|136:99|233:129|215:191|175:160|156:240|274:280|292:208,1,252.266674365235,10|0,2:3|0:0,0:0:0:0:
283,229,176275,5,0,0:0:0:0:
279,237,176359,6,0,P|271:283|262:367,1,91.7333333333333,0|8,0:0|2:3,0:0:0:0:
328,384,176609,6,0,P|351:356|346:320,2,63.0666685913087,6|0|0,2:3|0:0|0:0,0:0:0:0:
368,251,176859,5,12,2:2:0:0:
177,327,177109,5,0,1:1:0:0:
177,327,177234,1,8,2:3:0:0:
94,357,177359,6,0,P|40:314|51:198,1,172,6|8,1:2|2:3,0:0:0:0:
121,144,177734,2,0,P|146:117|139:68,1,68.8,0|4,0:0|1:3,0:0:0:0:
40,134,177984,1,2,2:2:0:0:
40,134,178109,1,0,0:0:0:0:
120,228,178234,6,0,P|161:211|275:190,1,137.6,2|0,2:2|0:0,0:0:0:0:
324,229,178609,1,8,2:3:0:0:
267,342,178734,6,0,P|265:308|257:275,1,68.8,0|4,0:0|1:3,0:0:0:0:
319,148,178984,1,0,0:0:0:0:
319,148,179109,2,0,P|310:114|308:80,1,68.8,8|0,2:3|0:0,0:0:0:0:
512,5,179359,6,0,B|450:57|450:57|356:18,1,172,4|8,1:3|2:3,0:0:0:0:
231,53,179734,1,0,0:0:0:0:
231,53,179859,2,0,L|142:18,2,68.8,4|0|8,1:3|0:0|2:3,0:0:0:0:
138,144,180234,1,0,0:0:0:0:
79,12,180359,6,0,B|88:68|88:68|112:88|112:88|126:146,1,137.6,0|8,0:0|2:3,0:0:0:0:
162,264,180734,1,0,0:0:0:0:
221,132,180859,2,0,B|212:188|212:188|188:208|188:208|174:266,1,137.6,4|0,1:3|0:0,0:0:0:0:
152,384,181234,1,0,0:0:0:0:
92,306,181359,6,0,P|155:302|245:383,1,172,4|8,1:3|2:3,0:0:0:0:
360,300,181734,2,0,P|391:302|436:261,1,68.8,0|4,0:0|1:3,0:0:0:0:
323,374,181984,1,0,0:0:0:0:
323,374,182234,6,0,B|320:274|274:328|269:217,1,137.6
306,179,182609,2,0,P|343:196|348:237,1,68.8,8|0,2:3|0:0,0:0:0:0:
208,296,182859,1,4,1:3:0:0:
158,237,182984,2,0,B|87:228|119:191|33:186,1,137.6
114,160,183359,6,0,P|145:106|133:-6,1,172,4|8,1:3|2:3,0:0:0:0:
17,39,183734,1,0,0:0:0:0:
17,39,183859,2,0,P|37:72|44:130,2,68.8,4|0|8,1:3|0:0|2:3,0:0:0:0:
122,78,184234,1,0,0:0:0:0:
212,27,184359,6,0,P|165:15|129:-8,2,68.8,4|0|8,1:3|0:0|2:3,0:0:0:0:
289,160,184734,1,0,0:0:0:0:
289,160,184859,2,0,P|242:172|206:195,2,68.8,4|0|8,1:3|0:0|2:3,0:0:0:0:
197,103,185234,1,0,0:0:0:0:
297,2,185359,6,0,P|366:-6|446:71,1,172,6|8,1:3|2:3,0:0:0:0:
371,181,185734,1,0,0:0:0:0:
371,181,185859,2,0,P|384:149|438:133,1,68.8,4|2,1:3|2:2,0:0:0:0:
493,121,186109,1,8,2:3:0:0:
401,261,186234,6,0,B|410:344|443:297|456:401,1,137.6,2|0,2:2|0:0,0:0:0:0:
443,384,186609,2,0,P|443:358|462:314,1,68.8,8|0,2:3|0:0,0:0:0:0:
508,259,186859,1,4,1:3:0:0:
372,337,186984,2,0,P|306:334|235:373,1,137.6
187,244,187359,6,0,P|123:232|56:149,1,172,4|8,1:3|2:3,0:0:0:0:
262,199,187734,1,0,0:0:0:0:
262,199,187859,2,0,P|282:230|242:284,2,68.8,4|0|8,1:3|0:0|2:3,0:0:0:0:
151,369,188234,6,0,B|142:286|109:333|96:229,1,137.6
190,164,188609,2,0,P|200:127|222:91,1,68.8,8|0,2:3|0:0,0:0:0:0:
176,3,188859,5,4,1:3:0:0:
133,72,188984,1,0,0:0:0:0:
261,33,189109,2,0,P|323:38|332:92,1,103.2,10|0,2:3|0:0,0:0:0:0:
214,100,189359,6,0,B|324:74|245:40|397:3,1,206.399993701172,6|10,1:3|2:2,0:0:0:0:
404,1,189734,1,0,0:0:0:0:
358,148,189859,5,6,1:3:0:0:
499,218,189984,1,8,0:0:0:0:
407,225,190109,1,10,2:2:0:0:
444,148,190234,5,0,1:1:0:0:
444,148,190296,1,0,1:1:0:0:
444,148,190359,2,0,P|454:97|471:49,1,103.199996850586
462,300,190609,1,10,2:2:0:0:
506,221,190734,1,0,0:0:0:0:
356,265,190859,6,0,P|402:237|409:191,2,68.7999979003907,6|0|0,1:3|0:0|0:0,0:0:0:0:
424,382,191109,6,0,P|375:357|332:374,2,68.7999979003907,10|0|0,2:2|0:0|0:0,0:0:0:0:
295,318,191359,6,0,P|248:325|209:333,1,86,4|8,1:3|2:3,0:0:0:0:
202,333,192734,1,0,0:0:0:0:
283,242,192859,5,4,1:3:0:0:
214,197,192984,1,4,1:3:0:0:
235,109,193109,5,10,1:3:0:0:
289,330,193234,1,10,1:3:0:0:
144,148,193359,6,0,P|74:149|9:276,1,223.599989764405,6|8,1:2|2:3,0:0:0:0:
233,118,193734,2,0,P|217:67|164:56,1,111.799994882202,4|8,1:3|2:2,0:0:0:0:
96,313,193984,1,6,2:3:0:0:
56,193,194109,1,8,1:3:0:0:
134,234,194234,6,0,B|252:217|185:137|330:114,1,223.599989764405,2|8,1:3|2:3,0:0:0:0:
394,166,194609,1,6,2:3:0:0:
477,135,194734,2,0,P|512:96|471:32,1,111.799994882202,0|12,1:1|2:2,0:0:0:0:
389,176,194984,5,10,2:3:0:0:
442,261,195109,1,2,1:2:0:0:
371,331,195234,1,10,2:3:0:0:
464,374,195359,6,0,B|399:289|399:289|282:308,1,223.599989764405,0|8,1:1|2:3,0:0:0:0:
151,275,195734,2,0,B|92:284|92:284|59:242,1,111.799994882202,0|10,1:1|2:3,0:0:0:0:
198,121,195984,1,6,2:3:0:0:
312,209,196109,1,8,1:3:0:0:
290,121,196234,6,0,B|236:137|236:137|207:177|207:177|129:200,1,167.699992323304,10|0,2:3|0:0,0:0:0:0:
131,200,196484,1,8,2:3:0:0:
39,160,196609,2,0,B|-1:117|-1:117|26:56,1,111.799994882202,6|0,2:3|1:1,0:0:0:0:
175,108,196859,1,12,2:2:0:0:
161,0,196984,2,0,B|201:43|201:43|179:91,1,111.799994882202,10|2,2:3|1:2,0:0:0:0:
131,200,197234,1,10,2:3:0:0:
93,98,197359,6,0,P|86:189|24:265,1,167.699992323304,4|0,1:2|0:0,0:0:0:0:
34,260,197609,1,8,2:3:0:0:
202,300,197734,2,0,P|146:296|97:322,1,111.799994882202,6|8,1:3|2:2,0:0:0:0:
226,212,197984,1,6,2:3:0:0:
286,348,198109,1,8,1:3:0:0:
364,288,198234,6,0,L|404:82,1,167.699992323304,2|0,1:3|0:0,0:0:0:0:
398,111,198484,1,8,2:3:0:0:
485,156,198609,2,0,L|506:266,1,111.799994882202,6|0,2:3|1:1,0:0:0:0:
471,67,198859,1,12,2:2:0:0:
326,203,198984,6,0,P|280:162|298:107,1,111.799994882202,10|2,2:3|1:2,0:0:0:0:
339,45,199234,1,10,1:3:0:0:
192,131,199359,6,0,B|70:83|158:41|12:2,1,223.599989764405,0|10,1:1|2:3,0:0:0:0:
176,0,199734,1,4,1:3:0:0:
100,115,199859,2,0,P|96:171|142:199,1,111.799994882202,10|6,2:3|2:3,0:0:0:0:
251,61,200109,1,8,1:3:0:0:
176,0,200234,6,0,P|214:131|219:239,1,223.599989764405,10|12,2:3|2:2,0:0:0:0:
175,362,200609,1,10,2:3:0:0:
175,362,200734,1,8,1:2:0:0:
237,299,200859,5,14,2:2:0:0:
97,331,200984,2,0,P|42:333|5:373,1,111.799994882202,10|8,2:3|1:2,0:0:0:0:
159,274,201234,1,10,2:2:0:0:
257,377,201359,6,0,P|366:372|439:291,1,223.599989764405,6|8,1:2|2:3,0:0:0:0:
281,151,201734,2,0,P|226:153|190:194,1,111.799994882202,6|8,1:3|2:2,0:0:0:0:
358,262,201984,1,6,2:3:0:0:
416,172,202109,1,8,1:3:0:0:
495,192,202234,6,0,L|274:232,1,223.599989764405,2|8,1:3|2:3,0:0:0:0:
478,114,202609,2,0,L|498:3,1,111.799994882202,6|0,2:3|1:1,0:0:0:0:
356,120,202859,5,12,2:2:0:0:
273,0,202984,1,10,2:3:0:0:
363,28,203109,1,2,1:2:0:0:
363,28,203234,1,10,2:3:0:0:
281,151,203359,6,0,B|271:260|225:202|201:326,1,167.699992323304
206,313,203609,1,10,2:3:0:0:
178,180,203734,2,0,P|141:132|77:141,1,111.799994882202,6|10,1:3|2:3,0:0:0:0:
226,77,203984,1,6,2:3:0:0:
226,77,204109,1,8,1:3:0:0:
64,60,204234,6,0,P|147:163|133:263,1,223.599989764405,10|8,2:3|2:3,0:0:0:0:
5,367,204609,2,0,P|28:305|75:286,1,111.799994882202,6|0,2:3|1:1,0:0:0:0:
170,378,204859,5,12,2:2:0:0:
139,247,204984,1,10,2:3:0:0:
89,370,205109,5,2,1:2:0:0:
89,370,205234,1,10,2:3:0:0:
200,306,205359,6,0,B|321:286|249:211|404:188,1,223.599989764405,6|10,1:2|2:3,0:0:0:0:
487,152,205734,2,0,P|524:114|506:55,1,111.799994882202,6|8,1:3|2:2,0:0:0:0:
355,24,205984,2,0,P|318:62|336:121,1,111.799994882202,6|8,2:3|1:3,0:0:0:0:
419,264,206234,6,0,B|448:184|378:201|418:100,1,167.699992323304,2|0,1:3|0:0,0:0:0:0:
425,90,206484,1,0,0:0:0:0:
302,194,206609,2,0,P|239:175|221:125,1,111.799994882202,6|0,3:3|1:1,0:0:0:0:
240,45,206859,5,14,2:2:0:0:
75,161,206984,2,0,P|52:201|90:266,1,111.799994882202,10|0,2:3|1:1,0:0:0:0:
154,213,207234,1,10,1:3:0:0:
153,84,207359,6,0,P|88:133|13:103,1,167.699992323304,0|0,1:1|0:0,0:0:0:0:
14,94,207609,1,8,2:3:0:0:
157,224,207734,2,0,P|244:289|347:257,1,223.599989764405,6|0,1:3|0:0,0:0:0:0:
314,105,208109,1,8,1:3:0:0:
240,172,208234,6,0,B|232:313|303:245|283:398,1,223.599989764405,10|12,2:3|2:2,0:0:0:0:
200,337,208609,1,10,2:3:0:0:
200,337,208734,1,0,0:0:0:0:
324,184,208859,5,12,2:2:0:0:
189,104,208984,1,8,2:3:0:0:
301,26,209109,5,8,1:2:0:0:
301,26,209234,1,8,2:2:0:0:
236,178,209359,6,0,B|133:159|189:96|75:55,1,206.399993701172,4|8,1:2|2:3,0:0:0:0:
2,26,209734,1,4,1:3:0:0:
75,149,209859,6,0,P|84:181|89:215,2,57.3333333333333,8|0|0,2:2|0:0|0:0,0:0:0:0:
16,253,210109,2,0,P|40:276|62:303,2,57.3333333333333,8|0|0,1:3|0:0|0:0,0:0:0:0:
152,266,210359,6,0,P|228:216|347:244,1,172,0|6,1:1|2:3,0:0:0:0:
374,262,210734,1,0,1:1:0:0:
273,364,210859,2,0,P|235:339|175:353,1,86,12|8,2:2|2:3,0:0:0:0:
124,376,211109,1,0,1:1:0:0:
124,376,211234,1,0,0:0:0:0:
231,259,211359,6,0,B|224:221|224:221|216:216|216:216|210:169,2,86,0|2|8,1:1|2:3|2:3,0:0:0:0:
289,147,211734,2,0,B|293:121|293:121|245:75|245:75|223:74|223:74|181:27|181:27|192:-13,1,206.399993701172,4|0,1:3|0:0,0:0:0:0:
141,221,212109,5,8,1:3:0:0:
187,99,212234,1,10,2:3:0:0:
289,147,212359,5,0,0:0:0:0:
344,2,212484,2,0,B|373:45|373:45|340:97,1,103.199996850586,8|6,2:3|2:3,0:0:0:0:
115,142,212734,2,0,B|86:99|86:99|119:47,1,103.199996850586,0|12,1:1|2:2,0:0:0:0:
270,54,212984,6,0,B|266:64|266:64|196:81|196:81|186:99,1,103.199996850586,8|0,2:3|1:1,0:0:0:0:
141,221,213234,1,8,2:3:0:0:
289,147,213359,5,4,1:2:0:0:
289,147,213484,1,0,0:0:0:0:
363,237,213609,1,8,2:3:0:0:
363,237,213734,1,4,1:3:0:0:
451,169,213859,6,0,P|462:127|476:87,1,86,8|0,2:2|0:0,0:0:0:0:
273,229,214109,2,0,P|287:269|298:311,2,86,8|10|0,1:3|2:3|1:1,0:0:0:0:
372,153,214484,5,0,0:0:0:0:
449,259,214609,2,0,P|486:239|541:238,1,86,6|0,2:3|1:1,0:0:0:0:
499,382,214859,5,12,2:2:0:0:
462,368,214984,1,8,2:3:0:0:
386,320,215109,5,0,1:1:0:0:
315,384,215234,1,0,0:0:0:0:
209,295,215359,6,0,P|175:319|171:365,2,86,0|2|8,0:0|2:3|2:3,0:0:0:0:
273,229,215734,1,4,1:3:0:0:
253,145,215859,2,0,P|245:62|169:9,1,172,10|8,2:3|1:3,0:0:0:0:
187,209,216234,1,10,2:3:0:0:
340,173,216359,6,0,P|386:168|422:197,3,94.600002886963,0|8|6|0,0:0|2:3|2:3|1:1,0:0:0:0:
273,229,216859,5,12,2:2:0:0:
273,229,216984,1,8,2:3:0:0:
173,126,217109,1,0,1:1:0:0:
173,126,217234,1,8,2:3:0:0:
0,172,217359,6,0,B|-2:70|-2:70|105:42,1,206.399993701172,6|8,1:2|2:3,0:0:0:0:
111,56,217734,2,0,B|59:48|59:48|41:-11,1,103.199996850586,4|8,1:3|2:2,0:0:0:0:
94,143,217984,1,4,2:3:0:0:
94,143,218109,1,8,1:3:0:0:
262,87,218234,6,0,B|273:49|273:49|280:44|280:44|293:-1,1,94.600002886963,2|0,1:3|1:1,0:0:0:0:
190,32,218484,1,0,0:0:0:0:
355,79,218609,1,6,2:3:0:0:
355,79,218734,1,0,1:1:0:0:
246,166,218859,2,0,B|208:177|208:177|203:184|203:184|158:197,1,94.600002886963,12|8,2:2|2:3,0:0:0:0:
301,307,219109,6,0,B|317:354|317:354|276:392,1,94.600002886963,0|0,1:1|0:0,0:0:0:0:
45,329,219359,2,0,B|28:280|28:280|71:240,1,103.199996850586,0|2,1:1|2:3,0:0:0:0:
221,304,219609,5,8,2:3:0:0:
129,347,219734,2,0,B|167:294|121:236|99:284|58:211|87:167,1,206.399993701172,4|4,1:3|2:3,0:0:0:0:
237,138,220109,2,0,B|226:109|241:86|248:101|265:75|256:42,1,103.199996850586,0|10,0:0|2:3,0:0:0:0:
151,115,220359,6,0,P|219:176|310:168,1,189.200005773926,0|6,0:0|2:3,0:0:0:0:
341,83,220734,1,0,1:1:0:0:
499,107,220859,2,0,P|464:137|419:133,2,94.600002886963,12|8|0,2:2|2:3|1:1,0:0:0:0:
347,96,221234,1,8,2:3:0:0:
388,211,221359,5,4,1:2:0:0:
388,211,221484,1,0,0:0:0:0:
237,139,221609,1,8,2:3:0:0:
173,204,221734,6,0,B|193:321|238:244|254:374,1,189.200005773926,4|4,1:3|2:3,0:0:0:0:
267,221,222109,1,8,1:3:0:0:
155,121,222234,2,0,P|115:130|98:187,1,94.600002886963,2|0,1:3|1:1,0:0:0:0:
268,229,222484,1,8,2:3:0:0:
153,296,222609,5,6,2:3:0:0:
153,296,222734,1,0,1:1:0:0:
77,273,222859,5,12,2:2:0:0:
39,339,222984,1,8,2:3:0:0:
13,214,223109,5,0,1:1:0:0:
102,384,223234,1,0,0:0:0:0:
173,204,223359,6,0,P|253:173|347:404,1,387.000014762879,4|8,1:3|1:3,0:0:0:0:
222,345,223859,6,0,L|305:-30,1,335.399984646607,14|10,2:3|2:3,0:0:0:0:
207,43,224359,6,0,P|230:63|236:99,2,63.0666685913087,4|0|0,2:3|0:0|0:0,0:0:0:0:
337,173,224609,2,0,P|304:181|284:230,2,63.0666685913087,10|0|0,2:3|0:0|0:0,0:0:0:0:
316,92,224859,5,12,2:2:0:0:
217,171,224984,1,8,2:3:0:0:
266,280,225109,1,4,1:3:0:0:
199,343,225234,5,8,2:3:0:0:
256,192,226734,5,4,1:2:0:0:
256,192,226796,12,0,233859,0:0:0:0:
