osu file format v14

[General]
AudioFilename: audio.mp3
AudioLeadIn: 0
PreviewTime: 64859
Countdown: 0
SampleSet: Soft
StackLeniency: 0.4
Mode: 0
LetterboxInBreaks: 0
WidescreenStoryboard: 1

[Editor]
Bookmarks: 17366,33366,49366,65366,97366,113366,129366,161366,177366,193366,226741
DistanceSpacing: 1.1
BeatDivisor: 6
GridSize: 16
TimelineZoom: 3.399999

[Metadata]
Title:Summer Fever
TitleUnicode:Summer Fever
Artist:FELT
ArtistUnicode:FELT
Creator:Camo
Version:LeCandy's Extra
Source:東方花映塚 ~ Phantasmagoria of Flower View.
Tags:owc2022gfhd1 owc osu! world cup 2022 grand finals hidden 1 monsieursebas censoled fooders kyrie irving lecandy visionary sagu オリエンタルダークフライト Oriental Dark Flight ZUN 霧雨魔理沙 Marisa Kirisame Vivienne Renko Maurits"禅"Cornelis 上海アリス幻樂団 Team Shanghai Alice touhou project 2hu 東方project th9 flower reflecting mound kaeizuka fortunes gate english jazz video game pop
BeatmapID:4187402
BeatmapSetID:1888937

[Difficulty]
HPDrainRate:5.6
CircleSize:4
OverallDifficulty:9
ApproachRate:9.4
SliderMultiplier:1.8
SliderTickRate:1

[Events]
//Background and Video events
0,0,"98661691_p0.jpg",0,0
//Break Periods
//Storyboard Layer 0 (Background)
//Storyboard Layer 1 (Fail)
//Storyboard Layer 2 (Pass)
//Storyboard Layer 3 (Foreground)
//Storyboard Layer 4 (Overlay)
//Storyboard Sound Samples

[TimingPoints]
-641,500,4,2,1,70,1,0
609,-166.666666666667,4,2,1,70,0,0
859,-250,4,2,1,70,0,0
1359,-50,4,2,1,70,0,0
2859,-50,4,2,2,70,0,0
2984,-50,4,2,1,70,0,0
3859,-50,4,2,2,70,0,0
4109,-50,4,2,1,70,0,0
4234,-50,4,2,2,70,0,0
4484,-50,4,2,1,70,0,0
4859,-50,4,2,2,70,0,0
4984,-50,4,2,1,70,0,0
5109,-50,4,2,2,70,0,0
5171,-50,4,2,1,70,0,0
5234,-50,4,2,1,70,0,0
6859,-50,4,2,2,70,0,0
6984,-50,4,2,1,70,0,0
7859,-50,4,2,2,70,0,0
7921,-50,4,2,1,70,0,0
7984,-50,4,2,2,70,0,0
8109,-50,4,2,1,70,0,0
8234,-50,4,2,2,70,0,0
8484,-50,4,2,1,70,0,0
8859,-50,4,2,2,70,0,0
8984,-50,4,2,1,70,0,0
9109,-50,4,2,2,70,0,0
9234,-50,4,2,1,70,0,0
9359,-35.7142857142857,4,2,1,70,0,0
9609,-50,4,2,1,70,0,0
10859,-50,4,2,2,70,0,0
10984,-50,4,2,1,70,0,0
11859,-50,4,2,2,70,0,0
12109,-50,4,2,1,70,0,0
12234,-50,4,2,2,70,0,0
12484,-50,4,2,1,70,0,0
12859,-50,4,2,2,70,0,0
12984,-50,4,2,1,70,0,0
13109,-50,4,2,2,70,0,0
13234,-50,4,2,1,70,0,0
14859,-50,4,2,2,70,0,0
14921,-50,4,2,1,70,0,0
15359,-35.7142857142857,4,2,1,70,0,0
15859,-55.5555555555555,4,2,2,70,0,0
16109,-55.5555555555555,4,2,1,70,0,0
16234,-55.5555555555555,4,2,2,70,0,0
16359,-62.5,4,2,2,70,0,0
16484,-62.5,4,2,1,70,0,0
16734,-50,4,2,1,70,0,0
16859,-50,4,2,2,70,0,0
16984,-50,4,2,1,70,0,0
17109,-50,4,2,2,70,0,0
17234,-50,4,2,1,70,0,0
17359,-33.3333333333334,4,2,1,80,0,0
17609,-33.3333333333334,4,2,3,80,0,0
17859,-50,4,2,1,80,0,0
18109,-50,4,2,3,80,0,0
18234,-50,4,2,7,80,0,0
18609,-50,4,2,4,80,0,0
18859,-50,4,2,2,80,0,0
18984,-50,4,2,1,80,0,0
19734,-50,4,2,3,80,0,0
19859,-50,4,2,4,80,0,0
20109,-50,4,2,1,80,0,0
20234,-50,4,2,2,80,0,0
20484,-50,4,2,1,80,0,0
20859,-50,4,2,2,80,0,0
20984,-62.5,4,2,1,80,0,0
21109,-62.5,4,2,2,80,0,0
21233,-62.5,4,2,1,80,0,0
21359,-50,4,2,1,80,0,0
21609,-50,4,2,3,80,0,0
21859,-50,4,2,1,80,0,0
22109,-50,4,2,3,80,0,0
22234,-50,4,2,7,80,0,0
22609,-50,4,2,4,80,0,0
22859,-50,4,2,2,80,0,0
22984,-50,4,2,1,80,0,0
23859,-50,4,2,2,80,0,0
24109,-50,4,2,1,80,0,0
24234,-50,4,2,2,80,0,0
24484,-50,4,2,1,80,0,0
24859,-50,4,2,2,80,0,0
24984,-50,4,2,1,80,0,0
25109,-50,4,2,2,80,0,0
25234,-50,4,2,1,80,0,0
25359,-33.3333333333334,4,2,1,80,0,0
25609,-33.3333333333334,4,2,3,80,0,0
25734,-50,4,2,3,80,0,0
25859,-50,4,2,1,80,0,0
26109,-50,4,2,3,80,0,0
26234,-50,4,2,7,80,0,0
26609,-50,4,2,4,80,0,0
26859,-50,4,2,2,80,0,0
26984,-50,4,2,1,80,0,0
27046,-50,4,2,2,80,0,0
27109,-83.3333333333335,4,2,1,80,0,0
27359,-50,4,2,1,80,0,0
27734,-50,4,2,3,80,0,0
27859,-50,4,2,4,80,0,0
28109,-50,4,2,1,80,0,0
28234,-50,4,2,2,80,0,0
28484,-50,4,2,1,80,0,0
28859,-50,4,2,2,80,0,0
28984,-50,4,2,3,80,0,0
29109,-50,4,2,2,80,0,0
29234,-50,4,2,3,80,0,0
29859,-50,4,2,1,80,0,0
29984,-50,4,2,3,80,0,0
30234,-50,4,2,7,80,0,0
30609,-50,4,2,4,80,0,0
30859,-50,4,2,2,80,0,0
30984,-50,4,2,1,80,0,0
31859,-50,4,2,2,80,0,0
32109,-50,4,2,1,80,0,0
32234,-50,4,2,2,80,0,0
32484,-50,4,2,1,80,0,0
32859,-50,4,2,2,80,0,0
32984,-50,4,2,1,80,0,0
33109,-50,4,2,2,80,0,0
33234,-50,4,2,3,80,0,0
33359,-62.5,4,2,3,70,0,0
33608,-62.5,4,2,4,70,0,0
34359,-62.5,4,2,1,70,0,0
34483,-62.5,4,2,4,70,0,0
34609,-62.5,4,2,1,70,0,0
34859,-62.5,4,2,4,70,0,0
35484,-62.5,4,2,1,70,0,0
35859,-62.5,4,2,4,70,0,0
36234,-62.5,4,2,1,70,0,0
36859,-62.5,4,2,2,70,0,0
37109,-62.5,4,2,4,70,0,0
38359,-62.5,4,2,1,70,0,0
38483,-62.5,4,2,4,70,0,0
38609,-62.5,4,2,1,70,0,0
38859,-62.5,4,2,4,70,0,0
39359,-62.5,4,2,1,70,0,0
39859,-62.5,4,2,2,70,0,0
40109,-62.5,4,2,1,70,0,0
40859,-62.5,4,2,2,70,0,0
41109,-62.5,4,2,1,70,0,0
41359,-62.5,4,2,3,70,0,0
41608,-62.5,4,2,4,70,0,0
42359,-62.5,4,2,1,70,0,0
42483,-62.5,4,2,4,70,0,0
42609,-62.5,4,2,1,70,0,0
42859,-62.5,4,2,4,70,0,0
43484,-62.5,4,2,1,70,0,0
43859,-62.5,4,2,4,70,0,0
44234,-62.5,4,2,1,70,0,0
44859,-62.5,4,2,2,70,0,0
45109,-62.5,4,2,4,70,0,0
46359,-62.5,4,2,1,70,0,0
46483,-62.5,4,2,4,70,0,0
46609,-62.5,4,2,1,70,0,0
46859,-62.5,4,2,4,70,0,0
47484,-62.5,4,2,1,70,0,0
47859,-62.5,4,2,4,70,0,0
48234,-62.5,4,2,1,70,0,0
48859,-62.5,4,2,2,70,0,0
49109,-62.5,4,2,3,70,0,0
49609,-62.5,4,2,4,70,0,0
50358,-62.5,4,2,1,70,0,0
50859,-62.5,4,2,4,70,0,0
51484,-62.5,4,2,1,70,0,0
51859,-62.5,4,2,4,70,0,0
52234,-62.5,4,2,1,70,0,0
52859,-62.5,4,2,2,70,0,0
53109,-100,4,2,4,70,0,0
53359,-62.5,4,2,4,70,0,0
54359,-62.5,4,2,1,70,0,0
54483,-62.5,4,2,4,70,0,0
54609,-62.5,4,2,1,70,0,0
54859,-62.5,4,2,4,70,0,0
55359,-62.5,4,2,1,70,0,0
55859,-62.5,4,2,2,70,0,0
56108,-62.5,4,2,1,70,0,0
56859,-62.5,4,2,2,70,0,0
57109,-62.5,4,2,1,70,0,0
57359,-62.5,4,2,3,70,0,0
57609,-62.5,4,2,4,70,0,0
58359,-62.5,4,2,1,70,0,0
58483,-62.5,4,2,4,70,0,0
58609,-62.5,4,2,1,70,0,0
58859,-62.5,4,2,4,70,0,0
59484,-62.5,4,2,1,70,0,0
59859,-62.5,4,2,4,70,0,0
60234,-62.5,4,2,1,70,0,0
60859,-62.5,4,2,2,70,0,0
61109,-62.5,4,2,1,70,0,0
61859,-62.5,4,2,4,70,0,0
62359,-62.5,4,2,1,70,0,0
62421,-62.5,4,2,4,5,0,0
62484,-62.5,4,2,4,70,0,0
62609,-62.5,4,2,1,70,0,0
62859,-62.5,4,2,4,70,0,0
63484,-62.5,4,2,1,70,0,0
63859,-62.5,4,2,4,70,0,0
64234,-62.5,4,2,1,70,0,0
64359,-62.5,4,2,4,70,0,0
64859,-62.5,4,2,2,70,0,0
65109,-62.5,4,2,1,70,0,0
65359,-50,4,2,1,90,0,0
65984,-50,4,2,3,90,0,0
66234,-50,4,2,7,90,0,0
66609,-50,4,2,1,90,0,0
66859,-50,4,2,2,90,0,0
66984,-50,4,2,3,90,0,0
67109,-50,4,2,1,90,0,0
67234,-50,4,2,3,90,0,0
67483,-50,4,2,1,90,0,0
67857,-50,4,2,2,90,0,0
67984,-50,4,2,3,90,0,0
68234,-50,4,2,4,90,0,0
68484,-50,4,2,1,90,0,0
68859,-50,4,2,2,90,0,0
68984,-50,4,2,3,90,0,0
69109,-50,4,2,2,90,0,0
69234,-50,4,2,3,90,0,0
69859,-50,4,2,1,90,0,0
69984,-50,4,2,3,90,0,0
70234,-50,4,2,7,90,0,0
70609,-50,4,2,1,90,0,0
70859,-50,4,2,2,90,0,0
70984,-50,4,2,3,90,0,0
71109,-50,4,2,1,90,0,0
71234,-50,4,2,3,90,0,0
71484,-50,4,2,1,90,0,0
71607,-50,4,2,3,90,0,0
71859,-50,4,2,4,90,0,0
71984,-50,4,2,3,90,0,0
72234,-50,4,2,4,90,0,0
72484,-50,4,2,2,90,0,0
72609,-50,4,2,1,90,0,0
72734,-50,4,2,3,90,0,0
72859,-50,4,2,2,90,0,0
72984,-50,4,2,3,90,0,0
73109,-50,4,2,5,90,0,0
73234,-50,4,2,4,90,0,0
73359,-50,4,2,1,90,0,0
73734,-50,4,2,3,90,0,0
73858,-50,4,2,1,90,0,0
73984,-50,4,2,3,90,0,0
74234,-50,4,2,7,90,0,0
74607,-50,4,2,1,90,0,0
74859,-50,4,2,2,90,0,0
74984,-50,4,2,3,90,0,0
75109,-50,4,2,1,90,0,0
75234,-50,4,2,3,90,0,0
75359,-50,4,2,1,90,0,0
75607,-50,4,2,3,90,0,0
75859,-50,4,2,2,90,0,0
75984,-50,4,2,3,90,0,0
76234,-50,4,2,4,90,0,0
76484,-50,4,2,1,90,0,0
76546,-50,4,2,4,90,0,0
76859,-50,4,2,2,90,0,0
76984,-50,4,2,3,90,0,0
77109,-50,4,2,2,90,0,0
77234,-50,4,2,3,90,0,0
77359,-41.6666666666667,4,2,1,90,0,0
77609,-41.6666666666667,4,2,3,90,0,0
77734,-50,4,2,3,90,0,0
77859,-50,4,2,1,90,0,0
77984,-50,4,2,3,90,0,0
78234,-50,4,2,7,90,0,0
78609,-50,4,2,1,90,0,0
78859,-50,4,2,2,90,0,0
78984,-50,4,2,3,90,0,0
79483,-50,4,2,7,90,0,0
79734,-50,4,2,3,90,0,0
79859,-50,4,2,2,90,0,0
80109,-50,4,2,1,90,0,0
80234,-50,4,2,2,90,0,0
80609,-50,4,2,1,90,0,0
80734,-50,4,2,3,90,0,0
80859,-50,4,2,2,90,0,0
80984,-50,4,2,1,90,0,0
81109,-50,4,2,5,90,0,0
81359,-33.3333333333334,4,2,1,80,0,0
81734,-50,4,2,1,80,0,0
82859,-50,4,2,2,80,0,0
82984,-50,4,2,1,80,0,0
83859,-50,4,2,2,80,0,0
84109,-50,4,2,1,80,0,0
84234,-50,4,2,2,80,0,0
84484,-50,4,2,1,80,0,0
84859,-50,4,2,2,80,0,0
84984,-50,4,2,1,80,0,0
85109,-50,4,2,2,80,0,0
85234,-50,4,2,1,80,0,0
86859,-50,4,2,2,80,0,0
86984,-50,4,2,1,80,0,0
87859,-50,4,2,2,80,0,0
88109,-50,4,2,1,80,0,0
88234,-50,4,2,2,80,0,0
88484,-50,4,2,1,80,0,0
88859,-50,4,2,2,80,0,0
88984,-50,4,2,1,80,0,0
89109,-50,4,2,2,80,0,0
89234,-50,4,2,1,80,0,0
89359,-35.7142857142857,4,2,1,80,0,0
89734,-50,4,2,1,80,0,0
90859,-50,4,2,2,80,0,0
90984,-50,4,2,1,80,0,0
91859,-50,4,2,2,80,0,0
92109,-50,4,2,1,80,0,0
92234,-50,4,2,2,80,0,0
92484,-50,4,2,1,80,0,0
92859,-50,4,2,2,80,0,0
92984,-50,4,2,1,80,0,0
93109,-50,4,2,2,80,0,0
93234,-50,4,2,1,80,0,0
94859,-50,4,2,2,80,0,0
94984,-50,4,2,1,80,0,0
95859,-50,4,2,2,80,0,0
96109,-50,4,2,1,80,0,0
96234,-50,4,2,2,80,0,0
96484,-50,4,2,1,80,0,0
96859,-35.7142857142857,4,2,2,80,0,0
96984,-35.7142857142857,4,2,1,80,0,0
97046,-35.7142857142857,4,2,2,80,0,0
97109,-35.7142857142857,4,2,2,80,0,0
97234,-35.7142857142857,4,2,3,80,0,0
97359,-62.5,4,2,3,70,0,0
97609,-62.5,4,2,4,70,0,0
98359,-62.5,4,2,1,70,0,0
98483,-62.5,4,2,4,70,0,0
98609,-62.5,4,2,1,70,0,0
98859,-62.5,4,2,4,70,0,0
99483,-62.5,4,2,1,70,0,0
99859,-62.5,4,2,4,70,0,0
100234,-62.5,4,2,1,70,0,0
100859,-62.5,4,2,2,70,0,0
101109,-62.5,4,2,1,70,0,0
101359,-45.4545454545455,4,2,1,70,0,0
101609,-62.5,4,2,1,70,0,0
101859,-62.5,4,2,4,70,0,0
102359,-62.5,4,2,1,70,0,0
102483,-62.5,4,2,4,70,0,0
102609,-62.5,4,2,1,70,0,0
102859,-62.5,4,2,4,70,0,0
103359,-62.5,4,2,1,70,0,0
103859,-62.5,4,2,2,70,0,0
104109,-62.5,4,2,1,70,0,0
104859,-62.5,4,2,2,70,0,0
105109,-62.5,4,2,1,70,0,0
105359,-41.6666666666667,4,2,3,70,0,0
105609,-41.6666666666667,4,2,4,70,0,0
105859,-62.5,4,2,4,70,0,0
106359,-62.5,4,2,1,70,0,0
106483,-62.5,4,2,4,70,0,0
106609,-62.5,4,2,1,70,0,0
106859,-62.5,4,2,4,70,0,0
107484,-62.5,4,2,1,70,0,0
107859,-62.5,4,2,4,70,0,0
108234,-62.5,4,2,1,70,0,0
108859,-62.5,4,2,2,70,0,0
109108,-62.5,4,2,4,70,0,0
110359,-62.5,4,2,1,70,0,0
110483,-62.5,4,2,4,70,0,0
110609,-62.5,4,2,1,70,0,0
110859,-62.5,4,2,4,70,0,0
111484,-62.5,4,2,1,70,0,0
111859,-62.5,4,2,4,70,0,0
112234,-62.5,4,2,1,70,0,0
112859,-62.5,4,2,2,70,0,0
113109,-62.5,4,2,6,70,0,0
113359,-62.5,4,2,6,80,0,0
113609,-62.5,4,2,3,80,0,0
113859,-62.5,4,2,5,80,0,0
114109,-62.5,4,2,3,80,0,0
114234,-50,4,2,1,80,0,0
114421,-50,4,2,1,5,0,0
114484,-71.4285714285715,4,2,1,80,0,0
114671,-71.4285714285715,4,2,1,5,0,0
114734,-41.6666666666667,4,2,1,80,0,0
114921,-41.6666666666667,4,2,1,5,0,0
114984,-41.6666666666667,4,2,1,80,0,0
115109,-125,4,2,1,80,0,0
115359,-62.5,4,2,7,70,0,0
115484,-62.5,4,2,1,70,0,0
115609,-62.5,4,2,3,70,0,0
115859,-62.5,4,2,5,70,0,0
116109,-62.5,4,2,3,70,0,0
116234,-62.5,4,2,1,70,0,0
116859,-62.5,4,2,6,70,0,0
116984,-62.5,4,2,1,70,0,0
117109,-62.5,4,2,3,70,0,0
117234,-62.5,4,2,1,70,0,0
117609,-62.5,4,2,3,70,0,0
117859,-62.5,4,2,5,70,0,0
118109,-62.5,4,2,3,70,0,0
118234,-62.5,4,2,1,70,0,0
118609,-62.5,4,2,3,70,0,0
118859,-62.5,4,2,5,70,0,0
119109,-62.5,4,2,3,70,0,0
119234,-62.5,4,2,1,70,0,0
119859,-62.5,4,2,6,70,0,0
120109,-62.5,4,2,1,70,0,0
120234,-50,4,2,1,70,0,0
120609,-62.5,4,2,1,70,0,0
120859,-62.5,4,2,6,70,0,0
120984,-62.5,4,2,1,70,0,0
121109,-62.5,4,2,3,70,0,0
121359,-41.6666666666667,4,2,6,70,0,0
121609,-41.6666666666667,4,2,3,70,0,0
121859,-62.5,4,2,5,70,0,0
122109,-62.5,4,2,3,70,0,0
122234,-62.5,4,2,1,70,0,0
122609,-62.5,4,2,3,70,0,0
122859,-62.5,4,2,5,70,0,0
123109,-62.5,4,2,3,70,0,0
123359,-62.5,4,2,7,70,0,0
123484,-62.5,4,2,1,70,0,0
123859,-62.5,4,2,5,70,0,0
124109,-62.5,4,2,1,70,0,0
124234,-50,4,2,1,70,0,0
124859,-50,4,2,6,70,0,0
125109,-50,4,2,3,70,0,0
125234,-50,4,2,1,70,0,0
125359,-62.5,4,2,7,70,0,0
125609,-62.5,4,2,3,70,0,0
125859,-62.5,4,2,5,70,0,0
126109,-62.5,4,2,3,70,0,0
126234,-62.5,4,2,1,70,0,0
126609,-62.5,4,2,3,70,0,0
126859,-62.5,4,2,5,70,0,0
127109,-62.5,4,2,3,70,0,0
127359,-62.5,4,2,7,70,0,0
127484,-62.5,4,2,1,70,0,0
127859,-62.5,4,2,5,70,0,0
128109,-62.5,4,2,1,70,0,0
128359,-62.5,4,2,7,70,0,0
128609,-62.5,4,2,3,70,0,0
128859,-62.5,4,2,2,70,0,0
128984,-62.5,4,2,3,70,0,0
129359,-50,4,2,1,90,0,0
129984,-50,4,2,3,90,0,0
130234,-50,4,2,7,90,0,0
130609,-50,4,2,1,90,0,0
130859,-50,4,2,2,90,0,0
130984,-50,4,2,3,90,0,0
131109,-50,4,2,1,90,0,0
131234,-50,4,2,3,90,0,0
131483,-50,4,2,1,90,0,0
131859,-50,4,2,2,90,0,0
131984,-50,4,2,3,90,0,0
132234,-50,4,2,4,90,0,0
132484,-50,4,2,1,90,0,0
132859,-50,4,2,2,90,0,0
132984,-50,4,2,3,90,0,0
133109,-50,4,2,2,90,0,0
133234,-50,4,2,3,90,0,0
133859,-50,4,2,1,90,0,0
133984,-50,4,2,3,90,0,0
134234,-41.6666666666667,4,2,7,90,0,0
134609,-50,4,2,1,90,0,0
134859,-50,4,2,2,90,0,0
134984,-50,4,2,3,90,0,0
135109,-50,4,2,1,90,0,0
135234,-50,4,2,3,90,0,0
135483,-50,4,2,1,90,0,0
135609,-50,4,2,3,90,0,0
135859,-50,4,2,4,90,0,0
135984,-50,4,2,3,90,0,0
136234,-50,4,2,4,90,0,0
136484,-50,4,2,2,90,0,0
136609,-50,4,2,1,90,0,0
136734,-50,4,2,3,90,0,0
136859,-50,4,2,2,90,0,0
136984,-50,4,2,3,90,0,0
137109,-50,4,2,5,90,0,0
137234,-50,4,2,4,90,0,0
137359,-41.6666666666667,4,2,1,90,0,0
137734,-50,4,2,3,90,0,0
137858,-50,4,2,1,90,0,0
137984,-50,4,2,3,90,0,0
138234,-50,4,2,7,90,0,0
138609,-50,4,2,1,90,0,0
138859,-50,4,2,2,90,0,0
138984,-50,4,2,3,90,0,0
139109,-50,4,2,1,90,0,0
139234,-50,4,2,3,90,0,0
139359,-50,4,2,1,90,0,0
139609,-50,4,2,3,90,0,0
139859,-50,4,2,2,90,0,0
139984,-50,4,2,3,90,0,0
140234,-50,4,2,4,90,0,0
140484,-50,4,2,1,90,0,0
140609,-50,4,2,4,90,0,0
140859,-50,4,2,2,90,0,0
140984,-50,4,2,3,90,0,0
141109,-50,4,2,2,90,0,0
141234,-50,4,2,3,90,0,0
141359,-31.25,4,2,1,90,0,0
141609,-35.7142857142857,4,2,3,90,0,0
141734,-50,4,2,3,90,0,0
141858,-50,4,2,1,90,0,0
141984,-50,4,2,3,90,0,0
142234,-50,4,2,7,90,0,0
142609,-50,4,2,1,90,0,0
142859,-50,4,2,2,90,0,0
142984,-50,4,2,3,90,0,0
143483,-50,4,2,7,90,0,0
143734,-50,4,2,3,90,0,0
143859,-50,4,2,2,90,0,0
143921,-50,4,2,3,90,0,0
143984,-50,4,2,2,90,0,0
144109,-50,4,2,1,90,0,0
144234,-50,4,2,2,90,0,0
144609,-50,4,2,1,90,0,0
144734,-50,4,2,3,90,0,0
144859,-50,4,2,2,90,0,0
144984,-50,4,2,1,90,0,0
145109,-50,4,2,5,90,0,0
145359,-35.7142857142857,4,2,1,80,0,0
145609,-35.7142857142857,4,2,3,80,0,0
145859,-50,4,2,1,80,0,0
146109,-50,4,2,3,80,0,0
146234,-50,4,2,7,80,0,0
146609,-50,4,2,4,80,0,0
146859,-50,4,2,2,80,0,0
146984,-50,4,2,1,80,0,0
147734,-50,4,2,3,80,0,0
147859,-50,4,2,2,80,0,0
148109,-50,4,2,1,80,0,0
148234,-50,4,2,2,80,0,0
148484,-50,4,2,1,80,0,0
148859,-50,4,2,2,80,0,0
148984,-50,4,2,1,80,0,0
149109,-50,4,2,2,80,0,0
149234,-50,4,2,1,80,0,0
149609,-50,4,2,3,80,0,0
149859,-50,4,2,1,80,0,0
150109,-50,4,2,3,80,0,0
150234,-50,4,2,7,80,0,0
150609,-50,4,2,4,80,0,0
150859,-50,4,2,2,80,0,0
150984,-50,4,2,1,80,0,0
151859,-50,4,2,2,80,0,0
152109,-50,4,2,1,80,0,0
152234,-50,4,2,2,80,0,0
152484,-50,4,2,1,80,0,0
152859,-50,4,2,2,80,0,0
152984,-50,4,2,1,80,0,0
153109,-50,4,2,2,80,0,0
153234,-50,4,2,1,80,0,0
153359,-35.7142857142857,4,2,1,80,0,0
153609,-50,4,2,3,80,0,0
153859,-50,4,2,1,80,0,0
154109,-50,4,2,3,80,0,0
154234,-50,4,2,7,80,0,0
154609,-50,4,2,4,80,0,0
154859,-50,4,2,2,80,0,0
154984,-50,4,2,1,80,0,0
155734,-50,4,2,3,80,0,0
155859,-50,4,2,2,80,0,0
156109,-50,4,2,1,80,0,0
156234,-50,4,2,2,80,0,0
156484,-50,4,2,1,80,0,0
156859,-50,4,2,2,80,0,0
156984,-50,4,2,3,80,0,0
157109,-50,4,2,2,80,0,0
157234,-50,4,2,3,80,0,0
157359,-45.4545454545455,4,2,3,80,0,0
157859,-45.4545454545455,4,2,1,80,0,0
157984,-50,4,2,3,80,0,0
158234,-50,4,2,7,80,0,0
158609,-41.6666666666667,4,2,4,80,0,0
158859,-41.6666666666667,4,2,2,80,0,0
158984,-41.6666666666667,4,2,1,80,0,0
159109,-50,4,2,1,80,0,0
159859,-50,4,2,2,80,0,0
160109,-50,4,2,1,80,0,0
160234,-45.4545454545455,4,2,2,80,0,0
160484,-45.4545454545455,4,2,1,80,0,0
160859,-50,4,2,2,80,0,0
160984,-50,4,2,1,80,0,0
161109,-33.3333333333334,4,2,2,80,0,0
161234,-33.3333333333334,4,2,1,80,0,0
161296,-33.3333333333334,4,2,2,80,0,0
161359,-125,4,2,1,80,0,0
161609,-27.7777777777778,4,2,1,80,0,0
161859,-50,4,2,1,80,0,0
162734,-41.6666666666667,4,2,1,80,0,0
162859,-41.6666666666667,4,2,2,80,0,0
162984,-41.6666666666667,4,2,1,80,0,0
163109,-50,4,2,1,80,0,0
163859,-50,4,2,2,80,0,0
164109,-50,4,2,1,80,0,0
164234,-50,4,2,2,80,0,0
164484,-50,4,2,1,80,0,0
164859,-50,4,2,2,80,0,0
164984,-50,4,2,1,80,0,0
165109,-50,4,2,2,80,0,0
165234,-50,4,2,1,80,0,0
166734,-41.6666666666667,4,2,1,80,0,0
166859,-41.6666666666667,4,2,2,80,0,0
166984,-41.6666666666667,4,2,1,80,0,0
167109,-50,4,2,1,80,0,0
167859,-50,4,2,2,80,0,0
168109,-50,4,2,1,80,0,0
168234,-50,4,2,2,80,0,0
168484,-50,4,2,1,80,0,0
168859,-50,4,2,2,80,0,0
168984,-50,4,2,1,80,0,0
169109,-31.25,4,2,1,80,0,0
169171,-31.25,4,2,1,80,0,0
169359,-125,4,2,1,80,0,0
169609,-27.7777777777778,4,2,1,80,0,0
169859,-50,4,2,1,80,0,0
170734,-41.6666666666667,4,2,1,80,0,0
170859,-41.6666666666667,4,2,2,80,0,0
170984,-41.6666666666667,4,2,1,80,0,0
171109,-50,4,2,1,80,0,0
171859,-50,4,2,2,80,0,0
172109,-50,4,2,1,80,0,0
172234,-50,4,2,2,80,0,0
172484,-50,4,2,1,80,0,0
172546,-50,4,2,2,80,0,0
172609,-50,4,2,1,80,0,0
172859,-50,4,2,2,80,0,0
172984,-50,4,2,1,80,0,0
173109,-50,4,2,2,80,0,0
173234,-50,4,2,1,80,0,0
173359,-38.4615384615385,4,2,1,80,0,0
173734,-50,4,2,1,80,0,0
174359,-62.5,4,2,1,80,0,0
174734,-50,4,2,1,80,0,0
174859,-50,4,2,2,80,0,0
174984,-50,4,2,1,80,0,0
175109,-62.5,4,2,1,80,0,0
175359,-33.3333333333333,4,2,1,80,0,0
175609,-50,4,2,1,80,0,0
175859,-38.4615384615385,4,2,2,80,0,0
176109,-38.4615384615385,4,2,1,80,0,0
176234,-38.4615384615385,4,2,2,80,0,0
176275,-38.4615384615385,4,2,1,80,0,0
176359,-50,4,2,2,80,0,0
176484,-50,4,2,1,80,0,0
176525,-50,4,2,2,80,0,0
176609,-50,4,2,1,80,0,0
176859,-47.6190476190476,4,2,2,80,0,0
176984,-50,4,2,1,80,0,0
177025,-50,4,2,2,80,0,0
177234,-50,4,2,1,80,0,0
177359,-83.3333333333335,4,2,4,60,0,0
177608,-83.3333333333335,4,2,1,60,0,0
185359,-83.3333333333335,4,2,3,70,0,0
185984,-83.3333333333335,4,2,1,70,0,0
189109,-83.3333333333335,4,2,3,70,0,0
189609,-83.3333333333335,4,2,4,70,0,0
189859,-83.3333333333335,4,2,3,70,0,0
190109,-83.3333333333335,4,2,4,70,0,0
190859,-83.3333333333335,4,2,3,70,0,0
191109,-83.3333333333335,4,2,4,70,0,0
191984,-83.3333333333335,4,2,1,70,0,0
193109,-83.3333333333335,4,2,3,70,0,0
193359,-41.6666666666667,4,2,1,90,0,0
193984,-41.6666666666667,4,2,3,90,0,0
194234,-50,4,2,7,90,0,0
194609,-50,4,2,1,90,0,0
194859,-50,4,2,2,90,0,0
194984,-50,4,2,3,90,0,0
195109,-50,4,2,1,90,0,0
195234,-50,4,2,3,90,0,0
195483,-50,4,2,1,90,0,0
195859,-50,4,2,2,90,0,0
195984,-50,4,2,3,90,0,0
196234,-50,4,2,4,90,0,0
196483,-50,4,2,1,90,0,0
196859,-50,4,2,2,90,0,0
196984,-50,4,2,3,90,0,0
197109,-50,4,2,2,90,0,0
197234,-50,4,2,3,90,0,0
197859,-50,4,2,1,90,0,0
197984,-50,4,2,3,90,0,0
198234,-50,4,2,7,90,0,0
198609,-50,4,2,1,90,0,0
198859,-50,4,2,2,90,0,0
198984,-50,4,2,3,90,0,0
199109,-50,4,2,1,90,0,0
199234,-50,4,2,3,90,0,0
199483,-50,4,2,1,90,0,0
199609,-50,4,2,3,90,0,0
199859,-50,4,2,4,90,0,0
199984,-50,4,2,3,90,0,0
200234,-50,4,2,4,90,0,0
200484,-50,4,2,2,90,0,0
200609,-50,4,2,1,90,0,0
200734,-50,4,2,3,90,0,0
200859,-50,4,2,2,90,0,0
200984,-50,4,2,3,90,0,0
201109,-50,4,2,5,90,0,0
201234,-50,4,2,4,90,0,0
201359,-41.6666666666667,4,2,1,90,0,0
201734,-50,4,2,3,90,0,0
201858,-50,4,2,1,90,0,0
201984,-50,4,2,3,90,0,0
202234,-50,4,2,7,90,0,0
202609,-50,4,2,1,90,0,0
202859,-50,4,2,2,90,0,0
202984,-50,4,2,3,90,0,0
203109,-50,4,2,1,90,0,0
203234,-50,4,2,3,90,0,0
203359,-50,4,2,1,90,0,0
203421,-50,4,2,3,90,0,0
203484,-50,4,2,1,90,0,0
203609,-50,4,2,3,90,0,0
203859,-50,4,2,2,90,0,0
203984,-50,4,2,3,90,0,0
204234,-50,4,2,4,90,0,0
204484,-50,4,2,1,90,0,0
204609,-50,4,2,4,90,0,0
204859,-50,4,2,2,90,0,0
204984,-50,4,2,3,90,0,0
205109,-71.4285714285715,4,2,2,90,0,0
205234,-50,4,2,3,90,0,0
205359,-38.4615384615385,4,2,1,90,0,0
205609,-38.4615384615385,4,2,3,90,0,0
205734,-50,4,2,3,90,0,0
205858,-50,4,2,1,90,0,0
205984,-50,4,2,3,90,0,0
206234,-41.6666666666667,4,2,7,90,0,0
206609,-50,4,2,1,90,0,0
206859,-50,4,2,2,90,0,0
206984,-50,4,2,3,90,0,0
207483,-50,4,2,7,90,0,0
207734,-50,4,2,3,90,0,0
207859,-50,4,2,2,90,0,0
207984,-50,4,2,3,90,0,0
208109,-50,4,2,1,90,0,0
208234,-50,4,2,2,90,0,0
208609,-50,4,2,1,90,0,0
208734,-50,4,2,3,90,0,0
208775,-50,4,2,1,90,0,0
208859,-62.5,4,2,2,90,0,0
208984,-62.5,4,2,1,90,0,0
209109,-62.5,4,2,5,90,0,0
209359,-27.7777777777778,4,2,1,80,0,0
209859,-50,4,2,1,80,0,0
210234,-50,4,2,2,80,0,0
210359,-50,4,2,1,80,0,0
210859,-50,4,2,2,80,0,0
210984,-50,4,2,1,80,0,0
211859,-50,4,2,2,80,0,0
211984,-50,4,2,1,80,0,0
212109,-50,4,2,1,80,0,0
212234,-50,4,2,2,80,0,0
212484,-50,4,2,1,80,0,0
212859,-50,4,2,2,80,0,0
212984,-50,4,2,1,80,0,0
213109,-50,4,2,2,80,0,0
213234,-50,4,2,1,80,0,0
214234,-50,4,2,2,80,0,0
214359,-50,4,2,1,80,0,0
214859,-50,4,2,2,80,0,0
214984,-50,4,2,1,80,0,0
215859,-50,4,2,2,80,0,0
216109,-50,4,2,1,80,0,0
216234,-50,4,2,2,80,0,0
216484,-50,4,2,1,80,0,0
216859,-50,4,2,2,80,0,0
216984,-50,4,2,1,80,0,0
217109,-50,4,2,2,80,0,0
217234,-50,4,2,1,80,0,0
217359,-33.3333333333334,4,2,1,80,0,0
217734,-50,4,2,1,80,0,0
218859,-50,4,2,2,80,0,0
218984,-50,4,2,1,80,0,0
219859,-50,4,2,2,80,0,0
220109,-50,4,2,1,80,0,0
220171,-50,4,2,2,80,0,0
220484,-50,4,2,1,80,0,0
220546,-50,4,2,2,80,0,0
220609,-50,4,2,1,80,0,0
220859,-50,4,2,2,80,0,0
220984,-50,4,2,1,80,0,0
221109,-50,4,2,2,80,0,0
221234,-50,4,2,1,80,0,0
222859,-50,4,2,2,80,0,0
222984,-50,4,2,1,80,0,0
223859,-41.6666666666667,4,2,2,80,0,0
224109,-50,4,2,1,80,0,0
224234,-50,4,2,6,80,0,0
224359,-50,4,2,1,80,0,0
224859,-50,4,2,2,80,0,0
224984,-50,4,2,1,80,0,0
225109,-50,4,2,2,80,0,0
225234,-50,4,2,1,80,0,0
225609,-50,4,2,1,70,0,0
226734,-250,4,2,1,70,0,0
228359,-50,4,2,1,60,0,0
230359,-50,4,2,1,50,0,0
232359,-50,4,2,1,40,0,0
233609,-50,4,2,1,30,0,0
233859,-50,4,2,1,5,0,0

[Colours]
Combo1 : 147,120,108
Combo2 : 192,192,192
Combo3 : 219,198,174
Combo4 : 130,124,131

[HitObjects]
349,24,609,6,0,B|361:6|361:6|355:26,1,40.4999987640381
264,114,859,6,0,P|290:108|324:98,1,63,0|0,3:3|0:0,0:0:0:0:
512,201,1359,6,0,P|446:181|379:165,1,135,4|0,1:2|0:0,0:0:0:0:
381,165,1609,1,8,2:3:0:0:
488,98,1734,2,0,B|504:54|504:54|468:29,1,90,4|8,1:3|2:2,0:0:0:0:
407,86,1984,1,4,2:3:0:0:
407,86,2109,1,8,1:3:0:0:
185,170,2234,1,2,1:3:0:0:
131,110,2359,6,0,P|66:90|0:75,1,135,0|0,1:1|0:0,0:0:0:0:
0,75,2609,1,6,2:3:0:0:
207,93,2734,1,0,1:1:0:0:
42,4,2859,1,12,2:2:0:0:
42,4,2984,2,0,P|85:17|128:27,1,90,8|0,2:3|1:1,0:0:0:0:
194,350,3359,5,0,1:1:0:0:
202,355,3484,1,2,2:3:0:0:
338,237,3609,1,8,2:3:0:0:
288,384,3734,2,0,P|283:345|276:282,1,90,4|10,1:3|2:3,0:0:0:0:
182,157,3984,1,4,2:3:0:0:
257,123,4109,1,8,1:3:0:0:
161,281,4234,6,0,B|106:257|71:300|90:308|56:351|4:330,1,180,10|8,2:3|2:3,0:0:0:0:
228,219,4609,1,6,2:3:0:0:
224,228,4734,1,0,1:1:0:0:
0,167,4859,1,12,2:2:0:0:
47,103,4984,2,0,B|98:146|98:146|70:208,1,135,8|0,2:3|0:0,0:0:0:0:
70,207,5234,2,0,P|91:201|113:198,1,45,8|0,2:3|0:0,0:0:0:0:
265,59,5359,6,0,P|309:52|352:39,1,90,4|0,1:2|0:0,0:0:0:0:
187,93,5609,1,8,2:3:0:0:
137,31,5734,1,4,1:3:0:0:
416,90,5859,2,0,B|453:63|453:63|434:22,1,90,8|4,2:2|2:3,0:0:0:0:
340,128,6109,1,8,1:3:0:0:
346,136,6234,1,2,1:3:0:0:
453,246,6359,6,0,P|388:226|321:216,1,135,0|0,1:1|0:0,0:0:0:0:
262,163,6609,2,0,B|225:190|225:190|244:231,1,90,6|0,2:3|1:1,0:0:0:0:
511,196,6859,1,12,2:2:0:0:
505,185,6984,1,8,2:3:0:0:
149,215,7234,5,0,0:0:0:0:
0,142,7359,2,0,P|44:148|87:162,1,90,0|2,1:1|2:3,0:0:0:0:
213,81,7609,1,8,2:3:0:0:
162,20,7734,2,0,P|97:18|64:73,1,135,4|0,1:3|0:0,0:0:0:0:
64,73,7984,1,4,2:3:0:0:
240,6,8109,1,8,1:3:0:0:
293,64,8234,2,0,P|314:71|336:77,1,45,10|0,2:3|0:0,0:0:0:0:
229,319,8359,5,0,0:0:0:0:
229,319,8484,2,0,P|271:304|315:292,1,90,8|6,2:3|2:3,0:0:0:0:
370,199,8734,1,0,1:1:0:0:
512,89,8859,5,12,2:2:0:0:
512,89,8984,2,0,P|469:103|425:115,1,90,8|0,2:3|1:1,0:0:0:0:
481,281,9234,2,0,P|459:273|437:267,1,45,8|0,2:3|0:0,0:0:0:0:
289,143,9359,6,0,B|230:117|193:163|214:171|178:216|123:194,1,188.999994232178,4|0,1:2|0:0,0:0:0:0:
124,195,9609,1,8,2:3:0:0:
60,250,9734,1,4,1:3:0:0:
112,100,9859,1,8,2:2:0:0:
121,93,9984,1,4,2:3:0:0:
33,152,10109,1,8,1:3:0:0:
172,276,10234,1,2,1:3:0:0:
0,384,10359,6,0,P|31:343|129:333,1,135,0|0,1:1|0:0,0:0:0:0:
109,326,10609,1,6,2:3:0:0:
252,299,10734,2,0,P|274:255|261:211,1,90,0|12,1:1|2:2,0:0:0:0:
316,360,10984,1,8,2:3:0:0:
404,326,11109,2,0,P|401:276|431:242,1,90,0|0,1:1|0:0,0:0:0:0:
460,53,11359,5,0,1:1:0:0:
500,123,11484,2,0,P|420:164|331:172,1,180,2|4,2:3|1:3,0:0:0:0:
102,174,11859,2,0,P|147:178|186:200,1,90,10|4,2:3|2:3,0:0:0:0:
265,217,12109,1,8,1:3:0:0:
405,4,12234,6,0,B|346:-22|309:24|330:32|294:77|239:55,1,180,10|8,2:3|2:3,0:0:0:0:
144,89,12609,2,0,P|159:46|160:3,1,90,6|0,2:3|1:1,0:0:0:0:
403,90,12859,1,12,2:2:0:0:
319,125,12984,2,0,P|319:80|335:38,1,90,8|0,2:3|1:1,0:0:0:0:
240,55,13234,1,8,2:3:0:0:
459,177,13359,6,0,P|369:185|348:268,1,180,4|8,1:2|2:3,0:0:0:0:
364,340,13734,1,4,1:3:0:0:
444,269,13859,2,0,P|437:313|444:357,1,90,8|4,2:2|2:3,0:0:0:0:
263,300,14109,2,0,P|283:340|291:384,1,90,8|2,1:3|1:3,0:0:0:0:
26,224,14359,5,0,1:1:0:0:
104,212,14484,1,8,2:3:0:0:
33,227,14609,1,6,2:3:0:0:
108,206,14734,1,0,1:1:0:0:
39,315,14859,2,0,P|80:298|125:292,1,90,12|8,2:2|2:3,0:0:0:0:
2,144,15109,2,0,P|46:139|88:122,1,90,0|0,1:1|0:0,0:0:0:0:
335,177,15359,6,0,B|324:226|364:239|364:239|315:144|372:52|450:47|450:47|397:114|453:178,1,440.999986541748,4|0,1:2|0:0,0:0:0:0:
509,108,15859,2,0,P|371:133|242:190,1,283.499991348267,10|0,3:3|0:0,0:0:0:0:
161,175,16359,6,0,P|93:204|20:217,1,144,0|6,3:3|2:3,0:0:0:0:
239,70,16734,2,0,P|226:88|223:110,1,45,0|0,1:1|0:0,0:0:0:0:
241,190,16859,1,12,3:2:0:0:
138,67,16984,1,8,2:3:0:0:
69,127,17109,2,0,P|47:86|46:42,1,90,0|8,1:1|2:3,0:0:0:0:
304,318,17359,6,0,B|395:294|450:360|450:360|523:343|506:272,1,270.000010299683,6|10,1:2|2:3,0:0:0:0:
359,180,17734,1,4,1:3:0:0:
434,247,17859,2,0,P|439:202|458:161,1,90,10|4,2:2|2:3,0:0:0:0:
296,228,18109,1,10,1:3:0:0:
287,221,18234,1,2,1:3:0:0:
24,60,18484,5,8,2:3:0:0:
67,0,18609,1,6,2:3:0:0:
140,14,18734,1,0,1:1:0:0:
98,80,18859,2,0,P|82:122|84:166,1,90,14|8,2:2|2:3,0:0:0:0:
374,106,19109,2,0,P|389:63|387:19,1,90,2|0,1:2|0:0,0:0:0:0:
169,132,19359,5,2,1:2:0:0:
177,138,19484,1,2,2:3:0:0:
314,51,19609,1,8,2:3:0:0:
255,173,19734,1,6,1:3:0:0:
224,6,19859,2,0,P|233:49|241:94,1,90,10|4,2:3|2:3,0:0:0:0:
183,214,20109,1,8,1:3:0:0:
400,322,20234,2,0,B|364:307|324:302|324:302|311:265|311:265|277:263|250:250,1,180,10|8,2:3|2:3,0:0:0:0:
456,112,20609,5,6,2:3:0:0:
465,107,20734,1,0,1:1:0:0:
482,253,20859,1,12,2:2:0:0:
356,202,20984,1,8,2:3:0:0:
433,180,21109,1,0,1:1:0:0:
64,182,21359,6,0,P|77:224|82:269,1,90,6|0,1:2|0:0,0:0:0:0:
322,107,21609,2,0,P|308:64|303:19,1,90,10|4,2:3|1:3,0:0:0:0:
164,149,21859,1,10,2:2:0:0:
175,141,21984,1,4,2:3:0:0:
178,154,22109,1,10,1:3:0:0:
63,72,22234,2,0,B|164:59|140:128|248:109,1,180,2|8,1:3|2:3,0:0:0:0:
312,339,22609,5,6,2:3:0:0:
351,273,22734,1,0,1:1:0:0:
426,290,22859,2,0,P|470:305|512:315,1,90,14|8,2:2|2:3,0:0:0:0:
161,359,23109,2,0,P|117:370|74:384,1,90,2|2,1:2|2:2,0:0:0:0:
231,312,23359,5,0,1:1:0:0:
221,304,23484,1,2,2:3:0:0:
278,232,23609,1,8,2:3:0:0:
189,157,23734,1,4,1:3:0:0:
287,88,23859,2,0,P|291:43|302:-1,1,90,10|4,2:3|2:3,0:0:0:0:
207,25,24109,1,8,1:3:0:0:
333,163,24234,2,0,B|381:152|439:121|439:121|402:148|397:182,1,180,10|8,2:3|2:3,0:0:0:0:
195,230,24609,5,6,2:3:0:0:
189,239,24734,1,0,1:1:0:0:
109,206,24859,1,12,2:2:0:0:
37,291,24984,1,8,2:3:0:0:
171,154,25109,1,0,1:1:0:0:
64,104,25234,1,8,2:3:0:0:
305,298,25359,6,0,B|378:337|470:340|470:340|408:339|377:367,1,270.000010299683,6|10,1:2|2:3,0:0:0:0:
365,244,25734,2,0,P|364:221|370:199,1,45,4|0,1:3|0:0,0:0:0:0:
464,169,25859,2,0,P|447:210|443:255,1,90,10|4,2:2|2:3,0:0:0:0:
288,204,26109,1,10,1:3:0:0:
483,83,26234,2,0,B|382:70|406:139|298:120,1,180,2|8,1:3|2:3,0:0:0:0:
149,70,26609,5,6,2:3:0:0:
149,70,26671,1,0,1:3:0:0:
149,70,26734,1,0,1:1:0:0:
252,26,26859,2,0,P|229:89|216:155,1,135,14|0,2:2|0:0,0:0:0:0:
145,215,27109,6,0,P|137:175|124:137,1,80.9999975280763,2|0,1:2|0:0,0:0:0:0:
39,291,27359,5,2,1:2:0:0:
39,291,27484,1,2,2:3:0:0:
231,354,27609,1,8,2:3:0:0:
139,365,27734,2,0,B|122:324|122:324|155:293,1,90,6|10,1:3|2:3,0:0:0:0:
313,261,27984,1,4,2:3:0:0:
259,204,28109,1,8,1:3:0:0:
318,267,28234,2,0,B|402:284|402:284|417:316|417:316|514:333,1,180,10|8,2:3|2:3,0:0:0:0:
401,194,28609,6,0,P|384:153|374:109,1,90,6|0,2:3|1:1,0:0:0:0:
164,35,28859,1,14,2:2:0:0:
299,140,28984,1,10,2:3:0:0:
261,2,29109,2,0,P|243:43|233:87,1,90,0|10,1:1|2:3,0:0:0:0:
174,232,29359,6,0,P|92:262|-3:278,1,180,4|10,1:2|2:3,0:0:0:0:
255,297,29734,1,4,1:3:0:0:
121,341,29859,1,10,2:2:0:0:
114,354,29984,1,6,2:3:0:0:
106,343,30109,1,8,1:3:0:0:
338,353,30234,6,0,P|420:323|515:307,1,180,2|8,1:3|2:3,0:0:0:0:
360,195,30609,1,6,2:3:0:0:
410,134,30734,1,0,1:1:0:0:
305,74,30859,2,0,B|287:32|287:32|317:0,1,90,14|8,2:2|2:3,0:0:0:0:
488,37,31109,2,0,P|446:51|399:60,1,90,2|0,1:2|0:0,0:0:0:0:
202,194,31359,6,0,P|244:179|288:171,1,90,2|2,1:2|2:3,0:0:0:0:
435,284,31609,2,0,B|465:252|465:252|447:210,1,90,8|4,2:3|1:3,0:0:0:0:
378,140,31859,1,10,2:3:0:0:
366,147,31984,1,4,2:3:0:0:
380,152,32109,1,8,1:3:0:0:
176,36,32234,6,0,B|75:23|99:92|-9:73,1,180,10|8,2:3|2:3,0:0:0:0:
6,75,32546,1,0,1:1:0:0:
6,75,32609,1,6,2:3:0:0:
132,165,32734,1,0,1:1:0:0:
35,241,32859,2,0,P|46:197|49:152,1,90,12|8,2:2|2:3,0:0:0:0:
233,89,33109,2,0,P|221:132|219:177,1,90,0|8,1:1|2:3,0:0:0:0:
14,373,33359,6,0,P|59:326|142:319,1,144,6|2,1:2|2:2,0:0:0:0:
217,310,33734,1,0,1:1:0:0:
217,310,33859,2,0,P|203:278|176:242,1,72,10|0,2:3|0:0,0:0:0:0:
253,383,34109,1,2,1:2:0:0:
336,349,34234,2,0,P|389:330|490:317,1,144,2|0,1:2|0:0,0:0:0:0:
296,266,34609,6,0,P|304:231|306:195,1,72,2|0,1:2|1:1,0:0:0:0:
466,222,34859,2,0,P|459:186|446:153,1,72,10|0,2:3|0:0,0:0:0:0:
388,282,35109,2,0,P|389:246|383:210,1,72,2|0,1:2|0:0,0:0:0:0:
351,26,35359,5,2,1:3:0:0:
401,76,35484,2,0,P|387:108|348:122,1,72,8|2,2:2|2:2,0:0:0:0:
251,4,35734,1,0,1:1:0:0:
251,4,35859,2,0,P|272:32|263:73,1,72,10|0,2:3|0:0,0:0:0:0:
174,162,36109,1,2,1:2:0:0:
129,104,36234,2,0,B|92:84|61:117|64:118|67:119|37:159|-9:133,1,144,10|0,2:2|0:0,0:0:0:0:
251,152,36609,5,0,1:1:0:0:
251,152,36734,1,0,1:1:0:0:
114,228,36859,1,10,2:3:0:0:
234,341,36984,1,0,0:0:0:0:
159,307,37109,2,0,P|123:312|88:322,1,72,2|2,1:2|2:2,0:0:0:0:
329,319,37359,6,0,P|381:342|441:358,1,108,2|0,1:3|0:0,0:0:0:0:
436,363,37609,2,0,P|401:371|367:384,1,72,2|0,2:2|1:1,0:0:0:0:
485,230,37859,1,10,2:3:0:0:
420,271,37984,1,0,0:0:0:0:
508,334,38109,1,0,0:0:0:0:
415,181,38234,2,0,B|463:104|463:104|445:141|460:180,1,144,2|0,1:2|0:0,0:0:0:0:
379,70,38609,6,0,P|374:28|364:-7,1,72,2|0,2:2|1:1,0:0:0:0:
266,85,38859,1,10,2:3:0:0:
327,130,38984,1,0,0:0:0:0:
263,228,39109,2,0,P|258:186|248:151,1,72,2|2,1:2|2:2,0:0:0:0:
90,5,39359,5,2,1:3:0:0:
20,32,39484,2,0,B|-9:52|-9:52|2:86,1,72,8|0,2:2|0:0,0:0:0:0:
173,170,39734,1,0,1:1:0:0:
173,170,39859,2,0,B|202:150|202:150|190:115,1,72,10|0,2:3|0:0,0:0:0:0:
167,45,40109,1,0,1:1:0:0:
66,216,40234,2,0,P|84:146|98:76,1,144,8|0,2:2|1:1,0:0:0:0:
213,311,40609,5,0,1:1:0:0:
213,311,40734,1,0,1:1:0:0:
146,352,40859,1,10,2:3:0:0:
285,266,40984,1,8,2:2:0:0:
103,288,41109,1,2,1:2:0:0:
487,243,41359,6,0,B|442:226|417:266|421:268|424:270|404:307|351:288,1,144,6|2,1:2|2:2,0:0:0:0:
453,163,41734,1,0,1:1:0:0:
374,189,41859,2,0,P|375:153|384:118,1,72,10|0,2:3|0:0,0:0:0:0:
162,24,42109,1,2,1:2:0:0:
235,10,42234,2,0,P|231:83|212:154,1,144,2|0,1:2|0:0,0:0:0:0:
307,128,42609,5,2,1:2:0:0:
307,128,42734,1,0,1:1:0:0:
406,33,42859,2,0,P|371:44|336:48,1,72,10|0,2:3|0:0,0:0:0:0:
216,223,43109,2,0,P|250:211|285:207,1,72,2|0,1:2|0:0,0:0:0:0:
495,149,43359,5,2,1:3:0:0:
426,188,43484,2,0,B|382:183|372:140|372:140|301:126,1,144,8|0,2:2|1:1,0:0:0:0:
148,271,43859,2,0,B|120:253|120:253|136:212,1,72,10|0,2:3|0:0,0:0:0:0:
229,177,44109,1,0,1:1:0:0:
14,107,44234,2,0,P|72:121|169:146,1,144,10|0,2:2|0:0,0:0:0:0:
311,66,44609,5,0,1:1:0:0:
243,101,44734,1,0,1:1:0:0:
171,0,44859,2,0,P|164:35|174:69,1,72,10|0,2:3|0:0,0:0:0:0:
312,218,45109,2,0,P|318:182|308:148,1,72,2|0,1:2|0:0,0:0:0:0:
24,246,45359,6,0,P|11:316|30:384,1,144,2|2,1:3|2:2,0:0:0:0:
116,327,45734,1,0,1:1:0:0:
116,327,45859,2,0,P|120:290|132:251,1,72,10|0,2:3|0:0,0:0:0:0:
80,191,46109,1,2,2:2:0:0:
202,312,46234,2,0,B|247:296|271:337|267:339|264:341|282:378|336:361,1,144,2|0,1:2|0:0,0:0:0:0:
373,297,46609,5,2,2:2:0:0:
373,297,46734,1,0,1:1:0:0:
446,329,46859,2,0,P|480:338|522:360,1,72,10|0,2:3|0:0,0:0:0:0:
378,204,47109,2,0,P|329:227|277:242,1,108,2|0,1:2|0:0,0:0:0:0:
277,242,47359,5,2,1:3:0:0:
456,248,47484,2,0,P|468:177|490:108,1,144,8|0,2:2|1:1,0:0:0:0:
359,38,47859,1,10,2:3:0:0:
366,31,47984,1,0,0:0:0:0:
400,121,48109,1,0,1:1:0:0:
263,4,48234,2,0,P|285:72|296:143,1,144,10|0,2:2|1:1,0:0:0:0:
369,205,48609,5,0,1:1:0:0:
362,215,48734,1,0,1:1:0:0:
204,152,48859,1,10,2:3:0:0:
135,189,48984,1,8,2:2:0:0:
21,151,49109,1,0,1:1:0:0:
201,365,49359,6,0,B|254:318|254:318|328:352,1,144,6|2,1:2|2:2,0:0:0:0:
393,308,49734,1,0,1:1:0:0:
448,378,49859,2,0,P|461:344|479:313,1,72,10|0,2:3|0:0,0:0:0:0:
386,303,50109,1,2,1:2:0:0:
512,174,50234,2,0,P|471:223|383:222,1,144,2|0,1:2|0:0,0:0:0:0:
277,129,50609,5,2,1:2:0:0:
223,175,50734,1,0,1:1:0:0:
158,141,50859,2,0,P|167:106|170:70,1,72,10|0,2:3|0:0,0:0:0:0:
331,178,51109,2,0,P|321:212|318:248,1,72,2|0,1:2|0:0,0:0:0:0:
178,373,51359,5,2,1:3:0:0:
123,326,51484,2,0,B|78:309|53:349|57:351|60:353|40:390|-13:371,1,144,8|0,2:2|1:1,0:0:0:0:
117,232,51859,1,10,2:3:0:0:
105,236,51984,1,0,0:0:0:0:
118,243,52109,1,0,1:1:0:0:
0,127,52234,2,0,P|22:195|31:266,1,144,10|0,2:2|0:0,0:0:0:0:
263,342,52609,5,0,1:1:0:0:
194,285,52734,1,0,1:1:0:0:
252,227,52859,2,0,P|260:174|275:122,1,108,10|0,2:3|0:0,0:0:0:0:
215,15,53109,6,0,P|214:48|204:80,1,67.5,2|0,1:2|0:0,0:0:0:0:
338,232,53359,6,0,P|337:195|348:160,1,72,2|0,1:3|0:0,0:0:0:0:
275,121,53609,1,2,2:2:0:0:
325,56,53734,1,0,1:1:0:0:
204,161,53859,2,0,P|168:177|128:185,1,72,10|0,2:3|0:0,0:0:0:0:
297,294,54109,1,2,2:2:0:0:
377,288,54234,2,0,P|447:304|513:334,1,144,2|0,1:2|0:0,0:0:0:0:
417,214,54609,5,2,2:2:0:0:
417,214,54734,1,0,1:1:0:0:
496,239,54859,2,0,P|499:203|512:169,1,72,10|0,2:3|0:0,0:0:0:0:
285,375,55109,2,0,P|288:339|301:305,1,72,2|2,1:2|2:2,0:0:0:0:
352,162,55359,5,2,1:3:0:0:
303,216,55484,2,0,B|266:207|241:230|241:230|240:242|240:242|214:268|178:258,1,144,8|0,2:2|1:1,0:0:0:0:
99,271,55859,2,0,P|102:235|115:201,1,72,10|0,2:3|0:0,0:0:0:0:
0,36,56109,1,0,1:1:0:0:
52,89,56234,2,0,B|89:80|114:103|114:103|115:115|115:115|141:141|176:131,1,144,8|0,2:2|1:1,0:0:0:0:
225,56,56609,5,0,1:1:0:0:
341,123,56734,1,0,1:1:0:0:
397,73,56859,1,10,2:3:0:0:
512,136,56984,1,8,2:2:0:0:
475,70,57109,2,0,P|478:34|488:0,1,72,2|0,1:2|0:0,0:0:0:0:
440,248,57359,6,0,P|468:310|464:391,1,144,6|2,1:2|2:2,0:0:0:0:
341,289,57734,1,0,1:1:0:0:
334,294,57859,1,10,2:3:0:0:
252,254,57984,1,0,0:0:0:0:
130,359,58109,1,2,1:2:0:0:
36,319,58234,2,0,P|8:257|12:176,1,144,2|0,1:2|0:0,0:0:0:0:
125,35,58609,6,0,P|140:66|132:101,1,72,2|0,1:2|1:1,0:0:0:0:
50,110,58859,1,10,2:3:0:0:
50,110,58984,1,0,0:0:0:0:
153,178,59109,2,0,P|186:168|206:138,1,72,2|0,1:2|0:0,0:0:0:0:
308,0,59359,5,2,1:3:0:0:
235,21,59484,2,0,B|218:66|258:91|260:87|262:84|299:104|280:157,1,144,8|0,2:2|1:1,0:0:0:0:
356,197,59859,2,0,P|348:232|347:268,1,72,10|0,2:3|0:0,0:0:0:0:
394,332,60109,1,0,1:1:0:0:
173,384,60234,2,0,P|188:313|190:241,1,144,10|0,2:2|0:0,0:0:0:0:
266,304,60609,5,0,1:1:0:0:
266,304,60734,1,0,1:1:0:0:
189,241,60859,2,0,P|156:255|121:261,1,72,10|0,2:3|0:0,0:0:0:0:
347,268,61109,2,0,P|401:244|458:234,1,108,2|0,1:2|0:0,0:0:0:0:
277,219,61359,5,2,1:3:0:0:
277,219,61484,1,0,0:0:0:0:
341,144,61609,1,2,2:2:0:0:
211,79,61734,1,0,1:1:0:0:
312,0,61859,2,0,P|302:21|291:68,1,72,10|0,2:3|0:0,0:0:0:0:
57,203,62109,1,2,2:2:0:0:
112,146,62234,2,0,P|177:168|190:235,1,144,2|0,1:2|0:0,0:0:0:0:
386,306,62609,6,0,P|353:316|339:360,1,72,2|0,2:2|1:1,0:0:0:0:
338,348,62796,1,0,1:0:0:0:
338,348,62859,1,10,2:3:0:0:
465,271,62984,1,0,0:0:0:0:
390,226,63109,2,0,P|376:189|371:132,1,72,2|0,1:2|0:0,0:0:0:0:
254,384,63359,5,2,1:3:0:0:
262,373,64359,6,0,P|259:319|251:265,1,108,2|0,2:3|0:0,0:0:0:0:
252,266,64609,1,2,1:2:0:0:
147,133,64734,1,0,1:1:0:0:
270,58,64859,1,10,2:3:0:0:
138,274,64984,1,8,2:2:0:0:
222,163,65109,1,2,1:2:0:0:
291,194,65234,1,2,2:2:0:0:
502,45,65359,6,0,P|435:50|369:162,1,180,6|8,1:2|2:3,0:0:0:0:
413,217,65734,1,4,1:3:0:0:
407,229,65859,1,8,2:2:0:0:
491,180,65984,1,6,2:3:0:0:
331,260,66109,1,8,1:3:0:0:
466,384,66234,2,0,P|390:350|293:334,1,180,2|8,1:3|2:3,0:0:0:0:
219,303,66609,5,6,2:3:0:0:
156,349,66734,1,0,1:1:0:0:
0,253,66859,1,12,2:2:0:0:
34,320,66984,1,10,2:3:0:0:
128,240,67109,1,2,1:2:0:0:
11,115,67234,1,10,2:3:0:0:
131,28,67359,5,0,1:1:0:0:
131,28,67484,2,0,B|182:41|216:-2|216:-2|296:18,1,180,2|4,2:3|1:3,0:0:0:0:
482,118,67859,1,10,2:3:0:0:
408,100,67984,2,0,P|377:68|381:25,1,90,6|8,2:3|1:3,0:0:0:0:
512,204,68234,2,0,P|425:208|381:282,1,180,10|8,2:3|2:3,0:0:0:0:
438,376,68609,6,0,P|416:368|395:361,1,45,6|0,2:3|0:0,0:0:0:0:
306,262,68734,2,0,P|284:254|263:247,1,45,0|0,1:1|0:0,0:0:0:0:
234,367,68859,2,0,P|282:350|330:334,1,90,12|10,2:2|2:3,0:0:0:0:
460,292,69109,1,2,1:2:0:0:
191,224,69234,1,10,2:3:0:0:
261,167,69359,6,0,B|166:135|181:225|71:184,1,180,4|8,1:2|2:3,0:0:0:0:
311,94,69734,1,6,1:3:0:0:
134,14,69859,1,8,2:2:0:0:
144,17,69984,1,6,2:3:0:0:
133,25,70109,1,8,1:3:0:0:
317,101,70234,2,0,P|403:76|512:42,1,180,2|8,1:3|2:3,0:0:0:0:
237,70,70609,5,6,2:3:0:0:
231,81,70734,1,0,1:1:0:0:
309,15,70859,1,12,2:2:0:0:
163,125,70984,1,10,2:3:0:0:
214,174,71109,1,2,1:2:0:0:
99,285,71234,1,10,1:3:0:0:
229,365,71359,6,0,B|202:333|158:339|158:339|111:288|178:243,1,180,0|10,1:1|2:3,0:0:0:0:
447,327,71734,1,4,1:3:0:0:
447,327,71859,2,0,B|460:308|481:299|481:299|482:275|459:258,1,90,10|6,2:3|2:3,0:0:0:0:
286,316,72109,1,8,1:3:0:0:
367,384,72234,2,0,P|358:279|339:188,1,180,10|12,2:3|2:2,0:0:0:0:
458,24,72609,6,0,P|448:44|444:66,1,45,10|0,2:3|0:0,0:0:0:0:
378,128,72734,2,0,P|373:105|364:85,1,45,8|0,1:2|0:0,0:0:0:0:
297,34,72859,1,14,2:2:0:0:
508,111,72984,1,10,2:3:0:0:
301,40,73109,1,8,1:2:0:0:
238,91,73234,1,10,2:2:0:0:
32,45,73359,6,0,P|117:46|159:135,1,180,6|8,1:2|2:3,0:0:0:0:
95,168,73734,2,0,P|50:160|2:145,1,90,6|8,1:3|2:2,0:0:0:0:
143,384,73984,2,0,P|99:370|55:363,1,90,6|8,2:3|1:3,0:0:0:0:
0,243,74234,2,0,B|46:226|78:260|78:260|73:269|73:269|102:304|150:288,1,180,2|8,1:3|2:3,0:0:0:0:
217,239,74609,5,6,2:3:0:0:
224,246,74734,1,0,1:1:0:0:
270,313,74859,1,12,2:2:0:0:
441,269,74984,1,10,2:3:0:0:
499,344,75109,1,2,1:2:0:0:
352,286,75234,1,10,2:3:0:0:
501,155,75359,6,0,B|455:139|423:173|423:173|428:182|428:182|399:217|351:201,1,180,2|10,1:2|2:3,0:0:0:0:
108,38,75734,2,0,P|116:82|121:126,1,90,6|10,1:3|2:3,0:0:0:0:
274,63,75984,2,0,P|282:107|287:151,1,90,6|8,2:3|1:3,0:0:0:0:
182,0,76234,2,0,P|199:88|209:177,1,180,10|8,2:3|2:3,0:0:0:0:
53,254,76609,6,0,P|57:276|59:298,1,45,6|0,2:3|0:0,0:0:0:0:
139,364,76734,2,0,P|136:341|132:319,1,45,0|0,1:1|0:0,0:0:0:0:
193,269,76859,1,12,2:2:0:0:
0,343,76984,1,10,2:3:0:0:
202,274,77109,1,2,1:2:0:0:
265,325,77234,1,10,2:3:0:0:
505,290,77359,6,0,P|425:305|346:323,1,161.999995056153,6|0,1:2|0:0,0:0:0:0:
347,324,77609,1,10,2:3:0:0:
476,214,77734,2,0,B|493:171|493:171|456:147,1,90,6|8,1:3|2:2,0:0:0:0:
259,318,77984,2,0,B|241:360|241:360|278:384,1,90,6|8,2:3|1:3,0:0:0:0:
386,199,78234,2,0,B|367:124|367:124|424:83|382:7,1,180,2|8,1:3|2:3,0:0:0:0:
314,26,78609,5,6,2:3:0:0:
216,100,78734,1,0,1:1:0:0:
67,9,78859,1,14,2:2:0:0:
10,63,78984,1,10,2:3:0:0:
151,37,79109,2,0,P|138:80|131:130,1,90,0|10,1:1|1:3,0:0:0:0:
157,322,79359,5,0,1:1:0:0:
146,325,79484,1,2,2:3:0:0:
158,331,79609,1,8,2:3:0:0:
68,301,79734,2,0,P|30:220|48:133,1,180,6|4,1:3|2:3,0:0:0:0:
370,192,80109,1,8,1:3:0:0:
445,162,80234,2,0,P|482:242|464:329,1,180,10|12,2:3|2:2,0:0:0:0:
301,357,80609,5,10,2:3:0:0:
292,352,80734,1,8,1:2:0:0:
219,384,80859,1,12,2:2:0:0:
340,271,80984,1,8,2:3:0:0:
220,160,81109,1,8,1:2:0:0:
289,92,81234,1,8,2:2:0:0:
238,4,81359,6,0,P|251:79|263:287,1,270.000010299683,4|8,1:2|2:3,0:0:0:0:
116,373,81734,2,0,B|79:348|79:348|98:303,1,90,4|8,1:3|2:2,0:0:0:0:
180,319,81984,1,4,2:3:0:0:
31,248,82109,1,8,1:3:0:0:
38,241,82234,1,2,1:3:0:0:
156,78,82359,6,0,B|164:88|164:88|98:121|101:204,1,135,0|0,1:1|0:0,0:0:0:0:
102,186,82609,1,6,2:3:0:0:
167,241,82734,1,0,1:1:0:0:
26,159,82859,1,12,2:2:0:0:
173,245,82984,2,0,P|217:232|261:227,1,90,8|0,2:3|1:1,0:0:0:0:
462,16,83359,5,0,1:1:0:0:
458,25,83484,1,2,2:3:0:0:
512,85,83609,1,8,2:3:0:0:
377,28,83734,2,0,P|333:40|289:45,1,90,4|10,1:3|2:3,0:0:0:0:
439,128,83984,1,4,2:3:0:0:
335,257,84109,1,8,1:3:0:0:
364,115,84234,6,0,B|340:170|383:205|391:186|436:221|413:272,1,180,10|8,2:3|2:3,0:0:0:0:
443,345,84609,1,6,2:3:0:0:
450,353,84734,1,0,1:1:0:0:
511,262,84859,1,12,2:2:0:0:
351,357,84984,2,0,B|296:366|256:304|256:304|263:351|301:365,1,180,8|8,2:3|2:3,0:0:0:0:
176,289,85359,6,0,P|168:267|163:245,1,45,4|0,1:2|0:0,0:0:0:0:
108,331,85484,2,0,P|98:302|94:276,1,45
17,257,85609,1,8,2:3:0:0:
183,366,85734,1,4,1:3:0:0:
25,252,85859,2,0,P|-3:219|5:176,1,90,8|4,2:2|2:3,0:0:0:0:
106,86,86109,1,8,1:3:0:0:
173,118,86234,1,2,1:3:0:0:
289,0,86359,6,0,P|346:65|328:149,1,180,0|6,1:1|2:3,0:0:0:0:
256,115,86734,1,0,1:1:0:0:
410,166,86859,1,12,2:2:0:0:
418,160,86984,1,8,2:3:0:0:
348,222,87109,1,0,1:1:0:0:
512,270,87234,2,0,P|447:282|327:335,1,180,0|2,0:0|2:3,0:0:0:0:
141,291,87609,5,8,2:3:0:0:
150,295,87734,1,4,1:3:0:0:
280,376,87859,2,0,P|245:376|244:306,1,90,10|4,2:3|2:3,0:0:0:0:
265,260,88109,1,8,1:3:0:0:
275,266,88234,1,10,2:3:0:0:
80,176,88359,5,0,0:0:0:0:
129,118,88484,1,8,2:3:0:0:
255,165,88609,1,6,2:3:0:0:
361,66,88734,1,0,1:1:0:0:
428,99,88859,1,12,2:2:0:0:
358,141,88984,1,8,2:3:0:0:
442,14,89109,1,0,1:1:0:0:
435,4,89234,1,8,2:3:0:0:
249,170,89359,6,0,P|392:203|417:322,1,251.999992309571,4|8,1:2|2:3,0:0:0:0:
386,370,89734,2,0,B|355:371|336:343|336:343|252:365,1,135,4|0,1:3|0:0,0:0:0:0:
263,362,89984,1,4,2:3:0:0:
107,252,90109,1,8,1:3:0:0:
181,230,90234,1,2,1:3:0:0:
42,362,90359,6,0,P|100:349|191:319,1,135,0|0,1:3|0:0,0:0:0:0:
172,326,90609,1,6,2:3:0:0:
34,267,90734,2,0,B|17:225|17:225|51:195,1,90,0|12,1:1|2:2,0:0:0:0:
184,80,90984,1,8,2:3:0:0:
123,127,91109,2,0,P|89:119|36:101,1,90,0|0,1:1|0:0,0:0:0:0:
218,157,91359,5,0,1:1:0:0:
218,168,91484,1,2,2:3:0:0:
226,162,91609,1,8,2:3:0:0:
469,134,91734,1,4,1:3:0:0:
388,170,91859,2,0,P|344:159|301:145,1,90,10|4,2:3|2:3,0:0:0:0:
147,213,92109,1,8,1:3:0:0:
266,2,92234,6,0,B|297:58|254:99|244:79|202:118|229:171,1,180,10|8,2:3|2:3,0:0:0:0:
235,251,92609,1,6,2:3:0:0:
228,261,92734,1,0,1:1:0:0:
46,374,92859,1,12,2:2:0:0:
104,322,92984,2,0,P|193:332|286:374,1,180,8|8,2:3|2:3,0:0:0:0:
435,270,93359,6,0,P|417:283|405:302,1,45,4|0,1:2|0:0,0:0:0:0:
314,258,93484,2,0,P|317:280|327:300,1,45
368,368,93609,1,8,2:3:0:0:
374,379,93734,1,4,1:3:0:0:
512,242,93859,2,0,P|500:199|496:154,1,90,8|4,2:2|2:3,0:0:0:0:
405,75,94109,1,8,1:3:0:0:
346,122,94234,1,2,1:3:0:0:
223,0,94359,6,0,P|246:88|254:179,1,180,0|6,1:1|2:3,0:0:0:0:
256,266,94734,1,0,1:1:0:0:
187,362,94859,2,0,P|159:326|171:284,1,90,12|8,2:2|2:3,0:0:0:0:
339,212,95109,2,0,P|366:247|355:290,1,90,0|0,1:1|0:0,0:0:0:0:
148,127,95359,5,0,1:1:0:0:
101,185,95484,2,0,B|22:142|22:142|86:73,1,180,2|4,2:3|1:3,0:0:0:0:
403,124,95859,2,0,B|448:74|448:74|389:42,1,135,10|0,2:3|0:0,0:0:0:0:
325,93,96109,2,0,P|317:113|313:136,1,45,8|0,1:3|0:0,0:0:0:0:
148,127,96234,2,0,P|159:146|167:167,1,45,10|0,2:3|0:0,0:0:0:0:
245,177,96359,5,0,0:0:0:0:
231,91,96484,1,8,2:3:0:0:
172,285,96609,2,0,B|120:312|120:312|157:264,1,90,6|0,2:3|1:1,0:0:0:0:
360,262,96859,2,0,B|389:282|436:282|436:282|447:322|447:322|486:323|516:343,1,188.999994232178,12|0,2:2|0:0,0:0:0:0:
511,340,97109,1,0,1:1:0:0:
410,199,97234,1,8,2:3:0:0:
267,384,97359,6,0,P|268:314|256:230,1,144,6|2,1:2|2:2,0:0:0:0:
330,122,97734,1,0,1:1:0:0:
330,122,97859,2,0,P|338:156|325:189,1,72,10|0,2:3|0:0,0:0:0:0:
182,346,98109,1,2,1:2:0:0:
108,315,98234,2,0,P|90:245|117:179,1,144,2|0,1:2|0:0,0:0:0:0:
40,150,98609,6,0,B|13:128|13:128|35:97,1,72,2|0,1:2|1:1,0:0:0:0:
155,43,98859,2,0,B|149:76|149:76|112:73,1,72,10|0,2:3|0:0,0:0:0:0:
0,0,99109,2,0,B|31:-12|31:-12|47:22,1,72,2|0,1:2|0:0,0:0:0:0:
191,147,99359,5,2,1:3:0:0:
191,147,99484,2,0,P|226:149|261:158,1,72,8|2,2:2|2:2,0:0:0:0:
371,0,99734,1,0,1:1:0:0:
308,42,99859,2,0,P|272:39|237:30,1,72,10|0,2:3|0:0,0:0:0:0:
351,110,100109,1,2,1:2:0:0:
444,29,100234,2,0,P|427:99|422:170,1,144,10|0,2:2|0:0,0:0:0:0:
424,256,100609,5,0,1:1:0:0:
424,256,100734,1,0,1:1:0:0:
494,176,100859,1,10,2:3:0:0:
344,231,100984,1,0,0:0:0:0:
444,330,101109,2,0,P|410:339|377:354,1,72,2|2,1:2|2:2,0:0:0:0:
191,383,101359,6,0,B|168:369|140:365|140:365|132:328|132:328|99:322|79:307,1,148.50000453186,2|0,1:3|0:0,0:0:0:0:
4,301,101609,2,0,B|-12:339|-12:339|17:356,1,72,2|0,2:2|1:1,0:0:0:0:
199,254,101859,1,10,2:3:0:0:
101,224,101984,1,0,0:0:0:0:
79,308,102109,1,0,0:0:0:0:
215,168,102234,2,0,B|251:106|251:106|169:65,1,144,2|0,1:2|0:0,0:0:0:0:
93,8,102609,6,0,P|102:42|103:78,1,72,2|0,2:2|1:1,0:0:0:0:
226,11,102859,1,10,2:3:0:0:
234,4,102984,1,0,0:0:0:0:
333,134,103109,2,0,P|323:99|322:63,1,72,2|2,1:2|2:2,0:0:0:0:
497,209,103359,5,2,1:3:0:0:
441,158,103484,2,0,P|407:167|391:198,1,72,8|0,2:2|0:0,0:0:0:0:
240,302,103734,1,0,1:1:0:0:
184,353,103859,2,0,P|150:343|134:312,1,72,10|0,2:3|0:0,0:0:0:0:
381,384,104109,1,0,1:1:0:0:
319,343,104234,2,0,P|312:264|298:194,1,144,8|0,2:2|1:1,0:0:0:0:
325,115,104609,5,0,1:1:0:0:
325,115,104734,1,0,1:1:0:0:
228,149,104859,1,10,2:3:0:0:
348,35,104984,1,8,2:2:0:0:
391,198,105109,1,2,1:2:0:0:
14,41,105359,6,0,B|142:0|142:0|90:22|76:65,1,215.999993408203,6|2,1:2|2:2,0:0:0:0:
61,130,105734,1,0,1:1:0:0:
159,80,105859,2,0,P|148:115|139:151,1,72,10|0,2:3|0:0,0:0:0:0:
5,274,106109,1,2,1:2:0:0:
59,220,106234,2,0,B|96:200|127:233|124:234|121:235|151:275|197:249,1,144,2|0,1:2|0:0,0:0:0:0:
320,360,106609,5,2,1:2:0:0:
320,360,106734,1,0,1:1:0:0:
260,298,106859,2,0,P|265:262|265:226,1,72,10|0,2:3|0:0,0:0:0:0:
403,356,107109,2,0,P|402:320|408:284,1,72,2|0,1:2|0:0,0:0:0:0:
304,156,107359,5,2,1:3:0:0:
363,216,107484,2,0,B|407:208|417:168|417:168|488:154,1,144,8|0,2:2|1:1,0:0:0:0:
503,69,107859,2,0,P|472:79|428:86,1,72,10|0,2:3|0:0,0:0:0:0:
359,107,108109,1,0,1:1:0:0:
294,0,108234,2,0,B|305:40|267:63|266:60|266:57|221:78|236:128,1,144,10|0,2:2|0:0,0:0:0:0:
143,186,108609,5,0,1:1:0:0:
80,153,108734,1,0,1:1:0:0:
13,217,108859,2,0,P|-4:248|0:283,1,72,10|0,2:3|0:0,0:0:0:0:
146,108,109109,2,0,P|163:76|159:41,1,72,2|0,1:2|0:0,0:0:0:0:
80,262,109359,6,0,B|117:242|148:275|145:276|142:277|172:317|218:291,1,144,2|2,1:3|2:2,0:0:0:0:
266,237,109734,1,0,1:1:0:0:
398,380,109859,2,0,P|401:344|408:308,1,72,10|0,2:3|0:0,0:0:0:0:
425,149,110109,1,2,2:2:0:0:
350,177,110234,2,0,P|343:248|329:319,1,144,2|0,1:2|0:0,0:0:0:0:
424,231,110609,5,2,2:2:0:0:
424,231,110734,1,0,1:1:0:0:
494,60,110859,2,0,P|512:91|505:126,1,72,10|0,2:3|0:0,0:0:0:0:
361,96,111109,2,0,P|334:51|344:0,1,108,2|0,1:2|0:0,0:0:0:0:
344,0,111359,5,2,1:3:0:0:
282,133,111484,2,0,B|243:128|221:156|221:156|220:167|220:167|197:196|163:191,1,144,8|0,2:2|1:1,0:0:0:0:
59,124,111859,1,10,2:3:0:0:
53,134,111984,1,0,0:0:0:0:
142,90,112109,1,0,1:1:0:0:
0,217,112234,2,0,P|69:222|115:276,1,144,10|0,2:2|1:1,0:0:0:0:
140,350,112609,5,0,1:1:0:0:
146,359,112734,1,0,1:1:0:0:
319,311,112859,1,10,2:3:0:0:
383,354,112984,1,8,2:2:0:0:
505,319,113109,1,0,1:1:0:0:
252,379,113359,5,14,1:2:0:0:
236,176,114109,5,4,1:3:0:0:
253,384,114234,2,0,P|254:317|246:250,1,135,2|0,1:2|0:0,0:0:0:0:
317,182,114484,6,0,P|311:134|312:87,1,94.499997116089,2|0,2:2|0:0,0:0:0:0:
155,162,114734,6,0,P|157:79|147:-2,1,161.999995056153,2|0,1:2|0:0,0:0:0:0:
148,0,114984,1,2,2:2:0:0:
233,100,115109,1,4,1:3:0:0:
427,5,115359,5,10,1:3:0:0:
427,5,115484,2,0,P|408:35|420:87,1,72,8|6,2:2|2:3,0:0:0:0:
512,195,115734,1,0,1:1:0:0:
469,131,115859,2,0,P|435:142|400:148,1,72,10|0,2:3|0:0,0:0:0:0:
254,286,116109,1,6,1:3:0:0:
302,223,116234,2,0,B|334:195|371:221|368:223|365:224|403:257|443:222,1,144,10|0,2:2|0:0,0:0:0:0:
222,200,116609,5,4,1:3:0:0:
222,200,116734,2,0,B|193:224|193:224|158:218,1,72,0|10,1:1|2:3,0:0:0:0:
220,112,116984,1,2,2:2:0:0:
99,262,117109,1,6,1:3:0:0:
104,271,117234,1,2,2:2:0:0:
0,182,117359,6,0,P|9:128|9:74,1,108,10|0,1:3|0:0,0:0:0:0:
19,81,117609,2,0,P|25:45|25:9,1,72,6|0,2:3|1:1,0:0:0:0:
121,123,117859,1,10,2:3:0:0:
127,131,117984,1,0,0:0:0:0:
296,57,118109,1,6,2:3:0:0:
359,117,118234,2,0,B|401:126|424:95|424:95|517:114,1,144,2|0,1:2|0:0,0:0:0:0:
282,167,118609,5,6,2:3:0:0:
276,175,118734,1,0,1:1:0:0:
347,265,118859,2,0,P|347:229|353:193,1,72,10|0,2:3|0:0,0:0:0:0:
205,57,119109,2,0,P|212:92|212:128,1,72,6|2,1:3|2:2,0:0:0:0:
225,265,119359,5,10,1:3:0:0:
125,165,119484,2,0,P|139:236|139:309,1,144,8|0,2:2|1:1,0:0:0:0:
0,362,119859,2,0,P|35:357|70:348,1,72,10|0,2:3|0:0,0:0:0:0:
232,256,120109,1,4,1:3:0:0:
302,308,120234,2,0,B|335:323|368:325|368:325|384:371|384:371|414:371|447:386,1,180,8|0,2:2|1:1,0:0:0:0:
512,289,120609,2,0,P|476:293|442:303,1,72,4|0,1:3|1:1,0:0:0:0:
328,233,120859,5,10,2:3:0:0:
349,163,120984,1,8,2:2:0:0:
409,224,121109,1,6,1:3:0:0:
266,176,121234,1,0,0:0:0:0:
512,40,121359,6,0,B|481:-6|411:14|411:14|466:58|438:126,1,215.999993408203,14|6,1:2|2:3,0:0:0:0:
501,165,121734,1,0,1:1:0:0:
368,84,121859,2,0,P|332:79|297:70,1,72,10|0,2:3|0:0,0:0:0:0:
101,29,122109,1,6,1:3:0:0:
174,0,122234,2,0,P|214:57|205:127,1,144,2|0,1:2|0:0,0:0:0:0:
15,207,122609,6,0,P|-5:178|0:143,1,72,6|0,1:3|1:1,0:0:0:0:
176,206,122859,2,0,P|196:234|191:269,1,72,10|0,2:3|0:0,0:0:0:0:
91,384,123109,2,0,P|70:355|75:320,1,72,6|0,1:3|0:0,0:0:0:0:
10,133,123359,5,10,1:3:0:0:
80,104,123484,2,0,P|98:173|101:245,1,144,8|0,2:2|1:1,0:0:0:0:
279,298,123859,1,10,2:3:0:0:
289,303,123984,1,0,0:0:0:0:
460,205,124109,1,4,1:3:0:0:
396,154,124234,2,0,P|372:241|368:331,1,180,10|0,2:2|0:0,0:0:0:0:
295,384,124609,5,4,1:3:0:0:
305,377,124734,1,0,1:1:0:0:
232,245,124859,1,10,2:3:0:0:
281,191,124984,1,0,0:0:0:0:
213,103,125109,1,6,1:3:0:0:
221,98,125234,1,2,2:2:0:0:
412,0,125359,6,0,P|366:35|272:45,1,144,10|6,1:3|2:3,0:0:0:0:
147,141,125734,1,0,1:1:0:0:
76,115,125859,2,0,P|67:81|88:53,1,72,10|0,2:3|0:0,0:0:0:0:
336,120,126109,1,6,2:3:0:0:
410,96,126234,2,0,P|426:163|384:220,1,144,2|0,1:2|0:0,0:0:0:0:
279,295,126609,1,6,2:3:0:0:
214,256,126734,1,0,1:1:0:0:
101,317,126859,2,0,B|72:296|72:296|86:262,1,72,10|0,2:3|0:0,0:0:0:0:
406,314,127109,2,0,B|435:335|435:335|420:368,1,72,6|0,1:3|0:0,0:0:0:0:
247,278,127359,5,10,1:3:0:0:
260,24,128359,6,0,P|251:78|247:132,1,108,10|0,2:3|0:0,0:0:0:0:
248,132,128609,1,6,1:3:0:0:
126,182,128734,1,4,1:3:0:0:
294,304,128859,1,14,2:3:0:0:
125,373,128984,1,8,2:2:0:0:
214,223,129109,1,10,1:3:0:0:
180,288,129234,1,10,2:3:0:0:
448,357,129359,6,0,B|388:345|388:345|345:408|270:380,1,180,6|8,1:2|2:3,0:0:0:0:
411,256,129734,1,4,1:3:0:0:
417,266,129859,1,8,2:2:0:0:
331,192,129984,1,6,2:3:0:0:
284,313,130109,1,8,1:3:0:0:
418,168,130234,2,0,B|436:66|360:98|380:-7,1,180,2|8,1:3|2:3,0:0:0:0:
491,100,130609,5,6,2:3:0:0:
301,27,130734,1,0,1:1:0:0:
231,74,130859,1,12,2:2:0:0:
221,80,130984,1,10,2:3:0:0:
234,87,131109,1,2,1:2:0:0:
82,34,131234,1,10,2:3:0:0:
154,177,131359,5,0,1:1:0:0:
114,106,131484,2,0,B|41:155|41:155|90:232,1,180,2|4,2:3|1:3,0:0:0:0:
0,360,131859,1,10,2:3:0:0:
106,315,131984,2,0,P|64:299|21:286,1,90,6|8,2:3|1:3,0:0:0:0:
286,382,132234,2,0,P|370:349|456:325,1,180,10|8,2:3|2:3,0:0:0:0:
290,255,132609,6,0,P|282:277|275:298,1,45,6|0,2:3|0:0,0:0:0:0:
385,219,132734,2,0,P|377:241|370:262,1,45,0|0,1:1|0:0,0:0:0:0:
208,374,132859,2,0,P|196:329|176:273,1,90,12|10,2:2|2:3,0:0:0:0:
291,146,133109,1,2,1:2:0:0:
233,100,133234,1,10,2:3:0:0:
474,9,133359,6,0,P|396:19|364:123,1,180,4|8,1:2|2:3,0:0:0:0:
423,152,133734,1,6,1:3:0:0:
255,228,133859,1,8,2:2:0:0:
245,231,133984,1,6,2:3:0:0:
253,238,134109,1,8,1:3:0:0:
192,175,134234,2,0,B|151:173|115:149|115:149|78:183|78:183|41:158|0:159,1,215.999993408203,2|8,1:3|2:3,0:0:0:0:
129,75,134609,5,6,2:3:0:0:
135,68,134734,1,0,1:1:0:0:
23,0,134859,2,0,P|40:36|53:108,1,90,12|10,2:2|2:3,0:0:0:0:
75,210,135109,1,2,1:2:0:0:
0,183,135234,1,10,1:3:0:0:
131,349,135359,5,0,1:1:0:0:
201,316,135484,2,0,B|247:300|279:334|279:334|274:343|274:343|303:378|351:362,1,180,2|4,2:3|1:3,0:0:0:0:
444,355,135859,2,0,B|458:311|458:311|421:288,1,90,10|6,2:3|2:3,0:0:0:0:
270,240,136109,1,8,1:3:0:0:
456,164,136234,2,0,B|451:180|451:180|358:190|335:291,1,180,10|12,2:3|2:2,0:0:0:0:
69,133,136609,6,0,P|79:153|85:174,1,45,10|0,2:3|0:0,0:0:0:0:
132,84,136734,2,0,P|142:104|148:125,1,45,8|0,1:2|0:0,0:0:0:0:
207,178,136859,1,14,2:2:0:0:
1,102,136984,1,10,2:3:0:0:
214,174,137109,1,8,1:2:0:0:
274,130,137234,1,10,2:2:0:0:
38,269,137359,6,0,B|65:197|138:215|138:215|172:274|244:248,1,215.999993408203,6|8,1:2|2:3,0:0:0:0:
280,317,137734,2,0,P|292:274|300:215,1,90,6|8,1:3|2:2,0:0:0:0:
477,181,137984,2,0,P|465:224|457:283,1,90,6|8,2:3|1:3,0:0:0:0:
357,354,138234,2,0,P|373:264|391:176,1,180,2|8,1:3|2:3,0:0:0:0:
429,98,138609,5,6,2:3:0:0:
435,109,138734,1,0,1:1:0:0:
341,16,138859,1,12,2:2:0:0:
237,64,138984,1,10,2:3:0:0:
160,7,139109,1,2,1:2:0:0:
60,56,139234,1,10,2:3:0:0:
144,220,139359,6,0,P|95:159|-19:174,1,180,2|10,1:2|2:3,0:0:0:0:
134,88,139734,2,0,P|140:43|152:0,1,90,6|6,1:3|1:3,0:0:0:0:
42,246,139984,2,0,P|29:289|23:333,1,90,6|8,2:3|1:3,0:0:0:0:
0,132,140234,2,0,B|103:135|56:203|163:205,1,180,10|8,2:3|2:3,0:0:0:0:
286,365,140609,6,0,P|288:342|294:321,1,45,6|0,2:3|0:0,0:0:0:0:
205,277,140734,2,0,P|211:298|214:320,1,45,0|0,1:1|0:0,0:0:0:0:
153,368,140859,1,12,2:2:0:0:
361,275,140984,1,10,2:3:0:0:
441,327,141109,1,2,1:2:0:0:
368,275,141234,1,10,2:3:0:0:
507,83,141359,6,0,B|500:26|429:-1|370:29|370:29|455:66|427:159,1,288,6|10,1:2|2:3,0:0:0:0:
478,256,141734,2,0,P|487:211|499:168,1,90,6|8,1:3|2:2,0:0:0:0:
347,110,141984,2,0,P|359:153|367:197,1,90,6|8,2:3|1:3,0:0:0:0:
512,384,142234,2,0,P|451:329|348:339,1,180,2|8,1:3|2:3,0:0:0:0:
202,257,142609,5,6,2:3:0:0:
135,344,142734,1,0,1:1:0:0:
45,313,142859,1,14,2:2:0:0:
0,371,142984,1,10,2:3:0:0:
119,261,143109,2,0,P|131:216|138:173,1,90,0|10,1:1|1:3,0:0:0:0:
284,229,143359,5,0,1:1:0:0:
294,235,143484,1,2,2:3:0:0:
283,241,143609,1,8,2:3:0:0:
360,191,143734,2,0,B|405:177|434:214|434:214|436:229|436:229|470:263|515:245,1,180,6|4,1:3|2:3,0:0:0:0:
217,96,144109,1,8,1:3:0:0:
151,64,144234,2,0,B|105:50|76:87|76:87|74:102|74:102|41:136|-5:118,1,180,10|12,2:3|2:2,0:0:0:0:
244,11,144609,5,10,2:3:0:0:
253,7,144734,1,8,1:2:0:0:
299,99,144859,1,12,2:2:0:0:
198,178,144984,1,8,2:3:0:0:
223,302,145109,1,8,1:2:0:0:
151,354,145234,1,8,2:2:0:0:
342,384,145359,6,0,B|392:329|471:352|471:352|518:307|485:246,1,251.999992309571,6|10,1:2|2:3,0:0:0:0:
435,188,145734,1,4,1:3:0:0:
510,121,145859,2,0,P|467:112|426:92,1,90,10|4,2:2|2:3,0:0:0:0:
256,95,146109,1,10,1:3:0:0:
398,16,146234,2,0,B|359:-22|307:25|307:25|357:59|328:116,1,180,2|8,1:3|2:3,0:0:0:0:
251,237,146609,5,6,2:3:0:0:
354,172,146734,2,0,P|333:179|311:186,1,45,0|0,1:1|0:0,0:0:0:0:
243,243,146859,2,0,B|205:218|205:218|225:179,1,90,14|8,2:2|2:3,0:0:0:0:
19,20,147109,2,0,B|79:46|79:46|50:109,1,135,2|0,1:2|0:0,0:0:0:0:
115,159,147359,5,2,1:2:0:0:
128,150,147484,1,2,2:3:0:0:
0,285,147609,1,8,2:3:0:0:
29,212,147734,2,0,B|105:239|105:239|103:311|183:323,1,180,6|4,1:3|2:3,0:0:0:0:
203,252,148109,1,8,1:3:0:0:
40,384,148234,2,0,P|123:354|213:339,1,180,10|8,2:3|2:3,0:0:0:0:
264,206,148609,5,6,2:3:0:0:
273,198,148734,1,0,1:1:0:0:
326,258,148859,1,12,2:2:0:0:
459,231,148984,1,8,2:3:0:0:
512,291,149109,1,0,1:1:0:0:
350,45,149359,6,0,P|347:68|341:89,1,45,6|0,1:2|0:0,0:0:0:0:
409,141,149484,2,0,P|413:119|419:98,1,45
490,71,149609,2,0,B|523:41|523:41|501:0,1,90,10|4,2:3|1:3,0:0:0:0:
266,93,149859,2,0,B|233:123|233:123|254:163,1,90,10|4,2:2|2:3,0:0:0:0:
324,209,150109,1,10,1:3:0:0:
174,62,150234,2,0,P|86:48|0:25,1,180,2|8,1:3|2:3,0:0:0:0:
25,115,150609,6,0,P|68:126|112:133,1,90,6|0,2:3|1:1,0:0:0:0:
167,328,150859,2,0,P|123:316|79:309,1,90,14|8,2:2|2:3,0:0:0:0:
14,359,151109,2,0,B|-18:329|-18:329|0:287,1,90,2|2,1:2|2:2,0:0:0:0:
133,219,151359,5,2,1:2:0:0:
125,225,151484,1,2,2:3:0:0:
139,228,151609,1,8,2:3:0:0:
272,285,151734,1,4,1:3:0:0:
395,162,151859,2,0,P|438:173|482:180,1,90,10|4,2:3|2:3,0:0:0:0:
336,226,152109,1,8,1:3:0:0:
328,219,152234,1,10,2:3:0:0:
255,186,152359,5,0,0:0:0:0:
399,282,152484,1,8,2:3:0:0:
250,180,152609,1,6,2:3:0:0:
406,276,152734,2,0,P|450:283|493:294,1,90,0|12,1:1|2:2,0:0:0:0:
443,176,152984,5,8,2:3:0:0:
328,229,153109,1,0,1:1:0:0:
212,283,153234,1,8,2:3:0:0:
38,347,153359,6,0,B|125:317|125:317|197:385,1,188.999994232178,6|0,1:2|0:0,0:0:0:0:
196,384,153609,2,0,P|237:364|286:349,1,90,10|4,2:3|1:3,0:0:0:0:
447,242,153859,1,10,2:2:0:0:
455,235,153984,1,4,2:3:0:0:
459,243,154109,1,10,1:3:0:0:
493,357,154234,2,0,B|457:337|425:339|425:339|406:304|406:304|369:307|336:290,1,180,2|8,1:3|2:3,0:0:0:0:
161,195,154609,5,6,2:3:0:0:
83,210,154734,2,0,P|40:196|0:176,1,90,0|14,1:1|2:2,0:0:0:0:
139,271,154984,5,8,2:3:0:0:
242,173,155109,1,2,1:2:0:0:
380,226,155234,1,0,0:0:0:0:
429,152,155359,6,0,P|469:132|512:118,1,90,2|2,1:2|2:3,0:0:0:0:
372,43,155609,2,0,P|366:64|362:86,1,45,8|0,2:3|0:0,0:0:0:0:
464,0,155734,2,0,P|458:21|454:43,1,45,6|0,1:3|0:0,0:0:0:0:
280,109,155859,2,0,B|243:83|243:83|259:41,1,90,10|4,2:3|2:3,0:0:0:0:
341,162,156109,1,8,1:3:0:0:
170,19,156234,2,0,B|111:8|89:48|95:54|69:114|-5:82,1,180,10|8,2:3|2:3,0:0:0:0:
149,108,156609,6,0,P|137:146|127:195,1,90,6|0,2:3|1:1,0:0:0:0:
185,241,156859,1,14,2:2:0:0:
38,172,156984,2,0,P|51:214|59:259,1,90,10|0,2:3|1:1,0:0:0:0:
25,331,157234,1,10,2:3:0:0:
236,384,157359,6,0,P|299:311|394:321,1,198.000006042481,4|10,1:2|2:3,0:0:0:0:
331,191,157734,1,4,1:3:0:0:
262,236,157859,1,10,2:2:0:0:
338,192,157984,2,0,P|375:175|429:161,1,90,6|8,2:3|1:3,0:0:0:0:
512,0,158234,2,0,P|449:74|359:66,1,180,2|8,1:3|2:3,0:0:0:0:
200,51,158609,5,6,2:3:0:0:
260,100,158734,1,0,1:1:0:0:
307,0,158859,1,14,2:2:0:0:
158,142,158984,1,8,2:3:0:0:
46,87,159109,2,0,P|38:42|25:0,1,90,2|2,1:2|2:2,0:0:0:0:
0,234,159359,5,2,1:2:0:0:
27,166,159484,2,0,B|86:155|107:195|102:201|128:261|202:229,1,180,2|4,2:3|1:3,0:0:0:0:
272,220,159859,2,0,P|258:262|250:307,1,90,10|4,2:3|2:3,0:0:0:0:
273,382,160109,1,8,1:3:0:0:
503,255,160234,2,0,B|438:241|414:286|420:292|392:357|311:322,1,198.000006042481,10|8,2:3|2:3,0:0:0:0:
50,228,160609,5,6,2:3:0:0:
127,177,160734,1,0,1:1:0:0:
42,229,160859,2,0,B|6:202|6:202|26:162,1,90,12|8,2:2|2:3,0:0:0:0:
184,26,161109,2,0,B|67:-5|67:-5|119:9|141:53,1,202.500007724762,0|0,1:1|0:0,0:0:0:0:
371,86,161359,6,0,P|345:78|319:69,1,54,4|0,1:2|0:0,0:0:0:0:
263,8,161609,6,0,B|306:37|282:89|282:89|215:71|193:136|193:136|204:157|228:157,1,242.999992584229,8|0,2:3|0:0,0:0:0:0:
298,166,161859,6,0,P|330:249|329:338,1,180,8|8,2:2|1:3,0:0:0:0:
491,255,162234,1,2,1:3:0:0:
422,298,162359,2,0,P|405:339|406:384,1,90,0|8,1:1|2:3,0:0:0:0:
498,253,162609,1,6,2:3:0:0:
324,341,162734,2,0,B|279:336|236:361|236:361|217:348|200:322|200:322|161:344|117:340,1,215.999993408203,0|8,1:1|2:3,0:0:0:0:
30,280,163109,2,0,P|42:327|44:374,1,90,0|0,1:1|0:0,0:0:0:0:
242,207,163359,5,0,1:1:0:0:
169,244,163484,2,0,B|115:269|87:222|87:219|91:218|64:163|-9:194,1,180,2|4,2:3|1:3,0:0:0:0:
318,237,163859,2,0,P|344:175|331:110,1,135,10|0,2:3|0:0,0:0:0:0:
355,30,164109,2,0,P|332:30|312:21,1,45,8|0,1:3|0:0,0:0:0:0:
253,122,164234,2,0,P|255:99|248:78,1,45,10|0,2:3|0:0,0:0:0:0:
196,0,164359,6,0,P|161:81|177:169,1,180,0|6,0:0|2:3,0:0:0:0:
240,281,164734,1,0,1:1:0:0:
172,316,164859,2,0,P|136:304|75:289,1,90,12|8,2:2|2:3,0:0:0:0:
306,342,165109,1,0,1:1:0:0:
246,277,165234,1,8,2:3:0:0:
383,384,165359,6,0,P|418:372|480:357,1,90,4|0,1:2|0:0,0:0:0:0:
360,254,165609,1,8,2:3:0:0:
481,193,165734,1,4,1:3:0:0:
435,287,165859,2,0,P|442:219|455:153,1,135,8|0,2:2|0:0,0:0:0:0:
404,102,166109,2,0,B|384:62|384:62|414:28,1,90,8|2,1:3|1:3,0:0:0:0:
185,0,166359,6,0,B|205:40|205:40|174:73,1,90,0|8,1:1|2:3,0:0:0:0:
291,68,166609,1,6,2:3:0:0:
48,184,166734,2,0,P|143:162|273:139,1,215.999993408203,0|8,1:1|2:3,0:0:0:0:
101,94,167109,2,0,P|77:46|58:-4,1,90,0|0,1:1|0:0,0:0:0:0:
259,274,167359,5,0,1:1:0:0:
186,243,167484,2,0,B|132:218|104:265|104:267|108:269|81:322|6:290,1,180,2|4,2:3|1:3,0:0:0:0:
261,198,167859,1,10,2:3:0:0:
268,186,167984,1,4,2:3:0:0:
433,284,168109,1,8,1:3:0:0:
426,265,168234,1,10,2:3:0:0:
351,323,168359,6,0,P|338:279|343:235,1,90,0|8,0:0|2:3,0:0:0:0:
512,225,168609,2,0,P|476:198|452:160,1,90,6|0,2:3|1:1,0:0:0:0:
341,111,168859,1,12,2:2:0:0:
512,27,168984,1,8,2:3:0:0:
347,105,169109,2,0,B|328:37|257:31|257:31|317:47|316:141,1,216,0|0,1:1|0:0,0:0:0:0:
463,84,169359,6,0,P|437:76|411:67,1,54,4|0,1:2|0:0,0:0:0:0:
232,106,169609,6,0,B|156:113|136:41|136:41|7:19,1,242.999992584229,8|0,2:3|0:0,0:0:0:0:
26,111,169859,6,0,B|85:89|103:140|102:142|98:143|120:203|189:175,1,180,8|8,2:2|1:3,0:0:0:0:
74,241,170234,1,2,1:3:0:0:
163,364,170359,2,0,P|162:319|145:278,1,90,0|8,1:1|2:3,0:0:0:0:
317,337,170609,1,6,2:3:0:0:
245,384,170734,2,0,P|249:276|290:177,1,215.999993408203,0|8,1:1|2:3,0:0:0:0:
276,84,171109,2,0,B|238:74|238:74|301:113,1,90,0|0,1:1|0:0,0:0:0:0:
511,88,171359,5,0,1:1:0:0:
447,48,171484,2,0,P|370:85|372:170,1,180,2|4,2:3|1:3,0:0:0:0:
473,277,171859,2,0,P|476:227|437:205,1,90,10|4,2:3|2:3,0:0:0:0:
381,249,172109,1,8,1:3:0:0:
486,360,172234,1,10,2:3:0:0:
306,271,172359,6,0,B|263:254|225:285|225:285|228:294|228:294|191:327|150:311,1,180,0|6,0:0|2:3,0:0:0:0:
87,249,172734,1,0,1:1:0:0:
163,202,172859,1,12,2:2:0:0:
5,125,172984,2,0,P|45:144|93:164,1,90,8|0,2:3|1:1,0:0:0:0:
171,208,173234,1,8,2:3:0:0:
249,14,173359,6,0,B|244:66|270:105|270:105|233:142|233:142|259:185|257:223,1,233.999989288331,4|8,1:2|2:3,0:0:0:0:
379,364,173734,2,0,B|399:324|399:324|365:294,1,90,4|8,1:3|2:2,0:0:0:0:
182,384,173984,2,0,B|148:354|148:354|167:313,1,90,4|8,2:3|1:3,0:0:0:0:
273,328,174234,1,2,1:3:0:0:
196,194,174359,6,0,P|211:226|220:261,1,72,0|8,1:1|2:3,0:0:0:0:
268,335,174609,1,6,2:3:0:0:
511,257,174734,2,0,B|457:232|429:279|429:281|433:283|406:336|331:304,1,180,0|8,1:1|2:3,0:0:0:0:
301,251,175109,2,0,P|303:206|316:163,1,72,0|0,1:1|0:0,0:0:0:0:
481,81,175359,6,0,B|431:82|404:128|404:128|333:134|337:46,1,180.000006866455,0|0,1:1|0:0,0:0:0:0:
402,23,175609,2,0,P|385:9|398:26,2,60,8|0|0,2:3|0:0|0:0,0:0:0:0:
137,175,175859,2,0,B|197:178|220:116|220:116|341:86,1,233.999989288331,10|8,2:3|1:3,0:0:0:0:
219,33,176192,5,0,0:0:0:0:
180,0,176275,1,0,0:0:0:0:
133,22,176359,2,0,P|119:45|124:86,1,60
240,224,176525,5,0,0:0:0:0:
289,233,176609,2,0,P|303:210|298:169,1,60,6|0,2:3|0:0,0:0:0:0:
82,274,176775,5,0,0:0:0:0:
36,256,176859,2,0,P|4:310|7:374,1,125.999996154785,12|0,2:2|0:0,0:0:0:0:
15,377,177109,1,0,1:1:0:0:
164,262,177234,1,8,2:3:0:0:
229,331,177359,6,0,P|336:342|441:364,1,215.999993408203,6|4,1:2|1:3,0:0:0:0:
512,384,177984,1,2,2:2:0:0:
256,252,178234,2,0,B|170:220|140:291|145:296|150:298|122:385|22:342,1,269.999991760254,2|4,2:2|1:3,0:0:0:0:
0,6,179359,6,0,P|87:90|193:98,1,215.999993408203,4|4,1:3|1:3,0:0:0:0:
228,30,180234,2,0,P|254:76|259:129,1,107.999996704102
340,6,180609,2,0,P|334:59|351:110,1,107.999996704102,8|4,2:3|1:3,0:0:0:0:
512,361,181359,6,0,P|460:344|298:308,1,215.999993408203,4|4,1:3|1:3,0:0:0:0:
484,245,182234,1,0,0:0:0:0:
434,180,182359,2,0,P|383:194|367:246,2,107.999996704102,4|8|4,1:3|2:3|1:3,0:0:0:0:
129,350,183359,6,0,P|29:360|0:264,1,215.999993408203,4|4,1:3|1:3,0:0:0:0:
35,172,184234,2,0,P|37:118|13:70,1,107.999996704102
142,149,184609,2,0,P|117:101|120:48,1,107.999996704102,8|4,2:3|1:3,0:0:0:0:
55,0,184984,1,0,0:0:0:0:
273,301,185359,6,0,B|344:270|370:331|366:333|362:337|387:394|456:366,1,215.999993408203,6|4,1:3|1:3,0:0:0:0:
433,287,185984,2,0,P|439:233|453:176,1,107.999996704102,2|2,2:2|2:2,0:0:0:0:
512,127,186359,1,4,1:3:0:0:
418,12,186609,2,0,P|411:65|399:118,1,107.999996704102,8|4,2:3|1:3,0:0:0:0:
175,268,187359,6,0,B|137:248|90:260|90:260|72:208|72:208|27:222|-14:199,1,215.999993408203,4|4,1:3|1:3,0:0:0:0:
146,177,188234,2,0,P|199:174|252:163,1,107.999996704102
130,340,188609,2,0,P|76:342|23:353,1,107.999996704102,8|4,2:3|1:3,0:0:0:0:
111,259,188984,1,0,0:0:0:0:
100,254,189109,1,10,2:3:0:0:
395,331,189359,6,0,P|397:357|402:384,1,53.9999983520508,6|0,1:3|0:0,0:0:0:0:
213,293,189609,2,0,P|217:319|221:346,1,53.9999983520508,10|0,2:2|0:0,0:0:0:0:
315,318,189859,1,6,1:3:0:0:
301,309,189984,2,0,P|299:282|294:255,1,53.9999983520508,0|10,0:0|2:2,0:0:0:0:
383,154,190234,1,0,0:0:0:0:
383,154,190296,1,0,1:0:0:0:
383,154,190359,6,0,P|378:127|376:100,1,53.9999983520508,4|0,1:3|0:0,0:0:0:0:
290,53,190609,2,0,P|288:26|282:0,1,53.9999983520508,10|0,2:2|0:0,0:0:0:0:
185,137,190859,5,6,1:3:0:0:
173,150,190942,1,0,0:0:0:0:
140,151,191025,1,0,0:0:0:0:
109,116,191109,1,10,2:2:0:0:
118,61,191192,1,0,0:0:0:0:
73,11,191275,1,0,0:0:0:0:
1,27,191359,1,4,1:3:0:0:
15,141,192734,5,0,0:0:0:0:
175,199,192859,1,4,1:3:0:0:
252,159,192984,1,4,1:3:0:0:
343,194,193109,1,10,1:3:0:0:
259,155,193234,1,10,1:3:0:0:
487,21,193359,6,0,B|436:17|419:62|419:62|511:100|467:213,1,215.999993408203,6|8,1:2|2:3,0:0:0:0:
423,233,193734,1,4,1:3:0:0:
506,342,193859,1,8,2:2:0:0:
417,239,193984,1,6,2:3:0:0:
328,294,194109,1,8,1:3:0:0:
497,333,194234,2,0,P|406:352|312:392,1,180,2|8,1:3|2:3,0:0:0:0:
253,343,194609,5,6,2:3:0:0:
66,281,194734,1,0,1:1:0:0:
32,350,194859,1,12,2:2:0:0:
173,243,194984,1,10,2:3:0:0:
75,103,195109,1,2,1:2:0:0:
146,70,195234,1,10,2:3:0:0:
55,205,195359,5,0,1:1:0:0:
55,205,195484,2,0,B|45:183|5:165|5:165|125:191,1,180,2|4,2:3|1:3,0:0:0:0:
197,152,195859,1,10,2:3:0:0:
315,197,195984,1,6,2:3:0:0:
398,109,196109,1,8,1:3:0:0:
460,158,196234,2,0,B|537:116|537:116|466:21,1,180,10|8,2:3|2:3,0:0:0:0:
222,31,196609,6,0,P|228:52|231:74,1,45,6|0,2:3|0:0,0:0:0:0:
311,110,196734,2,0,P|316:88|325:67,1,45,0|0,1:1|0:0,0:0:0:0:
158,133,196859,2,0,P|147:89|129:48,1,90,12|10,2:2|2:3,0:0:0:0:
237,164,197109,1,2,1:2:0:0:
44,291,197234,1,10,2:3:0:0:
116,323,197359,6,0,B|173:302|198:349|194:352|192:354|217:403|270:382,1,180,4|8,1:2|2:3,0:0:0:0:
362,343,197734,1,6,1:3:0:0:
275,287,197859,1,8,2:2:0:0:
265,290,197984,1,6,2:3:0:0:
276,298,198109,1,8,1:3:0:0:
510,196,198234,2,0,B|452:175|427:222|431:225|433:227|408:276|355:255,1,180,2|8,1:3|2:3,0:0:0:0:
304,189,198609,5,6,2:3:0:0:
310,177,198734,1,0,1:1:0:0:
199,205,198859,1,12,2:2:0:0:
136,167,198984,1,10,2:3:0:0:
0,209,199109,1,2,1:2:0:0:
162,83,199234,1,10,1:3:0:0:
64,267,199359,6,0,P|44:182|89:107,1,180,0|10,1:1|2:3,0:0:0:0:
244,40,199734,1,4,1:3:0:0:
322,92,199859,1,10,2:3:0:0:
311,100,199984,1,6,2:3:0:0:
309,89,200109,1,8,1:3:0:0:
479,6,200234,6,0,P|499:91|454:166,1,180,10|12,2:3|2:2,0:0:0:0:
399,225,200609,6,0,P|409:245|413:267,1,45,10|0,2:3|0:0,0:0:0:0:
462,351,200734,2,0,P|467:328|476:308,1,45,8|0,1:2|0:0,0:0:0:0:
512,226,200859,1,14,2:2:0:0:
505,219,200984,1,10,2:3:0:0:
384,346,201109,1,8,1:2:0:0:
377,353,201234,1,10,2:2:0:0:
151,218,201359,6,0,B|190:234|239:228|239:228|259:267|259:267|302:260|338:277,1,215.999993408203,6|8,1:2|2:3,0:0:0:0:
207,384,201734,2,0,P|180:349|193:308,1,90,6|8,1:3|2:2,0:0:0:0:
315,190,201984,2,0,P|327:148|301:114,1,90,6|8,2:3|1:3,0:0:0:0:
81,28,202234,2,0,P|57:111|111:180,1,180,2|8,1:3|2:3,0:0:0:0:
240,59,202609,5,6,2:3:0:0:
232,54,202734,1,0,1:1:0:0:
110,179,202859,1,12,2:2:0:0:
282,258,202984,1,10,2:3:0:0:
206,161,203109,1,2,1:2:0:0:
82,352,203234,1,10,2:3:0:0:
167,326,203359,6,0,P|255:333|328:384,1,180,2|10,1:2|2:3,0:0:0:0:
282,258,203734,2,0,P|321:240|327:197,1,90,6|10,1:3|2:3,0:0:0:0:
512,113,203984,2,0,P|516:69|482:43,1,90,6|8,2:3|1:3,0:0:0:0:
349,123,204234,2,0,P|428:152|518:236,1,180,10|8,2:3|2:3,0:0:0:0:
269,116,204609,6,0,P|274:94|284:74,1,45,6|0,2:3|0:0,0:0:0:0:
225,14,204734,2,0,P|214:34|209:55,1,45,0|0,1:1|0:0,0:0:0:0:
140,79,204859,1,12,2:2:0:0:
331,14,204984,1,10,2:3:0:0:
137,87,205109,1,2,1:2:0:0:
196,154,205234,1,10,2:3:0:0:
27,306,205359,6,0,B|-18:268|12:224|12:224|78:245|100:179|100:179|93:160|65:161,1,233.999989288331,6|10,1:2|2:3,0:0:0:0:
147,87,205734,2,0,P|102:77|60:63,1,90,6|8,1:3|2:2,0:0:0:0:
198,325,205984,2,0,P|155:310|111:301,1,90,6|8,2:3|1:3,0:0:0:0:
313,220,206234,2,0,B|391:240|391:240|407:342|520:323,1,215.999993408203,2|8,1:3|2:3,0:0:0:0:
309,383,206609,6,0,B|291:341|291:341|324:310,1,90,6|0,3:3|1:1,0:0:0:0:
451,184,206859,1,14,2:2:0:0:
389,137,206984,1,10,2:3:0:0:
512,35,207109,2,0,P|475:51|416:76,1,90,0|10,1:1|1:3,0:0:0:0:
294,125,207359,5,0,1:1:0:0:
305,128,207484,1,2,2:3:0:0:
293,134,207609,1,8,2:3:0:0:
5,29,207734,2,0,B|66:17|81:68|76:70|74:72|88:125|144:115,1,180,6|4,1:3|2:3,0:0:0:0:
214,81,208109,1,8,1:3:0:0:
45,172,208234,1,10,2:3:0:0:
172,10,208359,5,0,0:0:0:0:
240,0,208442,1,0,0:0:0:0:
285,35,208525,1,0,0:0:0:0:
302,85,208609,1,10,2:3:0:0:
345,110,208692,1,0,0:0:0:0:
380,96,208775,1,0,0:0:0:0:
380,80,208859,2,0,P|376:115|379:155,1,72,12|8,2:2|2:3,0:0:0:0:
264,312,209109,5,8,1:2:0:0:
423,219,209234,1,8,2:2:0:0:
206,366,209359,6,0,B|135:314|43:314|43:314|22:263|62:227|62:227|90:246|131:247,1,323.999990112305,4|8,1:2|2:3,0:0:0:0:
261,307,209734,1,4,1:3:0:0:
196,264,209859,2,0,P|190:219|175:176,1,90,8|0,2:2|0:0,0:0:0:0:
311,63,210109,1,8,1:3:0:0:
238,29,210234,1,10,2:3:0:0:
460,152,210359,6,0,B|519:127|519:127|484:66,1,135,0|0,1:1|0:0,0:0:0:0:
474,58,210609,2,0,P|425:81|370:93,1,90,6|0,2:3|1:1,0:0:0:0:
424,296,210859,2,0,P|380:306|339:324,1,90,12|8,2:2|2:3,0:0:0:0:
373,194,211109,1,0,1:1:0:0:
361,189,211234,1,0,0:0:0:0:
263,350,211359,6,0,P|240:312|247:268,1,90,0|2,1:1|2:3,0:0:0:0:
20,365,211609,1,8,2:3:0:0:
96,352,211734,2,0,P|142:275|128:187,1,180,4|4,1:3|2:3,0:0:0:0:
197,142,212109,1,8,1:3:0:0:
0,12,212234,1,10,2:3:0:0:
172,64,212359,5,0,0:0:0:0:
32,79,212484,2,0,P|67:106|110:115,1,90,8|6,2:3|2:3,0:0:0:0:
326,23,212734,2,0,P|284:39|254:72,1,90,0|12,1:1|2:2,0:0:0:0:
232,303,212984,2,0,P|238:258|224:216,1,90,8|0,2:3|1:1,0:0:0:0:
197,142,213234,1,8,2:3:0:0:
429,131,213359,6,0,P|419:151|415:173,1,45,4|0,1:2|0:0,0:0:0:0:
355,238,213484,2,0,P|350:215|341:195,1,45
281,152,213609,1,8,2:3:0:0:
290,145,213734,1,4,1:3:0:0:
499,223,213859,5,8,2:2:0:0:
503,233,213984,1,0,0:0:0:0:
302,357,214109,1,8,1:3:0:0:
359,311,214234,2,0,B|416:286|441:333|436:336|435:338|460:387|512:366,1,180,10|0,2:3|0:0,0:0:0:0:
290,285,214609,5,6,2:3:0:0:
233,332,214734,1,0,1:1:0:0:
160,207,214859,1,12,2:2:0:0:
17,250,214984,1,8,2:3:0:0:
0,179,215109,1,0,1:1:0:0:
109,316,215234,2,0,P|88:225|66:135,1,180,0|2,0:0|2:3,0:0:0:0:
17,79,215609,6,0,B|-16:49|-16:49|0:6,1,90,8|4,2:3|1:3,0:0:0:0:
144,131,215859,1,10,2:3:0:0:
80,32,215984,2,0,P|121:45|185:64,1,90,4|8,2:3|1:3,0:0:0:0:
236,10,216234,1,10,2:3:0:0:
355,105,216359,5,0,0:0:0:0:
476,88,216484,1,8,2:3:0:0:
512,154,216609,1,4,2:3:0:0:
320,42,216734,1,0,1:1:0:0:
184,208,216859,1,12,2:2:0:0:
285,125,216984,1,8,2:3:0:0:
323,194,217109,2,0,B|354:218|354:218|286:203,1,90,0|8,1:1|2:3,0:0:0:0:
32,271,217359,6,0,B|-17:240|17:188|17:188|97:207|124:147|124:147|125:114|93:109,1,270.000010299683,6|8,1:2|2:3,0:0:0:0:
17,23,217734,2,0,P|14:67|26:110,1,90,4|8,1:3|2:2,0:0:0:0:
124,255,217984,1,4,2:3:0:0:
114,262,218109,1,8,1:3:0:0:
128,266,218234,1,2,1:3:0:0:
12,384,218359,6,0,P|52:364|83:331,1,90,0|8,1:1|2:3,0:0:0:0:
158,371,218609,1,6,2:3:0:0:
348,215,218734,2,0,B|269:239|269:239|256:315|168:296,1,180,0|8,1:1|2:3,0:0:0:0:
418,345,219109,2,0,P|380:320|337:309,1,90,0|0,1:1|0:0,0:0:0:0:
492,158,219359,5,0,1:1:0:0:
431,203,219484,1,2,2:3:0:0:
512,267,219609,1,8,2:3:0:0:
427,113,219734,2,0,P|384:98|342:82,1,90,4|10,1:3|2:3,0:0:0:0:
127,58,219984,2,0,P|84:43|42:27,1,90,4|8,2:3|1:3,0:0:0:0:
276,149,220234,1,10,2:3:0:0:
193,20,220359,6,0,B|225:78|225:78|170:120,1,135
170,120,220609,1,6,2:3:0:0:
0,296,220734,1,0,1:1:0:0:
29,222,220859,2,0,P|70:205|113:191,1,90,12|8,2:2|2:3,0:0:0:0:
345,77,221109,2,0,P|386:60|429:46,1,90,0|8,1:1|2:3,0:0:0:0:
184,235,221359,6,0,P|187:212|193:191,1,45,4|0,1:2|0:0,0:0:0:0:
268,157,221484,2,0,P|271:134|277:113,1,45
229,48,221609,1,8,2:3:0:0:
339,233,221734,2,0,B|374:204|374:204|350:167,1,90,4|8,1:3|2:2,0:0:0:0:
113,358,221984,2,0,B|88:320|88:320|124:292,1,90,4|8,2:3|1:3,0:0:0:0:
368,374,222234,2,0,B|308:392|288:343|293:340|294:338|275:287|220:303,1,180,2|8,1:3|2:3,0:0:0:0:
311,103,222609,5,6,2:3:0:0:
183,224,222734,1,0,1:1:0:0:
360,302,222859,5,12,2:2:0:0:
228,150,222984,1,8,2:3:0:0:
103,255,223109,1,0,1:1:0:0:
177,220,223234,1,0,0:0:0:0:
6,144,223359,6,0,P|5:76|0:9,1,135,4|0,1:3|0:0,0:0:0:0:
83,37,223609,2,0,B|111:70|111:70|86:108,1,90,8|8,2:3|1:3,0:0:0:0:
170,351,223859,6,0,P|250:343|331:343,1,161.999995056153,14|0,2:3|0:0,0:0:0:0:
437,378,224109,2,0,B|408:344|408:344|433:306,1,90,8|10,1:3|2:3,0:0:0:0:
512,136,224359,5,4,2:3:0:0:
445,127,224442,1,0,0:0:0:0:
398,163,224525,1,0,0:0:0:0:
398,218,224609,1,10,2:3:0:0:
365,255,224692,1,0,0:0:0:0:
319,260,224775,1,0,0:0:0:0:
306,250,224859,5,12,2:2:0:0:
203,146,224984,1,8,2:3:0:0:
296,48,225109,1,4,1:3:0:0:
236,0,225234,6,0,P|243:66|247:189,1,180,8|0,2:3|0:0,0:0:0:0:
325,178,225609,6,0,P|321:148|321:118,2,60,8|4|4,1:3|2:3|2:3,0:0:0:0:
173,221,225859,2,0,P|173:191|170:162,2,60,8|4|4,1:3|2:3|2:3,0:0:0:0:
249,254,226109,5,8,1:3:0:0:
241,312,226192,1,4,2:3:0:0:
239,371,226275,1,4,2:3:0:0:
165,384,226359,5,8,1:3:0:0:
299,69,226734,22,1,B|334:-4|433:-65|605:-27|639:135|592:237|419:294|317:279|249:166|262:152|271:140|287:121|171:3|20:34|-59:229|90:291|166:257|176:191,1,1026,4|0,1:2|0:0,0:0:0:0:
