osu file format v14

[General]
AudioFilename: audio.mp3
AudioLeadIn: 0
PreviewTime: 64859
Countdown: 0
SampleSet: Soft
StackLeniency: 0.3
Mode: 0
LetterboxInBreaks: 0
WidescreenStoryboard: 1

[Editor]
Bookmarks: 17866,17916,17966,18016,18066,18116,129366,139241,154866,154928,154991
DistanceSpacing: 1.1
BeatDivisor: 8
GridSize: 16
TimelineZoom: 3.399999

[Metadata]
Title:Summer Fever
TitleUnicode:Summer Fever
Artist:FELT
ArtistUnicode:FELT
Creator:Camo
Version:CENSOLED's Lunatic
Source:東方花映塚 ~ Phantasmagoria of Flower View.
Tags:owc2022gfhd1 owc osu! world cup 2022 grand finals hidden 1 monsieursebas censoled fooders kyrie irving lecandy visionary sagu オリエンタルダークフライト Oriental Dark Flight ZUN 霧雨魔理沙 Marisa Kirisame Vivienne Renko Maurits"禅"Cornelis 上海アリス幻樂団 Team Shanghai Alice touhou project 2hu 東方project th9 flower reflecting mound kaeizuka fortunes gate english jazz video game pop
BeatmapID:4041492
BeatmapSetID:1888937

[Difficulty]
HPDrainRate:5
CircleSize:4
OverallDifficulty:9.2
ApproachRate:9.6
SliderMultiplier:2.1
SliderTickRate:0.5

[Events]
//Background and Video events
0,0,"98661691_p0.jpg",0,0
//Break Periods
//Storyboard Layer 0 (Background)
//Storyboard Layer 1 (Fail)
//Storyboard Layer 2 (Pass)
//Storyboard Layer 3 (Foreground)
//Storyboard Layer 4 (Overlay)
//Storyboard Sound Samples

[TimingPoints]
-641,500,4,2,1,70,1,0
-100,-50,4,2,1,70,0,0
859,-200,4,2,1,70,0,0
1359,-25,4,2,1,70,0,0
1859,-100,4,2,1,70,0,0
2359,-50,4,2,1,70,0,0
2859,-50,4,2,2,70,0,0
2984,-100,4,2,1,70,0,0
3859,-100,4,2,2,70,0,0
4109,-100,4,2,1,70,0,0
4234,-50,4,2,2,70,0,0
4484,-50,4,2,1,70,0,0
4609,-41.6666666666667,4,2,1,70,0,0
4859,-41.6666666666667,4,2,2,70,0,0
4984,-50,4,2,1,70,0,0
5734,-35.7142857142857,4,2,1,70,0,0
5984,-100,4,2,1,70,0,0
6859,-100,4,2,2,70,0,0
6984,-100,4,2,1,70,0,0
7984,-100,4,2,2,70,0,0
8109,-66.6666666666665,4,2,1,70,0,0
8234,-50,4,2,2,70,0,0
8734,-50,4,2,1,70,0,0
8859,-66.6666666666665,4,2,2,70,0,0
8984,-66.6666666666665,4,2,1,70,0,0
9109,-100,4,2,2,70,0,0
9234,-100,4,2,1,70,0,0
9359,-25,4,2,1,70,0,0
10359,-33.3333333333334,4,2,1,70,0,0
10734,-66.6666666666665,4,2,1,70,0,0
10859,-66.6666666666665,4,2,2,70,0,0
10984,-33.3333333333334,4,2,1,70,0,0
11234,-66.6666666666665,4,2,1,70,0,0
11859,-41.6666666666667,4,2,2,70,0,0
12234,-33.3333333333334,4,2,2,70,0,0
12484,-33.3333333333334,4,2,1,70,0,0
12609,-66.6666666666665,4,2,1,70,0,0
12859,-50,4,2,2,70,0,0
12984,-33.3333333333334,4,2,1,70,0,0
13359,-35.7142857142857,4,2,1,70,0,0
13609,-50,4,2,1,70,0,0
14734,-33.3333333333334,4,2,1,70,0,0
15109,-38.4615384615385,4,2,1,70,0,0
15359,-33.3333333333334,4,2,1,70,0,0
15859,-41.6666666666667,4,2,2,70,0,0
16359,-50,4,2,2,70,0,0
16734,-50,4,2,1,70,0,0
16859,-50,4,2,2,70,0,0
16984,-50,4,2,1,70,0,0
17109,-50,4,2,2,70,0,0
17234,-50,4,2,1,70,0,0
17359,-27.7777777777778,4,2,1,80,0,0
17608,-27.7777777777778,4,2,3,80,0,0
17859,-29.4117647058824,4,2,1,80,0,0
18046,-29.4117647058824,4,2,1,80,0,0
18109,-29.4117647058824,4,2,3,80,0,0
18234,-31.25,4,2,7,80,0,0
18609,-29.4117647058824,4,2,4,80,0,0
18859,-38.4615384615385,4,2,2,80,0,0
18983,-38.4615384615385,4,2,1,80,0,0
19109,-50,4,2,1,80,0,0
19234,-50,4,2,1,80,0,0
19359,-38.4615384615385,4,2,1,80,0,0
19671,-38.4615384615385,4,2,1,80,0,0
19734,-50,4,2,3,80,0,0
19983,-38.4615384615385,4,2,3,80,0,0
20109,-38.4615384615385,4,2,1,80,0,0
20234,-33.3333333333334,4,2,2,80,0,0
20421,-33.3333333333334,4,2,2,80,0,0
20484,-33.3333333333334,4,2,1,80,0,0
20859,-33.3333333333334,4,2,2,80,0,0
20984,-33.3333333333334,4,2,1,80,0,0
21359,-50,4,2,1,80,0,0
21546,-50,4,2,1,80,0,0
21609,-33.3333333333334,4,2,3,80,0,0
21796,-33.3333333333334,4,2,3,80,0,0
21859,-25,4,2,1,80,0,0
22046,-25,4,2,1,80,0,0
22109,-25,4,2,3,80,0,0
22234,-38.4615384615385,4,2,7,80,0,0
22609,-38.4615384615385,4,2,4,80,0,0
22859,-38.4615384615385,4,2,2,80,0,0
22983,-38.4615384615385,4,2,1,80,0,0
24171,-38.4615384615385,4,2,1,80,0,0
24234,-38.4615384615385,4,2,2,80,0,0
24608,-38.4615384615385,4,2,1,80,0,0
24859,-38.4615384615385,4,2,2,80,0,0
24921,-38.4615384615385,4,2,2,80,0,0
24984,-50,4,2,1,80,0,0
25067,-66.6666666666665,4,2,1,80,0,0
25109,-66.6666666666665,4,2,2,80,0,0
25171,-66.6666666666665,4,2,2,80,0,0
25234,-66.6666666666665,4,2,1,80,0,0
25359,-33.3333333333334,4,2,1,80,0,0
25609,-33.3333333333334,4,2,3,80,0,0
25859,-33.3333333333334,4,2,1,80,0,0
25984,-33.3333333333334,4,2,1,80,0,0
26109,-50,4,2,3,80,0,0
26171,-50,4,2,3,80,0,0
26234,-33.3333333333334,4,2,7,80,0,0
26609,-33.3333333333334,4,2,4,80,0,0
26859,-33.3333333333334,4,2,2,80,0,0
26984,-33.3333333333334,4,2,1,80,0,0
27109,-166.666666666666,4,2,1,80,0,0
27296,-166.666666666666,4,2,1,80,0,0
27359,-35.7142857142857,4,2,1,80,0,0
27733,-35.7142857142857,4,2,3,80,0,0
28108,-35.7142857142857,4,2,1,80,0,0
28234,-35.7142857142857,4,2,2,80,0,0
28421,-35.7142857142857,4,2,2,80,0,0
28484,-35.7142857142857,4,2,1,80,0,0
28859,-35.7142857142857,4,2,2,80,0,0
28984,-50,4,2,3,80,0,0
29359,-33.3333333333334,4,2,3,80,0,0
29484,-33.3333333333334,4,2,3,80,0,0
29609,-33.3333333333334,4,2,3,80,0,0
29859,-50,4,2,1,80,0,0
29921,-50,4,2,1,80,0,0
29984,-50,4,2,3,80,0,0
30171,-50,4,2,3,80,0,0
30234,-38.4615384615385,4,2,7,80,0,0
30609,-33.3333333333334,4,2,4,80,0,0
30796,-33.3333333333334,4,2,4,80,0,0
30859,-33.3333333333334,4,2,2,80,0,0
31046,-33.3333333333334,4,2,2,80,0,0
31109,-66.6666666666665,4,2,1,80,0,0
31234,-100,4,2,1,80,0,0
31296,-100,4,2,1,80,0,0
31359,-50,4,2,1,80,0,0
31796,-50,4,2,1,80,0,0
31859,-66.6666666666665,4,2,2,80,0,0
31921,-66.6666666666665,4,2,2,80,0,0
31984,-50,4,2,2,80,0,0
32046,-50,4,2,2,80,0,0
32109,-50,4,2,1,80,0,0
32234,-38.4615384615385,4,2,2,80,0,0
32421,-38.4615384615385,4,2,2,80,0,0
32484,-38.4615384615385,4,2,1,80,0,0
32546,-38.4615384615385,4,2,1,80,0,0
32609,-38.4615384615385,4,2,1,80,0,0
32859,-38.4615384615385,4,2,2,80,0,0
32984,-38.4615384615385,4,2,1,80,0,0
33109,-62.5,4,2,2,80,0,0
33296,-62.5,4,2,2,80,0,0
33359,-33.3333333333334,4,2,3,70,0,0
33609,-41.6666666666667,4,2,4,70,0,0
34234,-62.5,4,2,4,70,0,0
34609,-62.5,4,2,1,70,0,0
34859,-38.4615384615385,4,2,4,70,0,0
35109,-50,4,2,4,70,0,0
35484,-50,4,2,1,70,0,0
35859,-50,4,2,4,70,0,0
36234,-50,4,2,1,70,0,0
36859,-31.25,4,2,2,70,0,0
37109,-166.666666666666,4,2,4,70,0,0
37359,-50,4,2,4,70,0,0
37859,-38.4615384615385,4,2,4,70,0,0
38234,-33.3333333333334,4,2,4,70,0,0
38609,-38.4615384615385,4,2,1,70,0,0
38859,-38.4615384615385,4,2,4,70,0,0
39234,-66.6666666666665,4,2,4,70,0,0
39359,-66.6666666666665,4,2,1,70,0,0
39859,-66.6666666666665,4,2,2,70,0,0
40109,-66.6666666666665,4,2,1,70,0,0
40859,-66.6666666666665,4,2,2,70,0,0
41109,-66.6666666666665,4,2,1,70,0,0
41359,-33.3333333333334,4,2,3,70,0,0
41609,-58.8235294117645,4,2,4,70,0,0
41859,-50,4,2,4,70,0,0
42234,-38.4615384615385,4,2,4,70,0,0
42609,-38.4615384615385,4,2,1,70,0,0
42859,-38.4615384615385,4,2,4,70,0,0
43109,-50,4,2,4,70,0,0
43484,-33.3333333333334,4,2,1,70,0,0
43734,-66.6666666666665,4,2,1,70,0,0
43859,-50,4,2,4,70,0,0
44234,-33.3333333333334,4,2,1,70,0,0
44484,-50,4,2,1,70,0,0
44609,-66.6666666666665,4,2,1,70,0,0
44859,-37.5000000000094,4,2,2,70,0,0
45109,-66.6666666666665,4,2,4,70,0,0
45359,-27.7777777777778,4,2,4,70,0,0
45609,-33.3333333333334,4,2,4,70,0,0
46484,-66.6666666666665,4,2,4,70,0,0
46609,-66.6666666666665,4,2,1,70,0,0
46859,-29.4117647058824,4,2,4,70,0,0
47109,-66.6666666666665,4,2,4,70,0,0
47484,-66.6666666666665,4,2,1,70,0,0
47859,-66.6666666666665,4,2,4,70,0,0
48234,-41.6666666666667,4,2,1,70,0,0
48484,-66.6666666666665,4,2,1,70,0,0
48609,-33.3333333333334,4,2,1,70,0,0
48859,-50,4,2,2,70,0,0
49109,-38.4615384615385,4,2,3,70,0,0
49359,-38.4615384615385,4,2,3,70,0,0
49608,-38.4615384615385,4,2,4,70,0,0
50484,-38.4615384615385,4,2,1,70,0,0
50609,-33.3333333333334,4,2,1,70,0,0
50859,-38.4615384615385,4,2,4,70,0,0
51484,-38.4615384615385,4,2,1,70,0,0
51859,-38.4615384615385,4,2,4,70,0,0
52234,-38.4615384615385,4,2,1,70,0,0
52859,-38.4615384615385,4,2,2,70,0,0
53109,-38.4615384615385,4,2,4,70,0,0
53234,-38.4615384615385,4,2,4,70,0,0
53609,-66.6666666666665,4,2,4,70,0,0
53859,-33.3333333333334,4,2,4,70,0,0
54234,-35.7142857142857,4,2,4,70,0,0
54609,-29.4117647058824,4,2,1,70,0,0
54859,-29.4117647058824,4,2,4,70,0,0
55359,-66.6666666666665,4,2,1,70,0,0
55859,-66.6666666666665,4,2,2,70,0,0
56109,-66.6666666666665,4,2,1,70,0,0
56859,-66.6666666666665,4,2,2,70,0,0
57109,-66.6666666666665,4,2,1,70,0,0
57359,-33.3333333333334,4,2,3,70,0,0
57609,-33.3333333333334,4,2,4,70,0,0
58234,-37.0370370370371,4,2,4,70,0,0
58609,-37.0370370370371,4,2,1,70,0,0
58859,-37.0370370370371,4,2,4,70,0,0
59484,-37.0370370370371,4,2,1,70,0,0
59859,-37.0370370370371,4,2,4,70,0,0
59984,-50,4,2,1,70,0,0
60109,-50,4,2,4,70,0,0
60234,-35.7142857142857,4,2,1,70,0,0
60859,-50,4,2,2,70,0,0
60984,-66.6666666666665,4,2,2,70,0,0
61109,-66.6666666666665,4,2,1,70,0,0
61234,-33.3333333333334,4,2,1,70,0,0
61609,-38.4615384615385,4,2,1,70,0,0
61859,-31.25,4,2,4,70,0,0
62234,-27.7777777777778,4,2,4,70,0,0
62421,-27.7777777777778,4,2,4,5,0,0
62484,-27.7777777777778,4,2,4,70,0,0
62609,-27.7777777777778,4,2,1,70,0,0
62859,-50,4,2,4,70,0,0
63359,-55.5555555555555,4,2,4,70,0,0
64234,-55.5555555555555,4,2,1,70,0,0
64609,-55.5555555555555,4,2,4,70,0,0
64734,-66.6666666666665,4,2,4,70,0,0
64859,-66.6666666666665,4,2,2,70,0,0
65109,-66.6666666666665,4,2,1,70,0,0
65359,-25,4,2,1,90,0,0
65671,-25,4,2,1,90,0,0
65734,-66.6666666666665,4,2,1,90,0,0
65984,-66.6666666666665,4,2,3,90,0,0
66234,-40,4,2,7,90,0,0
66609,-40,4,2,1,90,0,0
66859,-40,4,2,2,90,0,0
66984,-66.6666666666665,4,2,3,90,0,0
67046,-66.6666666666665,4,2,3,90,0,0
67109,-50,4,2,1,90,0,0
67171,-50,4,2,1,90,0,0
67234,-33.3333333333334,4,2,3,90,0,0
67671,-33.3333333333334,4,2,3,90,0,0
67734,-50,4,2,3,90,0,0
67859,-50,4,2,2,90,0,0
67984,-50,4,2,3,90,0,0
68234,-40,4,2,4,90,0,0
68484,-40,4,2,1,90,0,0
68859,-40,4,2,2,90,0,0
68984,-50,4,2,3,90,0,0
69046,-50,4,2,3,90,0,0
69109,-66.6666666666665,4,2,2,90,0,0
69171,-66.6666666666665,4,2,2,90,0,0
69234,-38.9863547758285,4,2,3,90,0,0
69734,-33.3333333333334,4,2,3,90,0,0
69859,-33.3333333333334,4,2,1,90,0,0
69984,-41.6666666666667,4,2,3,90,0,0
70234,-33.3333333333334,4,2,7,90,0,0
70546,-33.3333333333334,4,2,7,90,0,0
70609,-50,4,2,1,90,0,0
70671,-50,4,2,1,90,0,0
70734,-66.6666666666665,4,2,1,90,0,0
70796,-66.6666666666665,4,2,1,90,0,0
70859,-66.6666666666665,4,2,2,90,0,0
70984,-66.6666666666665,4,2,3,90,0,0
71109,-66.6666666666665,4,2,1,90,0,0
71234,-33.3333333333334,4,2,3,90,0,0
71484,-33.3333333333334,4,2,1,90,0,0
71609,-33.3333333333334,4,2,3,90,0,0
71796,-33.3333333333334,4,2,3,90,0,0
71859,-50,4,2,4,90,0,0
71921,-50,4,2,4,90,0,0
71984,-66.6666666666665,4,2,3,90,0,0
72046,-66.6666666666665,4,2,3,90,0,0
72109,-66.6666666666665,4,2,3,90,0,0
72234,-33.3333333333334,4,2,4,90,0,0
72484,-33.3333333333334,4,2,2,90,0,0
72609,-33.3333333333334,4,2,1,90,0,0
72734,-33.3333333333334,4,2,3,90,0,0
72859,-50,4,2,2,90,0,0
72921,-50,4,2,2,90,0,0
72984,-66.6666666666665,4,2,3,90,0,0
73046,-66.6666666666665,4,2,3,90,0,0
73109,-41.6666666666667,4,2,5,90,0,0
73171,-41.6666666666667,4,2,5,90,0,0
73234,-100,4,2,4,90,0,0
73296,-100,4,2,4,90,0,0
73359,-33.3333333333334,4,2,1,90,0,0
73671,-33.3333333333334,4,2,1,90,0,0
73734,-33.3333333333334,4,2,3,90,0,0
73921,-33.3333333333334,4,2,3,90,0,0
73984,-45.4545454545455,4,2,3,90,0,0
74234,-33.3333333333334,4,2,7,90,0,0
74671,-33.3333333333334,4,2,7,90,0,0
74734,-33.3333333333334,4,2,1,90,0,0
74859,-33.3333333333334,4,2,2,90,0,0
74984,-33.3333333333334,4,2,3,90,0,0
75109,-50,4,2,1,90,0,0
75171,-50,4,2,1,90,0,0
75234,-43.4782608695652,4,2,3,90,0,0
75484,-43.4782608695652,4,2,1,90,0,0
75734,-33.3333333333334,4,2,3,90,0,0
75921,-33.3333333333334,4,2,3,90,0,0
75984,-33.3333333333334,4,2,3,90,0,0
76234,-33.3333333333334,4,2,4,90,0,0
76484,-33.3333333333334,4,2,1,90,0,0
76609,-29.4117647058824,4,2,4,90,0,0
76859,-29.4117647058824,4,2,2,90,0,0
76984,-29.4117647058824,4,2,3,90,0,0
77046,-29.4117647058824,4,2,3,90,0,0
77109,-41.6666666666667,4,2,2,90,0,0
77171,-41.6666666666667,4,2,2,90,0,0
77234,-47.6190476190476,4,2,3,90,0,0
77546,-47.6190476190476,4,2,1,90,0,0
77609,-50,4,2,3,90,0,0
77671,-50,4,2,3,90,0,0
77734,-29.4117647058824,4,2,3,90,0,0
77921,-29.4117647058824,4,2,3,90,0,0
77984,-100,4,2,3,90,0,0
78046,-100,4,2,3,90,0,0
78109,-100,4,2,3,90,0,0
78171,-100,4,2,3,90,0,0
78234,-33.3333333333334,4,2,7,90,0,0
78546,-33.3333333333334,4,2,7,90,0,0
78609,-50,4,2,1,90,0,0
78671,-50,4,2,1,90,0,0
78734,-50,4,2,1,90,0,0
78859,-66.6666666666665,4,2,2,90,0,0
78921,-66.6666666666665,4,2,2,90,0,0
78984,-38.4615384615385,4,2,3,90,0,0
79421,-38.4615384615385,4,2,3,90,0,0
79484,-66.6666666666665,4,2,7,90,0,0
79734,-66.6666666666665,4,2,3,90,0,0
80484,-66.6666666666665,4,2,2,90,0,0
80609,-66.6666666666665,4,2,1,90,0,0
80671,-66.6666666666665,4,2,1,90,0,0
80734,-50,4,2,3,90,0,0
80796,-50,4,2,3,90,0,0
80859,-38.4615384615385,4,2,2,90,0,0
80921,-38.4615384615385,4,2,2,90,0,0
80984,-90.9090909090905,4,2,1,90,0,0
81046,-90.9090909090905,4,2,1,90,0,0
81109,-33.3333333333334,4,2,5,90,0,0
81296,-33.3333333333334,4,2,5,90,0,0
81359,-31.25,4,2,1,80,0,0
81859,-100,4,2,1,80,0,0
82359,-50,4,2,1,80,0,0
82546,-50,4,2,1,80,0,0
82609,-50,4,2,1,80,0,0
82859,-50,4,2,2,80,0,0
82984,-71.4285714285715,4,2,1,80,0,0
83671,-71.4285714285715,4,2,1,80,0,0
83734,-50,4,2,1,80,0,0
83796,-50,4,2,1,80,0,0
83859,-50,4,2,2,80,0,0
84109,-71.4285714285715,4,2,1,80,0,0
84171,-71.4285714285715,4,2,1,80,0,0
84234,-33.3333333333334,4,2,2,80,0,0
84421,-33.3333333333334,4,2,2,80,0,0
84484,-33.3333333333334,4,2,1,80,0,0
84609,-41.6666666666667,4,2,1,80,0,0
84796,-41.6666666666667,4,2,1,80,0,0
84859,-33.3333333333334,4,2,2,80,0,0
84984,-66.6666666666665,4,2,1,80,0,0
85421,-66.6666666666665,4,2,1,80,0,0
85484,-66.6666666666665,4,2,1,80,0,0
85546,-66.6666666666665,4,2,1,80,0,0
85609,-43.4782608695652,4,2,1,80,0,0
85984,-100,4,2,1,80,0,0
86609,-50,4,2,1,80,0,0
86671,-50,4,2,1,80,0,0
86734,-38.4615384615385,4,2,1,80,0,0
86796,-38.4615384615385,4,2,1,80,0,0
86859,-45.4545454545455,4,2,2,80,0,0
86921,-45.4545454545455,4,2,2,80,0,0
86984,-33.3333333333334,4,2,1,80,0,0
87046,-33.3333333333334,4,2,1,80,0,0
87109,-33.3333333333334,4,2,1,80,0,0
87234,-35.7142857142857,4,2,1,80,0,0
87546,-35.7142857142857,4,2,1,80,0,0
87609,-35.7142857142857,4,2,1,80,0,0
87859,-27.7777777777778,4,2,2,80,0,0
88109,-27.7777777777778,4,2,1,80,0,0
88171,-27.7777777777778,4,2,1,80,0,0
88234,-27.7777777777778,4,2,2,80,0,0
88421,-27.7777777777778,4,2,2,80,0,0
88484,-33.3333333333334,4,2,1,80,0,0
88546,-33.3333333333334,4,2,1,80,0,0
88609,-41.6666666666667,4,2,1,80,0,0
88671,-41.6666666666667,4,2,1,80,0,0
88734,-41.6666666666667,4,2,1,80,0,0
88859,-66.6666666666665,4,2,2,80,0,0
88921,-66.6666666666665,4,2,2,80,0,0
88984,-33.3333333333334,4,2,1,80,0,0
89046,-33.3333333333334,4,2,1,80,0,0
89109,-41.6666666666667,4,2,2,80,0,0
89171,-41.6666666666667,4,2,2,80,0,0
89234,-41.6666666666667,4,2,1,80,0,0
89359,-27.7777777777778,4,2,1,80,0,0
89734,-33.3333333333334,4,2,1,80,0,0
89921,-33.3333333333334,4,2,1,80,0,0
89984,-33.3333333333334,4,2,1,80,0,0
90046,-33.3333333333334,4,2,1,80,0,0
90109,-66.6666666666665,4,2,1,80,0,0
90171,-66.6666666666665,4,2,1,80,0,0
90234,-66.6666666666665,4,2,1,80,0,0
90296,-66.6666666666665,4,2,1,80,0,0
90359,-41.6666666666667,4,2,1,80,0,0
90546,-41.6666666666667,4,2,1,80,0,0
90609,-41.6666666666667,4,2,1,80,0,0
90671,-41.6666666666667,4,2,1,80,0,0
90734,-62.5,4,2,1,80,0,0
90796,-62.5,4,2,1,80,0,0
90859,-62.5,4,2,2,80,0,0
90984,-100,4,2,1,80,0,0
91609,-50,4,2,1,80,0,0
91671,-50,4,2,1,80,0,0
91734,-38.4615384615385,4,2,1,80,0,0
91796,-38.4615384615385,4,2,1,80,0,0
91859,-38.4615384615385,4,2,2,80,0,0
92109,-38.4615384615385,4,2,1,80,0,0
92234,-38.4615384615385,4,2,2,80,0,0
92484,-38.4615384615385,4,2,1,80,0,0
92859,-38.4615384615385,4,2,2,80,0,0
92984,-66.6666666666665,4,2,1,80,0,0
93296,-66.6666666666665,4,2,1,80,0,0
93359,-66.6666666666665,4,2,1,80,0,0
93421,-66.6666666666665,4,2,1,80,0,0
93484,-66.6666666666665,4,2,1,80,0,0
93546,-66.6666666666665,4,2,1,80,0,0
93609,-41.6666666666667,4,2,1,80,0,0
93984,-100,4,2,1,80,0,0
94609,-66.6666666666665,4,2,1,80,0,0
94671,-66.6666666666665,4,2,1,80,0,0
94734,-50,4,2,1,80,0,0
94796,-50,4,2,1,80,0,0
94859,-41.6666666666667,4,2,2,80,0,0
94921,-41.6666666666667,4,2,2,80,0,0
94984,-50,4,2,1,80,0,0
95046,-50,4,2,1,80,0,0
95109,-50,4,2,1,80,0,0
95359,-38.4615384615385,4,2,1,80,0,0
95671,-38.4615384615385,4,2,1,80,0,0
95734,-38.4615384615385,4,2,1,80,0,0
95859,-41.6666666666667,4,2,2,80,0,0
96171,-41.6666666666667,4,2,2,80,0,0
96234,-41.6666666666667,4,2,2,80,0,0
96608,-41.6666666666667,4,2,1,80,0,0
96671,-41.6666666666667,4,2,1,80,0,0
96734,-41.6666666666667,4,2,1,80,0,0
96859,-41.6666666666667,4,2,2,80,0,0
96984,-41.6666666666667,4,2,1,80,0,0
97109,-41.6666666666667,4,2,2,80,0,0
97233,-41.6666666666667,4,2,3,80,0,0
97359,-41.6666666666667,4,2,3,70,0,0
97609,-41.6666666666667,4,2,4,70,0,0
98609,-41.6666666666667,4,2,1,70,0,0
98858,-41.6666666666667,4,2,4,70,0,0
99484,-41.6666666666667,4,2,1,70,0,0
99859,-41.6666666666667,4,2,4,70,0,0
100234,-50,4,2,1,70,0,0
100859,-35.7142857142857,4,2,2,70,0,0
101109,-41.6666666666667,4,2,1,70,0,0
101234,-38.4615384615385,4,2,1,70,0,0
101859,-38.4615384615385,4,2,4,70,0,0
102609,-38.4615384615385,4,2,1,70,0,0
102859,-35.7142857142857,4,2,4,70,0,0
103359,-66.6666666666665,4,2,1,70,0,0
103609,-58.8235294117645,4,2,1,70,0,0
103859,-58.8235294117645,4,2,2,70,0,0
104109,-50,4,2,1,70,0,0
104859,-50,4,2,2,70,0,0
105109,-50,4,2,1,70,0,0
105359,-41.6666666666667,4,2,3,70,0,0
105609,-41.6666666666667,4,2,4,70,0,0
106609,-35.7142857142857,4,2,1,70,0,0
106859,-50,4,2,4,70,0,0
107484,-33.3333333333334,4,2,1,70,0,0
107859,-41.6666666666667,4,2,4,70,0,0
108234,-29.4117647058824,4,2,1,70,0,0
108859,-29.4117647058824,4,2,2,70,0,0
109109,-29.4117647058824,4,2,4,70,0,0
109359,-41.6666666666667,4,2,4,70,0,0
109609,-33.3333333333334,4,2,4,70,0,0
109859,-50,4,2,4,70,0,0
110609,-50,4,2,1,70,0,0
110859,-29.4117647058824,4,2,4,70,0,0
111109,-125,4,2,4,70,0,0
111484,-125,4,2,1,70,0,0
111859,-125,4,2,4,70,0,0
112234,-33.3333333333334,4,2,1,70,0,0
112859,-66.6666666666665,4,2,2,70,0,0
112984,-50,4,2,2,70,0,0
113109,-33.3333333333334,4,2,6,70,0,0
113359,-33.3333333333334,4,2,6,80,0,0
113546,-33.3333333333334,4,2,6,80,0,0
113609,-33.3333333333334,4,2,1,80,0,0
114109,-33.3333333333334,4,2,3,80,0,0
114234,-27.7777777777778,4,2,1,80,0,0
114421,-27.7777777777778,4,2,1,80,0,0
114484,-50,4,2,1,80,0,0
114609,-50,4,2,1,80,0,0
114734,-27.7777777777778,4,2,1,80,0,0
114921,-27.7777777777778,4,2,1,80,0,0
114984,-27.7777777777778,4,2,1,80,0,0
115359,-66.6666666666665,4,2,7,70,0,0
115484,-50,4,2,1,70,0,0
115609,-27.7777777777778,4,2,3,70,0,0
115859,-27.7777777777778,4,2,5,70,0,0
116109,-27.7777777777778,4,2,3,70,0,0
116234,-27.7777777777778,4,2,1,70,0,0
116734,-35.7142857142857,4,2,1,70,0,0
116859,-35.7142857142857,4,2,6,70,0,0
116984,-35.7142857142857,4,2,1,70,0,0
117109,-100,4,2,3,70,0,0
117234,-33.3333333333334,4,2,1,70,0,0
117609,-50,4,2,3,70,0,0
117859,-37.593984962406,4,2,5,70,0,0
118109,-37.593984962406,4,2,3,70,0,0
118234,-37.593984962406,4,2,1,70,0,0
118609,-37.593984962406,4,2,3,70,0,0
118859,-37.593984962406,4,2,5,70,0,0
119109,-37.593984962406,4,2,3,70,0,0
119234,-37.593984962406,4,2,1,70,0,0
119859,-37.593984962406,4,2,6,70,0,0
120109,-37.593984962406,4,2,1,70,0,0
120859,-37.593984962406,4,2,6,70,0,0
120984,-37.593984962406,4,2,1,70,0,0
121109,-37.593984962406,4,2,3,70,0,0
121359,-33.3333333333334,4,2,6,70,0,0
121609,-41.6666666666667,4,2,3,70,0,0
121859,-41.6666666666667,4,2,5,70,0,0
122109,-41.6666666666667,4,2,3,70,0,0
122234,-41.6666666666667,4,2,1,70,0,0
122609,-41.6666666666667,4,2,3,70,0,0
122859,-41.6666666666667,4,2,5,70,0,0
123109,-41.6666666666667,4,2,3,70,0,0
123359,-41.6666666666667,4,2,7,70,0,0
123484,-41.6666666666667,4,2,1,70,0,0
123859,-41.6666666666667,4,2,5,70,0,0
124109,-41.6666666666667,4,2,1,70,0,0
124859,-41.6666666666667,4,2,6,70,0,0
125109,-41.6666666666667,4,2,3,70,0,0
125234,-41.6666666666667,4,2,1,70,0,0
125359,-41.6666666666667,4,2,7,70,0,0
126109,-41.6666666666667,4,2,3,70,0,0
126234,-37.0370370370371,4,2,1,70,0,0
126609,-37.0370370370371,4,2,3,70,0,0
126859,-37.0370370370371,4,2,5,70,0,0
127359,-61.3271188519563,4,2,7,70,0,0
128609,-61.3271188519563,4,2,3,70,0,0
128734,-29.4845151322256,4,2,3,70,0,0
129359,-25.0525426882678,4,2,1,90,0,0
129671,-25.0525426882678,4,2,1,90,0,0
129734,-33.3333333333334,4,2,1,90,0,0
129984,-33.3333333333334,4,2,3,90,0,0
130234,-26.3157894736842,4,2,7,90,0,0
130546,-26.3157894736842,4,2,7,90,0,0
130609,-50,4,2,1,90,0,0
130671,-50,4,2,1,90,0,0
130734,-35.7142857142857,4,2,1,90,0,0
130921,-35.7142857142857,4,2,1,90,0,0
130984,-35.7142857142857,4,2,3,90,0,0
131046,-35.7142857142857,4,2,3,90,0,0
131109,-50,4,2,1,90,0,0
131171,-50,4,2,1,90,0,0
131234,-41.6666666666667,4,2,3,90,0,0
131671,-41.6666666666667,4,2,3,90,0,0
131734,-41.6666666666667,4,2,1,90,0,0
131858,-41.6666666666667,4,2,2,90,0,0
131983,-41.6666666666667,4,2,3,90,0,0
132234,-41.6666666666667,4,2,4,90,0,0
132483,-41.6666666666667,4,2,1,90,0,0
132859,-41.6666666666667,4,2,2,90,0,0
132984,-41.6666666666667,4,2,3,90,0,0
133046,-41.6666666666667,4,2,3,90,0,0
133109,-55.5555555555555,4,2,2,90,0,0
133171,-55.5555555555555,4,2,2,90,0,0
133234,-41.6666666666667,4,2,3,90,0,0
133921,-41.6666666666667,4,2,3,90,0,0
133984,-41.6666666666667,4,2,3,90,0,0
134234,-40.6504065040651,4,2,7,90,0,0
134734,-40.6504065040651,4,2,1,90,0,0
134859,-62.5,4,2,2,90,0,0
134921,-62.5,4,2,2,90,0,0
134984,-41.6666666666667,4,2,3,90,0,0
135109,-41.6666666666667,4,2,1,90,0,0
135234,-35.7142857142857,4,2,3,90,0,0
135546,-35.7142857142857,4,2,3,90,0,0
135609,-29.4117647058824,4,2,3,90,0,0
135859,-50,4,2,4,90,0,0
135921,-50,4,2,4,90,0,0
135984,-33.3333333333334,4,2,3,90,0,0
136171,-33.3333333333334,4,2,3,90,0,0
136234,-33.3333333333334,4,2,4,90,0,0
136546,-33.3333333333334,4,2,4,90,0,0
136609,-33.3333333333334,4,2,1,90,0,0
136734,-33.3333333333334,4,2,3,90,0,0
136859,-33.3333333333334,4,2,2,90,0,0
136921,-33.3333333333334,4,2,2,90,0,0
136984,-38.4615384615385,4,2,3,90,0,0
137046,-38.4615384615385,4,2,3,90,0,0
137109,-62.5,4,2,5,90,0,0
137171,-62.5,4,2,5,90,0,0
137234,-62.5,4,2,4,90,0,0
137359,-31.25,4,2,1,90,0,0
137671,-31.25,4,2,1,90,0,0
137734,-31.25,4,2,3,90,0,0
137921,-31.25,4,2,3,90,0,0
137984,-31.25,4,2,3,90,0,0
138234,-32.2580645161291,4,2,7,90,0,0
138671,-32.2580645161291,4,2,7,90,0,0
138734,-32.2580645161291,4,2,1,90,0,0
138859,-32.2580645161291,4,2,2,90,0,0
138984,-32.2580645161291,4,2,3,90,0,0
139109,-50,4,2,1,90,0,0
139171,-50,4,2,1,90,0,0
139234,-50,4,2,3,90,0,0
139546,-50,4,2,1,90,0,0
139609,-50,4,2,3,90,0,0
139734,-41.6666666666667,4,2,3,90,0,0
139921,-41.6666666666667,4,2,3,90,0,0
139984,-50,4,2,3,90,0,0
140234,-25,4,2,4,90,0,0
140546,-25,4,2,4,90,0,0
140609,-29.4117647058824,4,2,4,90,0,0
140796,-29.4117647058824,4,2,4,90,0,0
140859,-29.4117647058824,4,2,2,90,0,0
140984,-62.5,4,2,3,90,0,0
141046,-62.5,4,2,3,90,0,0
141109,-50,4,2,2,90,0,0
141171,-50,4,2,2,90,0,0
141234,-35.7142857142857,4,2,3,90,0,0
141546,-35.7142857142857,4,2,3,90,0,0
141609,-35.7142857142857,4,2,3,90,0,0
141671,-35.7142857142857,4,2,3,90,0,0
141734,-35.7142857142857,4,2,3,90,0,0
141921,-35.7142857142857,4,2,3,90,0,0
141984,-66.6666666666665,4,2,3,90,0,0
142046,-66.6666666666665,4,2,3,90,0,0
142109,-66.6666666666665,4,2,3,90,0,0
142171,-66.6666666666665,4,2,3,90,0,0
142234,-29.4117647058824,4,2,7,90,0,0
142546,-29.4117647058824,4,2,7,90,0,0
142609,-100,4,2,1,90,0,0
142859,-66.6666666666665,4,2,2,90,0,0
142921,-66.6666666666665,4,2,2,90,0,0
142984,-41.6666666666667,4,2,3,90,0,0
143234,-33.3333333333334,4,2,3,90,0,0
143421,-33.3333333333334,4,2,3,90,0,0
143484,-33.3333333333334,4,2,7,90,0,0
143671,-33.3333333333334,4,2,7,90,0,0
143734,-60.9756097560975,4,2,3,90,0,0
144484,-60.9756097560975,4,2,2,90,0,0
144609,-66.6666666666665,4,2,1,90,0,0
144671,-66.6666666666665,4,2,1,90,0,0
144734,-50,4,2,3,90,0,0
144796,-50,4,2,3,90,0,0
144859,-58.8235294117645,4,2,2,90,0,0
144921,-58.8235294117645,4,2,2,90,0,0
144984,-41.6666666666667,4,2,1,90,0,0
145046,-41.6666666666667,4,2,1,90,0,0
145109,-35.7142857142857,4,2,5,90,0,0
145296,-35.7142857142857,4,2,5,90,0,0
145359,-29.4117647058824,4,2,1,80,0,0
145609,-29.4117647058824,4,2,3,80,0,0
145859,-29.4117647058824,4,2,1,80,0,0
146109,-29.4117647058824,4,2,3,80,0,0
146234,-33.3333333333334,4,2,7,80,0,0
146609,-33.3333333333334,4,2,4,80,0,0
146859,-41.6666666666667,4,2,2,80,0,0
146983,-41.6666666666667,4,2,1,80,0,0
147109,-55.5555555555555,4,2,1,80,0,0
147359,-50,4,2,1,80,0,0
147665,-50,4,2,1,80,0,0
147734,-33.3333333333334,4,2,3,80,0,0
147984,-33.3333333333334,4,2,2,80,0,0
148109,-33.3333333333334,4,2,1,80,0,0
148171,-33.3333333333334,4,2,1,80,0,0
148234,-33.3333333333334,4,2,2,80,0,0
148359,-33.3333333333334,4,2,2,80,0,0
148484,-33.3333333333334,4,2,1,80,0,0
148859,-33.3333333333334,4,2,2,80,0,0
148984,-66.6666666666665,4,2,1,80,0,0
149421,-66.6666666666665,4,2,1,80,0,0
149484,-66.6666666666665,4,2,1,80,0,0
149546,-66.6666666666665,4,2,1,80,0,0
149609,-33.3333333333334,4,2,3,80,0,0
149796,-33.3333333333334,4,2,3,80,0,0
149859,-38.4615384615385,4,2,1,80,0,0
149983,-38.4615384615385,4,2,1,80,0,0
150109,-38.4615384615385,4,2,3,80,0,0
150234,-38.4615384615385,4,2,7,80,0,0
150609,-38.4615384615385,4,2,4,80,0,0
150859,-38.4615384615385,4,2,2,80,0,0
150983,-38.4615384615385,4,2,1,80,0,0
152296,-38.4615384615385,4,2,1,80,0,0
152359,-50,4,2,2,80,0,0
152421,-50,4,2,2,80,0,0
152484,-66.6666666666665,4,2,1,80,0,0
152546,-66.6666666666665,4,2,1,80,0,0
152609,-41.6666666666667,4,2,1,80,0,0
152671,-41.6666666666667,4,2,1,80,0,0
152734,-41.6666666666667,4,2,1,80,0,0
152984,-66.6666666666665,4,2,1,80,0,0
153046,-66.6666666666665,4,2,1,80,0,0
153109,-66.6666666666665,4,2,2,80,0,0
153171,-66.6666666666665,4,2,2,80,0,0
153234,-66.6666666666665,4,2,1,80,0,0
153359,-33.3333333333334,4,2,1,80,0,0
153609,-33.3333333333334,4,2,3,80,0,0
153859,-33.3333333333334,4,2,1,80,0,0
153984,-66.6666666666665,4,2,1,80,0,0
154046,-66.6666666666665,4,2,1,80,0,0
154109,-50,4,2,3,80,0,0
154171,-50,4,2,3,80,0,0
154234,-50,4,2,7,80,0,0
154609,-50,4,2,4,80,0,0
154671,-50,4,2,4,80,0,0
154734,-66.6666666666665,4,2,4,80,0,0
154796,-66.6666666666665,4,2,4,80,0,0
154984,-100,4,2,1,80,0,0
155046,-100,4,2,1,80,0,0
155109,-62.5,4,2,1,80,0,0
155171,-62.5,4,2,1,80,0,0
155234,-45.4545454545455,4,2,1,80,0,0
155296,-45.4545454545455,4,2,1,80,0,0
155359,-33.3333333333334,4,2,1,80,0,0
155734,-33.3333333333334,4,2,3,80,0,0
156109,-33.3333333333334,4,2,1,80,0,0
156234,-29.4117647058824,4,2,2,80,0,0
156484,-29.4117647058824,4,2,1,80,0,0
156609,-33.3333333333334,4,2,1,80,0,0
156671,-33.3333333333334,4,2,1,80,0,0
156734,-50,4,2,1,80,0,0
156796,-50,4,2,1,80,0,0
156859,-66.6666666666665,4,2,2,80,0,0
156921,-66.6666666666665,4,2,2,80,0,0
156984,-33.3333333333334,4,2,3,80,0,0
157296,-33.3333333333334,4,2,3,80,0,0
157359,-50,4,2,3,80,0,0
157421,-50,4,2,3,80,0,0
157484,-66.6666666666665,4,2,3,80,0,0
157546,-66.6666666666665,4,2,3,80,0,0
157609,-33.3333333333334,4,2,3,80,0,0
157859,-100,4,2,1,80,0,0
157921,-100,4,2,1,80,0,0
157984,-33.3333333333334,4,2,3,80,0,0
158234,-33.3333333333334,4,2,7,80,0,0
158609,-50,4,2,4,80,0,0
158750,-50,4,2,1,80,0,0
158859,-50,4,2,2,80,0,0
158921,-50,4,2,2,80,0,0
158984,-50,4,2,1,80,0,0
159046,-50,4,2,1,80,0,0
159109,-66.6666666666665,4,2,1,80,0,0
159171,-66.6666666666665,4,2,1,80,0,0
159234,-33.3333333333334,4,2,1,80,0,0
159609,-33.3333333333334,4,2,1,80,0,0
159734,-66.6666666666665,4,2,1,80,0,0
159796,-66.6666666666665,4,2,1,80,0,0
159859,-25,4,2,2,80,0,0
160109,-25,4,2,1,80,0,0
160234,-25,4,2,2,80,0,0
160484,-25,4,2,1,80,0,0
160546,-33.3333333333334,4,2,1,80,0,0
160609,-33.3333333333334,4,2,1,80,0,0
160671,-33.3333333333334,4,2,1,80,0,0
160734,-33.3333333333334,4,2,1,80,0,0
160859,-33.3333333333334,4,2,2,80,0,0
160921,-38.4615384615385,4,2,1,80,0,0
160984,-38.4615384615385,4,2,1,80,0,0
161046,-38.4615384615385,4,2,1,80,0,0
161109,-29.4117647058824,4,2,2,80,0,0
161359,-32.2580645161291,4,2,1,80,0,0
161984,-32.2580645161291,4,2,1,80,0,0
162109,-32.2580645161291,4,2,1,80,0,0
162234,-50,4,2,1,80,0,0
162296,-50,4,2,1,80,0,0
162359,-23.8095238095238,4,2,1,80,0,0
162734,-31.25,4,2,1,80,0,0
163359,-37.3831775700935,4,2,1,80,0,0
163671,-34.4827586206897,4,2,1,80,0,0
163859,-31.25,4,2,2,80,0,0
164109,-31.25,4,2,1,80,0,0
164234,-31.25,4,2,2,80,0,0
164609,-31.25,4,2,1,80,0,0
164859,-31.25,4,2,2,80,0,0
164984,-38.4615384615385,4,2,1,80,0,0
165046,-38.4615384615385,4,2,1,80,0,0
165109,-50,4,2,2,80,0,0
165171,-50,4,2,2,80,0,0
165234,-50,4,2,1,80,0,0
165359,-29.4117647058824,4,2,1,80,0,0
165734,-33.3333333333334,4,2,1,80,0,0
165984,-33.3333333333334,4,2,1,80,0,0
166109,-33.3333333333334,4,2,1,80,0,0
166546,-33.3333333333334,4,2,1,80,0,0
166609,-58.8235294117645,4,2,1,80,0,0
166671,-58.8235294117645,4,2,1,80,0,0
166734,-33.3333333333334,4,2,1,80,0,0
166984,-33.3333333333334,4,2,1,80,0,0
167109,-38.4615384615385,4,2,1,80,0,0
167796,-38.4615384615385,4,2,1,80,0,0
167859,-41.6666666666667,4,2,2,80,0,0
168108,-41.6666666666667,4,2,1,80,0,0
168234,-41.6666666666667,4,2,2,80,0,0
168421,-41.6666666666667,4,2,2,80,0,0
168484,-66.6666666666665,4,2,1,80,0,0
168546,-66.6666666666665,4,2,1,80,0,0
168609,-66.6666666666665,4,2,1,80,0,0
168859,-66.6666666666665,4,2,2,80,0,0
168984,-66.6666666666665,4,2,1,80,0,0
169109,-66.6666666666665,4,2,1,80,0,0
169234,-66.6666666666665,4,2,1,80,0,0
169359,-33.3333333333334,4,2,1,80,0,0
169546,-33.3333333333334,4,2,1,80,0,0
169609,-33.3333333333334,4,2,1,80,0,0
170046,-33.3333333333334,4,2,1,80,0,0
170109,-50,4,2,1,80,0,0
170359,-35.7142857142857,4,2,1,80,0,0
170734,-125,4,2,1,80,0,0
171109,-29.4117647058824,4,2,1,80,0,0
171296,-29.4117647058824,4,2,1,80,0,0
171359,-29.4117647058824,4,2,1,80,0,0
171859,-29.4117647058824,4,2,2,80,0,0
172046,-29.4117647058824,4,2,2,80,0,0
172109,-125,4,2,1,80,0,0
172296,-125,4,2,1,80,0,0
172359,-29.4117647058824,4,2,2,80,0,0
172609,-100,4,2,1,80,0,0
172796,-100,4,2,1,80,0,0
172859,-100,4,2,2,80,0,0
172984,-100,4,2,1,80,0,0
173359,-38.4615384615385,4,2,1,80,0,0
174109,-66.6666666666665,4,2,1,80,0,0
174234,-83.3333333333335,4,2,1,80,0,0
174296,-83.3333333333335,4,2,1,80,0,0
174359,-41.6666666666667,4,2,1,80,0,0
174546,-41.6666666666667,4,2,1,80,0,0
174609,-41.6666666666667,4,2,1,80,0,0
174921,-41.6666666666667,4,2,1,80,0,0
174984,-41.6666666666667,4,2,1,80,0,0
175109,-33.3333333333334,4,2,1,80,0,0
175296,-33.3333333333334,4,2,1,80,0,0
175359,-25,4,2,1,80,0,0
175546,-25,4,2,1,80,0,0
175609,-41.6666666666667,4,2,1,80,0,0
175650,-41.6666666666667,4,2,1,80,0,0
175692,-41.6666666666667,4,2,1,80,0,0
175733,-41.6666666666667,4,2,1,80,0,0
175775,-41.6666666666667,4,2,1,80,0,0
175816,-41.6666666666667,4,2,1,80,0,0
175859,-25,4,2,2,80,0,0
176109,-25,4,2,1,80,0,0
176192,-25,4,2,1,80,0,0
176359,-25,4,2,2,80,0,0
176442,-25,4,2,1,80,0,0
176609,-25,4,2,1,80,0,0
176859,-25,4,2,2,80,0,0
177234,-25,4,2,1,80,0,0
177359,-38.4615384615385,4,2,4,60,0,0
177791,-38.4615384615385,4,2,1,60,0,0
177796,-38.4615384615385,4,2,4,60,0,0
177859,-38.4615384615385,4,2,1,60,0,0
178359,-38.4615384615385,4,2,1,60,0,0
178859,-38.4615384615385,4,2,1,60,0,0
179359,-50,4,2,1,60,0,0
180359,-50,4,2,1,60,0,0
180609,-50,4,2,1,60,0,0
181109,-50,4,2,1,60,0,0
181359,-50,4,2,1,60,0,0
181671,-50,4,2,1,60,0,0
181859,-50,4,2,1,60,0,0
182609,-37.5000009375,4,2,1,60,0,0
182984,-50,4,2,1,60,0,0
183984,-100,4,2,1,60,0,0
184109,-100,4,2,1,60,0,0
184234,-50,4,2,1,60,0,0
184984,-66.6666666666665,4,2,1,60,0,0
185359,-33.3333333333334,4,2,3,70,0,0
185984,-50,4,2,1,70,0,0
187109,-100,4,2,1,70,0,0
187359,-33.3333333333334,4,2,1,70,0,0
187859,-50,4,2,1,70,0,0
188609,-66.6666666666665,4,2,1,70,0,0
189109,-66.6666666666665,4,2,3,70,0,0
189359,-50,4,2,3,70,0,0
189609,-50,4,2,4,70,0,0
189859,-50,4,2,3,70,0,0
189984,-37.5000937502344,4,2,3,70,0,0
190234,-33.3333333333334,4,2,4,70,0,0
190859,-33.3333333333334,4,2,3,70,0,0
190942,-66.6666666666665,4,2,3,70,0,0
191109,-66.6666666666665,4,2,4,70,0,0
191192,-50,4,2,4,70,0,0
192359,-38.4615384615385,4,2,1,70,0,0
192984,-50,4,2,1,70,0,0
193109,-50,4,2,3,70,0,0
193359,-27.7777777777778,4,2,1,90,0,0
193671,-27.7777777777778,4,2,1,90,0,0
193734,-35.7142857142857,4,2,1,90,0,0
193983,-35.7142857142857,4,2,3,90,0,0
194234,-35.7142857142857,4,2,7,90,0,0
194609,-35.7142857142857,4,2,1,90,0,0
194671,-35.7142857142857,4,2,1,90,0,0
194734,-38.4615384615385,4,2,1,90,0,0
194921,-38.4615384615385,4,2,1,90,0,0
194984,-50,4,2,3,90,0,0
195046,-50,4,2,3,90,0,0
195109,-62.5,4,2,1,90,0,0
195171,-62.5,4,2,1,90,0,0
195234,-33.3333333333334,4,2,3,90,0,0
195671,-33.3333333333334,4,2,3,90,0,0
195734,-41.6666666666667,4,2,3,90,0,0
195858,-41.6666666666667,4,2,2,90,0,0
195983,-41.6666666666667,4,2,3,90,0,0
196234,-33.3333333333334,4,2,4,90,0,0
196546,-33.3333333333334,4,2,4,90,0,0
196609,-33.3333333333334,4,2,1,90,0,0
196859,-33.3333333333334,4,2,2,90,0,0
196984,-43.4782608695652,4,2,3,90,0,0
197046,-43.4782608695652,4,2,3,90,0,0
197109,-55.5555555555555,4,2,2,90,0,0
197171,-55.5555555555555,4,2,2,90,0,0
197234,-33.3333333333334,4,2,3,90,0,0
197671,-33.3333333333334,4,2,3,90,0,0
197734,-33.3333333333334,4,2,3,90,0,0
197859,-33.3333333333334,4,2,1,90,0,0
197984,-50,4,2,3,90,0,0
198234,-35.7142857142857,4,2,7,90,0,0
198733,-35.7142857142857,4,2,1,90,0,0
198859,-50,4,2,2,90,0,0
198921,-50,4,2,2,90,0,0
198984,-50,4,2,3,90,0,0
199109,-50,4,2,1,90,0,0
199234,-37.8787878787879,4,2,3,90,0,0
199546,-37.8787878787879,4,2,3,90,0,0
199609,-37.8787878787879,4,2,3,90,0,0
199859,-37.8787878787879,4,2,4,90,0,0
199984,-37.8787878787879,4,2,3,90,0,0
200234,-37.8787878787879,4,2,4,90,0,0
200733,-37.8787878787879,4,2,3,90,0,0
200859,-37.8787878787879,4,2,2,90,0,0
200984,-50,4,2,3,90,0,0
201046,-50,4,2,3,90,0,0
201109,-66.6666666666665,4,2,5,90,0,0
201171,-66.6666666666665,4,2,5,90,0,0
201234,-66.6666666666665,4,2,4,90,0,0
201359,-35.2112676056338,4,2,1,90,0,0
201671,-35.2112676056338,4,2,1,90,0,0
201734,-35.2112676056338,4,2,3,90,0,0
201921,-35.2112676056338,4,2,3,90,0,0
201984,-35.2112676056338,4,2,3,90,0,0
202234,-35.2112676056338,4,2,7,90,0,0
202671,-35.2112676056338,4,2,7,90,0,0
202734,-35.2112676056338,4,2,1,90,0,0
202858,-35.2112676056338,4,2,2,90,0,0
202983,-35.2112676056338,4,2,3,90,0,0
203109,-50,4,2,1,90,0,0
203171,-50,4,2,1,90,0,0
203234,-33.3333333333334,4,2,3,90,0,0
203546,-33.3333333333334,4,2,3,90,0,0
203609,-33.3333333333334,4,2,3,90,0,0
203734,-38.4615384615385,4,2,3,90,0,0
203921,-38.4615384615385,4,2,3,90,0,0
203984,-50,4,2,3,90,0,0
204234,-27.7777777777778,4,2,4,90,0,0
204546,-27.7777777777778,4,2,4,90,0,0
204609,-27.7777777777778,4,2,4,90,0,0
204858,-27.7777777777778,4,2,2,90,0,0
204984,-50,4,2,3,90,0,0
205046,-50,4,2,3,90,0,0
205109,-58.8235294117645,4,2,2,90,0,0
205171,-58.8235294117645,4,2,2,90,0,0
205234,-58.8235294117645,4,2,3,90,0,0
205359,-33.3333333333334,4,2,1,90,0,0
205671,-33.3333333333334,4,2,1,90,0,0
205734,-38.4615384615385,4,2,3,90,0,0
205858,-38.4615384615385,4,2,1,90,0,0
205984,-50,4,2,3,90,0,0
206046,-50,4,2,3,90,0,0
206109,-50,4,2,3,90,0,0
206171,-50,4,2,3,90,0,0
206234,-50,4,2,7,90,0,0
206609,-50,4,2,1,90,0,0
206859,-50,4,2,2,90,0,0
206921,-50,4,2,2,90,0,0
206984,-41.6666666666667,4,2,3,90,0,0
207484,-41.6666666666667,4,2,7,90,0,0
207734,-62.5,4,2,3,90,0,0
207796,-62.5,4,2,3,90,0,0
207859,-33.3333333333334,4,2,2,90,0,0
208109,-33.3333333333334,4,2,1,90,0,0
208234,-33.3333333333334,4,2,2,90,0,0
208442,-33.3333333333334,4,2,2,90,0,0
208609,-33.3333333333334,4,2,1,90,0,0
208859,-33.3333333333334,4,2,2,90,0,0
208984,-50,4,2,1,90,0,0
209109,-50,4,2,5,90,0,0
209171,-50,4,2,5,90,0,0
209234,-38.4615384615385,4,2,5,90,0,0
209296,-38.4615384615385,4,2,5,90,0,0
209359,-27.7777777777778,4,2,1,80,0,0
210109,-66.6666666666665,4,2,1,80,0,0
210234,-66.6666666666665,4,2,2,80,0,0
210296,-66.6666666666665,4,2,2,80,0,0
210359,-38.4615384615385,4,2,1,80,0,0
210671,-38.4615384615385,4,2,1,80,0,0
210734,-50,4,2,1,80,0,0
210796,-50,4,2,1,80,0,0
210859,-33.3333333333334,4,2,2,80,0,0
211046,-33.3333333333334,4,2,2,80,0,0
211109,-41.6666666666667,4,2,1,80,0,0
211171,-41.6666666666667,4,2,1,80,0,0
211234,-55.5555555555555,4,2,1,80,0,0
211296,-55.5555555555555,4,2,1,80,0,0
211359,-37.0370370370371,4,2,1,80,0,0
211609,-58.8235294117645,4,2,1,80,0,0
211671,-58.8235294117645,4,2,1,80,0,0
211734,-50,4,2,1,80,0,0
211796,-50,4,2,1,80,0,0
211859,-50,4,2,2,80,0,0
211984,-38.4615384615385,4,2,2,80,0,0
212108,-38.4615384615385,4,2,1,80,0,0
212233,-38.4615384615385,4,2,2,80,0,0
212484,-50,4,2,1,80,0,0
212734,-58.8235294117645,4,2,1,80,0,0
212859,-58.8235294117645,4,2,2,80,0,0
212984,-58.8235294117645,4,2,1,80,0,0
213046,-58.8235294117645,4,2,1,80,0,0
213109,-58.8235294117645,4,2,2,80,0,0
213234,-58.8235294117645,4,2,1,80,0,0
213359,-50,4,2,1,80,0,0
213421,-50,4,2,1,80,0,0
213484,-50,4,2,1,80,0,0
214234,-50,4,2,2,80,0,0
214484,-66.6666666666665,4,2,1,80,0,0
214546,-66.6666666666665,4,2,1,80,0,0
214609,-66.6666666666665,4,2,1,80,0,0
214671,-66.6666666666665,4,2,1,80,0,0
214734,-41.6666666666667,4,2,1,80,0,0
214796,-41.6666666666667,4,2,1,80,0,0
214859,-58.8235294117645,4,2,2,80,0,0
214921,-58.8235294117645,4,2,2,80,0,0
214984,-50,4,2,1,80,0,0
215859,-33.3333333333334,4,2,2,80,0,0
216046,-33.3333333333334,4,2,2,80,0,0
216109,-33.3333333333334,4,2,1,80,0,0
216234,-33.3333333333334,4,2,2,80,0,0
216359,-50,4,2,2,80,0,0
216421,-50,4,2,2,80,0,0
216484,-50,4,2,1,80,0,0
216546,-50,4,2,1,80,0,0
216609,-50,4,2,1,80,0,0
216859,-41.6666666666667,4,2,2,80,0,0
216983,-41.6666666666667,4,2,1,80,0,0
217109,-41.6666666666667,4,2,2,80,0,0
217233,-41.6666666666667,4,2,1,80,0,0
217359,-33.3333333333334,4,2,1,80,0,0
217921,-33.3333333333334,4,2,1,80,0,0
217984,-33.3333333333334,4,2,1,80,0,0
218046,-33.3333333333334,4,2,1,80,0,0
218109,-58.8235294117645,4,2,1,80,0,0
218234,-31.25,4,2,1,80,0,0
218609,-100,4,2,1,80,0,0
218671,-33.3333333333334,4,2,1,80,0,0
218734,-35.7142857142857,4,2,1,80,0,0
218858,-35.7142857142857,4,2,2,80,0,0
218984,-35.7142857142857,4,2,1,80,0,0
219109,-29.4117647058824,4,2,1,80,0,0
219609,-50,4,2,1,80,0,0
219671,-50,4,2,1,80,0,0
219734,-50,4,2,1,80,0,0
219796,-50,4,2,1,80,0,0
219859,-50,4,2,2,80,0,0
219984,-33.3333333333334,4,2,2,80,0,0
220359,-29.4117647058824,4,2,2,80,0,0
220609,-29.4117647058824,4,2,1,80,0,0
220734,-62.5,4,2,1,80,0,0
220796,-62.5,4,2,1,80,0,0
220859,-76.923076923077,4,2,2,80,0,0
221234,-76.923076923077,4,2,1,80,0,0
221296,-76.923076923077,4,2,1,80,0,0
221359,-33.3333333333334,4,2,1,80,0,0
221546,-33.3333333333334,4,2,1,80,0,0
221609,-50,4,2,1,80,0,0
221671,-50,4,2,1,80,0,0
221734,-58.8235294117645,4,2,1,80,0,0
221796,-58.8235294117645,4,2,1,80,0,0
221859,-58.8235294117645,4,2,1,80,0,0
222234,-38.4615384615385,4,2,1,80,0,0
222609,-58.8235294117645,4,2,1,80,0,0
222671,-58.8235294117645,4,2,1,80,0,0
222734,-45.4545454545455,4,2,1,80,0,0
222796,-45.4545454545455,4,2,1,80,0,0
222859,-50,4,2,2,80,0,0
222921,-50,4,2,2,80,0,0
222984,-41.6666666666667,4,2,1,80,0,0
223046,-41.6666666666667,4,2,1,80,0,0
223109,-41.6666666666667,4,2,1,80,0,0
223234,-66.6666666666665,4,2,1,80,0,0
223296,-66.6666666666665,4,2,1,80,0,0
223359,-41.6666666666667,4,2,1,80,0,0
223671,-41.6666666666667,4,2,1,80,0,0
223734,-41.6666666666667,4,2,1,80,0,0
223859,-35.7142857142857,4,2,2,80,0,0
224171,-35.7142857142857,4,2,2,80,0,0
224234,-35.7142857142857,4,2,6,80,0,0
224359,-35.7142857142857,4,2,1,80,0,0
224796,-35.7142857142857,4,2,1,80,0,0
224859,-66.6666666666665,4,2,2,80,0,0
224921,-66.6666666666665,4,2,2,80,0,0
224984,-66.6666666666665,4,2,1,80,0,0
225046,-66.6666666666665,4,2,1,80,0,0
225109,-66.6666666666665,4,2,2,80,0,0
225234,-33.3333333333334,4,2,1,80,0,0
225484,-33.3333333333334,4,2,1,80,0,0
225609,-33.3333333333334,4,2,1,70,0,0
226734,-168.801590766035,4,2,1,70,0,0
228359,-168.801590766035,4,2,1,60,0,0
230359,-168.801590766035,4,2,1,50,0,0
232359,-168.801590766035,4,2,1,40,0,0
233609,-168.801590766035,4,2,1,30,0,0
233859,-168.801590766035,4,2,1,5,0,0
233921,-33.3333333333334,4,2,1,20,0,0

[Colours]
Combo1 : 147,120,108
Combo2 : 192,192,192
Combo3 : 219,198,174
Combo4 : 130,124,131

[HitObjects]
120,359,609,6,0,B|124:310|82:287|75:300|35:281|45:227,1,157.5
57,226,859,2,0,L|67:148,1,78.75,0|0,3:3|0:0,0:0:0:0:
180,135,1359,6,0,B|228:122|231:67|179:22|123:10|49:28|-1:93|39:270|138:169|124:168|116:138|195:110|207:214|188:316|159:310|121:345|-44:119|243:134|158:286|123:283|394:257|247:95|187:145,1,630,4|4,1:2|1:3,0:0:0:0:
283,86,1859,6,0,L|347:75,2,52.5,8|4|8,2:2|2:3|1:3,0:0:0:0:
180,135,2234,1,2,1:3:0:0:
189,143,2359,2,0,B|237:138|260:180|247:187|266:227|320:217,1,157.5,0|0,1:1|0:0,0:0:0:0:
324,230,2609,1,6,2:3:0:0:
385,185,2734,1,0,1:1:0:0:
444,167,2859,1,12,2:2:0:0:
334,77,2984,6,0,L|283:86,2,52.5,8|0|0,2:3|1:1|0:0,0:0:0:0:
470,27,3359,5,0,1:1:0:0:
462,45,3484,1,2,2:3:0:0:
450,29,3609,1,8,2:3:0:0:
385,185,3734,5,4,1:3:0:0:
399,125,3859,1,10,2:3:0:0:
444,167,3984,1,4,2:3:0:0:
322,234,4109,1,8,1:3:0:0:
480,376,4234,2,0,P|461:293|402:295,1,157.5,10|0,2:3|0:0,0:0:0:0:
390,287,4484,1,8,2:3:0:0:
486,291,4609,2,0,P|392:328|317:387,1,188.999994232178,6|0,2:3|0:0,0:0:0:0:
265,335,4859,1,12,2:2:0:0:
322,234,4984,2,0,P|226:200|178:285,1,210,8|8,2:3|2:3,0:0:0:0:
120,359,5359,6,0,B|123:343|107:305|69:342|23:272|52:237,1,157.5,4|0,1:2|0:0,0:0:0:0:
47,227,5609,1,8,2:3:0:0:
29,374,5734,2,0,L|83:153,1,220.499993270874,4|0,1:3|0:0,0:0:0:0:
95,158,5984,2,0,L|108:102,2,52.5,4|8|2,2:3|1:3|1:3,0:0:0:0:
50,57,6359,5,0,1:1:0:0:
124,34,6484,1,8,2:3:0:0:
182,135,6609,5,6,2:3:0:0:
196,139,6734,1,0,1:1:0:0:
254,88,6859,1,12,2:2:0:0:
369,58,6984,2,0,L|424:44,2,52.5,8|0|0,2:3|1:1|0:0,0:0:0:0:
218,68,7359,5,0,1:1:0:0:
234,64,7484,1,2,2:3:0:0:
247,73,7609,1,8,2:3:0:0:
399,184,7734,5,4,1:3:0:0:
340,131,7859,1,10,2:3:0:0:
269,164,7984,1,4,2:3:0:0:
182,135,8109,6,0,P|189:145|194:176,1,39.3750015020371,8|0,1:3|0:0,0:0:0:0:
105,300,8234,1,10,2:3:0:0:
177,278,8359,2,0,B|225:273|248:315|235:322|254:362|308:352,1,157.5
313,368,8609,2,0,P|364:328|410:342,1,105,6|0,2:3|1:1,0:0:0:0:
269,164,8859,2,0,P|278:205|324:214,1,78.7500030040742,12|8,2:2|2:3,0:0:0:0:
177,278,9109,2,0,P|195:256|220:255,1,52.5,0|8,1:1|2:3,0:0:0:0:
399,184,9359,6,0,B|382:201|472:257|509:169|484:-14|332:64|272:71|353:112|340:138,1,315,4|0,1:2|0:0,0:0:0:0:
430,32,9609,5,8,2:3:0:0:
415,108,9734,1,4,1:3:0:0:
488,82,9859,1,8,2:2:0:0:
339,0,9984,1,4,2:3:0:0:
257,84,10109,1,8,1:3:0:0:
178,97,10234,1,2,1:3:0:0:
99,56,10359,6,0,B|92:12|20:92|0:110|-51:44|-17:-11|111:-45|126:17|165:14|102:62,1,315.000012016297,0|6,1:1|2:3,0:0:0:0:
38,195,10734,2,0,B|26:173|33:150|67:148|67:128,1,78.7500030040742,0|12,1:1|2:2,0:0:0:0:
175,191,10984,6,0,B|166:179|188:161|218:170|219:195|175:251|131:192|66:255|64:294|86:324,1,236.250009012223,8|0,2:3|0:0,0:0:0:0:
36,384,11234,2,0,B|41:333|145:287|226:383|291:264|263:207|157:269|219:308|237:287,1,275.62501051426
291,329,11734,6,0,P|316:339|324:347,1,39.3750015020371,4|0,1:3|0:0,0:0:0:0:
391,288,11859,6,0,B|407:315|317:295|321:221|405:190|424:213|430:217|435:220|441:223|457:243|542:212|549:137|494:103|452:143|475:161,1,315.000012016297,10|0,2:3|0:0,0:0:0:0:
394,94,12234,6,0,B|395:141|360:117|335:184|390:246|436:196|441:196|493:271|468:288,1,236.250009012223,10|0,2:3|0:0,0:0:0:0:
484,288,12484,1,8,2:3:0:0:
303,206,12609,6,0,P|288:193|269:187,1,39.3750015020371,6|0,2:3|0:0,0:0:0:0:
407,97,12734,2,0,P|419:81|436:72,1,39.3750015020371,0|0,1:1|0:0,0:0:0:0:
299,38,12859,6,0,P|302:64|318:84,1,52.5,12|0,2:2|0:0,0:0:0:0:
382,181,12984,6,0,B|365:168|289:199|347:265|156:252|256:167|174:98|116:142,1,315,8|8,2:3|2:3,0:0:0:0:
43,48,13359,6,0,B|11:33|45:0|122:-14|147:64|145:102|98:140,1,220.499993270874,4|0,1:2|0:0,0:0:0:0:
52,194,13609,2,0,B|10:183|10:183|2:172|2:172|54:185,1,105,8|4,2:3|1:3,0:0:0:0:
158,279,13859,5,8,2:2:0:0:
79,325,13984,1,4,2:3:0:0:
134,379,14109,1,8,1:3:0:0:
88,314,14234,1,2,1:3:0:0:
210,216,14359,6,0,P|230:225|231:261,1,52.5,0|0,1:1|0:0,0:0:0:0:
310,268,14484,2,0,P|312:289|281:308,1,52.5,8|0,2:3|0:0,0:0:0:0:
273,382,14609,1,6,2:3:0:0:
164,292,14734,2,0,B|204:314|207:236|329:247|296:326|389:337,1,236.250009012223,0|0,1:1|0:0,0:0:0:0:
383,350,14984,1,8,2:3:0:0:
438,170,15109,2,0,B|416:153|478:134|515:160|401:223|419:298|470:312,1,204.749990627289,0|0,1:1|0:0,0:0:0:0:
470,325,15359,6,0,P|405:174|232:264,1,393.750015020371,4|0,1:2|0:0,0:0:0:0:
227,256,15734,1,4,1:3:0:0:
90,111,15859,6,0,B|64:81|40:129|3:46|59:-10|176:-7|219:74|107:124|217:186|322:104|218:80|237:103,1,315.000012016297,10|0,3:3|0:0,0:0:0:0:
231,85,16234,1,10,2:3:0:0:
104,201,16359,6,0,P|211:118|338:73,1,262.5,0|0,3:3|0:0,0:0:0:0:
334,56,16734,1,0,1:1:0:0:
212,9,16859,5,12,3:2:0:0:
231,85,16984,1,8,2:3:0:0:
334,154,17109,2,0,P|392:178|425:205,1,105,0|8,1:1|2:3,0:0:0:0:
310,327,17359,6,0,B|264:314|322:371|259:417|151:339|235:252|343:210|451:223|494:344|461:417|377:413|385:352|399:355,1,377.999988464356,6|10,1:2|2:3,0:0:0:0:
450,304,17734,1,4,1:3:0:0:
229,247,17859,2,0,B|209:217|291:171|326:378|179:387|137:368,1,267.750005106926,10|0,2:2|0:0,0:0:0:0:
130,376,18109,1,10,1:3:0:0:
51,81,18234,6,0,B|42:70|45:20|135:54|114:117|49:138|44:132|40:130|36:126|-40:169|-29:249|56:289|110:225|97:183,1,336,2|8,1:3|2:3,0:0:0:0:
0,149,18609,6,0,L|185:191,1,178.500003404617,6|0,2:3|1:1,0:0:0:0:
130,364,18859,2,0,L|223:262,1,136.499993751526,14|8,2:2|2:3,0:0:0:0:
196,10,19109,2,0,L|229:117,1,105,2|0,1:2|0:0,0:0:0:0:
343,247,19359,6,0,B|343:200|409:182|416:184|423:186|492:210|572:45|395:-36|338:61|365:137|407:134,1,341.249984378815,2|0,1:2|0:0,0:0:0:0:
311,151,19734,6,0,B|308:130|247:156|277:234|375:168|433:205|445:270|391:294,1,210,6|4,1:3|2:3,0:0:0:0:
369,320,20109,1,8,1:3:0:0:
306,72,20234,6,0,B|293:34|258:62|253:-11|320:-21|399:25|374:99|264:89|281:142|321:154,1,236.250009012223,10|0,2:3|0:0,0:0:0:0:
317,158,20484,1,8,2:3:0:0:
227,110,20609,1,6,2:3:0:0:
410,45,20734,1,0,1:1:0:0:
202,0,20859,1,12,2:2:0:0:
306,161,20984,6,0,B|336:162|340:144|298:83|107:122|152:288,1,315.000012016297,8|8,2:3|2:3,0:0:0:0:
65,304,21359,6,0,B|103:358|72:380|23:348|152:364|156:301|126:284,1,157.500006008148,6|0,1:2|0:0,0:0:0:0:
94,148,21609,2,0,B|64:103|-55:231|-25:65|58:71|-35:227|75:225,1,236.250009012223,10|0,2:3|0:0,0:0:0:0:
227,269,21859,2,0,B|270:252|291:208|209:186|279:138|295:59|378:170|332:234|213:127|175:158|172:202,1,315,10|0,2:2|0:0,0:0:0:0:
142,271,22109,1,10,1:3:0:0:
142,271,22234,2,0,P|231:287|402:383,1,272.999987503052,2|8,1:3|2:3,0:0:0:0:
320,300,22609,1,6,2:3:0:0:
493,198,22734,1,0,1:1:0:0:
439,291,22859,2,0,P|422:224|387:167,1,136.499993751526,14|8,2:2|2:3,0:0:0:0:
491,17,23109,1,2,1:2:0:0:
485,182,23234,6,0,B|527:163|499:67|391:-7|274:-7|200:141|244:181|250:175|258:171|267:163|302:284|196:339|9:361|29:51|113:-78|176:-92|252:-27|494:149|286:157|333:291|449:283,1,1023.74995313645,2|0,2:2|0:0,0:0:0:0:
439,291,24234,2,0,B|516:287|534:192|442:112|227:170|339:312|382:338|266:385|253:353|262:310|282:329,1,409.499981254579,10|6,2:3|2:3,0:0:0:0:
390,372,24734,1,0,1:1:0:0:
257,252,24859,6,0,P|222:232|185:239,1,68.2499968757631,12|0,2:2|0:0,0:0:0:0:
337,100,24984,2,0,P|324:117|322:150,1,52.5,8|0,2:3|0:0,0:0:0:0:
246,162,25109,2,0,P|230:141|215:136,1,39.3750015020371,0|0,1:1|0:0,0:0:0:0:
292,31,25234,1,8,2:3:0:0:
349,218,25359,6,0,B|359:247|413:207|384:139|262:33|158:63,2,315.000012016297,6|10|10,1:2|2:3|2:2,0:0:0:0:
440,127,25984,1,4,2:3:0:0:
440,127,26109,2,0,P|428:130|397:156,1,52.5,10|0,1:3|0:0,0:0:0:0:
257,252,26234,6,0,B|248:285|200:270|219:191|307:184|448:192|416:349|373:366,1,315.000012016297,2|8,1:3|2:3,0:0:0:0:
282,352,26609,2,0,B|278:318|381:324|351:211|309:202,1,157.500006008148,6|0,2:3|1:1,0:0:0:0:
107,280,26859,2,0,B|83:260|67:314|114:372|194:325,1,157.500006008148,14|8,2:2|2:3,0:0:0:0:
246,162,27109,6,0,P|230:134|225:116,1,47.2499985580445,2|0,1:2|0:0,0:0:0:0:
267,50,27359,6,0,B|258:14|287:16|340:33|362:110|219:278|13:198|32:59|146:12|176:71,2,440.999986541749,2|6|8,1:2|1:3|1:3,0:0:0:0:
0,103,28234,6,0,P|104:140|182:254,1,220.499993270874,10|0,2:3|0:0,0:0:0:0:
186,230,28484,1,8,2:3:0:0:
321,143,28609,1,6,2:3:0:0:
225,119,28734,1,0,1:1:0:0:
332,220,28859,1,14,2:2:0:0:
427,51,28984,2,0,B|432:113|378:143|369:126|318:150|331:219,1,210,10|10,2:3|2:3,0:0:0:0:
483,292,29359,6,0,B|485:314|509:307|514:218|405:207,1,157.500006008148,4|0,1:2|0:0,0:0:0:0:
321,143,29609,2,0,B|264:121|289:13|332:31|346:52,1,157.500006008148,10|4,2:3|1:3,0:0:0:0:
382,285,29859,6,0,P|356:295|342:314,1,52.5,10|0,2:2|0:0,0:0:0:0:
284,368,29984,2,0,B|333:372|356:330|343:323|362:283|416:293,1,157.5,6|0,2:3|0:0,0:0:0:0:
451,359,30234,6,0,P|269:281|184:257,1,272.999987503052,2|8,1:3|2:3,0:0:0:0:
85,93,30609,2,0,B|56:74|107:25|164:44|211:146|92:199,1,236.250009012223,6|0,2:3|0:0,0:0:0:0:
79,259,30859,2,0,B|31:299|75:376|133:386|242:343|134:279|134:341,1,236.250009012223,14|0,2:2|0:0,0:0:0:0:
57,335,31109,2,0,P|29:318|9:314,1,39.3750015020371,2|0,1:2|0:0,0:0:0:0:
196,260,31234,2,0,P|207:252|218:247,1,26.25,2|0,0:0|0:0,0:0:0:0:
109,190,31359,6,0,B|118:123|185:167|242:181|344:84|243:-27|117:-7|142:126|195:123,1,367.5,2|0,1:2|0:0,0:0:0:0:
196,136,31859,2,0,P|220:144|237:162,1,39.3750015020371,10|0,2:3|0:0,0:0:0:0:
382,181,31984,2,0,P|406:167|447:166,1,52.5,4|0,2:3|0:0,0:0:0:0:
309,148,32109,1,8,1:3:0:0:
496,210,32234,2,0,P|431:129|389:34,1,204.749990627289,10|0,2:3|0:0,0:0:0:0:
321,4,32484,5,8,2:3:0:0:
306,7,32546,1,4,0:3:0:0:
317,18,32609,1,6,2:3:0:0:
467,54,32734,1,0,1:1:0:0:
440,150,32859,1,12,2:2:0:0:
373,108,32984,1,8,2:3:0:0:
318,226,33109,2,0,B|322:270|367:243|400:292|387:318,1,126,0|0,1:1|0:0,0:0:0:0:
508,382,33359,6,0,B|510:366|510:366|286:327,1,236.250009012223,6|0,1:2|0:0,0:0:0:0:
291,338,33609,2,0,B|179:363|179:363|182:375,2,125.999996154785,2|0|10,2:2|1:1|2:3,0:0:0:0:
371,319,33984,1,0,0:0:0:0:
149,218,34109,1,2,1:2:0:0:
300,148,34234,2,0,B|304:198|261:221|253:208|213:227|223:282,1,168,2|0,1:2|0:0,0:0:0:0:
291,338,34609,2,0,P|275:355|268:372,1,42,2|0,1:2|0:0,0:0:0:0:
142,299,34734,1,0,1:1:0:0:
234,205,34859,2,0,L|204:1,1,204.749990627289,10|0,2:3|0:0,0:0:0:0:
203,78,35109,2,0,B|209:119|209:119|210:138|143:145|157:213,1,157.5,2|0,1:2|0:0,0:0:0:0:
149,218,35359,5,2,1:3:0:0:
310,141,35484,1,8,2:2:0:0:
318,128,35734,5,0,1:1:0:0:
101,83,35859,1,10,2:3:0:0:
92,72,36109,5,2,1:2:0:0:
334,7,36234,2,0,P|416:64|392:170,1,210,10|0,2:2|0:0,0:0:0:0:
336,231,36609,1,0,1:1:0:0:
336,231,36734,1,0,1:1:0:0:
325,141,36859,6,0,B|297:145|248:188|298:299|388:227|417:281|383:340|337:326|361:305,1,252,10|0,2:3|0:0,0:0:0:0:
433,231,37109,2,0,P|460:217|484:214,1,47.2499985580445,2|0,1:2|0:0,0:0:0:0:
399,161,37359,6,0,B|336:155|306:209|323:218|299:269|230:256,1,210,2|2,1:3|2:2,0:0:0:0:
361,304,37734,6,0,P|331:276|309:270,1,52.5,0|0,1:1|0:0,0:0:0:0:
233,243,37859,2,0,P|149:248|130:352,1,204.749990627289,10|0,2:3|0:0,0:0:0:0:
126,359,38109,1,0,0:0:0:0:
44,220,38234,6,0,B|12:173|108:153|113:110|94:66|32:89|2:143|80:167|168:149|157:236|91:256|113:278,1,315.000012016297,2|0,1:2|0:0,0:0:0:0:
29,314,38609,2,0,P|128:273|234:247,1,204.749990627289,2|0,2:2|0:0,0:0:0:0:
233,243,38859,1,10,2:3:0:0:
132,189,38984,1,0,0:0:0:0:
320,128,39109,1,2,1:2:0:0:
81,14,39234,1,2,2:2:0:0:
81,14,39359,6,0,P|104:19|118:31,1,39.3750015020371,2|0,1:3|0:0,0:0:0:0:
164,88,39484,1,8,2:2:0:0:
48,132,39734,6,0,P|63:114|81:108,1,39.3750015020371,0|0,1:1|0:0,0:0:0:0:
153,97,39859,1,10,2:3:0:0:
145,210,40109,6,0,P|137:187|141:169,1,39.3750015020371,0|0,1:1|0:0,0:0:0:0:
167,101,40234,1,8,2:2:0:0:
249,165,40484,5,0,1:1:0:0:
217,39,40609,1,0,1:1:0:0:
217,39,40734,1,0,1:1:0:0:
167,101,40859,5,10,2:3:0:0:
316,125,40984,1,8,2:2:0:0:
370,206,41109,1,2,1:2:0:0:
481,187,41234,1,0,0:0:0:0:
328,117,41359,6,0,P|321:25|440:36,1,236.250009012223,6|0,1:2|0:0,0:0:0:0:
455,26,41609,2,0,P|428:70|415:112,1,89.2500017023087,2|0,2:2|1:1,0:0:0:0:
301,238,41859,2,0,B|308:271|344:281|344:281|356:378,1,157.5,10|0,2:3|0:0,0:0:0:0:
364,381,42109,1,2,1:2:0:0:
510,315,42234,2,0,P|387:266|269:339,1,272.999987503052,2|0,1:2|0:0,0:0:0:0:
259,325,42609,1,2,1:2:0:0:
373,201,42734,1,0,1:1:0:0:
301,238,42859,1,10,2:3:0:0:
206,168,42984,1,0,0:0:0:0:
113,279,43109,2,0,B|121:299|141:306|141:306|149:377,1,105,2|0,1:2|0:0,0:0:0:0:
370,282,43359,5,2,1:3:0:0:
259,325,43484,2,0,B|250:314|250:314|49:281|49:281|34:292,1,236.250009012223,8|0,2:2|0:0,0:0:0:0:
204,215,43734,2,0,P|184:224|178:240,1,39.3750015020371,0|0,1:1|0:0,0:0:0:0:
32,302,43859,6,0,B|95:308|125:254|108:245|132:194|201:207,1,210,10|0,2:3|1:1,0:0:0:0:
113,279,44234,6,0,B|118:252|99:224|63:214|63:214|44:59,1,236.250009012223,10|0,2:2|0:0,0:0:0:0:
37,58,44484,2,0,P|59:39|65:9,1,52.5
156,76,44609,2,0,P|133:80|123:91,1,39.3750015020371,0|0,1:1|0:0,0:0:0:0:
62,150,44734,5,0,1:1:0:0:
147,0,44859,2,0,B|210:-6|240:48|223:57|247:108|316:95,1,210,10|0,2:3|0:0,0:0:0:0:
325,105,45109,2,0,P|367:81|403:83,1,78.7500030040742,2|0,1:2|0:0,0:0:0:0:
490,240,45359,6,0,B|450:257|473:279|492:287|488:203|462:128|336:141|314:193|339:280|417:253,1,283.499991348267,2|0,1:3|0:0,0:0:0:0:
397,267,45609,2,0,B|467:265|453:375|393:348|389:376,1,157.5,2|0,2:2|1:1,0:0:0:0:
397,383,45859,6,0,P|224:292|182:279,1,236.250009012223,10|0,2:3|0:0,0:0:0:0:
180,269,46109,1,2,2:2:0:0:
280,175,46234,6,0,B|259:224|349:233|298:369|204:302|217:387,1,236.250009012223,2|0,1:2|0:0,0:0:0:0:
225,381,46484,2,0,P|239:360|240:336,1,39.3750015020371
180,269,46609,1,2,2:2:0:0:
362,188,46734,1,0,1:1:0:0:
362,188,46796,1,0,1:3:0:0:
362,188,46859,2,0,P|253:189|246:56,1,267.750005106926,10|0,2:3|0:0,0:0:0:0:
239,48,47109,2,0,P|293:16|357:35,1,118.125004506111,2|0,1:2|0:0,0:0:0:0:
354,19,47359,5,2,1:3:0:0:
156,48,47484,1,8,2:2:0:0:
148,59,47734,5,0,1:1:0:0:
392,99,47859,1,10,2:3:0:0:
395,113,48109,5,0,1:1:0:0:
269,255,48234,2,0,B|218:229|157:272|193:339|129:347,1,188.999994232178,10|0,2:2|0:0,0:0:0:0:
124,334,48484,2,0,P|100:321|92:294,1,39.3750015020371,0|0,1:1|0:0,0:0:0:0:
218,194,48609,6,0,P|183:229|184:257,1,78.7500030040742,0|0,1:1|0:0,0:0:0:0:
170,263,48734,1,0,1:1:0:0:
74,106,48859,6,0,P|103:135|105:155,1,52.5,10|0,2:3|0:0,0:0:0:0:
112,157,48984,1,8,2:2:0:0:
270,103,49109,6,0,B|236:109|253:47|185:35|154:69,1,136.499993751526,0|0,1:1|0:0,0:0:0:0:
17,234,49359,6,0,P|201:212|277:264,2,272.999987503052,6|2|10,1:2|2:2|2:3,0:0:0:0:
157,65,49984,1,0,0:0:0:0:
6,151,50109,1,2,1:2:0:0:
167,247,50234,6,0,P|296:348|311:429,1,204.749990627289,2|0,1:2|2:2,0:0:0:0:
307,380,50484,1,0,0:0:0:0:
346,113,50609,6,0,B|340:73|223:52|242:169|277:197|318:139|330:224,1,236.250009012223,2|0,1:2|0:0,0:0:0:0:
438,98,50859,2,0,B|470:84|487:152|442:177|404:184,1,136.499993751526,10|0,2:3|0:0,0:0:0:0:
251,329,51109,2,0,B|258:270|327:302|337:233,1,136.499993751526,2|0,1:2|0:0,0:0:0:0:
385,32,51359,5,2,1:3:0:0:
157,65,51484,1,8,2:2:0:0:
168,84,51734,5,0,1:1:0:0:
360,114,51859,1,10,2:3:0:0:
353,128,52109,5,0,1:1:0:0:
254,212,52234,2,0,B|190:215|169:273|187:280|172:334|101:332,1,204.749990627289,10|0,2:2|0:0,0:0:0:0:
93,323,52484,1,0,0:0:0:0:
187,157,52609,1,0,1:1:0:0:
119,193,52734,1,0,1:1:0:0:
170,263,52859,5,10,2:3:0:0:
106,190,52984,1,0,0:0:0:0:
248,105,53109,1,2,1:2:0:0:
79,66,53234,6,0,B|78:92|34:77|30:37|68:-5|210:17|220:83|150:189|260:213,1,341.249984378815,2|0,2:2|0:0,0:0:0:0:
263,229,53609,2,0,P|304:209|342:208,1,78.7500030040742,2|0,2:2|1:1,0:0:0:0:
443,81,53859,6,0,B|453:93|489:65|444:38|395:46|331:75|412:158|325:196,1,236.250009012223,10|0,2:3|0:0,0:0:0:0:
318,184,54109,1,2,2:2:0:0:
472,330,54234,2,0,B|507:352|566:310|555:255|479:175|342:236|322:361|326:380,1,367.49998878479,2|0,1:2|0:0,0:0:0:0:
310,366,54609,2,0,B|291:395|215:413|172:334|233:283|261:305|240:330,1,178.500003404617,2|0,2:2|1:1,0:0:0:0:
319,289,54859,5,10,2:3:0:0:
164,372,54984,1,0,0:0:0:0:
244,323,55109,5,2,1:2:0:0:
104,200,55234,1,2,2:2:0:0:
104,200,55359,6,0,P|101:216|86:237,1,39.3750015020371,2|0,1:3|0:0,0:0:0:0:
97,308,55484,1,8,2:2:0:0:
202,153,55734,6,0,P|186:158|160:155,1,39.3750015020371,0|0,1:1|0:3,0:3:0:0:
104,200,55859,1,10,2:3:0:0:
292,215,56109,6,0,P|279:204|268:180,1,39.3750015020371,0|0,1:1|0:3,0:3:0:0:
202,153,56234,1,8,2:2:0:0:
159,269,56484,5,0,1:1:0:0:
182,241,56609,1,0,1:1:0:0:
215,247,56734,1,0,1:1:0:0:
344,166,56859,5,10,2:3:0:0:
285,99,56984,1,8,2:2:0:0:
204,140,57109,1,2,1:2:0:0:
132,52,57234,1,0,0:0:0:0:
210,129,57359,6,0,B|267:96|201:53|262:-7|367:12|340:113|275:98,1,236.250009012223,6|0,1:2|0:0,0:0:0:0:
222,52,57609,2,0,B|140:-13|51:47|68:148|140:125,1,236.250009012223,2|0,2:2|0:0,0:0:0:0:
270,184,57859,2,0,B|297:202|295:306|147:278|177:166|208:137,1,236.250009012223,10|0,2:3|0:0,0:0:0:0:
201,128,58109,1,2,1:2:0:0:
369,235,58234,6,0,P|282:231|163:377,1,283.500001081467,2|0,1:2|0:0,0:0:0:0:
276,318,58609,2,0,P|292:239|261:173,1,141.750000540733,2|0,1:2|1:1,0:0:0:0:
219,268,58859,2,0,P|242:302|272:313,1,70.8750002703667,10|0,2:3|0:0,0:0:0:0:
276,318,58984,1,0,0:0:0:0:
165,208,59109,1,2,1:2:0:0:
110,267,59359,5,2,1:3:0:0:
270,184,59484,1,8,2:2:0:0:
278,196,59734,5,0,1:1:0:0:
123,128,59859,1,10,2:3:0:0:
131,140,60109,6,0,P|160:130|183:123,1,52.5,0|0,1:1|0:0,0:0:0:0:
222,52,60234,2,0,B|341:92|293:112|416:152,1,220.499993270874,10|0,2:2|0:0,0:0:0:0:
416,152,60484,1,0,0:0:0:0:
351,80,60609,1,0,1:1:0:0:
413,7,60734,1,0,1:1:0:0:
283,181,60859,6,0,P|307:172|332:164,1,52.5,10|0,2:3|0:0,0:0:0:0:
443,110,60984,2,0,P|434:128|427:149,1,39.3750015020371
474,212,61109,1,2,1:2:0:0:
351,80,61234,6,0,B|273:101|252:212|314:245|375:221|370:142|382:131|424:230|392:272|326:270,1,315.000012016297,2|0,2:2|0:0,0:0:0:0:
278,185,61609,6,0,B|244:160|147:182|216:274|156:306|135:296,1,204.749990627289,2|0,2:2|0:0,0:0:0:0:
91,234,61859,6,0,B|63:205|136:160|239:223|216:366,1,252,10|0,2:3|0:0,0:0:0:0:
218,342,62109,1,2,2:2:0:0:
164,132,62234,6,0,B|139:95|110:143|99:31|149:39|148:19|148:19|155:38|202:19|223:123|180:91|169:131,1,283.499991348267,2|0,1:2|0:0,0:0:0:0:
183,208,62484,1,0,0:0:0:0:
38,124,62609,6,0,B|70:141|95:102|68:21|248:-4|213:83|251:116|304:93,1,283.499991348267,2|0,2:2|0:0,0:0:0:0:
164,132,62859,6,0,P|177:168|167:131,1,105,10|0,2:3|0:0,0:0:0:0:
156,56,63109,1,2,1:2:0:0:
156,56,63234,1,0,0:0:0:0:
91,234,63359,6,0,B|77:248|29:204|131:151|252:212|242:358,1,283.499991348267,2|0,1:3|1:1,0:0:0:0:
250,352,63859,6,0,B|253:364|212:377|215:301|290:251|371:306,1,188.999994232178,10|0,2:3|1:1,0:0:0:0:
364,310,64234,6,0,B|388:331|350:354|315:325|328:270|410:305|458:260|413:199,1,188.999994232178,10|0,2:2|1:1,0:0:0:0:
320,182,64609,6,0,P|342:197|344:221,1,47.2499985580445,2|0,1:2|0:0,0:0:0:0:
452,354,64734,2,0,P|458:337|481:320,1,39.3750015020371,0|0,1:1|0:0,0:0:0:0:
433,223,64859,1,10,2:3:0:0:
374,303,64984,5,8,2:2:0:0:
473,155,65109,1,2,1:2:0:0:
298,104,65234,1,2,2:2:0:0:
471,30,65359,6,0,B|469:45|502:46|511:38|500:-40|403:-52|311:6|374:90|383:95|391:99|425:124|430:244|275:273|172:198|158:129|241:70|273:60|314:124,1,525,6|0,1:2|0:0,0:0:0:0:
473,155,65734,2,0,P|452:192|445:236,2,78.7500030040742,4|8|6,1:3|2:2|2:3,0:0:0:0:
316,26,66109,5,8,1:3:0:0:
399,90,66234,2,0,P|275:123|167:202,1,262.5,2|8,1:3|2:3,0:0:0:0:
167,201,66609,1,6,2:3:0:0:
238,52,66734,1,0,1:1:0:0:
80,17,66859,1,12,2:2:0:0:
125,134,66984,6,0,P|126:114|137:97,1,39.3750015020371,10|0,2:3|0:0,0:0:0:0:
5,62,67109,2,0,P|28:92|28:107,1,52.5,2|0,1:2|0:0,0:0:0:0:
44,212,67234,6,0,B|60:227|38:259|-1:250|-51:142|103:42|270:67|292:200|274:254|220:329|132:334|144:283|126:222|5:328|37:369|53:383,1,551.25002102852,10|0,2:3|0:0,0:0:0:0:
121,285,67734,2,0,B|123:265|105:261|123:205|160:223|167:201,2,105,4|10|6,1:3|2:3|2:3,0:0:0:0:
123,374,68109,5,8,1:3:0:0:
44,212,68234,2,0,P|168:245|276:324,1,262.5,10|8,2:3|2:3,0:0:0:0:
275,323,68609,5,6,2:3:0:0:
246,201,68734,1,0,1:1:0:0:
200,355,68859,1,12,2:2:0:0:
313,250,68984,6,0,P|324:219|342:203,1,52.5,10|0,2:3|0:0,0:0:0:0:
203,134,69109,2,0,P|197:115|184:100,1,39.3750015020371,2|0,1:2|0:0,0:0:0:0:
377,20,69234,6,0,B|399:-19|462:-13|502:44|484:109|401:160|323:145|259:106|334:23|283:-15|190:12|236:94|264:80|271:55,1,403.987499460618,10|8,2:3|2:3,0:0:0:0:
402,114,69734,6,0,B|461:110|417:151|466:162|470:156|469:168|392:169|393:115,1,157.500006008148,6|8,1:3|2:2,0:0:0:0:
464,46,69984,6,0,B|485:3|496:50|523:20|520:15|528:20|498:75|461:52,1,125.999996154785,6|8,2:3|1:3,0:0:0:0:
339,189,70234,6,0,B|413:301|283:261|317:368|333:369|309:381|194:274|210:217|317:155|334:201,1,393.750015020371,2|0,1:3|0:0,0:0:0:0:
439,244,70609,6,0,P|411:246|394:261,1,52.5,6|0,2:3|0:0,0:0:0:0:
275,323,70734,2,0,P|287:340|287:359,1,39.3750015020371,0|0,1:1|0:0,0:0:0:0:
379,384,70859,5,12,2:2:0:0:
269,248,70984,1,10,2:3:0:0:
269,248,71109,1,2,1:2:0:0:
451,321,71234,6,0,P|282:227|162:241,1,315.000012016297,10|2,1:3|2:3,0:0:0:0:
73,181,71609,6,0,P|86:78|190:104,1,236.250009012223,10|0,2:3|0:0,0:0:0:0:
207,105,71859,6,0,P|189:134|189:151,1,52.5,10|0,2:3|0:0,0:0:0:0:
68,194,71984,2,0,P|86:211|89:223,1,39.3750015020371,6|0,2:3|0:0,0:0:0:0:
114,297,72109,1,8,1:3:0:0:
189,151,72234,6,0,P|358:57|478:71,1,315.000012016297,10|12,2:3|2:2,0:0:0:0:
473,69,72609,5,10,2:3:0:0:
507,0,72734,1,8,1:2:0:0:
328,91,72859,6,0,P|346:103|355:134,1,52.5,14|0,2:2|0:0,0:0:0:0:
471,204,72984,2,0,P|476:185|504:181,1,39.3750015020371,10|0,2:3|0:0,0:0:0:0:
473,69,73109,2,0,P|451:83|433:120,1,62.9999980773926,8|0,1:2|0:0,0:0:0:0:
301,186,73234,2,0,P|285:165|288:151,1,26.25,10|0,2:2|0:0,0:0:0:0:
380,2,73359,6,0,B|383:19|404:36|404:36|358:272|358:272|346:328|306:306|294:360,1,393.750015020371,6|0,1:2|0:0,0:0:0:0:
285,366,73734,6,0,P|226:361|209:212,1,236.250009012223,6|0,1:3|0:0,0:0:0:0:
357,238,73984,2,0,B|333:280|322:258|317:257|277:256|257:292,1,115.50000352478,6|8,2:3|1:3,0:0:0:0:
33,211,74234,6,0,B|52:223|-6:258|-63:171|7:42|194:2|267:174|265:244|176:307|118:274|118:271|120:263|58:243|11:326|10:367|76:396|114:365|81:345,1,551.25002102852,2|0,1:3|0:0,0:0:0:0:
134,288,74734,6,0,B|144:248|90:272|99:148|157:192|164:136,2,157.500006008148,0|12|10,1:1|2:2|2:3,0:0:0:0:
93,113,75109,2,0,P|83:85|61:72,1,52.5,2|0,1:2|0:0,0:0:0:0:
214,12,75234,2,0,B|205:-8|140:3|149:67|200:132|244:54|284:85|304:137,1,241.500004606247,10|2,2:3|2:3,0:0:0:0:
263,75,75609,1,2,0:0:0:0:
233,161,75734,2,0,B|201:219|262:274|321:250|349:170|304:117,1,236.250009012223,6|0,1:3|0:0,0:0:0:0:
369,35,75984,6,0,B|353:16|386:2|402:39|396:99|320:72|322:136,1,157.500006008148,6|8,2:3|1:3,0:0:0:0:
217,44,76234,6,0,B|195:20|243:7|332:25|301:109|297:112|292:114|270:171|403:199|422:121|321:97|341:50,1,315.000012016297,10|8,2:3|2:3,0:0:0:0:
232,170,76609,6,0,B|213:124|331:77|307:247|502:234|561:98|463:44|413:66|437:110|442:124,1,357.000006809235,6|12,2:3|2:2,0:0:0:0:
311,231,76984,6,0,B|304:264|267:265|247:243|233:252,1,89.2500017023087,10|0,2:3|0:0,0:0:0:0:
390,244,77109,2,0,B|413:236|427:259|420:279|431:285,1,62.9999980773926,2|0,1:2|0:0,0:0:0:0:
413,381,77234,2,0,B|371:366|343:310|406:270|447:278|441:300|448:304|451:306|523:331|575:235|509:201|482:255|504:271,1,275.624991588593,10|0,2:3|0:0,0:0:0:0:
512,370,77609,2,0,B|491:374|480:353|487:336|479:330,1,52.5,10|0,2:3|0:0,0:0:0:0:
392,229,77734,6,0,B|358:190|306:192|200:246|295:296|303:349|231:379|205:328|249:327,1,267.750005106926,6|0,1:3|0:0,0:0:0:0:
339,315,77984,6,0,P|358:315|370:328,1,26.25,6|0,2:3|0:0,0:0:0:0:
363,326,78109,2,0,P|344:326|332:313,1,26.25,8|0,1:3|0:0,0:0:0:0:
165,291,78234,6,0,B|140:291|129:242|105:174|39:129|-36:198|-79:260|-24:391|92:381|143:375|57:305|122:279,1,393.750015020371,2|0,1:3|0:0,0:0:0:0:
107,339,78609,2,0,P|131:315|167:312,1,52.5,6|0,2:3|0:0,0:0:0:0:
203,221,78734,1,0,1:1:0:0:
119,141,78859,6,0,P|113:121|91:102,1,39.3750015020371,14|0,2:2|0:0,0:0:0:0:
229,32,78984,2,0,B|217:14|247:-1|267:29|264:49|206:56|205:110,1,136.499993751526,10|0,2:3|1:1,0:0:0:0:
56,42,79234,6,0,B|52:-5|-6:24|-23:5|34:-17|153:2|144:44,1,204.749990627289,10|0,1:3|0:0,0:0:0:0:
205,108,79484,2,0,P|213:134|201:110,1,78.7500030040742,2|8,2:3|2:3,0:0:0:0:
327,51,79734,6,0,B|367:46|382:84|376:85|371:88|379:143|463:158|514:143|534:82|521:17|499:-5|402:-20|273:24|407:114|304:139,1,472.500018024445,6|12,1:3|2:2,0:0:0:0:
306,154,80609,6,0,P|284:166|280:187,1,39.3750015020371,10|0,2:3|0:0,0:0:0:0:
203,221,80734,2,0,P|227:234|231:260,1,52.5,8|0,1:2|0:0,0:0:0:0:
294,306,80859,2,0,P|316:265|296:240,1,68.2499968757631,12|0,2:2|0:0,0:0:0:0:
213,145,80984,2,0,P|213:130|224:119,1,28.8750008811951,8|0,2:3|0:0,0:0:0:0:
375,199,81109,6,0,P|219:247|156:287,1,236.250009012223,8|0,1:2|0:0,0:0:0:0:
80,250,81359,6,0,B|60:198|43:256|-48:233|-59:99|46:68|85:79|126:117|115:196|94:201|71:203|18:137|90:106|19:72|165:21|245:116|194:183|148:275|100:173|89:260,1,504,4|4,1:2|1:3,0:0:0:0:
37,321,81859,6,0,L|28:372,2,52.5,8|4|8,2:2|2:3|1:3,0:0:0:0:
0,256,82234,1,2,1:3:0:0:
8,247,82359,2,0,B|3:199|45:176|52:189|92:170|82:116,1,157.5,0|0,1:1|0:0,0:0:0:0:
95,112,82609,1,6,2:3:0:0:
37,44,82734,1,0,1:1:0:0:
88,13,82859,1,12,2:2:0:0:
10,120,82984,6,0,L|22:48,2,73.4999977569581,8|0|0,2:3|1:1|0:0,0:0:0:0:
58,189,83359,5,0,1:1:0:0:
98,128,83484,1,2,2:3:0:0:
173,176,83609,2,0,P|190:160|211:158,1,36.749998878479,8|0,2:3|0:0,0:0:0:0:
251,81,83734,2,0,P|284:111|311:115,1,52.5,4|0,1:3|0:0,0:0:0:0:
341,173,83859,5,10,2:3:0:0:
355,178,83984,1,4,2:3:0:0:
343,187,84109,2,0,P|325:192|313:205,1,36.749998878479,8|0,1:3|0:0,0:0:0:0:
277,272,84234,6,0,P|298:198|447:206,1,236.250009012223,10|0,2:3|0:0,0:0:0:0:
452,189,84484,1,8,2:3:0:0:
408,86,84609,6,0,B|422:81|430:54|371:59|335:111|374:175|445:178,1,188.999994232178,6|0,2:3|0:0,0:0:0:0:
501,129,84859,1,12,2:2:0:0:
403,263,84984,2,0,B|335:274|376:364|310:375,1,157.500006008148,8|8,2:3|2:3,0:0:0:0:
381,339,85359,6,0,L|423:345,1,39.3750015020371,4|0,1:2|0:0,0:0:0:0:
452,363,85484,2,0,L|494:369,1,39.3750015020371
505,280,85609,6,0,B|482:269|482:269|259:304,1,241.500004606247,8|8,2:3|2:2,0:0:0:0:
254,286,85984,2,0,L|203:295,2,52.5,4|8|2,2:3|1:3|1:3,0:0:0:0:
315,243,86359,5,0,1:1:0:0:
246,212,86484,1,8,2:3:0:0:
349,138,86609,6,0,P|316:151|310:167,1,52.5,6|0,2:3|0:0,0:0:0:0:
238,198,86734,2,0,P|219:207|174:190,1,68.2499968757631,0|0,1:1|0:0,0:0:0:0:
176,88,86859,6,0,P|201:94|221:135,1,57.7500017623902,12|0,2:2|0:0,0:0:0:0:
303,156,86984,2,0,P|342:115|336:90,1,78.7500030040742,8|0,2:3|0:0,0:0:0:0:
256,0,87109,5,0,1:1:0:0:
256,0,87234,2,0,L|256:384,1,367.49998878479
256,383,87609,1,8,2:3:0:0:
247,375,87859,6,0,B|239:350|255:307|314:354|365:305|349:239|313:221,1,188.999994232178,10|4,2:3|2:3,0:0:0:0:
260,262,88109,2,0,B|265:251|246:241|228:313|298:310,1,94.499997116089,8|0,1:3|0:0,0:0:0:0:
354,377,88234,1,10,2:3:0:0:
181,304,88359,6,0,P|151:279|176:209,1,94.499997116089
141,223,88484,2,0,P|150:185|185:171,1,78.7500030040742,8|0,2:3|0:0,0:0:0:0:
191,160,88609,2,0,P|220:151|244:170,1,62.9999980773926,6|0,2:3|0:0,0:0:0:0:
266,171,88734,1,0,1:1:0:0:
260,262,88859,6,0,P|246:247|220:248,1,39.3750015020371,12|0,2:2|0:0,0:0:0:0:
299,107,88984,2,0,P|271:131|266:175,1,78.7500030040742,8|0,2:3|0:0,0:0:0:0:
329,236,89109,2,0,P|347:234|388:263,1,62.9999980773926,0|0,1:1|0:0,0:0:0:0:
454,158,89234,1,8,2:3:0:0:
381,65,89359,6,0,B|359:77|312:33|355:-7|452:-25|471:25|508:100|424:182|399:107|348:182|344:248|411:274,1,377.999988464356,4|8,1:2|2:3,0:0:0:0:
452,341,89734,2,0,B|442:372|503:368|500:272|411:195|407:321|333:287|312:192,1,236.250009012223,4|0,1:3|0:0,0:0:0:0:
340,232,89984,2,0,P|336:206|363:160,1,78.7500030040742,4|0,2:3|0:0,0:0:0:0:
454,158,90109,6,0,L|460:209,1,39.3750015020371,8|0,1:3|0:0,0:0:0:0:
478,227,90234,2,0,L|484:278,1,39.3750015020371,2|0,1:3|0:0,0:0:0:0:
365,363,90359,6,0,P|367:303|258:280,1,188.999994232178,0|0,1:3|0:0,0:0:0:0:
273,286,90609,2,0,P|249:309|249:343,1,62.9999980773926,6|0,2:3|0:0,0:0:0:0:
240,352,90734,2,0,P|259:378|276:380,1,42,0|0,1:1|0:0,0:0:0:0:
344,364,90859,1,12,2:2:0:0:
185,275,90984,2,0,L|134:284,2,52.5,8|0|0,2:3|1:1|0:0,0:0:0:0:
260,260,91359,5,0,1:1:0:0:
283,187,91484,1,2,2:3:0:0:
360,161,91609,6,0,P|383:183|379:211,1,52.5,8|0,2:3|0:0,0:0:0:0:
400,227,91734,2,0,P|382:252|343:257,1,68.2499968757631,4|0,1:3|0:0,0:0:0:0:
209,204,91859,5,10,2:3:0:0:
205,192,91984,1,4,2:3:0:0:
194,201,92109,2,0,B|167:195|172:168|141:162,1,68.2499968757631,8|0,1:3|0:0,0:0:0:0:
105,38,92234,6,0,P|160:141|259:80,1,204.749990627289,10|0,2:3|0:0,0:0:0:0:
239,117,92484,1,8,2:3:0:0:
60,134,92609,5,6,2:3:0:0:
135,150,92734,1,0,1:1:0:0:
185,65,92859,1,12,2:2:0:0:
315,97,92984,2,0,B|329:65|388:90|414:56|411:6|268:-9|296:17,1,196.875007510186,8|0,2:3|0:0,0:0:0:0:
388,85,93359,6,0,L|396:133,1,39.3750015020371,4|0,1:2|0:0,0:0:0:0:
415,156,93484,2,0,L|423:204,1,39.3750015020371
486,273,93609,6,0,B|496:233|496:233|275:173,1,251.999992309571,8|8,2:3|2:2,0:0:0:0:
282,186,93984,2,0,L|231:195,2,52.5,4|8|2,2:3|1:3|1:3,0:0:0:0:
377,164,94359,5,0,1:1:0:0:
377,164,94484,1,8,2:3:0:0:
314,261,94609,6,0,P|337:256|346:229,1,39.3750015020371,6|0,2:3|0:0,0:0:0:0:
289,129,94734,2,0,P|277:168|300:184,1,52.5,0|0,1:1|0:0,0:0:0:0:
421,194,94859,6,0,P|386:184|367:161,1,62.9999980773926,12|0,2:2|0:0,0:0:0:0:
290,113,94984,2,0,P|329:103|332:75,1,52.5,8|0,2:3|0:0,0:0:0:0:
401,11,95109,5,0,1:1:0:0:
401,11,95234,1,0,0:0:0:0:
426,103,95359,6,0,B|410:142|491:138|476:96|442:-36|258:-22|216:78,1,341.249984378815,0|0,1:1|0:0,0:0:0:0:
216,65,95734,1,4,1:3:0:0:
70,183,95859,6,0,B|29:211|-30:140|38:56|149:80|170:139|170:139|170:171|200:181,1,314.999990386963,10|0,2:3|0:0,0:0:0:0:
201,188,96234,1,10,2:3:0:0:
281,120,96359,6,0,P|205:218|217:345,1,251.999992309571,0|6,0:0|2:3,0:0:0:0:
205,345,96671,1,0,0:0:0:0:
207,356,96734,1,0,1:1:0:0:
77,261,96859,5,12,2:2:0:0:
146,294,96984,1,8,2:3:0:0:
278,195,97109,2,0,B|346:206|310:259|372:267,1,125.999996154785,0|8,1:1|2:3,0:0:0:0:
417,367,97359,6,0,B|426:362|426:362|459:368|459:368|489:182,1,188.999994232178,6|0,1:2|0:0,0:0:0:0:
466,221,97609,2,0,B|450:126|450:126|428:130|428:130|422:126,2,125.999996154785,2|0|10,2:2|1:1|2:3,0:0:0:0:
479,298,97984,5,0,0:0:0:0:
354,193,98109,1,2,1:2:0:0:
493,61,98234,2,0,P|440:108|345:0,1,251.999992309571,2|0,1:2|0:0,0:0:0:0:
454,0,98609,6,0,B|431:11|422:36|422:36|207:66,2,251.999992309571,2|10|2,1:2|2:3|1:2,0:0:0:0:
493,61,99359,5,2,1:3:0:0:
345,0,99484,1,8,2:2:0:0:
358,7,99734,5,0,1:1:0:0:
219,78,99859,1,10,2:3:0:0:
229,73,100109,6,0,P|215:43|189:33,1,62.9999980773926,2|0,1:2|0:0,0:0:0:0:
116,2,100234,2,0,P|34:41|53:149,1,210,10|0,2:2|0:0,0:0:0:0:
158,202,100609,1,0,1:1:0:0:
158,202,100734,1,0,1:1:0:0:
54,159,100859,6,0,B|27:169|58:199|8:207|-20:175|93:14|147:81|138:116,1,220.499993270874,10|0,2:3|0:0,0:0:0:0:
210,84,101109,2,0,P|224:114|250:124,1,62.9999980773926,2|0,1:2|0:0,0:0:0:0:
325,245,101234,6,0,B|340:273|252:244|313:189|374:198|379:202|382:208|439:191|445:141|436:92|378:30|290:94|307:194|344:171,1,341.249984378815,2|0,2:2|0:0,0:0:0:0:
403,140,101609,1,2,2:2:0:0:
403,140,101734,1,0,1:1:0:0:
240,202,101859,6,0,B|257:206|266:223|266:223|359:210|434:279,1,204.749990627289,10|0,2:3|0:0,0:0:0:0:
488,230,102109,2,0,P|439:246|423:284,1,68.2499968757631
285,353,102234,2,0,B|266:320|207:363|179:313|257:283|367:261|388:369,1,272.999987503052,2|0,1:2|0:0,0:0:0:0:
400,376,102609,5,2,2:2:0:0:
400,376,102859,6,0,B|346:363|425:285|187:239|280:383|153:384,1,293.999991027832,10|2,2:3|1:2,0:0:0:0:
230,330,103234,1,2,2:2:0:0:
175,169,103359,6,0,L|169:215,1,39.3750015020371,2|0,1:3|0:0,0:0:0:0:
162,284,103484,1,8,2:2:0:0:
53,217,103734,6,0,L|91:246,1,44.6250008511543,0|0,1:1|0:0,0:0:0:0:
151,288,103859,1,10,2:3:0:0:
23,346,104109,6,0,L|72:325,1,52.5,0|0,1:1|0:0,0:0:0:0:
150,301,104234,1,8,2:2:0:0:
230,330,104484,5,0,1:1:0:0:
245,254,104609,1,0,1:1:0:0:
169,208,104734,1,0,1:1:0:0:
218,99,104859,1,10,2:3:0:0:
226,113,104984,1,8,2:2:0:0:
103,157,105109,2,0,P|58:113|82:60,1,105,2|0,1:2|0:0,0:0:0:0:
208,0,105359,6,0,P|282:44|389:81,1,188.999994232178,6|0,1:2|0:0,0:0:0:0:
425,161,105609,2,0,B|421:123|449:100|473:116|525:86|528:39|440:10|427:67|491:88,1,188.999994232178,2|0,2:2|0:0,0:0:0:0:
378,78,105859,2,0,B|311:79|288:6|382:-36|391:13|344:52|384:76,1,188.999994232178,10|0,2:3|0:0,0:0:0:0:
457,81,106109,1,2,1:2:0:0:
325,203,106234,6,0,B|368:223|354:216|361:141|487:150|502:219|499:287|443:314,1,251.999992309571,2|0,1:2|0:0,0:0:0:0:
372,381,106609,6,0,B|356:355|310:391|259:346|321:266|328:253|286:317|315:357|377:325|375:377,1,220.499993270874,2|0,1:2|0:0,0:0:0:0:
389,278,106859,6,0,P|358:290|343:315,1,52.5,10|0,2:3|0:0,0:0:0:0:
293,362,106984,1,0,0:0:0:0:
293,362,107109,2,0,B|238:353|238:353|228:323|199:321,1,105,2|0,1:2|0:0,0:0:0:0:
52,233,107359,6,0,P|80:241|94:266,1,52.5,2|0,1:3|0:0,0:0:0:0:
99,384,107484,2,0,L|129:139,1,236.250009012223,8|0,2:2|0:0,0:0:0:0:
137,144,107734,1,0,1:1:0:0:
30,314,107859,6,0,B|22:246|113:182|148:261|197:219|214:175,1,251.999992309571,10|0,2:3|1:1,0:0:0:0:
92,259,108234,6,0,B|109:214|70:190|65:196|57:200|-32:223|-39:57|60:43,1,267.750005106926,10|0,2:2|0:0,0:0:0:0:
30,40,108484,5,0,0:0:0:0:
101,5,108609,1,0,1:1:0:0:
26,29,108734,1,0,1:1:0:0:
125,141,108859,5,10,2:3:0:0:
209,64,108984,1,0,0:0:0:0:
287,72,109109,1,2,1:2:0:0:
313,108,109234,1,0,0:0:0:0:
197,57,109359,6,0,P|262:171|313:184,1,188.999994232178,2|0,1:3|0:0,0:0:0:0:
344,252,109609,2,0,B|374:239|381:213|381:213|431:207|431:207|436:204|436:204|442:206|442:206|484:201,1,157.5,2|0,2:2|1:1,0:0:0:0:
353,21,109859,2,0,P|342:90|369:131,1,105,10|0,2:3|0:0,0:0:0:0:
434,101,110109,2,0,P|443:66|461:55,1,52.5,2|0,2:2|0:0,0:0:0:0:
260,5,110234,6,0,P|396:105|398:196,1,262.5,2|0,1:2|0:0,0:0:0:0:
427,269,110609,5,2,2:2:0:0:
427,269,110734,1,0,1:1:0:0:
480,201,110859,6,0,P|386:190|381:340,1,267.750005106926,10|0,2:3|0:0,0:0:0:0:
371,349,111109,2,0,P|402:359|416:384,1,63,2|0,1:2|0:0,0:0:0:0:
486,330,111359,5,2,1:3:0:0:
331,263,111484,1,8,2:2:0:0:
324,248,111734,5,0,1:1:0:0:
489,206,111859,1,10,2:3:0:0:
493,194,112109,5,0,1:1:0:0:
284,144,112234,2,0,P|224:194|257:339,1,236.250009012223,10|0,2:2|0:0,0:0:0:0:
242,344,112484,5,0,1:1:0:0:
130,282,112609,1,0,1:1:0:0:
238,332,112734,1,0,1:1:0:0:
106,380,112859,6,0,P|98:354|82:339,1,39.3750015020371,10|0,2:3|0:0,0:0:0:0:
142,287,112984,2,0,P|118:307|110:337,1,52.5,8|0,2:2|0:0,0:0:0:0:
36,290,113109,2,0,P|11:256|33:209,1,78.7500030040742,0|0,1:1|0:0,0:0:0:0:
194,151,113234,1,0,0:0:0:0:
132,94,113359,6,0,B|109:52|78:107|-28:91|23:40|79:12|158:53|132:105,1,236.250009012223,14|0,1:2|0:0,0:0:0:0:
274,125,113609,2,0,B|321:126|289:71|356:-12|375:57|371:120|296:168|264:119,1,236.250009012223,6|0,2:3|0:0,0:0:0:0:
132,210,113859,6,0,B|101:205|86:261|73:240|143:195|216:240,1,157.500006008148,10|0,2:3|0:0,0:0:0:0:
357,116,114109,1,4,1:3:0:0:
194,151,114234,6,0,B|191:170|150:157|180:85|265:90|355:175|316:279,1,283.499991348267,2|0,1:2|0:0,0:0:0:0:
306,353,114484,2,0,B|307:369|225:369|247:291,1,105,2|4,2:2|1:3,0:0:0:0:
409,181,114734,6,0,B|451:176|433:98|334:89|264:187|316:276,1,283.499991348267,2|0,1:2|0:0,0:0:0:0:
310,368,114984,2,0,B|328:334|367:341|382:345|310:334|377:142|487:47,1,377.999988464356,2|0,2:2|0:0,0:0:0:0:
476,43,115359,6,0,P|451:51|436:74,1,39.3750015020371,10|0,1:3|0:0,0:0:0:0:
325,80,115484,2,0,P|345:92|357:123,1,52.5,8|0,2:2|0:0,0:0:0:0:
409,181,115609,6,0,B|433:163|420:102|372:162|331:73|376:4,1,188.999994232178,6|0,2:3|1:1,0:0:0:0:
377,13,115796,1,0,0:0:0:0:
388,6,115859,2,0,B|260:16|220:172|321:201|353:165|337:216,1,283.499991348267,10|0,2:3|0:0,0:0:0:0:
315,275,116109,1,6,1:3:0:0:
260,124,116234,6,0,B|323:10|643:49|355:269|140:263|222:115|272:86,1,472.499985580445,10|0,2:2|3:0,3:0:0:0:
346,88,116609,6,0,B|301:81|318:46|271:37,1,94.499997116089,4|0,1:3|0:0,0:0:0:0:
261,25,116734,1,0,1:1:0:0:
184,154,116859,5,10,2:3:0:0:
108,173,116984,1,2,2:2:0:0:
27,87,117109,6,0,P|38:80|43:69,1,26.25,6|0,1:3|0:0,0:0:0:0:
114,32,117234,6,0,B|93:17|121:-19|188:-12|220:83|109:139|104:137|100:135|96:133|15:179|69:246,1,315.000012016297,2|0,2:2|0:0,0:0:0:0:
56,249,117609,2,0,B|82:290|118:310|144:242|184:303|171:335,1,157.5,6|0,2:3|0:0,0:0:0:0:
59,361,117859,6,0,P|144:280|235:250,1,209.474991369896,10|0,2:3|0:0,0:0:0:0:
234,236,118109,1,6,2:3:0:0:
108,173,118234,6,0,P|98:263|253:325,1,279.299988493195,2|0,1:2|0:0,0:0:0:0:
299,384,118609,2,0,P|291:316|407:269,1,209.474991369896,6|0,2:3|0:0,0:0:0:0:
414,276,118859,5,10,2:3:0:0:
324,256,118984,1,0,0:0:0:0:
504,296,119109,1,6,1:3:0:0:
368,340,119234,5,2,2:2:0:0:
373,347,119359,6,0,B|412:353|393:374|432:378,1,69.8249971232988,10|0,1:3|0:0,0:0:0:0:
443,374,119484,1,8,2:2:0:0:
417,263,119734,6,0,B|441:232|450:259|473:227,1,69.8249971232988,0|0,1:1|0:0,0:0:0:0:
494,157,119859,1,10,2:3:0:0:
324,256,120109,6,0,B|309:219|337:225|321:189,1,69.8249971232988,4|0,1:3|0:0,0:0:0:0:
227,102,120234,2,0,B|255:167|305:118|332:181,1,139.649994246598,8|10,2:2|2:3,0:0:0:0:
299,384,120484,5,0,1:1:0:0:
185,288,120609,6,0,B|224:294|204:315|243:319,1,69.8249971232988,4|0,1:3|0:0,0:0:0:0:
249,326,120734,1,0,1:1:0:0:
84,367,120859,5,10,2:3:0:0:
125,354,120984,1,8,2:2:0:0:
8,228,121109,5,6,1:3:0:0:
84,250,121234,1,0,0:0:0:0:
26,304,121359,2,0,B|-9:276|2:201|60:190|67:192|71:193|138:174|141:90|71:140|103:154,1,236.250009012223,14|0,1:2|0:0,0:0:0:0:
84,250,121609,6,0,B|97:209|26:241|-2:172|40:159|-6:94,1,188.999994232178,6|0,2:3|0:0,0:0:0:0:
72,74,121859,2,0,B|153:50|156:98|182:165|160:7|71:33|62:92,1,188.999994232178,10|0,2:3|0:0,0:0:0:0:
14,18,122109,1,6,1:3:0:0:
96,148,122234,6,0,B|132:97|152:178|229:66|161:44|204:12,1,188.999994232178,2|0,1:2|0:0,0:0:0:0:
193,3,122484,1,0,0:0:0:0:
72,74,122609,6,0,B|96:105|60:116|144:81|193:110|259:211,1,188.999994232178,6|0,1:3|0:0,0:0:0:0:
287,118,122859,1,10,2:3:0:0:
214,89,122984,1,0,0:0:0:0:
269,246,123109,2,0,B|287:215|315:171|333:211|366:143,1,125.999996154785,6|0,1:3|0:0,0:0:0:0:
178,243,123359,5,10,1:3:0:0:
368,154,123484,1,8,2:2:0:0:
367,165,123734,5,0,1:1:0:0:
205,85,123859,1,10,2:3:0:0:
208,95,124109,5,4,1:3:0:0:
315,6,124234,2,0,B|331:156|249:85|268:245,1,251.999992309571,10|0,2:2|0:0,0:0:0:0:
311,327,124609,5,4,1:3:0:0:
326,329,124734,1,0,1:1:0:0:
272,257,124859,1,10,2:3:0:0:
168,230,124984,1,0,0:0:0:0:
101,128,125109,1,6,1:3:0:0:
179,240,125234,6,0,B|151:248|159:273|132:281,1,62.9999980773926,2|0,2:2|0:0,0:0:0:0:
42,347,125359,6,0,B|69:359|2:389|-48:311|-13:213|59:207|106:251|105:257|102:262|101:267|100:318|144:363|200:256|242:211|211:-67|89:9|-174:137|160:199|45:241,1,630,10|0,1:3|0:0,0:0:0:0:
133,281,126109,6,0,B|159:273|151:248|179:240,1,62.9999980773926,6|0,2:3|0:0,0:0:0:0:
312,151,126234,6,0,B|294:151|320:74|412:148|426:282|271:360|77:306|85:158|201:92|251:129|244:220,1,425.2500016222,2|6,1:2|2:3,0:0:0:0:
276,267,126734,6,0,B|307:275|296:303|327:312,1,70.8750002703667,0|0,1:1|0:0,0:0:0:0:
394,382,126859,6,0,B|371:331|554:327|590:345|417:134|404:307|315:320|207:160|273:22,1,496.125001892567,10|0,2:3|0:0,0:0:0:0:
232,0,127359,6,0,B|391:32|409:298|238:385|56:336|-34:198|35:76|143:-25|258:34|333:135|217:194|183:168,1,856.065013010265,10|4,1:3|1:3,0:0:0:0:
182,167,128734,6,0,B|212:190|303:150|279:73|200:11|109:34|32:109|22:211|92:297|210:325|305:260|326:160|326:160|335:100|386:77|438:108,1,801.268076202308,6|0,1:3|0:0,0:0:0:0:
512,90,129359,6,0,B|504:97|502:109|502:109|251:159|16:299,1,523.898897793852,6|0,1:2|0:0,0:0:0:0:
112,226,129734,6,0,B|37:212|76:148|0:127,2,157.500006008148,4|8|6,1:3|2:2|2:3,0:0:0:0:
196,344,130109,1,8,1:3:0:0:
35,287,130234,6,0,B|-21:230|3:100|102:61|208:88|231:172|221:230|215:229|211:228|209:227|180:255|223:303|267:305|297:285|316:236|294:204,1,498.749986681939,2|0,1:3|0:0,0:0:0:0:
300,259,130609,2,0,P|307:228|291:210,1,52.5,6|0,2:3|0:0,0:0:0:0:
276,142,130734,6,0,B|246:153|246:79|90:129|187:185|112:225,1,220.499993270874,0|0,1:1|0:0,0:0:0:0:
109,218,130984,2,0,P|78:202|81:147,1,73.4999977569581,10|0,2:3|0:0,0:0:0:0:
140,141,131109,2,0,P|142:115|168:99,1,52.5,2|0,1:2|0:0,0:0:0:0:
275,36,131234,6,0,B|280:16|313:56|278:114|184:112|206:23|209:20|214:17|157:-61|30:-75|-21:20|-11:85|127:187|67:114|37:50|112:33|164:25,1,440.999986541748,10|0,2:3|0:0,0:0:0:0:
276,142,131734,2,0,B|267:175|236:157|202:199|213:251,2,125.999996154785,4|10|6,1:3|2:3|2:3,0:0:0:0:
339,100,132109,1,8,1:3:0:0:
161,100,132234,6,0,B|231:95|247:192|238:198|215:285|322:290|327:223|287:206|282:247,1,251.999992309571,10|8,2:3|2:3,0:0:0:0:
158,304,132609,5,6,2:3:0:0:
225,345,132734,1,0,1:1:0:0:
193,384,132859,1,12,2:2:0:0:
140,300,132984,6,0,P|121:258|108:249,1,62.9999980773926,10|0,2:3|0:0,0:0:0:0:
218,195,133109,2,0,P|208:216|211:240,1,47.2499985580445,2|0,1:2|0:0,0:0:0:0:
305,321,133234,6,0,B|379:309|387:229|383:228|378:227|372:226|324:169|449:90|534:210|479:368|434:342|414:326,1,377.999988464356,10|8,2:3|2:3,0:0:0:0:
405,178,133734,6,0,B|427:156|379:140|429:78|441:142|494:121|501:92|452:127|420:124|413:187,1,188.999994232178,6|0,1:3|0:0,0:0:0:0:
506,250,133984,2,0,B|501:230|476:252|456:202|497:217|502:179|488:165|492:206|480:222|513:248,1,125.999996154785,6|8,2:3|1:3,0:0:0:0:
419,330,134234,6,0,B|402:312|359:324|353:360|421:389|434:430|355:411|234:365|308:266|442:257|446:259|451:260|455:262|469:354|544:376|499:161|409:114|259:208|287:234,1,516.600007882691,2|0,1:3|1:1,0:0:0:0:
364,276,134859,6,0,P|375:265|405:259,1,42,12|0,2:2|0:0,0:0:0:0:
498,167,134984,1,10,2:3:0:0:
442,87,135109,1,2,1:2:0:0:
498,249,135234,6,0,B|449:223|395:238|479:331|164:329|226:92|374:43|387:100|373:130|352:112,1,367.49998878479,10|0,1:3|0:0,0:0:0:0:
370,121,135609,2,0,B|368:142|339:175|321:106|247:186|285:248,1,178.500003404617,10|4,2:3|1:3,0:0:0:0:
205,369,135859,6,0,P|218:345|205:318,1,52.5,10|0,2:3|0:0,0:0:0:0:
144,282,135984,2,0,B|84:213|0:260|-34:350|57:372|63:344|38:327,1,236.250009012223,6|0,2:3|0:0,0:0:0:0:
125,359,136234,6,0,B|72:196|226:94|438:197|269:277|283:245,1,393.750015020371,10|0,2:3|0:0,0:0:0:0:
183,157,136609,5,10,2:3:0:0:
206,228,136734,1,8,1:2:0:0:
307,64,136859,6,0,P|258:88|257:134,1,78.7500030040742,14|0,2:2|0:0,0:0:0:0:
183,157,136984,2,0,P|171:116|142:103,1,68.2499968757631,10|0,2:3|0:0,0:0:0:0:
187,3,137109,6,0,P|196:26|199:44,1,42,8|0,1:2|0:0,0:0:0:0:
255,119,137234,1,10,2:2:0:0:
112,34,137359,6,0,B|96:90|76:49|-10:18|-80:106|-63:228|45:284|109:167|106:164|103:161|96:156|110:106|183:114|184:168,1,420,6|0,1:2|0:0,0:0:0:0:
120,248,137734,6,0,P|82:122|-15:29,1,252,6|0,1:3|0:0,0:0:0:0:
112,34,137984,2,0,B|105:69|105:70|105:68|105:70|105:69|47:72|16:178,1,168,6|8,2:3|1:3,0:0:0:0:
6,328,138234,6,0,B|-31:313|-91:264|104:14|313:264|250:333|50:331|248:387|127:391|215:317|108:253|60:271|-21:315|27:380|58:384,1,569.625004345894,2|0,1:3|0:0,0:0:0:0:
127,351,138734,2,0,B|169:312|132:258|91:275|63:305|42:259,2,162.750001241684,0|12|10,1:1|2:2|2:3,0:0:0:0:
318,205,139109,2,0,P|297:220|288:245,1,52.5,2|0,1:2|0:0,0:0:0:0:
241,324,139234,6,0,B|285:299|358:316|288:379|360:395|415:319|365:235|286:219|271:261,1,262.5,10|0,2:3|0:0,0:0:0:0:
363,267,139609,1,10,2:3:0:0:
233,153,139734,2,0,B|245:130|195:126|169:175|198:250|283:235,1,188.999994232178,6|0,1:3|0:0,0:0:0:0:
440,202,139984,2,0,B|380:214|396:259|363:267,1,105,6|8,2:3|1:3,0:0:0:0:
241,324,140234,6,0,B|216:346|236:384|304:382|384:366|417:341|506:233|419:31|240:103|241:207|301:239,1,525,10|0,2:3|0:0,0:0:0:0:
363,266,140609,2,0,B|410:261|467:323|408:388|393:382|465:332|406:254|296:291|322:337,1,267.750005106926,6|0,2:3|0:0,0:0:0:0:
350,373,140859,5,12,2:2:0:0:
457,275,140984,2,0,P|443:292|437:319,1,42,10|0,2:3|0:0,0:0:0:0:
361,373,141109,2,0,P|344:344|325:331,1,52.5,2|0,1:2|0:0,0:0:0:0:
294,234,141234,6,0,B|264:192|230:263|193:304|118:269|158:149|270:96|359:90|367:168|344:181,1,367.49998878479,10|0,2:3|0:0,0:0:0:0:
358,188,141609,2,0,B|356:203|346:195|318:201|300:234,1,73.4999977569581,10|0,2:3|0:0,0:0:0:0:
241,324,141734,2,0,B|262:310|216:256|105:249|122:139,1,220.499993270874,6|0,1:3|0:0,0:0:0:0:
218,161,141984,6,0,P|234:150|242:132,1,39.3750015020371,6|0,2:3|0:0,0:0:0:0:
236,125,142109,2,0,P|219:135|211:153,1,39.3750015020371,8|0,1:3|0:0,0:0:0:0:
142,239,142234,6,0,B|95:290|76:279|95:176|-28:200|-90:345|-1:394|79:391|191:375|208:281|185:242|143:250,1,446.250008511543,2|0,1:3|0:0,0:0:0:0:
80,272,142609,2,0,P|58:301|56:322,1,52.5,6|0,2:3|1:1,0:0:0:0:
145,366,142859,6,0,P|141:340|126:326,1,39.3750015020371,14|0,2:2|0:0,0:0:0:0:
150,249,142984,2,0,P|223:288|242:328,1,125.999996154785,10|0,2:3|1:1,0:0:0:0:
324,314,143234,2,0,P|329:206|238:116,1,236.250009012223,10|0,1:3|0:0,0:0:0:0:
386,150,143484,6,0,B|401:138|385:88|302:140|305:219|390:206|358:222|293:167|283:85|417:56,1,236.250009012223,2|0,2:3|0:0,0:0:0:0:
485,72,143734,2,0,B|311:-5|140:159|240:308|148:357,1,516.600007882691,6|12,1:3|2:2,0:0:0:0:
145,366,144609,6,0,P|141:340|126:326,1,39.3750015020371,10|0,2:3|0:0,0:0:0:0:
79,275,144734,2,0,P|57:304|63:333,1,52.5,8|0,1:2|0:0,0:0:0:0:
150,349,144859,6,0,P|156:330|183:302,1,44.6250008511543,12|0,2:2|0:0,0:0:0:0:
216,250,144984,2,0,P|244:277|239:314,1,62.9999980773926,8|0,2:3|0:0,0:0:0:0:
142,377,145109,6,0,P|118:284|11:232,1,220.499993270874,8|0,1:2|0:0,0:0:0:0:
109,121,145359,6,0,B|86:85|132:7|244:21|263:160|188:239|98:222|71:161|108:107,1,357.000006809235,6|10,1:2|2:3,0:0:0:0:
233,14,145734,1,4,1:3:0:0:
6,113,145859,6,0,B|-5:137|47:116|21:79|21:79|93:50|174:92|181:197,1,267.750005106926,10|0,2:2|0:0,0:0:0:0:
189,162,146109,1,10,1:3:0:0:
103,0,146234,6,0,P|103:116|280:162,1,315.000012016297,2|8,1:3|2:3,0:0:0:0:
360,185,146609,6,0,B|359:114|430:128|427:44,1,157.500006008148,6|0,2:3|1:1,0:0:0:0:
395,259,146859,2,0,B|443:286|405:330|465:361,1,125.999996154785,14|8,2:2|2:3,0:0:0:0:
314,253,147109,2,0,B|277:274|263:233|220:260,1,94.499997116089,2|0,1:2|0:0,0:0:0:0:
10,346,147359,6,0,P|55:357|86:261,1,157.5,2|0,1:2|0:0,0:0:0:0:
145,384,147609,2,0,P|113:357|112:349,1,52.5,8|0,2:3|0:0,0:0:0:0:
108,271,147734,2,0,B|116:253|130:247|130:247|188:226|185:176|162:45|-107:187|32:272|61:232|34:209,1,315.000012016297,6|4,1:3|2:3,0:0:0:0:
184,318,148109,6,0,B|214:305|202:281|239:265,1,78.7500030040742,8|0,1:3|0:0,0:0:0:0:
360,185,148234,2,0,P|324:246|300:357,1,157.500006008148,10|0,2:3|0:0,0:0:0:0:
289,336,148484,5,8,2:3:0:0:
393,272,148609,1,6,2:3:0:0:
313,244,148734,1,0,1:1:0:0:
395,287,148859,1,12,2:2:0:0:
260,190,148984,2,0,P|298:121|318:45,1,157.500006008148,8|8,2:3|2:3,0:0:0:0:
327,35,149359,6,0,L|373:43,1,39.3750015020371,6|0,1:2|0:0,0:0:0:0:
384,116,149484,2,0,L|430:124,1,39.3750015020371
500,47,149609,6,0,B|471:54|467:83|468:83|466:83|467:83|466:83|467:83|279:116,1,236.250009012223,10|0,2:3|0:0,0:0:0:0:
272,117,149859,2,0,B|251:30|151:43|198:96|206:72,1,136.499993751526,10|4,2:2|2:3,0:0:0:0:
327,35,150109,1,10,1:3:0:0:
260,190,150234,2,0,B|78:222|78:222|55:179|3:179,1,272.999987503052,2|8,1:3|2:3,0:0:0:0:
107,89,150609,5,6,2:3:0:0:
15,165,150734,1,0,1:1:0:0:
162,189,150859,2,0,B|195:186|181:116|272:112,1,136.499993751526,14|8,2:2|2:3,0:0:0:0:
435,0,151109,1,2,1:2:0:0:
260,190,151234,6,0,B|282:232|342:209|401:135|380:90|300:-12|118:-58|68:161|75:191|148:372|197:268|265:207|269:205|273:203|280:200|431:126|496:151|517:306|434:400|319:432|220:433|164:406|152:381|110:342|173:352|244:294|251:297|257:298|260:299|265:299|289:290|387:186|275:144|122:155|25:242|-22:414|131:424|147:353|104:349,1,1160.24994688797,2|0,2:2|0:0,0:0:0:0:
28,285,152359,6,0,P|20:260|-3:243,1,52.5
103,178,152484,2,0,P|87:195|79:220,1,39.3750015020371,8|0,2:3|0:0,0:0:0:0:
137,262,152609,2,0,P|162:241|171:204,1,62.9999980773926,6|0,2:3|0:0,0:0:0:0:
83,98,152734,1,0,1:1:0:0:
91,90,152984,6,0,L|133:83,1,39.3750015020371,8|0,2:3|0:0,0:0:0:0:
191,130,153109,2,0,L|233:123,1,39.3750015020371,0|0,1:1|0:0,0:0:0:0:
315,22,153234,1,8,2:3:0:0:
203,51,153359,6,0,B|185:45|193:16|253:-23|376:-3|415:119|379:133|335:126|287:116|317:203,2,315.000012016297,6|10|10,1:2|2:3|2:2,0:0:0:0:
386,112,153984,6,0,B|381:119|381:119|386:152,1,39.3750015020371,4|0,2:3|0:0,0:0:0:0:
309,169,154109,2,0,B|307:180|307:180|334:213,1,52.5,10|0,1:3|0:0,0:0:0:0:
273,258,154234,2,0,B|282:277|282:277|436:337|436:337|447:358,1,210,2|8,1:3|2:3,0:0:0:0:
342,377,154609,6,0,P|371:341|393:340,1,52.5,6|0,2:3|0:0,0:0:0:0:
394,268,154734,2,0,P|411:274|432:294,1,39.3750015020371,0|0,1:1|0:0,0:0:0:0:
336,373,154984,6,0,P|335:359|328:349,1,26.25,8|0,2:3|0:0,0:0:0:0:
282,267,155109,2,0,P|278:288|265:303,1,42,2|0,1:2|0:0,0:0:0:0:
210,360,155234,2,0,P|195:336|166:325,1,57.7500017623902
32,206,155359,6,0,B|46:217|14:243|-26:255|-74:79|77:74|151:104|195:262|95:273|84:272|84:272|83:304|9:282|62:399|123:354|91:301|80:337,2,472.500018024445,2|6|8,1:2|1:3|1:3,0:0:0:0:
179,93,156234,6,0,B|174:119|184:148|184:148|63:229|0:398,1,357.000006809235,10|8,2:3|2:3,0:0:0:0:
168,325,156609,6,0,B|154:323|168:284|119:265,1,78.7500030040742,6|0,2:3|0:0,0:0:0:0:
152,161,156734,2,0,P|154:188|176:205,1,52.5,0|0,1:1|0:0,0:0:0:0:
231,263,156859,2,0,P|238:243|263:226,1,39.3750015020371,14|0,2:2|0:0,0:0:0:0:
336,201,156984,6,0,B|313:185|360:172|389:190|402:212|393:120|293:128|300:182|307:225|270:281|142:233|104:170|161:34|269:90|255:128,1,393.750015020371,10|0,2:3|0:0,0:0:0:0:
351,49,157359,6,0,P|333:78|327:95,1,52.5,4|0,1:2|0:0,0:0:0:0:
253,114,157484,2,0,P|266:135|271:148,1,39.3750015020371
342,210,157609,6,0,P|398:210|426:121,1,157.500006008148,10|4,2:3|1:3,0:0:0:0:
178,31,157859,6,0,P|164:31|155:42,1,26.25,10|0,2:2|0:0,0:0:0:0:
139,43,157984,2,0,P|114:119|171:163,1,157.500006008148,6|8,2:3|1:3,0:0:0:0:
302,291,158234,6,0,B|340:265|353:273|340:282|332:267|373:116|463:34,1,315.000012016297,2|8,1:3|2:3,0:0:0:0:
351,49,158609,2,0,B|356:80|416:62|431:120,1,105,6|0,2:3|1:1,0:0:0:0:
422,273,158859,6,0,P|425:249|439:217,1,52.5,14|0,2:2|0:0,0:0:0:0:
448,226,158984,2,0,P|438:250|434:276,1,52.5,8|0,2:3|0:0,0:0:0:0:
311,344,159109,2,0,P|308:324|300:306,1,39.3750015020371,2|0,1:2|0:0,0:0:0:0:
321,178,159234,6,0,B|341:194|314:228|350:194|324:232|283:301|349:355|430:371|483:375|547:301|495:63|418:116|338:146|330:218|376:222,1,472.500018024445,2|8,2:2|2:3,0:0:0:0:
314,300,159734,6,0,P|321:318|324:337,1,39.3750015020371,4|0,1:3|0:0,0:0:0:0:
482,375,159859,2,0,B|384:327|458:319|387:254|331:183|309:330|217:284,1,315,10|0,2:3|0:0,0:0:0:0:
215,294,160109,1,8,1:3:0:0:
356,207,160234,6,0,B|279:172|295:252|174:264|81:113|198:21|320:69|363:150|309:205,1,420,10|8,2:3|2:3,0:0:0:0:
213,279,160609,6,0,B|201:265|216:251|251:267|248:193,1,78.7500030040742,6|0,2:3|0:0,0:0:0:0:
184,129,160734,2,0,P|138:119|111:212,1,157.500006008148,0|12,1:1|2:2,0:0:0:0:
214,344,160984,6,0,B|222:323|191:319|198:277,1,68.2499968757631,8|0,2:3|0:0,0:0:0:0:
259,221,161109,2,0,B|297:146|370:190|462:28,1,267.750005106926,0|0,1:1|0:0,0:0:0:0:
364,105,161359,6,0,B|343:87|328:109|356:141|289:186|221:158|218:90|210:35|276:-23|364:-25|490:41|382:125|384:180|384:180|399:195|399:195|396:238|451:267|550:259|568:72|487:45|405:92|436:139,1,813.75000620842,4|4,1:2|2:3,0:0:0:0:
322,186,162109,6,0,B|322:218|369:198|373:263,1,81.375000620842,8|0,1:3|1:2,0:0:0:0:
447,280,162234,2,0,P|429:303|422:332,1,52.5,2|0,1:3|0:0,0:0:0:0:
333,361,162359,6,0,B|337:381|303:400|230:388|154:274|280:121|360:230|366:257|366:257|380:263|380:263|403:343|471:234,1,440.999986541748,0|6,1:1|2:3,0:0:0:0:
512,187,162734,6,0,B|475:199|467:226|475:236|469:233|473:227|480:218|338:241|214:340,1,336,0|8,1:1|2:3,0:0:0:0:
75,246,163109,6,0,B|67:251|74:221|39:214|19:244|-9:195|88:178|117:270,1,168,0|0,1:1|0:0,0:0:0:0:
76,372,163359,6,0,B|44:381|36:315|51:252|147:216|159:225|264:172|264:72|190:49|138:37|146:101,1,421.312487142563,0|4,1:1|1:3,0:0:0:0:
133,279,163859,6,0,P|125:234|80:110,1,168,10|4,2:3|2:3,0:0:0:0:
408,201,164109,2,0,P|416:156|461:32,1,168,8|10,1:3|2:3,0:0:0:0:
195,191,164359,6,0,B|170:155|186:97|270:122|325:178|242:239|319:238|319:238|327:234|327:234|348:232|351:194|411:195,1,336,0|6,0:0|2:3,0:0:0:0:
269,237,164734,2,0,B|230:240|208:279|191:357|229:321|224:255|279:252,1,168,0|12,1:1|2:2,0:0:0:0:
402,185,164984,6,0,P|377:171|356:125,1,68.2499968757631,8|0,2:3|0:0,0:0:0:0:
278,111,165109,2,0,P|294:96|304:65,1,52.5,0|0,1:1|0:0,0:0:0:0:
352,7,165234,1,8,2:3:0:0:
372,117,165359,6,0,B|373:132|398:143|435:128|457:206|313:184|346:261,2,178.500003404617,4|0|8,1:2|0:0|2:3,0:0:0:0:
459,41,165734,6,0,B|439:51|434:61|438:83|450:70|400:61|260:101|193:199,1,315.000012016297,4|4,1:3|2:3,0:0:0:0:
110,135,166109,5,8,1:3:0:0:
227,52,166234,1,2,1:3:0:0:
122,143,166359,6,0,B|45:144|117:261|45:345|15:337|-5:294|25:279|31:299,1,236.250009012223,0|0,1:1|0:0,0:0:0:0:
97,252,166609,2,0,P|106:235|134:213,1,44.6250008511543,6|0,2:3|0:0,0:0:0:0:
196,120,166734,2,0,B|153:112|118:65|184:37|160:-16|25:-71|-52:15|43:124|80:72,1,315.000012016297,0|8,1:1|2:3,0:0:0:0:
195,196,167109,2,0,B|233:216|200:266|291:319,1,136.499993751526,0|0,1:1|0:0,0:0:0:0:
473,368,167359,6,0,B|487:372|529:341|517:266|512:199|426:186|394:266|425:328|396:358|327:352|284:329|287:299|244:219|307:166|320:169|342:196,1,477.749978130342,0|0,1:1|0:0,0:0:0:0:
402,247,167859,6,0,B|400:281|344:266|330:331|352:359,2,125.999996154785,10|4|8,2:3|2:3|1:3,0:0:0:0:
474,158,168234,1,10,2:3:0:0:
391,245,168359,6,0,B|381:214|364:229|354:197,1,62.9999980773926
387,127,168484,2,0,P|376:116|365:94,1,39.3750015020371,8|0,2:3|0:0,0:0:0:0:
466,167,168609,5,6,2:3:0:0:
479,172,168734,1,0,1:1:0:0:
444,67,168859,5,12,2:2:0:0:
328,203,168984,1,8,2:3:0:0:
270,135,169109,1,0,1:1:0:0:
196,120,169234,1,8,2:3:0:0:
340,21,169359,6,0,B|427:39|450:141|323:87|270:105|281:139,1,236.250009012223,4|0,1:2|0:0,0:0:0:0:
273,145,169609,1,8,2:3:0:0:
444,67,169734,6,0,B|362:78|374:21|271:-47|68:-3|144:116|191:112,1,393.750015020371,4|0,1:3|0:0,0:0:0:0:
270,135,170109,6,0,B|277:176|229:174|229:234,1,105,8|2,1:3|1:3,0:0:0:0:
126,296,170359,2,0,B|98:289|56:360|32:366|36:319|62:273|142:207|214:208|223:236,1,293.999991027832,0|6,1:1|2:3,0:0:0:0:
19,184,170734,6,0,P|54:198|77:243,1,84,0|8,1:1|2:3,0:0:0:0:
64,249,171109,6,0,B|103:314|139:245|253:301|199:345|290:386,1,267.750005106926,0|0,1:1|0:0,0:0:0:0:
393,330,171359,6,0,B|382:322|413:280|428:282|428:282|437:291|437:291|460:325|481:242|462:202|374:151|257:302|318:309,1,357.000006809235,0|8,1:1|2:3,0:0:0:0:
397,342,171734,1,4,1:3:0:0:
397,342,171859,6,0,B|422:302|409:236|360:286|335:260|282:165|331:119|360:110|380:141|360:149,1,267.750005106926,10|0,2:3|0:0,0:0:0:0:
419,201,172109,2,0,B|416:209|422:217|393:220|389:258,1,63,8|0,1:3|0:0,0:0:0:0:
378,264,172359,6,0,B|382:210|461:251|538:176|544:124|486:76|447:106|469:132,1,267.750005106926
366,133,172609,2,0,B|374:156|397:153|417:211,1,78.75,6|0,2:3|0:0,0:0:0:0:
393,270,172859,5,12,2:2:0:0:
434,97,172984,1,8,2:3:0:0:
454,10,173234,5,8,2:3:0:0:
354,136,173359,6,0,B|316:125|344:43|284:29,2,136.499993751526,4|0|8,1:2|0:0|2:3,0:0:0:0:
468,130,173734,6,0,B|440:138|428:214|438:218|433:203|380:185|269:247|247:320,1,272.999987503052,4|4,1:3|2:3,0:0:0:0:
116,352,174109,6,0,P|107:327|93:313,1,39.3750015020371,8|0,1:3|1:0,0:0:0:0:
171,237,174234,2,0,P|159:252|155:266,1,31.4999990386963,2|0,1:3|0:0,0:0:0:0:
58,306,174359,6,0,P|158:293|188:365,1,188.999994232178,0|0,1:1|0:0,0:0:0:0:
198,373,174609,1,6,2:3:0:0:
85,237,174734,2,0,B|108:149|166:178|190:82,1,188.999994232178,0|0,1:1|0:0,0:0:0:0:
202,75,174984,1,8,2:3:0:0:
93,158,175109,2,0,B|98:239|182:232|207:323|202:361,1,236.250009012223,0|0,1:1|0:0,0:0:0:0:
209,368,175359,6,0,B|256:326|211:295|290:100|461:124|443:144,1,315.000012016297,0|0,1:1|0:0,0:0:0:0:
510,73,175609,6,0,P|498:56|473:53,1,41.9999987182618,8|0,2:3|0:0,0:0:0:0:
410,85,175692,6,0,P|401:103|410:126,1,41.9999987182618,0|4,0:0|1:3,0:0:0:0:
471,166,175775,6,0,P|491:164|506:144,1,41.9999987182618
501,73,175859,6,0,B|420:43|313:114|294:230|375:283|406:234|491:252|491:315|471:339,1,420,10|8,2:3|1:3,0:0:0:0:
396,361,176192,5,8,1:3:0:0:
402,348,176275,1,8,1:3:0:0:
320,290,176359,5,0,0:0:0:0:
319,312,176442,1,8,1:3:0:0:
332,323,176525,1,0,1:0:0:0:
393,273,176609,5,6,2:3:0:0:
378,227,176692,1,0,0:0:0:0:
306,213,176775,1,0,0:0:0:0:
255,142,176859,5,12,2:2:0:0:
251,131,177109,5,0,1:1:0:0:
426,276,177234,1,8,2:3:0:0:
149,135,177359,6,0,B|139:143|107:118|160:83|51:63|-8:180|42:201|80:205|85:209|91:210|95:212|164:246|146:291|127:337|61:363|-1:361|-48:295|-19:210|14:182|63:185|76:219|71:230,1,477.749978130342,6|0,1:2|0:0,0:0:0:0:
83,213,177859,5,4,1:3:0:0:
238,243,178359,1,4,1:3:0:0:
393,273,178859,1,4,1:3:0:0:
291,369,179359,6,0,B|316:363|326:359|329:333|291:293|300:304|283:331|301:317|307:325|285:341|217:356|179:303|218:236|245:231,1,210,4|8,1:3|2:3,0:0:0:0:
224,234,179734,1,0,0:0:0:0:
318,293,179859,2,0,B|323:269|367:252|376:308|458:254|444:162|394:146,1,210,4|8,1:3|2:3,0:0:0:0:
317,201,180234,5,0,0:0:0:0:
317,201,180359,2,0,P|353:86|376:-2,1,210,4|8,1:3|2:3,0:0:0:0:
424,151,180859,2,0,B|471:166|442:202|500:216,2,105,4|0|8,1:3|0:0|2:3,0:0:0:0:
327,62,181234,1,0,0:0:0:0:
327,62,181359,6,0,P|267:35|172:181,1,262.5,4|0,1:3|0:0,0:0:0:0:
162,177,181734,1,0,0:0:0:0:
259,134,181859,1,4,1:3:0:0:
152,171,182234,2,0,P|125:272|93:372,1,210
144,318,182609,2,0,P|96:266|47:216,1,140,8|0,2:3|0:0,0:0:0:0:
76,143,182859,1,4,1:3:0:0:
119,245,182984,2,0,B|206:264|143:342|209:389|267:368,1,210
21,341,183359,6,0,P|184:293|340:262,1,315,4|0,1:3|0:0,0:0:0:0:
232,206,183859,1,4,1:3:0:0:
336,252,183984,2,0,P|316:267|298:294,1,52.5,0|8,0:0|2:3,0:0:0:0:
264,359,184234,6,0,B|322:346|327:266|269:233|346:156|440:152|476:219,1,315,0|8,0:0|2:3,0:0:0:0:
377,143,184859,5,4,1:3:0:0:
454,211,184984,2,0,B|462:245|500:258|515:251,2,78.7500030040742,0|8|0,0:0|2:3|0:0,0:0:0:0:
373,155,185359,6,0,B|360:55|256:-3|156:2|66:99|68:219|197:257|196:207|147:94|220:64|320:112|296:205|276:207|263:174,1,551.25002102852,6|0,1:3|0:0,0:0:0:0:
227,117,185859,5,4,1:3:0:0:
227,117,185984,2,0,B|232:93|276:87|284:21,1,105,2|8,2:2|2:3,0:0:0:0:
114,121,186234,6,0,B|123:209|205:196|228:365,1,262.5,2|0,2:2|0:0,0:0:0:0:
236,359,186609,5,8,2:3:0:0:
273,289,186859,5,4,1:3:0:0:
183,206,186984,1,0,0:0:0:0:
102,258,187109,2,0,P|131:301|140:330,1,78.75,8|0,2:3|0:0,0:0:0:0:
148,336,187359,6,0,B|173:263|237:271|240:278|246:287|380:214|302:112,1,315.000012016297,4|8,1:3|2:3,0:0:0:0:
275,192,187734,1,0,0:0:0:0:
275,192,187859,2,0,B|283:208|311:196|313:264|292:262|272:268|280:290,2,105,4|0|8,1:3|0:0|2:3,0:0:0:0:
385,107,188234,6,0,B|422:127|481:79|468:50|521:20|539:120|528:230|446:214|442:172,1,262.5
461,210,188609,2,0,P|440:216|402:267,1,78.7500030040742,8|0,2:3|0:0,0:0:0:0:
347,321,188859,5,4,1:3:0:0:
391,256,188984,1,0,0:0:0:0:
455,375,189109,1,10,2:3:0:0:
441,372,189359,6,0,B|422:341|464:330|492:303|471:278,1,105,6|0,1:3|0:0,0:0:0:0:
290,113,189609,2,0,B|316:131|248:146|267:209,1,105,10|0,2:2|0:0,0:0:0:0:
347,321,189859,5,6,1:3:0:0:
391,256,189984,2,0,P|406:168|442:45,1,209.999465943741
391,114,190234,6,0,B|287:105|270:197|284:199|268:290|157:277,1,315.000012016297
150,293,190609,2,0,B|89:282|109:222|118:212|4:139,1,157.500006008148,10|0,2:2|0:0,0:0:0:0:
121,39,190859,5,6,1:3:0:0:
133,39,190942,2,0,P|160:71|156:102,1,52.5000020027161
380,125,191109,1,10,2:2:0:0:
365,127,191192,2,0,P|336:146|325:183,1,70
276,354,191359,6,0,B|159:239|204:-4|376:-91|545:29|562:148|514:210|443:249|389:188,1,735,4|0,1:3|0:0,0:0:0:0:
402,199,192359,6,0,B|483:254|557:104|412:74,1,204.749990627289,4|0,1:3|0:0,0:0:0:0:
449,95,192609,6,0,B|376:64|304:121|305:183|320:232,1,204.749990627289,8|0,2:3|0:0,0:0:0:0:
319,207,192859,6,0,P|331:251|373:269,1,68.2499968757631,4|0,1:3|0:0,0:0:0:0:
386,357,192984,2,0,P|402:341|432:332,1,52.5,4|0,1:3|0:0,0:0:0:0:
503,315,193109,1,10,1:3:0:0:
503,315,193234,1,10,1:3:0:0:
373,349,193359,6,0,B|353:348|360:364|347:381|344:384|338:390|225:362|331:294|304:221|271:100|69:185|27:281|145:365|196:303,1,472.499985580445,6|0,1:2|0:0,0:0:0:0:
235,214,193734,2,0,B|267:177|284:172|324:204|346:120|313:106,2,146.999995513916,4|8|6,1:3|2:2|2:3,0:0:0:0:
103,267,194109,5,8,1:3:0:0:
202,315,194234,2,0,B|249:290|260:236|211:174|131:183|96:205|13:102|105:65|144:96,1,293.999991027832,2|8,1:3|2:3,0:0:0:0:
174,133,194609,2,0,B|169:170|140:154|130:187,1,73.4999977569581,6|0,2:3|0:0,0:0:0:0:
103,267,194734,2,0,B|139:247|82:201|149:167|222:150|196:238|253:221,1,204.749990627289,0|0,1:1|0:0,0:0:0:0:
243,213,194984,6,0,P|260:210|276:174,1,52.5,10|0,2:3|0:0,0:0:0:0:
323,116,195109,2,0,P|307:99|302:68,1,42,2|0,1:2|0:0,0:0:0:0:
150,51,195234,6,0,B|118:53|144:-14|253:-56|292:22|335:51|305:132|299:127|295:125|214:139|203:229|285:349|417:294|440:230|448:195|421:151|366:179|402:220,1,551.25002102852,10|0,2:3|0:0,0:0:0:0:
308,265,195734,6,0,B|315:301|355:329|379:296|396:320|388:363|360:368,2,125.999996154785,4|10|6,1:3|2:3|2:3,0:0:0:0:
399,113,196109,1,8,1:3:0:0:
320,256,196234,6,0,B|305:214|312:174|367:130|439:104|502:160|504:261|500:276|444:293|414:286|415:273|444:240|426:210|377:201,1,393.750015020371,10|0,2:3|0:0,0:0:0:0:
312,154,196609,5,6,2:3:0:0:
399,113,196734,1,0,1:1:0:0:
308,166,196859,1,12,2:2:0:0:
386,36,196984,6,0,P|349:51|334:73,1,60.3750011515618,10|0,2:3|0:0,0:0:0:0:
299,156,197109,2,0,P|272:161|251:139,1,47.2499985580445,2|0,1:2|0:0,0:0:0:0:
150,51,197234,6,0,B|179:66|177:87|189:85|122:112|101:42|47:37|-65:63|-108:299|5:361|186:350|221:266|202:197|192:145|152:127|68:156|87:199|122:186,1,551.25002102852,10|0,2:3|0:0,0:0:0:0:
193,234,197734,6,0,B|224:243|242:290|219:319|264:353|322:340,1,157.500006008148,6|8,1:3|2:2,0:0:0:0:
60,258,197984,2,0,B|46:249|14:273|30:294|17:327|-4:334,1,105,6|8,2:3|1:3,0:0:0:0:
205,334,198234,6,0,B|240:320|216:297|243:258|314:232|349:257|385:285|357:321|324:370|418:359|468:355|526:303|551:276|537:211|404:85|266:159|308:282|361:270,1,587.999982055665,2|0,1:3|1:1,0:0:0:0:
391,335,198859,6,0,P|401:300|423:260,1,52.5,12|0,2:2|0:0,0:0:0:0:
463,169,198984,1,10,2:3:0:0:
394,206,199109,1,2,1:2:0:0:
510,292,199234,6,0,B|484:283|489:248|517:184|416:101|246:162|318:251|312:263|259:279|233:268,1,346.499998942566,10|0,1:3|0:0,0:0:0:0:
193,234,199609,2,0,B|218:185|271:187|288:210|321:185,1,138.599999577026,10|4,2:3|1:3,0:0:0:0:
397,40,199859,5,10,2:3:0:0:
256,95,199984,2,0,B|232:118|232:168|278:186|293:159|318:192,1,138.599999577026,6|8,2:3|1:3,0:0:0:0:
333,264,200234,6,0,B|344:227|337:126|292:205|263:72|304:39|362:49|385:48|395:41|407:35|404:18|392:-6|368:13|356:27|364:33|373:46|398:52|451:63|496:98|409:228|397:137|350:227|339:265,1,554.399998308106,10|8,2:3|1:2,0:0:0:0:
367,125,200859,5,14,2:2:0:0:
447,204,200984,6,0,P|422:208|389:231,1,52.5,10|0,2:3|0:0,0:0:0:0:
251,274,201109,2,0,P|266:289|273:306,1,39.3750015020371,8|0,1:2|0:0,0:0:0:0:
314,375,201234,1,10,2:2:0:0:
497,290,201359,6,0,B|507:286|533:201|482:128|338:165|318:268|395:296|351:360|312:376,1,372.749981230546,6|0,1:2|0:0,0:0:0:0:
251,274,201734,6,0,B|231:280|180:249|213:156|299:157|343:235|299:245|347:268,1,223.649988738328,6|0,1:3|0:0,0:0:0:0:
445,368,201984,2,0,B|440:341|418:317|408:348|349:323|343:258,1,149.099992492218,6|8,2:3|1:3,0:0:0:0:
154,283,202234,6,0,B|130:275|84:327|95:396|212:478|371:414|393:279|391:170|249:81|188:207|231:241,1,521.849973722764,2|0,1:3|0:0,0:0:0:0:
160,165,202734,2,0,B|157:228|220:224|250:240|254:294,2,149.099992492218,0|12|10,1:1|2:2|2:3,0:0:0:0:
266,141,203109,6,0,B|249:167|240:188,1,52.5,2|0,1:2|0:0,0:0:0:0:
154,283,203234,6,0,B|182:284|174:349|94:387|-10:364|-54:263|-24:145|60:144|88:164|101:201|90:221,1,393.750015020371,10|0,2:3|0:0,0:0:0:0:
75,291,203609,1,10,2:3:0:0:
160,165,203734,2,0,B|175:167|183:136|163:68|53:112|62:190|93:215,1,204.749990627289,6|0,1:3|0:0,0:0:0:0:
154,283,203984,2,0,B|189:291|182:354|236:357|260:352,1,105,6|8,2:3|1:3,0:0:0:0:
368,251,204234,6,0,B|346:274|428:292|453:200|469:82|364:21|214:50|139:123|182:215|219:212|235:195,1,472.499985580445,10|0,2:3|0:0,0:0:0:0:
250,273,204609,6,0,B|308:270|329:314|298:372|361:405|429:382|475:364|491:289|426:226|364:221|367:261,1,377.999988464356,6|12,2:3|2:2,0:0:0:0:
239,367,204984,6,0,P|270:346|288:340,1,52.5,10|0,2:3|0:0,0:0:0:0:
310,207,205109,2,0,P|327:220|348:229,1,44.6250008511543,2|0,1:2|0:0,0:0:0:0:
418,323,205234,5,10,2:3:0:0:
418,323,205359,2,0,B|435:361|332:339|297:308|313:158|422:85|529:172|499:225,1,393.750015020371,6|0,1:2|0:0,0:0:0:0:
512,238,205734,2,0,B|505:264|489:250|455:257|420:292|429:346,1,136.499993751526,6|8,1:3|2:2,0:0:0:0:
198,261,205984,6,0,P|232:267|273:282,1,52.5,6|0,2:3|0:0,0:0:0:0:
254,267,206109,2,0,P|220:273|179:288,1,52.5,8|0,1:3|0:0,0:0:0:0:
126,384,206234,6,0,B|153:346|124:287|98:275|63:310|-6:208|8:114,1,315,2|6,1:3|3:3,0:0:0:0:
13,113,206859,6,0,P|41:129|51:152,1,52.5,14|0,2:2|0:0,0:0:0:0:
179,183,206984,2,0,B|132:165|83:212|121:236|75:261,1,125.999996154785,10|0,2:3|1:1,0:0:0:0:
16,332,207234,6,0,P|76:310|95:230,1,125.999996154785,10|0,1:3|1:1,0:0:0:0:
375,151,207484,2,0,P|312:161|255:102,1,125.999996154785,2|8,2:3|2:3,0:0:0:0:
112,4,207734,6,0,P|118:23|123:43,1,42,6|0,1:3|0:0,0:0:0:0:
124,45,207859,2,0,P|159:156|194:297,1,236.250009012223,10|0,2:3|0:0,0:0:0:0:
202,278,208109,1,8,1:3:0:0:
265,126,208234,1,10,2:3:0:0:
104,243,208359,5,0,1:0:0:0:
123,197,208442,5,0,1:0:0:0:
179,183,208525,5,0,1:0:0:0:
194,124,208609,5,10,1:3:0:0:
262,106,208692,5,0,1:0:0:0:
267,27,208775,5,0,1:0:0:0:
267,27,208859,5,12,1:2:0:0:
278,118,209109,6,0,L|260:198,1,52.5,8|0,1:2|0:0,0:0:0:0:
187,196,209234,2,0,L|205:276,1,68.2499968757631,8|0,2:2|0:0,0:0:0:0:
353,351,209359,6,0,B|338:314|350:305|376:280|380:282|384:286|386:287|404:310|471:260|483:184|457:150|394:95|276:110|245:171|265:276|299:294|336:327|353:304|328:272|330:217|353:261|374:227|233:141|144:230|234:363|256:377|353:294|334:356,1,566.999982696534,4|4,1:2|1:3,0:0:0:0:
400,283,209859,5,8,2:2:0:0:
442,261,209942,5,0,0:0:0:0:
491,292,210025,5,0,0:0:0:0:
479,350,210109,6,0,L|440:358,1,39.3750015020371,8|0,1:3|1:0,0:0:0:0:
391,276,210234,2,0,L|352:268,1,39.3750015020371,10|0,2:3|0:0,0:0:0:0:
253,319,210359,6,0,B|231:324|244:348|234:349|198:319|79:171|50:400|43:439|14:367|106:392|132:321|200:367,1,341.249984378815,0|0,1:1|0:0,0:0:0:0:
263,314,210734,2,0,B|271:299|260:282|285:259,1,52.5,0|0,1:1|0:0,0:0:0:0:
400,182,210859,6,0,B|444:144|516:161|569:227|492:278|478:225|424:237|429:258,1,236.250009012223,12|0,2:2|0:0,0:0:0:0:
352,268,211109,2,0,B|356:227|327:218|330:210,1,62.9999980773926,0|0,1:1|0:0,0:0:0:0:
386,101,211234,2,0,B|399:74|426:83|432:63,1,47.2499985580445
477,13,211359,6,0,B|486:57|471:95|416:62|393:107,1,141.749995674133,0|2,1:1|2:3,0:0:0:0:
328,203,211609,6,0,P|309:187|287:184,1,44.6250008511543,8|0,2:3|0:0,0:0:0:0:
276,85,211734,2,0,P|257:102|220:113,1,52.5,4|0,1:3|0:0,0:0:0:0:
167,155,211859,5,10,2:3:0:0:
167,155,211984,2,0,B|97:173|132:225|67:248,2,136.499993751526,4|8|10,2:3|1:3|2:3,0:0:0:0:
201,85,212359,5,0,0:0:0:0:
33,176,212484,6,0,P|75:211|101:279,1,105,8|6,2:3|2:3,0:0:0:0:
277,299,212734,2,0,P|237:317|208:350,1,89.2500017023087,0|12,1:1|2:2,0:0:0:0:
184,230,212984,6,0,L|162:302,2,44.6250008511543,8|0|0,2:3|0:0|1:1,0:0:0:0:
226,100,213234,1,8,2:3:0:0:
102,247,213359,6,0,P|94:214|108:188,1,52.5,4|0,1:2|0:0,0:0:0:0:
167,155,213484,1,0,0:0:0:0:
54,316,213609,5,8,2:3:0:0:
67,323,213734,1,4,1:3:0:0:
54,330,213859,1,8,2:2:0:0:
170,272,213984,5,0,0:0:0:0:
125,369,214109,1,8,1:3:0:0:
277,299,214234,1,10,2:3:0:0:
289,294,214484,6,0,L|347:311,1,39.3750015020371
437,377,214609,6,0,P|452:356|451:325,1,39.3750015020371,6|0,2:3|0:0,0:0:0:0:
361,239,214734,2,0,P|392:262|398:290,1,62.9999980773926,0|0,1:1|0:0,0:0:0:0:
434,384,214859,6,0,P|435:358|448:339,1,44.6250008511543,12|0,2:2|0:0,0:0:0:0:
512,296,214984,1,8,2:3:0:0:
349,384,215109,1,0,1:1:0:0:
349,384,215234,2,0,P|281:333|295:192,1,210,0|2,0:0|2:3,0:0:0:0:
462,200,215609,2,0,P|496:233|498:293,1,105,8|4,2:3|1:3,0:0:0:0:
349,384,215859,6,0,P|379:239|402:114,1,236.250009012223,10|0,2:3|0:0,0:0:0:0:
409,142,216109,1,8,1:3:0:0:
277,215,216234,1,10,2:3:0:0:
403,270,216359,6,0,P|385:253|368:225,1,52.5
263,216,216484,2,0,P|249:193|230:175,1,52.5,8|0,2:3|0:0,0:0:0:0:
243,64,216609,5,6,2:3:0:0:
243,64,216734,1,0,1:1:0:0:
393,138,216859,6,0,P|367:75|352:2,1,125.999996154785,12|8,2:2|2:3,0:0:0:0:
176,251,217109,2,0,P|202:314|217:387,1,125.999996154785,0|8,1:1|2:3,0:0:0:0:
370,229,217359,6,0,B|353:241|288:230|318:203|315:162|265:134|167:161|205:205|240:221|186:260|100:256|76:190|118:147,1,315.000012016297,6|8,1:2|2:3,0:0:0:0:
88,78,217734,6,0,B|195:79|226:194|164:207|177:261,1,236.250009012223,4|0,1:3|0:0,0:0:0:0:
186,247,217984,2,0,P|204:272|261:262,1,78.7500030040742,4|0,2:3|0:0,0:0:0:0:
294,209,218109,2,0,P|271:182|256:181,1,44.6250008511543,8|0,1:3|0:0,0:0:0:0:
370,229,218234,6,0,B|418:204|403:279|493:335|540:123|490:-20|262:71|369:139|391:108,1,336,2|0,1:3|0:0,0:0:0:0:
496,231,218609,6,0,P|481:213|477:191,1,26.25,6|0,2:3|0:0,0:0:0:0:
449,131,218734,2,0,B|458:164|393:140|384:149|352:202|373:236,1,146.999995513916,0|12,1:1|2:2,0:0:0:0:
286,339,218984,5,8,2:3:0:0:
431,274,219109,6,0,B|437:287|455:292|481:256|452:202|384:157|293:191|298:278|326:296|381:272|360:333,1,267.750005106926,0|0,1:1|0:0,0:0:0:0:
370,323,219359,2,0,B|404:333|383:366|465:379|520:346|449:263|424:285,1,178.500003404617,0|2,1:1|2:3,0:0:0:0:
286,339,219609,6,0,P|258:350|243:375,1,52.5,8|0,2:3|0:0,0:0:0:0:
251,377,219734,2,0,P|267:356|291:348,1,52.5,4|0,1:3|0:0,0:0:0:0:
369,228,219859,5,10,2:3:0:0:
248,272,219984,2,0,P|227:190|138:37,1,236.250009012223,4|0,2:3|0:0,0:0:0:0:
161,44,220234,1,10,2:3:0:0:
344,155,220359,6,0,B|367:110|390:158|419:142|483:72|453:-8|286:-9|218:94|299:180|327:148,1,357.000006809235,0|6,0:0|2:3,0:0:0:0:
443,270,220734,6,0,P|455:235|460:223,1,42,0|0,1:1|0:0,0:0:0:0:
505,159,220859,2,0,P|455:251|443:298,1,136.499993751526,12|0,2:2|1:1,0:0:0:0:
378,323,221234,6,0,P|361:308|340:302,1,34.1249984378815,8|0,2:3|0:0,0:0:0:0:
247,196,221359,6,0,B|193:204|164:241|194:301|112:318|106:180|162:163,1,236.250009012223,4|0,1:2|0:0,0:0:0:0:
147,156,221609,2,0,P|179:138|213:144,1,52.5,8|0,2:3|0:0,0:0:0:0:
257,58,221734,2,0,P|277:90|286:96,1,44.6250008511543,4|0,1:3|0:0,0:0:0:0:
333,145,221859,5,8,2:2:0:0:
169,56,221984,1,4,2:3:0:0:
180,44,222234,6,0,B|197:55|242:158|107:140|63:197|120:287,1,272.999987503052,2|8,1:3|2:3,0:0:0:0:
113,275,222609,2,0,P|136:250|133:227,1,44.6250008511543,6|0,2:3|0:0,0:0:0:0:
46,162,222734,2,0,P|44:189|62:214,1,57.7500017623902,0|0,1:1|0:0,0:0:0:0:
147,269,222859,6,0,P|170:248|220:250,1,52.5,12|0,2:2|0:0,0:0:0:0:
247,196,222984,2,0,P|261:218|304:236,1,62.9999980773926,8|0,2:3|0:0,0:0:0:0:
350,303,223109,5,0,1:1:0:0:
331,305,223234,2,0,P|348:294|359:278,1,39.3750015020371
263,333,223359,6,0,B|235:338|213:375|218:392|239:424|224:360|265:338|331:299|463:295,1,314.999990386963,4|0,1:3|0:0,0:0:0:0:
446,281,223734,1,8,1:3:0:0:
318,161,223859,6,0,B|299:123|309:70|351:50|401:45|365:76|307:81|319:142|381:245|464:275,1,367.49998878479,14|0,2:3|0:0,0:0:0:0:
469,289,224234,1,10,2:3:0:0:
293,234,224359,6,0,B|250:203|230:209|222:256|241:261|218:308|98:326|-40:243|-5:57|193:51|269:105|251:172|148:233|279:265|280:239,1,514.499984298707,4|0,2:3|0:0,0:0:0:0:
359,278,224859,6,0,P|347:295|344:316,1,39.3750015020371,12|0,2:2|0:0,0:0:0:0:
281,366,224984,2,0,P|270:354|262:331,1,39.3750015020371,8|0,2:3|0:0,0:0:0:0:
202,285,225109,1,4,1:3:0:0:
413,355,225234,6,0,L|105:290,1,315.000012016297,8|0,2:3|0:0,0:0:0:0:
35,329,225609,5,8,1:3:0:0:
30,338,225692,1,4,2:3:0:0:
77,337,225775,1,4,2:3:0:0:
104,289,225859,5,8,1:3:0:0:
97,212,225942,1,4,2:3:0:0:
158,164,226025,1,4,2:3:0:0:
232,185,226109,5,8,1:3:0:0:
304,148,226192,1,4,2:3:0:0:
307,63,226275,5,4,2:3:0:0:
307,63,226359,1,8,1:3:0:0:
106,108,226734,6,0,B|111:95|135:71|135:71|202:81|231:27|231:27|318:19|377:81|377:81|327:103|317:148|317:148|348:110|410:132|410:132|437:202|402:275|402:275|344:245|302:259|302:259|293:246|280:238|280:238|349:216|402:275|402:275|356:361|258:385|183:352|183:352|90:307|81:206|81:206|116:136|206:203|184:278|169:296|124:305|106:285|106:285|79:238|81:194,1,1710.58814487251,4|0,1:2|2:2,0:0:0:0:
228,137,233921,6,0,P|243:149|224:138,1,78.7500030040742
