osu file format v14

[General]
AudioFilename: [1] Flowering Night.mp3
AudioLeadIn: 0
PreviewTime: 67258
Countdown: 0
SampleSet: Soft
StackLeniency: 0.8
Mode: 0
LetterboxInBreaks: 0
WidescreenStoryboard: 0

[Editor]
DistanceSpacing: 1.4
BeatDivisor: 4
GridSize: 4
TimelineZoom: 1.2

[Metadata]
Title:Story
TitleUnicode:Story
Artist:FELT
ArtistUnicode:FELT
Creator:Yohanes
Version:Hard
Source:東方Project
Tags:美歌 NAGI☆ Mika ZUN Reitaisai SP2 kaeidzuka 東方花映塚 ~ Phantasmagoria of Flower View フラワリングナイト東方花映塚 th09 Sakuya Izayoi Flowering Night Touhou Rebirth yaldo_27 Fantastica Blizs Fizz
BeatmapID:1082285
BeatmapSetID:297409

[Difficulty]
HPDrainRate:5
CircleSize:3.8
OverallDifficulty:6
ApproachRate:7.5
SliderMultiplier:1.5
SliderTickRate:1

[Events]
//Background and Video events
0,0,"BG.jpg",0,0
//Break Periods
2,103577,114332
2,191184,196049
//Storyboard Layer 0 (Background)
//Storyboard Layer 1 (Fail)
//Storyboard Layer 2 (Pass)
//Storyboard Layer 3 (Foreground)
//Storyboard Sound Samples

[TimingPoints]
6200,368.098159509202,4,2,2,40,1,0
6200,-125,4,2,2,40,0,0
17979,-100,4,2,1,55,0,0
28101,-100,4,2,1,55,0,0
29758,-125,4,2,2,50,0,0
52580,-100,4,2,1,70,0,0
53868,-100,4,2,2,70,0,0
54052,-100,4,2,1,70,0,0
57549,-100,4,2,2,70,0,0
57917,-100,4,2,1,70,0,0
68040,-100,4,2,1,70,0,1
91598,-100,4,2,1,75,0,0
96384,-100,4,2,1,75,0,0
99328,-100,4,2,1,75,0,0
103377,-100,4,2,2,40,0,0
115157,-125,4,2,2,55,0,0
116077,-125,4,2,1,55,0,0
116445,-125,4,2,2,55,0,0
117365,-125,4,2,1,55,0,0
119022,-125,4,2,1,55,0,0
119390,-125,4,2,2,55,0,0
120126,-125,4,2,1,55,0,0
121046,-125,4,2,2,55,0,0
121966,-125,4,2,1,55,0,0
126015,-100,4,2,1,70,0,0
131169,-100,4,2,2,70,0,0
131353,-100,4,2,1,70,0,0
140739,-125,4,2,1,70,0,0
141660,-100,4,2,2,70,0,0
142396,368.098159509202,4,2,1,70,1,1
164665,-100,4,2,2,70,0,1
165218,-100,4,2,1,70,0,1
165954,-100,4,2,1,75,0,0
170739,-100,4,2,2,75,0,0
170923,-100,4,2,1,75,0,0
172764,-100,4,2,2,75,0,0
172948,-100,4,2,1,75,0,0
176445,-100,4,2,2,75,0,0
176997,-100,4,2,1,75,0,0
190984,-100,4,2,2,35,0,0
196874,-125,4,2,2,40,0,0
199819,-100,4,2,2,70,0,0
201475,-100,4,2,1,70,0,0
202764,-100,4,2,1,70,0,1
208653,-100,4,2,1,70,0,0
212886,-100,4,2,3,70,0,0
213070,-100,4,2,1,70,0,0
213622,-100,4,2,1,70,0,0
213807,-100,4,2,1,70,0,0
214543,-100,4,2,1,75,0,1
217856,-100,4,2,1,75,0,1
219328,-100,4,2,1,75,0,1
223745,-100,4,2,1,75,0,1
225034,-100,4,2,2,75,0,1
225218,-100,4,2,1,75,0,1
225586,-125,4,2,1,75,0,1
226506,-100,4,2,2,75,0,1
226690,-100,4,2,1,75,0,1
227978,-100,4,2,2,75,0,1
228162,-100,4,2,1,75,0,1
228715,-100,4,2,2,75,0,1
228899,-100,4,2,1,75,0,1
230187,-100,4,2,2,75,0,1
230371,-100,4,2,1,75,0,1
230923,-100,4,2,2,75,0,1
231107,-100,4,2,1,75,0,1
231659,-100,4,2,2,75,0,1
231843,-100,4,2,1,75,0,1
232211,-100,4,2,1,70,0,0
234972,-100,4,2,2,70,0,0
235156,-100,4,2,1,70,0,0
236076,-100,4,2,2,70,0,0
236261,-100,4,2,1,70,0,0
237917,-100,4,2,1,75,0,0
241598,-100,4,2,1,65,0,0
242150,-100,4,2,1,55,0,0
242702,-100,4,2,1,45,0,0
243254,-100,4,2,1,35,0,0
243807,-100,4,2,2,25,0,0
244635,-100,4,2,2,15,0,0

[Colours]
Combo1 : 255,94,55
Combo2 : 173,255,95
Combo3 : 17,254,176
Combo4 : 255,88,100

[HitObjects]
256,192,1782,12,0,5831,0:0:0:0:
302,117,6200,6,0,P|311:185|284:242,1,120,6|0,0:0|0:0,0:0:0:0:
217,199,6752,2,0,P|150:188|85:204,1,120,2|0,0:0|0:0,0:0:0:0:
278,309,7488,2,0,P|345:320|410:304,1,120,2|0,0:0|0:0,0:0:0:0:
459,259,8040,2,0,P|472:232|471:183,1,60,2|0,0:0|0:0,0:0:0:0:
423,139,8408,2,0,L|351:111,1,60,0|2,0:0|0:0,0:0:0:0:
289,95,8776,2,0,L|252:159,1,60,0|2,0:0|0:0,0:0:0:0:
190,252,9144,6,0,P|125:257|73:234,1,120,6|0,0:0|0:0,0:0:0:0:
25,172,9696,2,0,P|20:106|43:54,1,120,2|0,0:0|0:0,0:0:0:0:
195,7,10433,2,0,L|321:26,2,120,2|0|2,0:0|0:0|0:0,0:0:0:0:
126,58,11353,2,0,P|127:89|141:120,1,60,0|0,0:0|0:0,0:0:0:0:
89,180,11721,2,0,P|122:198|160:197,1,60,2|0,0:0|0:0,0:0:0:0:
241,149,12089,6,0,P|297:139|371:154,1,120,6|0,0:0|0:0,0:0:0:0:
408,212,12641,2,0,L|426:341,1,120,2|0,0:0|0:0,0:0:0:0:
264,349,13377,2,0,L|246:220,1,120,2|0,0:0|0:0,0:0:0:0:
241,149,13930,2,0,P|205:158|177:193,2,60,2|0|0,0:0|0:0|0:0,0:0:0:0:
320,167,14482,2,0,P|331:131|314:89,2,60,2|0|2,0:0|0:0|0:0,0:0:0:0:
248,231,15034,5,2,0:0:0:0:
248,231,15586,2,0,L|226:368,2,120,2|0|2,0:0|0:0|0:0,0:0:0:0:
256,192,16506,12,4,17979,0:0:0:0:
223,178,18347,6,0,P|210:143|224:91,1,75,0|2,0:0|0:0,0:0:0:0:
302,130,18715,2,0,P|318:208|277:290,1,150,8|0,0:0|0:0,0:0:0:0:
226,332,19267,1,2,0:0:0:0:
68,245,19635,1,0,0:0:0:0:
130,76,20003,1,2,0:0:0:0:
215,106,20187,2,0,P|259:109|304:88,1,75,8|0,0:0|0:0,0:0:0:0:
320,15,20555,2,0,P|276:12|231:33,1,75,2|8,0:0|0:0,0:0:0:0:
372,83,20923,5,6,0:0:0:0:
488,220,21292,2,0,P|489:276|462:315,1,75,2|2,0:0|0:0,0:0:0:0:
402,248,21660,2,0,P|329:239|247:268,1,150,8|0,0:0|0:0,0:0:0:0:
188,319,22212,1,2,0:0:0:0:
98,162,22580,1,2,0:0:0:0:
279,163,22948,1,2,0:0:0:0:
196,196,23132,2,0,P|190:148|216:102,1,75,8|4,0:0|0:0,0:0:0:0:
272,76,23500,2,0,L|368:60,1,75,4|2,0:0|0:0,0:0:0:0:
435,50,23868,6,0,P|474:111|461:196,1,150,4|0,0:0|0:0,0:0:0:0:
402,248,24420,1,2,0:0:0:0:
325,199,24604,2,0,P|249:184|159:212,1,150,8|0,0:0|0:0,0:0:0:0:
115,264,25157,1,2,0:0:0:0:
282,330,25525,1,2,0:0:0:0:
447,259,25893,1,2,0:0:0:0:
379,200,26077,2,0,P|367:152|386:104,1,75,8|0,0:0|0:0,0:0:0:0:
406,44,26445,2,0,P|449:19|500:25,1,75,0|10,0:0|0:0,0:0:0:0:
372,127,26813,6,0,B|286:163|207:84,1,150,6|0,0:0|0:0,0:0:0:0:
168,41,27365,1,2,0:0:0:0:
88,82,27549,2,0,P|64:159|96:229,1,150,8|2,0:0|0:0,0:0:0:0:
165,269,28101,1,0,0:0:0:0:
364,52,29758,6,0,P|375:121|352:167,1,120,2|0,0:0|0:0,0:0:0:0:
278,192,30310,2,0,L|148:167,2,120,0|2|0,0:0|0:0|0:0,0:0:0:0:
364,52,31414,1,0,0:0:0:0:
364,52,31598,1,2,0:0:0:0:
490,152,31966,2,0,L|514:227,1,60,0|0,0:0|0:0,0:0:0:0:
427,214,32334,2,0,L|451:289,1,60,2|0,0:0|0:0,0:0:0:0:
390,330,32703,6,0,P|332:314|258:329,1,120,4|0,0:0|0:0,0:0:0:0:
201,359,33255,2,0,P|141:367|84:351,1,120,2|0,0:0|0:0,0:0:0:0:
23,201,33991,2,0,P|10:144|36:65,2,120,2|0|2,0:0|0:0|0:0,0:0:0:0:
174,144,35095,2,0,P|182:176|170:207,2,60,2|0|0,0:0|0:0|0:0,0:0:0:0:
99,113,35647,1,4,0:0:0:0:
238,33,36015,6,0,P|298:41|372:15,1,120,2|0,0:0|0:0,0:0:0:0:
492,111,36752,1,0,0:0:0:0:
492,111,36936,2,0,P|432:103|358:129,1,120,2|0,0:0|0:0,0:0:0:0:
314,171,37488,1,0,0:0:0:0:
250,221,37672,2,0,P|189:222|133:195,1,120,2|0,0:0|0:0,0:0:0:0:
70,149,38224,2,0,L|52:72,1,60,2|0,0:0|0:0,0:0:0:0:
117,26,38592,6,0,P|174:14|244:26,1,120,2|0,0:0|0:0,0:0:0:0:
308,55,39144,2,0,P|367:63|425:51,2,120,2|0|0,0:0|0:0|0:0,0:0:0:0:
269,228,40249,2,0,L|288:292,2,60,2|0|0,0:0|0:0|0:0,0:0:0:0:
189,167,40801,2,0,B|91:129|92:190|5:167,1,180,2|2,0:0|0:0,0:0:0:0:
74,90,41537,6,0,B|139:60|211:99|211:99,1,120,4|0,0:0|0:0,0:0:0:0:
261,50,42089,2,0,P|288:98|286:176,2,120,2|0|2,0:0|0:0|0:0,0:0:0:0:
384,154,43193,2,0,P|369:204|313:257,1,120,0|0,0:0|0:0,0:0:0:0:
251,291,43746,2,0,P|218:292|176:274,1,60,2|0,0:0|0:0,0:0:0:0:
118,316,44114,2,0,P|100:287|95:242,1,60,0|2,0:0|0:0,0:0:0:0:
123,186,44482,5,4,0:0:0:0:
198,42,44850,1,0,0:0:0:0:
198,42,45034,2,0,B|263:23|263:60|335:42,1,120,2|0,0:0|0:0,0:0:0:0:
461,117,45770,2,0,P|476:184|453:244,1,120,2|0,0:0|0:0,0:0:0:0:
326,321,46506,2,0,P|295:318|267:298,2,60,2|0|0,0:0|0:0|0:0,0:0:0:0:
324,240,47058,2,0,P|323:206|303:169,1,60,2|0,0:0|0:0,0:0:0:0:
259,122,47426,5,4,0:0:0:0:
159,250,47795,2,0,P|129:252|100:243,1,60,2|0,0:0|0:0,0:0:0:0:
21,229,48163,2,0,P|15:264|25:302,1,60,0|2,0:0|0:0,0:0:0:0:
56,359,48531,1,0,0:0:0:0:
136,370,48715,2,0,B|184:348|216:376|259:350,2,120,2|0|2,0:0|0:0|0:0,0:0:0:0:
230,146,50003,5,0,0:0:0:0:
309,129,50187,1,0,0:0:0:0:
371,180,50371,2,0,P|434:144|404:-6,1,240,4|0,0:0|0:0,0:0:0:0:
334,25,51292,2,0,P|294:26|265:14,2,60,0|0|2,0:0|0:0|0:0,0:0:0:0:
467,193,52028,1,2,0:0:0:0:
467,193,52212,1,2,0:0:0:0:
319,358,52580,6,0,P|264:360|234:347,1,75,2|2,0:0|0:0,0:0:0:0:
293,277,52948,2,0,L|381:278,1,75,8|2,0:0|0:0,0:0:0:0:
443,327,53316,2,0,P|477:284|464:188,1,150,6|8,0:0|0:0,0:0:0:0:
401,133,53868,2,0,P|392:81|404:51,1,75,8|0,0:3|0:0,0:0:0:0:
478,20,54236,2,0,P|487:72|475:102,1,75,2|8,0:0|0:0,0:0:0:0:
401,133,54604,6,0,P|333:117|254:131,1,150,4|2,0:0|0:0,0:0:0:0:
185,186,55157,1,8,0:0:0:0:
262,348,55525,1,2,2:0:0:0:
349,328,55709,2,0,L|398:318,2,37.5,2|2|8,0:0|0:0|0:0,0:0:0:0:
171,287,56261,6,0,P|142:227|163:132,1,150,6|8,0:0|0:0,0:0:0:0:
211,77,56813,2,0,L|296:49,1,75,6|0,0:0|0:0,0:0:0:0:
366,83,57181,2,0,P|376:130|357:168,1,75,2|8,0:0|0:0,0:0:0:0:
445,199,57549,6,0,P|466:131|446:48,1,150,6|2,0:0|0:0,0:0:0:0:
366,83,58101,1,8,0:0:0:0:
251,221,58469,1,2,0:0:0:0:
303,294,58653,2,0,L|293:339,2,37.5,2|2|8,0:0|0:0|0:0,0:0:0:0:
200,144,59206,6,0,P|121:126|49:145,1,150,4|0,0:0|0:0,0:0:0:0:
10,220,59758,1,2,0:0:0:0:
55,298,59942,2,0,P|127:314|200:296,1,150,8|0,0:0|0:0,0:0:0:0:
251,221,60494,6,0,P|292:208|345:213,1,75,2|2,0:0|0:0,0:0:0:0:
408,237,60862,2,0,P|445:236|480:224,1,75,8|0,0:0|0:0,0:0:0:0:
430,149,61230,1,2,0:0:0:0:
380,74,61414,2,0,P|295:55|219:79,1,150,8|0,0:0|0:0,0:0:0:0:
102,221,62150,6,0,P|76:151|92:79,1,150,6|8,0:0|0:0,0:0:0:0:
159,139,62703,2,0,P|187:153|258:145,1,75,2|0,0:0|0:0,0:0:0:0:
314,125,63071,2,0,P|351:125|385:141,1,75,2|8,0:0|0:0,0:0:0:0:
454,198,63439,6,0,P|492:139|477:49,1,150,4|2,0:0|0:0,0:0:0:0:
418,0,63991,1,8,0:0:0:0:
230,155,64359,2,0,P|222:115|230:83,1,75,2|2,0:0|0:0,0:0:0:0:
314,125,64727,2,0,P|322:165|314:197,1,75,8|0,0:0|0:0,0:0:0:0:
250,261,65095,5,4,0:0:0:0:
405,353,65463,2,0,P|440:334|465:284,1,75,8|2,0:0|0:0,0:0:0:0:
381,261,65831,2,0,P|402:227|398:171,1,75,8|0,0:0|0:0,0:0:0:0:
313,197,66199,1,8,0:0:0:0:
250,261,66384,6,0,P|161:276|88:234,1,150,12|2,0:0|0:0,0:0:0:0:
52,184,66936,1,2,0:0:0:0:
140,92,67120,1,12,0:0:0:0:
260,12,68040,6,0,P|286:80|268:156,1,150,6|8,0:0|0:0,0:0:0:0:
208,220,68592,2,0,P|201:256|209:292,1,75,2|0,0:0|0:0,0:0:0:0:
292,256,68960,2,0,P|344:252|376:264,1,75,2|8,0:0|0:0,0:0:0:0:
456,372,69328,6,0,P|426:329|420:296,1,75,2|0,0:0|0:0,0:0:0:0:
474,172,69696,2,0,P|451:220|425:241,1,75,2|8,0:0|0:0,0:0:0:0:
348,336,70065,2,0,P|291:335|249:315,1,75,2|0,0:0|0:0,0:0:0:0:
189,357,70433,2,0,P|165:304|166:258,1,75,2|8,0:0|0:0,0:0:0:0:
199,204,70801,1,2,0:0:0:0:
292,256,70985,6,0,B|350:182|293:94|293:94,1,150,6|8,0:0|0:0,0:0:0:0:
232,58,71537,2,0,P|196:52|159:60,2,75,2|0|2,0:0|0:0|0:0,0:0:0:0:
303,113,72089,1,8,0:0:0:0:
371,55,72273,6,0,P|407:49|444:57,1,75,2|0,0:0|0:0,0:0:0:0:
512,116,72641,1,2,0:0:0:0:
429,151,72825,2,0,P|422:198|444:244,1,75,8|0,0:0|0:0,0:0:0:0:
491,289,73193,2,0,L|534:317,2,37.5,2|8|2,0:0|0:0|0:0,0:0:0:0:
416,339,73561,2,0,P|364:339|318:309,1,75,8|2,0:0|0:0,0:0:0:0:
286,211,73930,6,0,P|257:286|269:354,1,150,6|8,0:0|0:0,0:0:0:0:
183,326,74482,2,0,P|181:271|192:242,1,75,2|0,0:0|0:0,0:0:0:0:
95,245,74850,2,0,P|116:194|138:172,1,75,2|8,0:0|0:0,0:0:0:0:
208,120,75218,6,0,L|369:120,1,150,2|2,0:0|0:0,0:0:0:0:
441,74,75770,1,8,0:0:0:0:
428,211,75954,2,0,P|460:145|441:74,1,150,2|2,0:0|0:0,0:0:0:0:
360,31,76506,2,0,L|281:31,1,75,8|0,0:0|0:0,0:0:0:0:
168,104,76874,6,0,P|239:89|284:31,1,150,6|8,0:0|0:0,0:0:0:0:
128,31,77426,2,0,P|92:69|86:108,1,75,2|0,0:0|0:0,0:0:0:0:
1,108,77795,2,0,P|25:154|59:173,1,75,2|8,0:0|0:0,0:0:0:0:
168,104,78163,6,0,P|185:176|159:246,1,150,6|2,0:0|0:0,0:0:0:0:
84,297,78715,1,12,0:0:0:0:
258,340,79083,2,0,L|240:391,2,37.5,8|8|8,0:0|0:0|0:3,0:0:0:0:
346,323,79451,2,0,L|382:364,2,37.5,8|2|8,0:0|0:0|0:3,0:0:0:0:
288,255,79819,6,0,P|275:195|317:113,1,150,6|8,0:0|0:0,0:0:0:0:
372,184,80371,2,0,P|420:191|447:183,1,75,2|0,0:0|0:0,0:0:0:0:
472,98,80739,2,0,P|454:52|433:33,1,75,2|8,0:0|0:0,0:0:0:0:
348,55,81107,6,0,P|317:93|311:120,1,75,2|0,0:0|0:0,0:0:0:0:
237,62,81476,2,0,L|157:66,1,75,2|8,0:0|0:0,0:0:0:0:
110,140,81844,2,0,L|102:237,1,75,2|0,0:0|0:0,0:0:0:0:
193,222,82212,2,0,L|201:125,1,75,2|8,0:0|0:0,0:0:0:0:
162,65,82580,1,4,0:0:0:0:
199,147,82764,6,0,B|293:176|356:105|356:105,1,150,2|8,0:0|0:0,0:0:0:0:
403,54,83316,2,0,P|428:98|426:144,1,75,2|0,0:0|0:0,0:0:0:0:
510,166,83684,2,0,P|473:202|428:211,1,75,2|8,0:0|0:0,0:0:0:0:
363,197,84052,6,0,P|356:237|371:278,1,75,2|0,0:0|0:0,0:0:0:0:
423,338,84420,1,6,0:0:0:0:
423,338,84604,1,12,0:0:0:0:
333,348,84788,2,0,L|295:351,2,37.5,2|8|2,0:0|0:0|0:0,0:0:0:0:
365,269,85157,2,0,P|313:244|270:252,2,75,8|8|8,0:3|0:0|0:3,0:0:0:0:
319,166,85709,6,0,P|245:174|193:226,1,150,6|8,0:0|0:0,0:0:0:0:
153,306,86261,2,0,P|118:320|71:317,1,75,2|0,0:0|0:0,0:0:0:0:
32,244,86629,2,0,P|66:230|114:233,1,75,2|8,0:0|0:0,0:0:0:0:
215,247,86997,6,0,P|223:173|181:111,1,150,6|2,0:0|0:0,0:0:0:0:
114,53,87549,1,8,0:0:0:0:
182,112,87733,2,0,L|274:89,1,75,2|0,0:0|0:0,0:0:0:0:
322,152,88101,2,0,L|414:129,1,75,2|8,0:0|0:0,0:0:0:0:
447,60,88469,1,2,0:0:0:0:
512,142,88653,6,0,P|522:213|470:284,1,150,6|8,0:0|0:0,0:0:0:0:
407,327,89206,2,0,P|391:275|400:238,1,75,2|8,0:0|0:0,0:0:0:0:
319,204,89574,2,0,P|303:256|312:293,1,75,0|8,0:0|0:0,0:0:0:0:
231,326,89942,6,0,P|215:274|243:154,2,150,6|8|4,0:0|0:0|0:0,0:0:0:0:
305,275,90862,1,8,0:3:0:0:
383,318,91046,2,0,L|418:339,2,37.5,8|8|8,0:0|0:0|0:0,0:0:0:0:
381,229,91414,2,0,L|381:188,2,37.5,8|8|6,0:0|0:0|0:0,0:0:0:0:
256,192,91690,12,2,94543,0:0:0:0:
189,63,94911,6,0,P|181:136|218:212,1,150,8|0,0:0|0:0,0:0:0:0:
291,245,95463,1,2,0:0:0:0:
355,182,95647,1,8,0:0:0:0:
355,182,95739,1,0,0:0:0:0:
355,182,95831,2,0,P|398:176|458:193,1,75,2|2,0:0|0:0,0:0:0:0:
324,334,96384,6,0,P|248:339|180:292,1,150,8|0,0:0|0:0,0:0:0:0:
126,235,96936,2,0,L|44:264,2,75,2|8|2,0:0|0:0|0:0,0:0:0:0:
211,204,97488,1,4,0:0:0:0:
424,336,97856,6,0,P|459:272|446:199,1,150,8|0,0:0|0:0,0:0:0:0:
384,136,98408,1,2,0:0:0:0:
301,170,98592,1,8,0:0:0:0:
301,170,98684,1,0,0:0:0:0:
301,170,98776,2,0,P|279:122|284:81,1,75,2|2,0:0|0:0,0:0:0:0:
67,53,99328,6,0,P|120:37|231:42,1,150,8|0,0:0|0:0,0:0:0:0:
279,100,99880,1,2,0:0:0:0:
202,148,100065,2,0,P|194:192|212:231,1,75,8|4,0:0|0:0,0:0:0:0:
286,254,100433,2,0,L|393:228,2,75,2|8|8,0:0|0:3|0:0,0:0:0:0:
203,219,100985,5,2,0:0:0:0:
380,136,101353,1,8,0:0:0:0:
364,330,101721,1,6,0:0:0:0:
256,192,101813,12,2,103377,0:0:0:0:
256,72,115157,6,0,L|256:192,1,120,4|2,0:0|0:0,0:0:0:0:
316,245,115709,2,0,P|392:256|445:217,2,120,0|2|4,0:0|0:0|0:0,0:0:0:0:
178,159,116813,2,0,P|108:148|56:196,1,120,8|2,0:3|0:0,0:0:0:0:
132,225,117365,2,0,L|147:302,1,60,2|2,0:0|0:0,0:0:0:0:
224,292,117733,2,0,L|212:233,1,60,8|0,0:0|0:0,0:0:0:0:
178,159,118101,5,6,0:0:0:0:
289,41,118469,1,0,0:0:0:0:
289,41,118653,2,0,P|350:30|415:45,1,120,2|0,0:0|0:0,0:0:0:0:
491,179,119390,2,0,L|468:324,2,120,2|0|2,0:0|0:0|0:0,0:0:0:0:
331,208,120494,2,0,P|329:246|343:276,2,60,8|2|2,0:0|0:0|0:0,0:0:0:0:
374,139,121046,5,4,0:0:0:0:
253,247,121414,1,2,0:0:0:0:
253,247,121598,2,0,P|172:252|117:233,1,120,0|0,0:0|0:0,0:0:0:0:
69,195,122150,1,8,0:0:0:0:
143,161,122334,2,0,P|224:156|279:175,1,120,8|8,0:3|0:3,0:0:0:0:
331,208,122887,1,0,0:0:0:0:
406,177,123071,2,0,P|423:128|403:55,1,120,8|2,0:3|0:0,0:0:0:0:
334,29,123623,2,0,L|253:42,1,60,8|2,0:0|0:0,0:0:0:0:
195,58,123991,6,0,B|119:166|267:166|195:278,1,240,4|2,0:0|0:0,0:0:0:0:
133,332,124911,2,0,P|113:276|136:222,1,120,8|4,0:0|0:0,0:0:0:0:
255,113,125647,2,0,L|316:124,2,60,2|2|4,0:0|0:0|0:0,0:0:0:0:
313,37,126199,6,0,P|366:54|390:95,1,75,0|8,0:0|0:0,0:0:0:0:
468,63,126568,2,0,P|455:117|416:145,1,75,0|2,0:0|0:0,0:0:0:0:
314,123,126936,2,0,P|304:190|342:266,1,150,6|8,0:0|0:0,0:0:0:0:
263,312,127488,2,0,P|211:314|170:289,1,75,2|0,0:0|0:0,0:0:0:0:
161,220,127856,2,0,P|213:218|254:243,1,75,2|8,0:0|0:0,0:0:0:0:
101,289,128224,6,0,P|76:247|91:137,1,150,4|2,0:0|0:0,0:0:0:0:
141,80,128776,1,8,0:0:0:0:
331,208,129144,1,2,0:0:0:0:
257,156,129328,2,0,L|268:98,2,37.5,2|2|8,0:0|0:0|0:0,0:0:0:0:
427,36,129880,6,0,L|432:117,1,75,6|0,0:0|0:0,0:0:0:0:
511,153,130249,2,0,L|457:213,1,75,2|2,0:0|0:0,0:0:0:0:
386,293,130617,2,0,P|317:265|243:275,1,150,8|2,0:0|0:0,0:0:0:0:
187,148,131169,6,0,P|193:222|244:275,1,150,2|2,0:0|0:0,0:0:0:0:
171,328,131721,2,0,L|84:316,1,75,2|8,0:0|0:3,0:0:0:0:
35,252,132089,1,2,0:0:0:0:
69,168,132273,2,0,L|88:122,2,37.5,2|2|8,0:0|0:0|0:0,0:0:0:0:
243,274,132825,6,0,P|320:296|408:264,1,150,4|0,0:0|0:0,0:0:0:0:
455,221,133377,1,2,0:0:0:0:
371,187,133561,2,0,L|343:35,1,150,8|0,0:0|0:0,0:0:0:0:
285,158,134114,6,0,L|257:10,1,150,2|8,0:0|0:0,0:0:0:0:
183,63,134666,2,0,P|146:72|109:67,1,75,0|2,0:0|0:0,0:0:0:0:
91,196,135034,2,0,P|68:127|109:67,1,150,8|2,0:0|0:0,0:0:0:0:
186,149,135586,1,8,0:0:0:0:
256,205,135770,6,0,B|347:230|411:176,1,150,6|8,0:0|0:0,0:0:0:0:
442,105,136322,2,0,L|453:14,1,75,2|0,0:0|0:0,0:0:0:0:
361,29,136690,2,0,L|350:120,1,75,2|8,0:0|0:0,0:0:0:0:
256,205,137058,6,0,P|238:136|269:65,1,150,6|2,0:0|0:0,0:0:0:0:
351,103,137611,1,8,0:0:0:0:
498,277,137979,2,0,L|484:339,2,37.5,2|8|2,0:0|0:0|0:0,0:0:0:0:
440,208,138347,2,0,P|403:199|367:209,1,75,8|2,0:0|0:0,0:0:0:0:
297,266,138715,5,6,0:0:0:0:
166,81,139083,2,0,L|182:177,1,75,8|2,0:0|0:0,0:0:0:0:
267,145,139451,2,0,L|251:49,1,75,8|2,0:0|0:0,0:0:0:0:
342,61,139819,1,8,0:0:0:0:
342,61,140003,6,0,L|370:224,1,150,12|2,0:0|0:0,0:0:0:0:
383,298,140555,1,2,0:0:0:0:
297,266,140739,6,0,B|254:251|212:251|204:290|147:313|80:304|62:266|78:227|110:201|147:228|141:264,1,300,12|2,0:0|0:0,0:0:0:0:
141,255,142396,6,0,P|111:176|136:96,1,150,6|8,0:0|0:0,0:0:0:0:
194,57,142948,2,0,L|291:50,1,75,2|0,0:0|0:0,0:0:0:0:
342,0,143316,2,0,L|396:80,1,75,2|8,0:0|0:0,0:0:0:0:
465,99,143684,6,0,L|422:186,1,75,2|0,0:0|0:0,0:0:0:0:
440,255,144052,2,0,L|342:262,1,75,2|8,0:0|0:0,0:0:0:0:
293,312,144420,2,0,L|238:231,1,75,2|0,0:0|0:0,0:0:0:0:
170,213,144788,2,0,L|212:125,1,75,2|8,0:0|0:0,0:0:0:0:
246,66,145156,1,2,0:0:0:0:
320,148,145340,6,0,B|416:182|476:117|476:117,1,150,6|8,0:0|0:0,0:0:0:0:
398,65,145892,2,0,P|384:23|393:-15,2,75,2|0|2,0:0|0:0|0:0,0:0:0:0:
476,19,146445,1,8,0:0:0:0:
462,128,146629,6,0,L|451:218,1,75,2|0,0:0|0:0,0:0:0:0:
438,291,146997,1,2,0:0:0:0:
368,234,147181,2,0,P|308:224|268:237,1,75,8|0,0:0|0:0,0:0:0:0:
230,289,147549,2,0,L|252:345,2,37.5,2|8|0,0:0|0:0|0:0,0:0:0:0:
197,189,147917,2,0,P|156:180|104:192,1,75,8|2,0:0|0:0,0:0:0:0:
53,255,148285,6,0,P|23:188|46:118,1,150,6|8,0:0|0:0,0:0:0:0:
136,78,148837,2,0,L|210:77,1,75,2|0,0:0|0:0,0:0:0:0:
296,50,149205,2,0,P|311:96|298:143,1,75,2|8,0:0|0:0,0:0:0:0:
235,174,149573,6,0,P|286:201|388:195,1,150,2|2,0:0|0:0,0:0:0:0:
422,121,150126,1,8,0:0:0:0:
500,233,150310,2,0,P|529:156|503:81,1,150,2|2,0:0|0:0,0:0:0:0:
422,121,150862,2,0,L|337:120,1,75,8|0,0:0|0:0,0:0:0:0:
234,173,151230,6,0,P|223:92|259:31,1,150,4|8,0:0|0:0,0:0:0:0:
347,120,151782,2,0,L|332:203,1,75,2|0,0:0|0:0,0:0:0:0:
402,256,152150,2,0,L|417:173,1,75,2|8,0:0|0:0,0:0:0:0:
264,142,152518,6,0,L|236:289,1,150,6|2,0:0|0:0,0:0:0:0:
218,377,153070,1,12,0:0:0:0:
67,226,153438,2,0,L|3:242,2,37.5,8|8|8,0:0|0:0|0:3,0:0:0:0:
94,139,153807,2,0,L|34:110,2,37.5,8|2|8,0:0|0:0|0:3,0:0:0:0:
148,212,154175,6,0,P|157:304|111:369,1,150,6|8,0:0|0:0,0:0:0:0:
218,377,154727,2,0,P|266:374|309:350,1,75,2|0,0:0|0:0,0:0:0:0:
379,377,155095,2,0,P|400:333|401:284,1,75,2|8,0:0|0:0,0:0:0:0:
460,238,155463,6,0,P|433:197|391:172,1,75,2|0,0:0|0:0,0:0:0:0:
379,98,155831,2,0,P|331:101|288:124,1,75,2|8,0:0|0:0,0:0:0:0:
217,97,156199,2,0,P|195:140|194:189,1,75,2|0,0:0|0:0,0:0:0:0:
297,256,156567,2,0,P|260:193|191:166,1,150,2|4,0:0|0:0,0:0:0:0:
105,186,157119,6,0,P|36:159|0:96,1,150,2|8,0:0|0:0,0:0:0:0:
64,32,157672,2,0,P|105:25|156:31,1,75,2|0,0:0|0:0,0:0:0:0:
226,43,158040,2,0,P|263:44|300:38,1,75,2|8,0:0|0:0,0:0:0:0:
384,7,158408,6,0,L|406:109,1,75,2|0,0:0|0:0,0:0:0:0:
419,167,158776,1,2,0:0:0:0:
342,253,158960,1,12,0:0:0:0:
276,191,159144,2,0,L|244:163,2,37.5,0|8|2,0:0|0:0|0:0,0:0:0:0:
342,253,159512,2,0,P|351:302|334:345,2,75,8|8|8,0:3|0:0|0:3,0:0:0:0:
256,327,160064,6,0,B|163:355|107:295|107:295,1,150,4|8,0:0|0:0,0:0:0:0:
61,228,160616,2,0,P|50:178|63:143,1,75,2|0,0:0|0:0,0:0:0:0:
186,148,160984,2,0,P|148:182|111:188,1,75,2|8,0:0|0:0,0:0:0:0:
54,79,161353,6,0,P|113:61|228:78,1,150,4|0,0:0|0:0,0:0:0:0:
273,119,161905,1,8,0:0:0:0:
358,89,162089,2,0,P|367:124|357:160,2,75,2|0|2,0:0|0:0|0:0,0:0:0:0:
272,118,162641,2,0,P|263:83|273:47,1,75,8|2,0:0|0:0,0:0:0:0:
424,47,163009,6,0,P|445:130|415:213,1,150,6|8,0:0|0:0,0:0:0:0:
364,252,163561,2,0,L|287:238,1,75,2|8,0:0|0:0,0:0:0:0:
249,158,163929,2,0,P|288:148|344:165,1,75,2|8,0:0|0:0,0:0:0:0:
196,237,164297,6,0,P|157:178|167:80,2,150,2|2|2,0:0|0:0|0:0,0:0:0:0:
249,158,165218,1,2,0:0:0:0:
290,238,165402,2,0,L|316:292,2,37.5,2|2|8,0:0|0:0|0:0,0:0:0:0:
256,40,165954,5,4,0:0:0:0:
256,192,166046,12,8,168530,0:0:0:0:
140,100,168899,5,2,0:0:0:0:
200,166,169083,2,0,P|244:173|283:162,1,75,4|0,0:0|0:0,0:0:0:0:
303,81,169451,2,0,P|259:74|220:85,1,75,8|0,0:0|0:0,0:0:0:0:
140,100,169819,1,2,0:0:0:0:
200,166,170003,1,2,0:0:0:0:
112,186,170187,6,0,P|74:260|111:331,1,150,12|8,0:0|0:0,0:0:0:0:
179,352,170739,2,0,L|266:339,1,75,2|2,0:0|0:0,0:0:0:0:
341,358,171107,2,0,P|351:318|331:265,1,75,8|8,0:0|0:0,0:0:0:0:
268,184,171475,2,0,P|258:224|278:277,1,75,2|0,0:0|0:0,0:0:0:0:
376,200,171843,6,0,P|388:145|350:53,1,150,6|2,0:0|0:0,0:0:0:0:
285,3,172395,1,2,0:0:0:0:
215,60,172580,2,0,P|146:63|119:48,1,75,8|2,0:0|0:0,0:0:0:0:
57,30,172948,1,8,0:0:0:0:
9,106,173132,6,0,L|30:191,1,75,2|0,0:0|0:0,0:0:0:0:
114,197,173500,2,0,L|96:124,1,75,8|0,0:0|0:0,0:0:0:0:
202,139,173868,2,0,P|220:182|177:280,1,150,8|2,0:3|0:0,0:0:0:0:
103,311,174420,2,0,L|2:284,1,75,8|2,0:0|0:0,0:0:0:0:
173,357,174788,6,0,P|250:367|333:320,1,150,6|0,0:0|0:0,0:0:0:0:
361,261,175340,2,0,L|339:96,1,150,2|2,0:0|0:0,0:0:0:0:
329,23,175892,1,8,0:0:0:0:
446,63,176076,6,0,P|473:141|447:210,1,150,6|10,0:0|0:0,0:0:0:0:
361,261,176629,1,10,0:0:0:0:
361,261,176813,1,10,0:0:0:0:
273,221,176997,2,0,L|266:294,2,50,8|2|2,0:0|0:0|0:0,0:0:0:0:
192,193,177365,2,0,L|174:259,2,50,8|2|2,0:0|0:0|0:0,0:0:0:0:
254,134,177733,6,0,P|259:53|192:6,1,150,6|2,0:0|0:0,0:0:0:0:
123,28,178285,1,2,0:0:0:0:
48,77,178469,2,0,P|11:146|15:219,1,150,8|2,0:0|0:0,0:0:0:0:
47,299,179021,6,0,P|119:301|192:280,1,150,8|8,0:0|0:0,0:0:0:0:
217,194,179573,2,0,L|198:23,1,150,8|8,0:3|0:0,0:0:0:0:
283,80,180126,2,0,L|291:150,2,37.5,2|0|8,0:0|0:0|0:3,0:0:0:0:
358,31,180494,1,8,0:0:0:0:
435,77,180678,5,6,0:0:0:0:
410,164,180862,2,0,P|456:164|502:136,2,75,8|2|2,0:0|0:0|0:0,0:0:0:0:
327,129,181414,2,0,P|254:120|201:136,2,112.5,12|12|12,0:0|0:0|0:0,0:0:0:0:
410,164,182150,5,12,0:0:0:0:
254,350,182518,1,2,0:0:0:0:
343,350,182702,2,0,L|447:351,1,75,2|8,0:0|0:0,0:0:0:0:
386,266,183070,2,0,L|311:265,1,75,8|8,0:0|0:3,0:0:0:0:
221,262,183438,1,8,0:0:0:0:
123,335,183622,6,0,P|88:268|96:193,1,150,6|8,0:0|0:0,0:0:0:0:
149,123,184175,2,0,P|185:114|222:120,1,75,2|0,0:0|0:0,0:0:0:0:
307,148,184543,2,0,P|319:112|316:75,1,75,2|8,0:0|0:0,0:0:0:0:
408,162,184911,6,0,P|375:228|311:265,1,150,6|2,0:0|0:0,0:0:0:0:
228,228,185463,2,0,P|173:221|135:232,1,75,8|4,0:0|0:0,0:0:0:0:
76,270,185831,1,2,0:0:0:0:
38,188,186015,2,0,L|16:141,2,37.5,2|2|8,0:0|0:0|0:0,0:0:0:0:
284,324,186567,6,0,P|313:256|301:183,1,150,6|8,0:0|0:0,0:0:0:0:
245,113,187119,2,0,P|229:68|237:33,1,75,2|8,0:0|0:0,0:0:0:0:
321,60,187488,2,0,L|422:46,1,75,2|8,0:0|0:0,0:0:0:0:
505,121,187856,6,0,P|520:187|474:280,1,150,6|2,0:0|0:0,0:0:0:0:
414,308,188408,2,0,P|370:306|335:287,1,75,8|2,0:0|0:0,0:0:0:0:
371,154,188776,2,0,P|390:186|394:224,1,75,8|2,0:0|0:0,0:0:0:0:
260,268,189144,2,0,P|283:230|317:210,2,75,8|8|6,0:0|0:0|0:0,0:0:0:0:
256,192,189604,12,2,190984,0:0:0:0:
114,234,196874,6,0,P|192:248|249:227,1,120,0|0,0:0|0:0,0:0:0:0:
298,194,197426,2,0,P|356:182|413:197,2,120,2|0|0,0:0|0:0|0:0,0:0:0:0:
192,326,198530,2,0,L|120:312,1,60,0|0,0:0|0:0,0:0:0:0:
52,326,198899,2,0,P|32:274|45:204,1,120,2|0,0:0|0:0,0:0:0:0:
89,139,199451,1,2,0:0:0:0:
296,203,199819,6,0,P|222:215|152:192,1,150,6|2,0:0|0:0,0:0:0:0:
201,116,200371,2,0,L|285:116,1,75,2|2,0:0|0:0,0:0:0:0:
359,81,200739,2,0,P|399:99|427:136,1,75,8|0,0:0|0:0,0:0:0:0:
457,203,201107,6,0,P|496:163|487:65,1,150,4|2,0:0|0:0,0:0:0:0:
426,14,201659,1,8,0:0:0:0:
211,146,202027,2,0,L|193:98,2,37.5,8|8|8,0:0|0:0|0:3,0:0:0:0:
301,146,202395,2,0,L|319:98,2,37.5,8|2|8,0:0|0:0|0:3,0:0:0:0:
256,225,202764,6,0,L|256:384,1,150,6|8,0:0|0:0,0:0:0:0:
180,328,203316,2,0,L|179:227,1,75,2|0,0:0|0:0,0:0:0:0:
102,206,203684,2,0,L|103:281,1,75,2|8,0:0|0:0,0:0:0:0:
26,234,204052,6,0,L|25:133,1,75,2|0,0:0|0:0,0:0:0:0:
61,76,204420,2,0,P|116:70|159:81,1,75,2|8,0:0|0:0,0:0:0:0:
237,148,204788,2,0,P|182:154|139:143,1,75,2|0,0:0|0:0,0:0:0:0:
260,70,205156,2,0,P|297:66|334:72,1,75,2|8,0:0|0:0,0:0:0:0:
415,110,205524,1,4,0:0:0:0:
326,182,205708,6,0,P|321:255|361:317,1,150,2|8,0:0|0:0,0:0:0:0:
438,364,206261,2,0,L|519:346,1,75,2|0,0:0|0:0,0:0:0:0:
451,280,206629,2,0,P|441:235|456:199,1,75,2|8,0:0|0:0,0:0:0:0:
511,141,206997,6,0,P|472:116|433:117,1,75,2|0,0:0|0:0,0:0:0:0:
357,139,207365,1,6,0:0:0:0:
292,75,207549,1,8,0:0:0:0:
270,163,207733,2,0,L|260:212,2,37.5,0|8|2,0:0|0:0|0:0,0:0:0:0:
205,99,208101,2,0,P|158:91|116:99,2,75,8|8|8,0:3|0:0|0:3,0:0:0:0:
81,162,208653,6,0,P|52:103|71:13,1,150,6|2,0:0|0:0,0:0:0:0:
155,22,209205,2,0,L|258:22,1,75,2|8,0:0|0:0,0:0:0:0:
319,22,209573,2,0,P|332:68|316:108,1,75,2|0,0:0|0:0,0:0:0:0:
261,157,209942,6,0,P|245:221|277:297,1,150,6|8,0:0|0:0,0:0:0:0:
348,352,210494,1,2,0:0:0:0:
401,280,210678,1,2,0:0:0:0:
401,280,210862,2,0,L|383:194,1,75,8|2,0:0|0:0,0:0:0:0:
480,248,211230,2,0,L|462:162,1,75,8|2,0:0|0:0,0:0:0:0:
388,96,211598,6,0,P|318:89|234:115,1,150,6|2,0:0|0:0,0:0:0:0:
169,163,212150,2,0,P|119:158|85:125,1,75,2|8,0:0|0:0,0:0:0:0:
159,76,212518,2,0,P|209:81|243:114,1,75,2|2,0:0|0:0,0:0:0:0:
269,190,212886,6,0,L|241:353,1,150,6|2,0:0|0:0,0:0:0:0:
155,356,213438,2,0,L|141:280,1,75,8|2,0:0|0:0,0:0:0:0:
98,202,213807,2,0,P|59:239|51:277,2,75,8|2|8,0:0|0:0|0:0,0:0:0:0:
178,161,214359,2,0,L|231:161,2,37.5,8|8|4,0:0|0:0|0:0,0:0:0:0:
256,192,214635,12,0,217488,0:0:0:0:
373,97,217856,6,0,P|394:169|369:238,1,150,8|2,0:0|0:0,0:0:0:0:
298,294,218408,1,2,0:0:0:0:
227,238,218592,1,8,0:0:0:0:
227,238,218684,1,0,0:0:0:0:
227,238,218776,2,0,P|192:229|153:237,1,75,2|2,0:0|0:0,0:0:0:0:
31,97,219328,6,0,P|98:75|182:83,1,150,8|0,0:0|0:0,0:0:0:0:
258,118,219880,2,0,P|304:123|353:107,2,75,2|8|2,0:0|0:0|0:0,0:0:0:0:
176,81,220432,1,6,0:0:0:0:
256,192,220524,12,2,223377,0:0:0:0:
151,49,223745,6,0,L|192:210,1,150,8|2,0:0|0:0,0:0:0:0:
212,280,224297,1,2,0:0:0:0:
283,225,224481,1,8,0:0:0:0:
283,225,224573,1,0,0:0:0:0:
283,225,224665,2,0,L|386:230,1,75,2|2,0:0|0:0,0:0:0:0:
437,272,225034,2,0,P|444:208|428:185,2,75,2|8|2,0:0|0:0|0:0,0:0:0:0:
374,332,225586,6,0,P|224:357|127:314,1,240,8|6,0:3|0:0,0:0:0:0:
80,264,226506,6,0,L|99:168,1,75,2|0,0:0|0:0,0:0:0:0:
98,165,226782,1,0,0:0:0:0:
103,140,226874,1,2,0:0:0:0:
169,79,227058,2,0,P|225:75|256:88,2,75,8|2|0,0:0|0:0|0:0,0:0:0:0:
204,161,227610,2,0,L|227:212,2,37.5,2|0|4,0:0|0:0|0:0,0:0:0:0:
292,146,227978,6,0,L|391:138,1,75,2|2,0:0|0:0,0:0:0:0:
440,189,228346,2,0,P|476:193|510:181,1,75,2|8,0:0|0:0,0:0:0:0:
466,102,228715,2,0,L|422:26,2,75,2|2|8,0:0|0:0|0:0,0:0:0:0:
440,189,229267,5,6,0:0:0:0:
366,139,229451,2,0,L|263:133,1,75,0|2,0:0|0:0,0:0:0:0:
266,132,229727,1,8,0:0:0:0:
241,131,229819,1,4,0:0:0:0:
151,128,230003,2,0,P|141:91|151:46,2,75,8|2|2,0:0|0:0|0:0,0:0:0:0:
106,206,230555,2,0,L|75:250,2,37.5,8|8|6,0:3|0:0|0:0,0:0:0:0:
194,221,230923,6,0,L|287:239,1,75,2|2,0:0|0:0,0:0:0:0:
357,228,231291,2,0,P|368:264|358:301,1,75,0|8,0:0|0:0,0:0:0:0:
294,361,231659,2,0,P|253:354|206:360,2,75,2|8|8,0:0|0:3|0:0,0:0:0:0:
380,377,232211,6,0,P|420:353|439:306,1,75,6|0,0:0|0:0,0:0:0:0:
449,239,232580,1,8,0:0:0:0:
434,150,232764,2,0,L|418:67,1,75,2|0,0:0|0:0,0:0:0:0:
344,125,233132,2,0,P|300:137|249:124,1,75,2|8,0:0|0:0,0:0:0:0:
224,56,233500,6,0,P|268:44|319:57,1,75,6|0,0:0|0:0,0:0:0:0:
344,125,233868,2,0,L|363:217,2,75,2|12|2,0:0|0:0|0:0,0:0:0:0:
194,229,234604,2,0,L|119:212,1,75,2|8,0:0|0:0,0:0:0:0:
65,283,234972,2,0,L|140:300,1,75,2|6,0:0|0:0,0:0:0:0:
360,347,235524,5,8,0:0:0:0:
441,308,235708,1,2,0:0:0:0:
367,258,235892,5,8,0:0:0:0:
435,199,236076,1,2,0:0:0:0:
350,170,236260,5,8,0:0:0:0:
400,95,236445,1,6,0:0:0:0:
283,229,236813,5,8,0:0:0:0:
261,118,236997,1,8,0:0:0:0:
261,118,237181,1,12,0:0:0:0:
68,156,237549,5,8,0:0:0:0:
176,193,237733,2,0,L|160:128,2,37.5,8|8|2,0:0|0:0|0:0,0:0:0:0:
400,95,238469,5,6,0:0:0:0:
256,192,238561,12,2,244635,0:0:0:0:
