osu file format v14

[General]
AudioFilename: audio.mp3
AudioLeadIn: 0
PreviewTime: 1299473
Countdown: 0
SampleSet: Normal
StackLeniency: 0.7
Mode: 1
LetterboxInBreaks: 0
EpilepsyWarning: 1
WidescreenStoryboard: 1

[Editor]
Bookmarks: 728,102896,175023,225491,287633,334920,386108,431117,488819,540194,589377,636295,685249,757528,833727,880727,921034,959536,998754,1071369,1132584,1187456,1244536,1383168,1492935
DistanceSpacing: 1
BeatDivisor: 4
GridSize: 16
TimelineZoom: 2.5

[Metadata]
Title:Songs Compilation
TitleUnicode:Songs Compilation
Artist:FELT
ArtistUnicode:FELT
Creator:Hey lululu
Version:Last Wink
Source:東方Project
Tags:NAGI☆ 舞花 美歌 Vivienne Maurits"禅"Cornelis BOYZ PARTY W.Nova Renko David Kronos Silver Drive Flying Fantastica Rebirth Story II III Milky Wink Cold Snap Spatial Moving Blue Drop Abyss Ground Snow Sevens Head Grow Color Stand Up Rising Nebula World Trick Pure Heart Fluster Escape Parallel Cross After rain Rendezvous Sky Gate Day after white Feel The Flow OUR SHIP BRIGHTEST WAY Flower Flag Runway Drive Roll Ground Puppet in the Dark Crumbling Innocent Eyes Closed Wings crescent moon JOURNEY New World Memories Lies in Reality Lost My Way RESISTANCE Goodbye Mir Frostmourne Lugu Mimiliaa Kloyd Hobbes2 UndeadCapulet Deca arronchu1207 10nya Yohanes Crissa Icekalt Net0 iljaaz Keqing captin1 jonathanlfj Giralda Kalibe Moecho lu^3 Eeveelution HEAVENLY_MOON ikin5050 Yasuho Vulkin Hivie Capu Vasyadogs mintong89 Nao_Tomori Wanpachi Gamelan4 radar Jaltzu DakeDekaane Alchyr SWAKE Cychloryn [_TNTlealu_] -Dusk Raiden Heaxys SkyFlame -_AzRaeL_- Japanese video game rock English
BeatmapID:2985152
BeatmapSetID:1342305

[Difficulty]
HPDrainRate:4
CircleSize:2
OverallDifficulty:6
ApproachRate:10
SliderMultiplier:1.4
SliderTickRate:1

[Events]
//Background and Video events
0,0,"BG.jpg",0,70
//Break Periods
2,90054,107552
2,169478,179035
2,221424,227612
2,283976,291352
2,332565,337826
2,380434,386917
2,427567,442988
2,481855,491369
2,537019,540927
2,585077,591135
2,630803,637308
2,681677,687606
2,757377,760607
2,829629,837110
2,875260,881080
2,916205,925717
2,957169,964275
2,1070348,1075999
2,1128249,1134781
2,1184401,1192006
2,1241656,1250086
2,1380611,1397621
//Storyboard Layer 0 (Background)
//Storyboard Layer 1 (Fail)
//Storyboard Layer 2 (Pass)
//Storyboard Layer 3 (Foreground)
Sprite,Foreground,Centre,"SB\Pixel.jpg",320,240 S,0,0,,0
Sprite,Foreground,Centre,"SB\Pixel.jpg",320,240 S,0,0,,0
Sprite,Foreground,CentreLeft,"SB\Pixel.jpg",0,360 F,0,4156,,0.5 C,0,4156,,0,0,0 V,19,4156,5156,0,20.5,90.7,20.5 MX,19,89854,90854,619.3,710 V,19,89854,90854,90.7,20.5,0,20.5
Sprite,Foreground,Centre,"SB\Text\0045.png",0,362 S,0,4156,,0.25 C,0,4156,,0,0,0 F,0,4156,4256,0,0.5 F,18,89354,89854,0.5,0 MX,18,89354,89854,635.05,645.05
Sprite,Foreground,Centre,"SB\Text\Glow\0045.png",0,360 S,0,4156,,0.25 C,0,4156,,255,255,255 F,0,4156,4256,0,0.5 F,18,89354,89854,0.5,0 MX,18,89354,89854,633.05,643.05
Sprite,Foreground,Centre,"SB\Text\0045.png",0,360 S,0,4156,,0.25 C,0,4156,,255,255,255 F,0,4156,4256,0,1 F,18,89354,89854,1,0 MX,18,89354,89854,633.05,643.05
Sprite,Foreground,Centre,"SB\Text\0065.png",0,362 S,0,4156,,0.25 C,0,4256,,0,0,0 F,0,4256,4356,0,0.5 F,18,89354,89854,0.5,0 MX,18,89354,89854,642.675,652.675
Sprite,Foreground,Centre,"SB\Text\Glow\0065.png",0,360 S,0,4156,,0.25 C,0,4256,,255,255,255 F,0,4256,4356,0,0.5 F,18,89354,89854,0.5,0 MX,18,89354,89854,640.675,650.675
Sprite,Foreground,Centre,"SB\Text\0065.png",0,360 S,0,4156,,0.25 C,0,4256,,255,255,255 F,0,4256,4356,0,1 F,18,89354,89854,1,0 MX,18,89354,89854,640.675,650.675
Sprite,Foreground,Centre,"SB\Text\0076.png",0,362 S,0,4156,,0.25 C,0,4356,,0,0,0 F,0,4356,4456,0,0.5 F,18,89354,89854,0.5,0 MX,18,89354,89854,649.55,659.55
Sprite,Foreground,Centre,"SB\Text\Glow\0076.png",0,360 S,0,4156,,0.25 C,0,4356,,255,255,255 F,0,4356,4456,0,0.5 F,18,89354,89854,0.5,0 MX,18,89354,89854,647.55,657.55
Sprite,Foreground,Centre,"SB\Text\0076.png",0,360 S,0,4156,,0.25 C,0,4356,,255,255,255 F,0,4356,4456,0,1 F,18,89354,89854,1,0 MX,18,89354,89854,647.55,657.55
Sprite,Foreground,Centre,"SB\Text\0065.png",0,362 S,0,4156,,0.25 C,0,4456,,0,0,0 F,0,4456,4556,0,0.5 F,18,89354,89854,0.5,0 MX,18,89354,89854,656.425,666.425
Sprite,Foreground,Centre,"SB\Text\Glow\0065.png",0,360 S,0,4156,,0.25 C,0,4456,,255,255,255 F,0,4456,4556,0,0.5 F,18,89354,89854,0.5,0 MX,18,89354,89854,654.425,664.425
Sprite,Foreground,Centre,"SB\Text\0065.png",0,360 S,0,4156,,0.25 C,0,4456,,255,255,255 F,0,4456,4556,0,1 F,18,89354,89854,1,0 MX,18,89354,89854,654.425,664.425
Sprite,Foreground,Centre,"SB\Text\0065.png",0,362 S,0,4156,,0.25 C,0,4556,,0,0,0 F,0,4556,4656,0,0.5 F,18,89354,89854,0.5,0 MX,18,89354,89854,663.675,673.675
Sprite,Foreground,Centre,"SB\Text\Glow\0065.png",0,360 S,0,4156,,0.25 C,0,4556,,255,255,255 F,0,4556,4656,0,0.5 F,18,89354,89854,0.5,0 MX,18,89354,89854,661.675,671.675
Sprite,Foreground,Centre,"SB\Text\0065.png",0,360 S,0,4156,,0.25 C,0,4556,,255,255,255 F,0,4556,4656,0,1 F,18,89354,89854,1,0 MX,18,89354,89854,661.675,671.675
Sprite,Foreground,Centre,"SB\Text\006c.png",0,362 S,0,4156,,0.25 C,0,4656,,0,0,0 F,0,4656,4756,0,0.5 F,18,89354,89854,0.5,0 MX,18,89354,89854,669.175,679.175
Sprite,Foreground,Centre,"SB\Text\Glow\006c.png",0,360 S,0,4156,,0.25 C,0,4656,,255,255,255 F,0,4656,4756,0,0.5 F,18,89354,89854,0.5,0 MX,18,89354,89854,667.175,677.175
Sprite,Foreground,Centre,"SB\Text\006c.png",0,360 S,0,4156,,0.25 C,0,4656,,255,255,255 F,0,4656,4756,0,1 F,18,89354,89854,1,0 MX,18,89354,89854,667.175,677.175
Sprite,Foreground,Centre,"SB\Text\0075.png",0,362 S,0,4156,,0.25 C,0,4756,,0,0,0 F,0,4756,4856,0,0.5 F,18,89354,89854,0.5,0 MX,18,89354,89854,674.8,684.8
Sprite,Foreground,Centre,"SB\Text\Glow\0075.png",0,360 S,0,4156,,0.25 C,0,4756,,255,255,255 F,0,4756,4856,0,0.5 F,18,89354,89854,0.5,0 MX,18,89354,89854,672.8,682.8
Sprite,Foreground,Centre,"SB\Text\0075.png",0,360 S,0,4156,,0.25 C,0,4756,,255,255,255 F,0,4756,4856,0,1 F,18,89354,89854,1,0 MX,18,89354,89854,672.8,682.8
Sprite,Foreground,Centre,"SB\Text\0074.png",0,362 S,0,4156,,0.25 C,0,4856,,0,0,0 F,0,4856,4956,0,0.5 F,18,89354,89854,0.5,0 MX,18,89354,89854,680.925,690.925
Sprite,Foreground,Centre,"SB\Text\Glow\0074.png",0,360 S,0,4156,,0.25 C,0,4856,,255,255,255 F,0,4856,4956,0,0.5 F,18,89354,89854,0.5,0 MX,18,89354,89854,678.925,688.925
Sprite,Foreground,Centre,"SB\Text\0074.png",0,360 S,0,4156,,0.25 C,0,4856,,255,255,255 F,0,4856,4956,0,1 F,18,89354,89854,1,0 MX,18,89354,89854,678.925,688.925
Sprite,Foreground,Centre,"SB\Text\0069.png",0,362 S,0,4156,,0.25 C,0,4956,,0,0,0 F,0,4956,5056,0,0.5 F,18,89354,89854,0.5,0 MX,18,89354,89854,685.175,695.175
Sprite,Foreground,Centre,"SB\Text\Glow\0069.png",0,360 S,0,4156,,0.25 C,0,4956,,255,255,255 F,0,4956,5056,0,0.5 F,18,89354,89854,0.5,0 MX,18,89354,89854,683.175,693.175
Sprite,Foreground,Centre,"SB\Text\0069.png",0,360 S,0,4156,,0.25 C,0,4956,,255,255,255 F,0,4956,5056,0,1 F,18,89354,89854,1,0 MX,18,89354,89854,683.175,693.175
Sprite,Foreground,Centre,"SB\Text\006f.png",0,362 S,0,4156,,0.25 C,0,5056,,0,0,0 F,0,5056,5156,0,0.5 F,18,89354,89854,0.5,0 MX,18,89354,89854,690.675,700.675
Sprite,Foreground,Centre,"SB\Text\Glow\006f.png",0,360 S,0,4156,,0.25 C,0,5056,,255,255,255 F,0,5056,5156,0,0.5 F,18,89354,89854,0.5,0 MX,18,89354,89854,688.675,698.675
Sprite,Foreground,Centre,"SB\Text\006f.png",0,360 S,0,4156,,0.25 C,0,5056,,255,255,255 F,0,5056,5156,0,1 F,18,89354,89854,1,0 MX,18,89354,89854,688.675,698.675
Sprite,Foreground,Centre,"SB\Text\006e.png",0,362 S,0,4156,,0.25 C,0,5156,,0,0,0 F,0,5156,5256,0,0.5 F,18,89354,89854,0.5,0 MX,18,89354,89854,698.05,708.05
Sprite,Foreground,Centre,"SB\Text\Glow\006e.png",0,360 S,0,4156,,0.25 C,0,5156,,255,255,255 F,0,5156,5256,0,0.5 F,18,89354,89854,0.5,0 MX,18,89354,89854,696.05,706.05
Sprite,Foreground,Centre,"SB\Text\006e.png",0,360 S,0,4156,,0.25 C,0,5156,,255,255,255 F,0,5156,5256,0,1 F,18,89354,89854,1,0 MX,18,89354,89854,696.05,706.05
Sprite,Foreground,CentreLeft,"SB\Pixel.jpg",0,360 F,0,110555,,0.5 C,0,110555,,0,0,0 V,19,110555,111555,0,20.5,132.45,20.5 MX,19,169278,170278,577.55,710 V,19,169278,170278,132.45,20.5,0,20.5
Sprite,Foreground,Centre,"SB\Text\0048.png",0,362 S,0,110555,,0.25 C,0,110555,,0,0,0 F,0,110555,110655,0,0.5 F,18,168778,169278,0.5,0 MX,18,168778,169278,594.05,604.05
Sprite,Foreground,Centre,"SB\Text\Glow\0048.png",0,360 S,0,110555,,0.25 C,0,110555,,255,255,255 F,0,110555,110655,0,0.5 F,18,168778,169278,0.5,0 MX,18,168778,169278,592.05,602.05
Sprite,Foreground,Centre,"SB\Text\0048.png",0,360 S,0,110555,,0.25 C,0,110555,,255,255,255 F,0,110555,110655,0,1 F,18,168778,169278,1,0 MX,18,168778,169278,592.05,602.05
Sprite,Foreground,Centre,"SB\Text\0045.png",0,362 S,0,110555,,0.25 C,0,110655,,0,0,0 F,0,110655,110755,0,0.5 F,18,168778,169278,0.5,0 MX,18,168778,169278,602.8,612.8
Sprite,Foreground,Centre,"SB\Text\Glow\0045.png",0,360 S,0,110555,,0.25 C,0,110655,,255,255,255 F,0,110655,110755,0,0.5 F,18,168778,169278,0.5,0 MX,18,168778,169278,600.8,610.8
Sprite,Foreground,Centre,"SB\Text\0045.png",0,360 S,0,110555,,0.25 C,0,110655,,255,255,255 F,0,110655,110755,0,1 F,18,168778,169278,1,0 MX,18,168778,169278,600.8,610.8
Sprite,Foreground,Centre,"SB\Text\0041.png",0,362 S,0,110555,,0.25 C,0,110755,,0,0,0 F,0,110755,110855,0,0.5 F,18,168778,169278,0.5,0 MX,18,168778,169278,611.05,621.05
Sprite,Foreground,Centre,"SB\Text\Glow\0041.png",0,360 S,0,110555,,0.25 C,0,110755,,255,255,255 F,0,110755,110855,0,0.5 F,18,168778,169278,0.5,0 MX,18,168778,169278,609.05,619.05
Sprite,Foreground,Centre,"SB\Text\0041.png",0,360 S,0,110555,,0.25 C,0,110755,,255,255,255 F,0,110755,110855,0,1 F,18,168778,169278,1,0 MX,18,168778,169278,609.05,619.05
Sprite,Foreground,Centre,"SB\Text\0056.png",0,362 S,0,110555,,0.25 C,0,110855,,0,0,0 F,0,110855,110955,0,0.5 F,18,168778,169278,0.5,0 MX,18,168778,169278,619.55,629.55
Sprite,Foreground,Centre,"SB\Text\Glow\0056.png",0,360 S,0,110555,,0.25 C,0,110855,,255,255,255 F,0,110855,110955,0,0.5 F,18,168778,169278,0.5,0 MX,18,168778,169278,617.55,627.55
Sprite,Foreground,Centre,"SB\Text\0056.png",0,360 S,0,110555,,0.25 C,0,110855,,255,255,255 F,0,110855,110955,0,1 F,18,168778,169278,1,0 MX,18,168778,169278,617.55,627.55
Sprite,Foreground,Centre,"SB\Text\0045.png",0,362 S,0,110555,,0.25 C,0,110955,,0,0,0 F,0,110955,111055,0,0.5 F,18,168778,169278,0.5,0 MX,18,168778,169278,627.8,637.8
Sprite,Foreground,Centre,"SB\Text\Glow\0045.png",0,360 S,0,110555,,0.25 C,0,110955,,255,255,255 F,0,110955,111055,0,0.5 F,18,168778,169278,0.5,0 MX,18,168778,169278,625.8,635.8
Sprite,Foreground,Centre,"SB\Text\0045.png",0,360 S,0,110555,,0.25 C,0,110955,,255,255,255 F,0,110955,111055,0,1 F,18,168778,169278,1,0 MX,18,168778,169278,625.8,635.8
Sprite,Foreground,Centre,"SB\Text\004e.png",0,362 S,0,110555,,0.25 C,0,111055,,0,0,0 F,0,111055,111155,0,0.5 F,18,168778,169278,0.5,0 MX,18,168778,169278,636.55,646.55
Sprite,Foreground,Centre,"SB\Text\Glow\004e.png",0,360 S,0,110555,,0.25 C,0,111055,,255,255,255 F,0,111055,111155,0,0.5 F,18,168778,169278,0.5,0 MX,18,168778,169278,634.55,644.55
Sprite,Foreground,Centre,"SB\Text\004e.png",0,360 S,0,110555,,0.25 C,0,111055,,255,255,255 F,0,111055,111155,0,1 F,18,168778,169278,1,0 MX,18,168778,169278,634.55,644.55
Sprite,Foreground,Centre,"SB\Text\004c.png",0,362 S,0,110555,,0.25 C,0,111155,,0,0,0 F,0,111155,111255,0,0.5 F,18,168778,169278,0.5,0 MX,18,168778,169278,645.175,655.175
Sprite,Foreground,Centre,"SB\Text\Glow\004c.png",0,360 S,0,110555,,0.25 C,0,111155,,255,255,255 F,0,111155,111255,0,0.5 F,18,168778,169278,0.5,0 MX,18,168778,169278,643.175,653.175
Sprite,Foreground,Centre,"SB\Text\004c.png",0,360 S,0,110555,,0.25 C,0,111155,,255,255,255 F,0,111155,111255,0,1 F,18,168778,169278,1,0 MX,18,168778,169278,643.175,653.175
Sprite,Foreground,Centre,"SB\Text\0059.png",0,362 S,0,110555,,0.25 C,0,111255,,0,0,0 F,0,111255,111355,0,0.5 F,18,168778,169278,0.5,0 MX,18,168778,169278,653.3,663.3
Sprite,Foreground,Centre,"SB\Text\Glow\0059.png",0,360 S,0,110555,,0.25 C,0,111255,,255,255,255 F,0,111255,111355,0,0.5 F,18,168778,169278,0.5,0 MX,18,168778,169278,651.3,661.3
Sprite,Foreground,Centre,"SB\Text\0059.png",0,360 S,0,110555,,0.25 C,0,111255,,255,255,255 F,0,111255,111355,0,1 F,18,168778,169278,1,0 MX,18,168778,169278,651.3,661.3
Sprite,Foreground,Centre,"SB\Text\004d.png",0,362 S,0,110555,,0.25 C,0,111355,,0,0,0 F,0,111355,111455,0,0.5 F,18,168778,169278,0.5,0 MX,18,168778,169278,667.425,677.425
Sprite,Foreground,Centre,"SB\Text\Glow\004d.png",0,360 S,0,110555,,0.25 C,0,111355,,255,255,255 F,0,111355,111455,0,0.5 F,18,168778,169278,0.5,0 MX,18,168778,169278,665.425,675.425
Sprite,Foreground,Centre,"SB\Text\004d.png",0,360 S,0,110555,,0.25 C,0,111355,,255,255,255 F,0,111355,111455,0,1 F,18,168778,169278,1,0 MX,18,168778,169278,665.425,675.425
Sprite,Foreground,Centre,"SB\Text\004f.png",0,362 S,0,110555,,0.25 C,0,111455,,0,0,0 F,0,111455,111555,0,0.5 F,18,168778,169278,0.5,0 MX,18,168778,169278,678.05,688.05
Sprite,Foreground,Centre,"SB\Text\Glow\004f.png",0,360 S,0,110555,,0.25 C,0,111455,,255,255,255 F,0,111455,111555,0,0.5 F,18,168778,169278,0.5,0 MX,18,168778,169278,676.05,686.05
Sprite,Foreground,Centre,"SB\Text\004f.png",0,360 S,0,110555,,0.25 C,0,111455,,255,255,255 F,0,111455,111555,0,1 F,18,168778,169278,1,0 MX,18,168778,169278,676.05,686.05
Sprite,Foreground,Centre,"SB\Text\004f.png",0,362 S,0,110555,,0.25 C,0,111555,,0,0,0 F,0,111555,111655,0,0.5 F,18,168778,169278,0.5,0 MX,18,168778,169278,687.55,697.55
Sprite,Foreground,Centre,"SB\Text\Glow\004f.png",0,360 S,0,110555,,0.25 C,0,111555,,255,255,255 F,0,111555,111655,0,0.5 F,18,168778,169278,0.5,0 MX,18,168778,169278,685.55,695.55
Sprite,Foreground,Centre,"SB\Text\004f.png",0,360 S,0,110555,,0.25 C,0,111555,,255,255,255 F,0,111555,111655,0,1 F,18,168778,169278,1,0 MX,18,168778,169278,685.55,695.55
Sprite,Foreground,Centre,"SB\Text\004e.png",0,362 S,0,110555,,0.25 C,0,111655,,0,0,0 F,0,111655,111755,0,0.5 F,18,168778,169278,0.5,0 MX,18,168778,169278,697.05,707.05
Sprite,Foreground,Centre,"SB\Text\Glow\004e.png",0,360 S,0,110555,,0.25 C,0,111655,,255,255,255 F,0,111655,111755,0,0.5 F,18,168778,169278,0.5,0 MX,18,168778,169278,695.05,705.05
Sprite,Foreground,Centre,"SB\Text\004e.png",0,360 S,0,110555,,0.25 C,0,111655,,255,255,255 F,0,111655,111755,0,1 F,18,168778,169278,1,0 MX,18,168778,169278,695.05,705.05
Sprite,Foreground,CentreLeft,"SB\Pixel.jpg",0,360 F,0,181224,,0.5 C,0,181224,,0,0,0 V,19,181224,182224,0,20.5,70.95,20.5 MX,19,221224,222224,639.05,710 V,19,221224,222224,70.95,20.5,0,20.5
Sprite,Foreground,Centre,"SB\Text\0069.png",0,362 S,0,181224,,0.25 C,0,181224,,0,0,0 F,0,181224,181324,0,0.5 F,18,220724,221224,0.5,0 MX,18,220724,221224,652.675,662.675
Sprite,Foreground,Centre,"SB\Text\Glow\0069.png",0,360 S,0,181224,,0.25 C,0,181224,,255,255,255 F,0,181224,181324,0,0.5 F,18,220724,221224,0.5,0 MX,18,220724,221224,650.675,660.675
Sprite,Foreground,Centre,"SB\Text\0069.png",0,360 S,0,181224,,0.25 C,0,181224,,255,255,255 F,0,181224,181324,0,1 F,18,220724,221224,1,0 MX,18,220724,221224,650.675,660.675
Sprite,Foreground,Centre,"SB\Text\006b.png",0,362 S,0,181224,,0.25 C,0,181324,,0,0,0 F,0,181324,181424,0,0.5 F,18,220724,221224,0.5,0 MX,18,220724,221224,658.05,668.05
Sprite,Foreground,Centre,"SB\Text\Glow\006b.png",0,360 S,0,181224,,0.25 C,0,181324,,255,255,255 F,0,181324,181424,0,0.5 F,18,220724,221224,0.5,0 MX,18,220724,221224,656.05,666.05
Sprite,Foreground,Centre,"SB\Text\006b.png",0,360 S,0,181224,,0.25 C,0,181324,,255,255,255 F,0,181324,181424,0,1 F,18,220724,221224,1,0 MX,18,220724,221224,656.05,666.05
Sprite,Foreground,Centre,"SB\Text\0069.png",0,362 S,0,181224,,0.25 C,0,181424,,0,0,0 F,0,181424,181524,0,0.5 F,18,220724,221224,0.5,0 MX,18,220724,221224,663.425,673.425
Sprite,Foreground,Centre,"SB\Text\Glow\0069.png",0,360 S,0,181224,,0.25 C,0,181424,,255,255,255 F,0,181424,181524,0,0.5 F,18,220724,221224,0.5,0 MX,18,220724,221224,661.425,671.425
Sprite,Foreground,Centre,"SB\Text\0069.png",0,360 S,0,181224,,0.25 C,0,181424,,255,255,255 F,0,181424,181524,0,1 F,18,220724,221224,1,0 MX,18,220724,221224,661.425,671.425
Sprite,Foreground,Centre,"SB\Text\006e.png",0,362 S,0,181224,,0.25 C,0,181524,,0,0,0 F,0,181524,181624,0,0.5 F,18,220724,221224,0.5,0 MX,18,220724,221224,669.05,679.05
Sprite,Foreground,Centre,"SB\Text\Glow\006e.png",0,360 S,0,181224,,0.25 C,0,181524,,255,255,255 F,0,181524,181624,0,0.5 F,18,220724,221224,0.5,0 MX,18,220724,221224,667.05,677.05
Sprite,Foreground,Centre,"SB\Text\006e.png",0,360 S,0,181224,,0.25 C,0,181524,,255,255,255 F,0,181524,181624,0,1 F,18,220724,221224,1,0 MX,18,220724,221224,667.05,677.05
Sprite,Foreground,Centre,"SB\Text\0035.png",0,362 S,0,181224,,0.25 C,0,181624,,0,0,0 F,0,181624,181724,0,0.5 F,18,220724,221224,0.5,0 MX,18,220724,221224,676.425,686.425
Sprite,Foreground,Centre,"SB\Text\Glow\0035.png",0,360 S,0,181224,,0.25 C,0,181624,,255,255,255 F,0,181624,181724,0,0.5 F,18,220724,221224,0.5,0 MX,18,220724,221224,674.425,684.425
Sprite,Foreground,Centre,"SB\Text\0035.png",0,360 S,0,181224,,0.25 C,0,181624,,255,255,255 F,0,181624,181724,0,1 F,18,220724,221224,1,0 MX,18,220724,221224,674.425,684.425
Sprite,Foreground,Centre,"SB\Text\0030.png",0,362 S,0,181224,,0.25 C,0,181724,,0,0,0 F,0,181724,181824,0,0.5 F,18,220724,221224,0.5,0 MX,18,220724,221224,683.675,693.675
Sprite,Foreground,Centre,"SB\Text\Glow\0030.png",0,360 S,0,181224,,0.25 C,0,181724,,255,255,255 F,0,181724,181824,0,0.5 F,18,220724,221224,0.5,0 MX,18,220724,221224,681.675,691.675
Sprite,Foreground,Centre,"SB\Text\0030.png",0,360 S,0,181224,,0.25 C,0,181724,,255,255,255 F,0,181724,181824,0,1 F,18,220724,221224,1,0 MX,18,220724,221224,681.675,691.675
Sprite,Foreground,Centre,"SB\Text\0035.png",0,362 S,0,181224,,0.25 C,0,181824,,0,0,0 F,0,181824,181924,0,0.5 F,18,220724,221224,0.5,0 MX,18,220724,221224,690.925,700.925
Sprite,Foreground,Centre,"SB\Text\Glow\0035.png",0,360 S,0,181224,,0.25 C,0,181824,,255,255,255 F,0,181824,181924,0,0.5 F,18,220724,221224,0.5,0 MX,18,220724,221224,688.925,698.925
Sprite,Foreground,Centre,"SB\Text\0035.png",0,360 S,0,181224,,0.25 C,0,181824,,255,255,255 F,0,181824,181924,0,1 F,18,220724,221224,1,0 MX,18,220724,221224,688.925,698.925
Sprite,Foreground,Centre,"SB\Text\0030.png",0,362 S,0,181224,,0.25 C,0,181924,,0,0,0 F,0,181924,182024,0,0.5 F,18,220724,221224,0.5,0 MX,18,220724,221224,698.175,708.175
Sprite,Foreground,Centre,"SB\Text\Glow\0030.png",0,360 S,0,181224,,0.25 C,0,181924,,255,255,255 F,0,181924,182024,0,0.5 F,18,220724,221224,0.5,0 MX,18,220724,221224,696.175,706.175
Sprite,Foreground,Centre,"SB\Text\0030.png",0,360 S,0,181224,,0.25 C,0,181924,,255,255,255 F,0,181924,182024,0,1 F,18,220724,221224,1,0 MX,18,220724,221224,696.175,706.175
Sprite,Foreground,CentreLeft,"SB\Pixel.jpg",0,360 F,0,230633,,0.5 C,0,230633,,0,0,0 V,19,230633,231633,0,20.5,64.7,20.5 MX,19,283776,284776,645.3,710 V,19,283776,284776,64.7,20.5,0,20.5
Sprite,Foreground,Centre,"SB\Text\0059.png",0,362 S,0,230633,,0.25 C,0,230633,,0,0,0 F,0,230633,230733,0,0.5 F,18,283276,283776,0.5,0 MX,18,283276,283776,661.3,671.3
Sprite,Foreground,Centre,"SB\Text\Glow\0059.png",0,360 S,0,230633,,0.25 C,0,230633,,255,255,255 F,0,230633,230733,0,0.5 F,18,283276,283776,0.5,0 MX,18,283276,283776,659.3,669.3
Sprite,Foreground,Centre,"SB\Text\0059.png",0,360 S,0,230633,,0.25 C,0,230633,,255,255,255 F,0,230633,230733,0,1 F,18,283276,283776,1,0 MX,18,283276,283776,659.3,669.3
Sprite,Foreground,Centre,"SB\Text\0061.png",0,362 S,0,230633,,0.25 C,0,230733,,0,0,0 F,0,230733,230833,0,0.5 F,18,283276,283776,0.5,0 MX,18,283276,283776,669.175,679.175
Sprite,Foreground,Centre,"SB\Text\Glow\0061.png",0,360 S,0,230633,,0.25 C,0,230733,,255,255,255 F,0,230733,230833,0,0.5 F,18,283276,283776,0.5,0 MX,18,283276,283776,667.175,677.175
Sprite,Foreground,Centre,"SB\Text\0061.png",0,360 S,0,230633,,0.25 C,0,230733,,255,255,255 F,0,230733,230833,0,1 F,18,283276,283776,1,0 MX,18,283276,283776,667.175,677.175
Sprite,Foreground,Centre,"SB\Text\0073.png",0,362 S,0,230633,,0.25 C,0,230833,,0,0,0 F,0,230833,230933,0,0.5 F,18,283276,283776,0.5,0 MX,18,283276,283776,676.175,686.175
Sprite,Foreground,Centre,"SB\Text\Glow\0073.png",0,360 S,0,230633,,0.25 C,0,230833,,255,255,255 F,0,230833,230933,0,0.5 F,18,283276,283776,0.5,0 MX,18,283276,283776,674.175,684.175
Sprite,Foreground,Centre,"SB\Text\0073.png",0,360 S,0,230633,,0.25 C,0,230833,,255,255,255 F,0,230833,230933,0,1 F,18,283276,283776,1,0 MX,18,283276,283776,674.175,684.175
Sprite,Foreground,Centre,"SB\Text\0075.png",0,362 S,0,230633,,0.25 C,0,230933,,0,0,0 F,0,230933,231033,0,0.5 F,18,283276,283776,0.5,0 MX,18,283276,283776,683.3,693.3
Sprite,Foreground,Centre,"SB\Text\Glow\0075.png",0,360 S,0,230633,,0.25 C,0,230933,,255,255,255 F,0,230933,231033,0,0.5 F,18,283276,283776,0.5,0 MX,18,283276,283776,681.3,691.3
Sprite,Foreground,Centre,"SB\Text\0075.png",0,360 S,0,230633,,0.25 C,0,230933,,255,255,255 F,0,230933,231033,0,1 F,18,283276,283776,1,0 MX,18,283276,283776,681.3,691.3
Sprite,Foreground,Centre,"SB\Text\0068.png",0,362 S,0,230633,,0.25 C,0,231033,,0,0,0 F,0,231033,231133,0,0.5 F,18,283276,283776,0.5,0 MX,18,283276,283776,690.8,700.8
Sprite,Foreground,Centre,"SB\Text\Glow\0068.png",0,360 S,0,230633,,0.25 C,0,231033,,255,255,255 F,0,231033,231133,0,0.5 F,18,283276,283776,0.5,0 MX,18,283276,283776,688.8,698.8
Sprite,Foreground,Centre,"SB\Text\0068.png",0,360 S,0,230633,,0.25 C,0,231033,,255,255,255 F,0,231033,231133,0,1 F,18,283276,283776,1,0 MX,18,283276,283776,688.8,698.8
Sprite,Foreground,Centre,"SB\Text\006f.png",0,362 S,0,230633,,0.25 C,0,231133,,0,0,0 F,0,231133,231233,0,0.5 F,18,283276,283776,0.5,0 MX,18,283276,283776,698.175,708.175
Sprite,Foreground,Centre,"SB\Text\Glow\006f.png",0,360 S,0,230633,,0.25 C,0,231133,,255,255,255 F,0,231133,231233,0,0.5 F,18,283276,283776,0.5,0 MX,18,283276,283776,696.175,706.175
Sprite,Foreground,Centre,"SB\Text\006f.png",0,360 S,0,230633,,0.25 C,0,231133,,255,255,255 F,0,231133,231233,0,1 F,18,283276,283776,1,0 MX,18,283276,283776,696.175,706.175
Sprite,Foreground,CentreLeft,"SB\Pixel.jpg",0,360 F,0,293492,,0.5 C,0,293492,,0,0,0 V,19,293492,294492,0,20.5,57.95,20.5 MX,19,332365,333365,652.05,710 V,19,332365,333365,57.95,20.5,0,20.5
Sprite,Foreground,Centre,"SB\Text\0056.png",0,362 S,0,293492,,0.25 C,0,293492,,0,0,0 F,0,293492,293592,0,0.5 F,18,331865,332365,0.5,0 MX,18,331865,332365,668.05,678.05
Sprite,Foreground,Centre,"SB\Text\Glow\0056.png",0,360 S,0,293492,,0.25 C,0,293492,,255,255,255 F,0,293492,293592,0,0.5 F,18,331865,332365,0.5,0 MX,18,331865,332365,666.05,676.05
Sprite,Foreground,Centre,"SB\Text\0056.png",0,360 S,0,293492,,0.25 C,0,293492,,255,255,255 F,0,293492,293592,0,1 F,18,331865,332365,1,0 MX,18,331865,332365,666.05,676.05
Sprite,Foreground,Centre,"SB\Text\0075.png",0,362 S,0,293492,,0.25 C,0,293592,,0,0,0 F,0,293592,293692,0,0.5 F,18,331865,332365,0.5,0 MX,18,331865,332365,676.05,686.05
Sprite,Foreground,Centre,"SB\Text\Glow\0075.png",0,360 S,0,293492,,0.25 C,0,293592,,255,255,255 F,0,293592,293692,0,0.5 F,18,331865,332365,0.5,0 MX,18,331865,332365,674.05,684.05
Sprite,Foreground,Centre,"SB\Text\0075.png",0,360 S,0,293492,,0.25 C,0,293592,,255,255,255 F,0,293592,293692,0,1 F,18,331865,332365,1,0 MX,18,331865,332365,674.05,684.05
Sprite,Foreground,Centre,"SB\Text\006c.png",0,362 S,0,293492,,0.25 C,0,293692,,0,0,0 F,0,293692,293792,0,0.5 F,18,331865,332365,0.5,0 MX,18,331865,332365,681.675,691.675
Sprite,Foreground,Centre,"SB\Text\Glow\006c.png",0,360 S,0,293492,,0.25 C,0,293692,,255,255,255 F,0,293692,293792,0,0.5 F,18,331865,332365,0.5,0 MX,18,331865,332365,679.675,689.675
Sprite,Foreground,Centre,"SB\Text\006c.png",0,360 S,0,293492,,0.25 C,0,293692,,255,255,255 F,0,293692,293792,0,1 F,18,331865,332365,1,0 MX,18,331865,332365,679.675,689.675
Sprite,Foreground,Centre,"SB\Text\006b.png",0,362 S,0,293492,,0.25 C,0,293792,,0,0,0 F,0,293792,293892,0,0.5 F,18,331865,332365,0.5,0 MX,18,331865,332365,687.05,697.05
Sprite,Foreground,Centre,"SB\Text\Glow\006b.png",0,360 S,0,293492,,0.25 C,0,293792,,255,255,255 F,0,293792,293892,0,0.5 F,18,331865,332365,0.5,0 MX,18,331865,332365,685.05,695.05
Sprite,Foreground,Centre,"SB\Text\006b.png",0,360 S,0,293492,,0.25 C,0,293792,,255,255,255 F,0,293792,293892,0,1 F,18,331865,332365,1,0 MX,18,331865,332365,685.05,695.05
Sprite,Foreground,Centre,"SB\Text\0069.png",0,362 S,0,293492,,0.25 C,0,293892,,0,0,0 F,0,293892,293992,0,0.5 F,18,331865,332365,0.5,0 MX,18,331865,332365,692.425,702.425
Sprite,Foreground,Centre,"SB\Text\Glow\0069.png",0,360 S,0,293492,,0.25 C,0,293892,,255,255,255 F,0,293892,293992,0,0.5 F,18,331865,332365,0.5,0 MX,18,331865,332365,690.425,700.425
Sprite,Foreground,Centre,"SB\Text\0069.png",0,360 S,0,293492,,0.25 C,0,293892,,255,255,255 F,0,293892,293992,0,1 F,18,331865,332365,1,0 MX,18,331865,332365,690.425,700.425
Sprite,Foreground,Centre,"SB\Text\006e.png",0,362 S,0,293492,,0.25 C,0,293992,,0,0,0 F,0,293992,294092,0,0.5 F,18,331865,332365,0.5,0 MX,18,331865,332365,698.05,708.05
Sprite,Foreground,Centre,"SB\Text\Glow\006e.png",0,360 S,0,293492,,0.25 C,0,293992,,255,255,255 F,0,293992,294092,0,0.5 F,18,331865,332365,0.5,0 MX,18,331865,332365,696.05,706.05
Sprite,Foreground,Centre,"SB\Text\006e.png",0,360 S,0,293492,,0.25 C,0,293992,,255,255,255 F,0,293992,294092,0,1 F,18,331865,332365,1,0 MX,18,331865,332365,696.05,706.05
Sprite,Foreground,CentreLeft,"SB\Pixel.jpg",0,360 F,0,339954,,0.5 C,0,339954,,0,0,0 V,19,339954,340954,0,20.5,50.7,20.5 MX,19,380234,381234,659.3,710 V,19,380234,381234,50.7,20.5,0,20.5
Sprite,Foreground,Centre,"SB\Text\0048.png",0,362 S,0,339954,,0.25 C,0,339954,,0,0,0 F,0,339954,340054,0,0.5 F,18,379734,380234,0.5,0 MX,18,379734,380234,675.8,685.8
Sprite,Foreground,Centre,"SB\Text\Glow\0048.png",0,360 S,0,339954,,0.25 C,0,339954,,255,255,255 F,0,339954,340054,0,0.5 F,18,379734,380234,0.5,0 MX,18,379734,380234,673.8,683.8
Sprite,Foreground,Centre,"SB\Text\0048.png",0,360 S,0,339954,,0.25 C,0,339954,,255,255,255 F,0,339954,340054,0,1 F,18,379734,380234,1,0 MX,18,379734,380234,673.8,683.8
Sprite,Foreground,Centre,"SB\Text\0069.png",0,362 S,0,339954,,0.25 C,0,340054,,0,0,0 F,0,340054,340154,0,0.5 F,18,379734,380234,0.5,0 MX,18,379734,380234,682.425,692.425
Sprite,Foreground,Centre,"SB\Text\Glow\0069.png",0,360 S,0,339954,,0.25 C,0,340054,,255,255,255 F,0,340054,340154,0,0.5 F,18,379734,380234,0.5,0 MX,18,379734,380234,680.425,690.425
Sprite,Foreground,Centre,"SB\Text\0069.png",0,360 S,0,339954,,0.25 C,0,340054,,255,255,255 F,0,340054,340154,0,1 F,18,379734,380234,1,0 MX,18,379734,380234,680.425,690.425
Sprite,Foreground,Centre,"SB\Text\0076.png",0,362 S,0,339954,,0.25 C,0,340154,,0,0,0 F,0,340154,340254,0,0.5 F,18,379734,380234,0.5,0 MX,18,379734,380234,687.55,697.55
Sprite,Foreground,Centre,"SB\Text\Glow\0076.png",0,360 S,0,339954,,0.25 C,0,340154,,255,255,255 F,0,340154,340254,0,0.5 F,18,379734,380234,0.5,0 MX,18,379734,380234,685.55,695.55
Sprite,Foreground,Centre,"SB\Text\0076.png",0,360 S,0,339954,,0.25 C,0,340154,,255,255,255 F,0,340154,340254,0,1 F,18,379734,380234,1,0 MX,18,379734,380234,685.55,695.55
Sprite,Foreground,Centre,"SB\Text\0069.png",0,362 S,0,339954,,0.25 C,0,340254,,0,0,0 F,0,340254,340354,0,0.5 F,18,379734,380234,0.5,0 MX,18,379734,380234,692.675,702.675
Sprite,Foreground,Centre,"SB\Text\Glow\0069.png",0,360 S,0,339954,,0.25 C,0,340254,,255,255,255 F,0,340254,340354,0,0.5 F,18,379734,380234,0.5,0 MX,18,379734,380234,690.675,700.675
Sprite,Foreground,Centre,"SB\Text\0069.png",0,360 S,0,339954,,0.25 C,0,340254,,255,255,255 F,0,340254,340354,0,1 F,18,379734,380234,1,0 MX,18,379734,380234,690.675,700.675
Sprite,Foreground,Centre,"SB\Text\0065.png",0,362 S,0,339954,,0.25 C,0,340354,,0,0,0 F,0,340354,340454,0,0.5 F,18,379734,380234,0.5,0 MX,18,379734,380234,698.175,708.175
Sprite,Foreground,Centre,"SB\Text\Glow\0065.png",0,360 S,0,339954,,0.25 C,0,340354,,255,255,255 F,0,340354,340454,0,0.5 F,18,379734,380234,0.5,0 MX,18,379734,380234,696.175,706.175
Sprite,Foreground,Centre,"SB\Text\0065.png",0,360 S,0,339954,,0.25 C,0,340354,,255,255,255 F,0,340354,340454,0,1 F,18,379734,380234,1,0 MX,18,379734,380234,696.175,706.175
Sprite,Foreground,CentreLeft,"SB\Pixel.jpg",0,360 F,0,389033,,0.5 C,0,389033,,0,0,0 V,19,389033,390033,0,20.5,50.95,20.5 MX,19,427367,428367,659.05,710 V,19,427367,428367,50.95,20.5,0,20.5
Sprite,Foreground,Centre,"SB\Text\0043.png",0,362 S,0,389033,,0.25 C,0,389033,,0,0,0 F,0,389033,389133,0,0.5 F,18,426867,427367,0.5,0 MX,18,426867,427367,675.175,685.175
Sprite,Foreground,Centre,"SB\Text\Glow\0043.png",0,360 S,0,389033,,0.25 C,0,389033,,255,255,255 F,0,389033,389133,0,0.5 F,18,426867,427367,0.5,0 MX,18,426867,427367,673.175,683.175
Sprite,Foreground,Centre,"SB\Text\0043.png",0,360 S,0,389033,,0.25 C,0,389033,,255,255,255 F,0,389033,389133,0,1 F,18,426867,427367,1,0 MX,18,426867,427367,673.175,683.175
Sprite,Foreground,Centre,"SB\Text\0061.png",0,362 S,0,389033,,0.25 C,0,389133,,0,0,0 F,0,389133,389233,0,0.5 F,18,426867,427367,0.5,0 MX,18,426867,427367,683.175,693.175
Sprite,Foreground,Centre,"SB\Text\Glow\0061.png",0,360 S,0,389033,,0.25 C,0,389133,,255,255,255 F,0,389133,389233,0,0.5 F,18,426867,427367,0.5,0 MX,18,426867,427367,681.175,691.175
Sprite,Foreground,Centre,"SB\Text\0061.png",0,360 S,0,389033,,0.25 C,0,389133,,255,255,255 F,0,389133,389233,0,1 F,18,426867,427367,1,0 MX,18,426867,427367,681.175,691.175
Sprite,Foreground,Centre,"SB\Text\0070.png",0,362 S,0,389033,,0.25 C,0,389233,,0,0,0 F,0,389233,389333,0,0.5 F,18,426867,427367,0.5,0 MX,18,426867,427367,690.55,700.55
Sprite,Foreground,Centre,"SB\Text\Glow\0070.png",0,360 S,0,389033,,0.25 C,0,389233,,255,255,255 F,0,389233,389333,0,0.5 F,18,426867,427367,0.5,0 MX,18,426867,427367,688.55,698.55
Sprite,Foreground,Centre,"SB\Text\0070.png",0,360 S,0,389033,,0.25 C,0,389233,,255,255,255 F,0,389233,389333,0,1 F,18,426867,427367,1,0 MX,18,426867,427367,688.55,698.55
Sprite,Foreground,Centre,"SB\Text\0075.png",0,362 S,0,389033,,0.25 C,0,389333,,0,0,0 F,0,389333,389433,0,0.5 F,18,426867,427367,0.5,0 MX,18,426867,427367,698.05,708.05
Sprite,Foreground,Centre,"SB\Text\Glow\0075.png",0,360 S,0,389033,,0.25 C,0,389333,,255,255,255 F,0,389333,389433,0,0.5 F,18,426867,427367,0.5,0 MX,18,426867,427367,696.05,706.05
Sprite,Foreground,Centre,"SB\Text\0075.png",0,360 S,0,389033,,0.25 C,0,389333,,255,255,255 F,0,389333,389433,0,1 F,18,426867,427367,1,0 MX,18,426867,427367,696.05,706.05
Sprite,Foreground,CentreLeft,"SB\Pixel.jpg",0,360 F,0,434266,,0.5 C,0,434266,,0,0,0 V,19,434266,435266,0,20.5,84.95,20.5 MX,19,481655,482655,625.05,710 V,19,481655,482655,84.95,20.5,0,20.5
Sprite,Foreground,Centre,"SB\Text\0056.png",0,362 S,0,434266,,0.25 C,0,434266,,0,0,0 F,0,434266,434366,0,0.5 F,18,481155,481655,0.5,0 MX,18,481155,481655,641.05,651.05
Sprite,Foreground,Centre,"SB\Text\Glow\0056.png",0,360 S,0,434266,,0.25 C,0,434266,,255,255,255 F,0,434266,434366,0,0.5 F,18,481155,481655,0.5,0 MX,18,481155,481655,639.05,649.05
Sprite,Foreground,Centre,"SB\Text\0056.png",0,360 S,0,434266,,0.25 C,0,434266,,255,255,255 F,0,434266,434366,0,1 F,18,481155,481655,1,0 MX,18,481155,481655,639.05,649.05
Sprite,Foreground,Centre,"SB\Text\0061.png",0,362 S,0,434266,,0.25 C,0,434366,,0,0,0 F,0,434366,434466,0,0.5 F,18,481155,481655,0.5,0 MX,18,481155,481655,648.925,658.925
Sprite,Foreground,Centre,"SB\Text\Glow\0061.png",0,360 S,0,434266,,0.25 C,0,434366,,255,255,255 F,0,434366,434466,0,0.5 F,18,481155,481655,0.5,0 MX,18,481155,481655,646.925,656.925
Sprite,Foreground,Centre,"SB\Text\0061.png",0,360 S,0,434266,,0.25 C,0,434366,,255,255,255 F,0,434366,434466,0,1 F,18,481155,481655,1,0 MX,18,481155,481655,646.925,656.925
Sprite,Foreground,Centre,"SB\Text\0073.png",0,362 S,0,434266,,0.25 C,0,434466,,0,0,0 F,0,434466,434566,0,0.5 F,18,481155,481655,0.5,0 MX,18,481155,481655,655.925,665.925
Sprite,Foreground,Centre,"SB\Text\Glow\0073.png",0,360 S,0,434266,,0.25 C,0,434466,,255,255,255 F,0,434466,434566,0,0.5 F,18,481155,481655,0.5,0 MX,18,481155,481655,653.925,663.925
Sprite,Foreground,Centre,"SB\Text\0073.png",0,360 S,0,434266,,0.25 C,0,434466,,255,255,255 F,0,434466,434566,0,1 F,18,481155,481655,1,0 MX,18,481155,481655,653.925,663.925
Sprite,Foreground,Centre,"SB\Text\0079.png",0,362 S,0,434266,,0.25 C,0,434566,,0,0,0 F,0,434566,434666,0,0.5 F,18,481155,481655,0.5,0 MX,18,481155,481655,662.55,672.55
Sprite,Foreground,Centre,"SB\Text\Glow\0079.png",0,360 S,0,434266,,0.25 C,0,434566,,255,255,255 F,0,434566,434666,0,0.5 F,18,481155,481655,0.5,0 MX,18,481155,481655,660.55,670.55
Sprite,Foreground,Centre,"SB\Text\0079.png",0,360 S,0,434266,,0.25 C,0,434566,,255,255,255 F,0,434566,434666,0,1 F,18,481155,481655,1,0 MX,18,481155,481655,660.55,670.55
Sprite,Foreground,Centre,"SB\Text\0061.png",0,362 S,0,434266,,0.25 C,0,434666,,0,0,0 F,0,434666,434766,0,0.5 F,18,481155,481655,0.5,0 MX,18,481155,481655,669.425,679.425
Sprite,Foreground,Centre,"SB\Text\Glow\0061.png",0,360 S,0,434266,,0.25 C,0,434666,,255,255,255 F,0,434666,434766,0,0.5 F,18,481155,481655,0.5,0 MX,18,481155,481655,667.425,677.425
Sprite,Foreground,Centre,"SB\Text\0061.png",0,360 S,0,434266,,0.25 C,0,434666,,255,255,255 F,0,434666,434766,0,1 F,18,481155,481655,1,0 MX,18,481155,481655,667.425,677.425
Sprite,Foreground,Centre,"SB\Text\0064.png",0,362 S,0,434266,,0.25 C,0,434766,,0,0,0 F,0,434766,434866,0,0.5 F,18,481155,481655,0.5,0 MX,18,481155,481655,676.8,686.8
Sprite,Foreground,Centre,"SB\Text\Glow\0064.png",0,360 S,0,434266,,0.25 C,0,434766,,255,255,255 F,0,434766,434866,0,0.5 F,18,481155,481655,0.5,0 MX,18,481155,481655,674.8,684.8
Sprite,Foreground,Centre,"SB\Text\0064.png",0,360 S,0,434266,,0.25 C,0,434766,,255,255,255 F,0,434766,434866,0,1 F,18,481155,481655,1,0 MX,18,481155,481655,674.8,684.8
Sprite,Foreground,Centre,"SB\Text\006f.png",0,362 S,0,434266,,0.25 C,0,434866,,0,0,0 F,0,434866,434966,0,0.5 F,18,481155,481655,0.5,0 MX,18,481155,481655,684.175,694.175
Sprite,Foreground,Centre,"SB\Text\Glow\006f.png",0,360 S,0,434266,,0.25 C,0,434866,,255,255,255 F,0,434866,434966,0,0.5 F,18,481155,481655,0.5,0 MX,18,481155,481655,682.175,692.175
Sprite,Foreground,Centre,"SB\Text\006f.png",0,360 S,0,434266,,0.25 C,0,434866,,255,255,255 F,0,434866,434966,0,1 F,18,481155,481655,1,0 MX,18,481155,481655,682.175,692.175
Sprite,Foreground,Centre,"SB\Text\0067.png",0,362 S,0,434266,,0.25 C,0,434966,,0,0,0 F,0,434966,435066,0,0.5 F,18,481155,481655,0.5,0 MX,18,481155,481655,691.425,701.425
Sprite,Foreground,Centre,"SB\Text\Glow\0067.png",0,360 S,0,434266,,0.25 C,0,434966,,255,255,255 F,0,434966,435066,0,0.5 F,18,481155,481655,0.5,0 MX,18,481155,481655,689.425,699.425
Sprite,Foreground,Centre,"SB\Text\0067.png",0,360 S,0,434266,,0.25 C,0,434966,,255,255,255 F,0,434966,435066,0,1 F,18,481155,481655,1,0 MX,18,481155,481655,689.425,699.425
Sprite,Foreground,Centre,"SB\Text\0073.png",0,362 S,0,434266,,0.25 C,0,435066,,0,0,0 F,0,435066,435166,0,0.5 F,18,481155,481655,0.5,0 MX,18,481155,481655,698.425,708.425
Sprite,Foreground,Centre,"SB\Text\Glow\0073.png",0,360 S,0,434266,,0.25 C,0,435066,,255,255,255 F,0,435066,435166,0,0.5 F,18,481155,481655,0.5,0 MX,18,481155,481655,696.425,706.425
Sprite,Foreground,Centre,"SB\Text\0073.png",0,360 S,0,434266,,0.25 C,0,435066,,255,255,255 F,0,435066,435166,0,1 F,18,481155,481655,1,0 MX,18,481155,481655,696.425,706.425
Sprite,Foreground,CentreLeft,"SB\Pixel.jpg",0,360 F,0,493319,,0.5 C,0,493319,,0,0,0 V,19,493319,494319,0,20.5,83.45,20.5 MX,19,536818,537818,626.55,710 V,19,536818,537818,83.45,20.5,0,20.5
Sprite,Foreground,Centre,"SB\Text\006d.png",0,362 S,0,493319,,0.25 C,0,493319,,0,0,0 F,0,493319,493419,0,0.5 F,18,536318,536818,0.5,0 MX,18,536318,536818,643.8,653.8
Sprite,Foreground,Centre,"SB\Text\Glow\006d.png",0,360 S,0,493319,,0.25 C,0,493319,,255,255,255 F,0,493319,493419,0,0.5 F,18,536318,536818,0.5,0 MX,18,536318,536818,641.8,651.8
Sprite,Foreground,Centre,"SB\Text\006d.png",0,360 S,0,493319,,0.25 C,0,493319,,255,255,255 F,0,493319,493419,0,1 F,18,536318,536818,1,0 MX,18,536318,536818,641.8,651.8
Sprite,Foreground,Centre,"SB\Text\0069.png",0,362 S,0,493319,,0.25 C,0,493419,,0,0,0 F,0,493419,493519,0,0.5 F,18,536318,536818,0.5,0 MX,18,536318,536818,651.175,661.175
Sprite,Foreground,Centre,"SB\Text\Glow\0069.png",0,360 S,0,493319,,0.25 C,0,493419,,255,255,255 F,0,493419,493519,0,0.5 F,18,536318,536818,0.5,0 MX,18,536318,536818,649.175,659.175
Sprite,Foreground,Centre,"SB\Text\0069.png",0,360 S,0,493319,,0.25 C,0,493419,,255,255,255 F,0,493419,493519,0,1 F,18,536318,536818,1,0 MX,18,536318,536818,649.175,659.175
Sprite,Foreground,Centre,"SB\Text\006e.png",0,362 S,0,493319,,0.25 C,0,493519,,0,0,0 F,0,493519,493619,0,0.5 F,18,536318,536818,0.5,0 MX,18,536318,536818,656.8,666.8
Sprite,Foreground,Centre,"SB\Text\Glow\006e.png",0,360 S,0,493319,,0.25 C,0,493519,,255,255,255 F,0,493519,493619,0,0.5 F,18,536318,536818,0.5,0 MX,18,536318,536818,654.8,664.8
Sprite,Foreground,Centre,"SB\Text\006e.png",0,360 S,0,493319,,0.25 C,0,493519,,255,255,255 F,0,493519,493619,0,1 F,18,536318,536818,1,0 MX,18,536318,536818,654.8,664.8
Sprite,Foreground,Centre,"SB\Text\0074.png",0,362 S,0,493319,,0.25 C,0,493619,,0,0,0 F,0,493619,493719,0,0.5 F,18,536318,536818,0.5,0 MX,18,536318,536818,662.925,672.925
Sprite,Foreground,Centre,"SB\Text\Glow\0074.png",0,360 S,0,493319,,0.25 C,0,493619,,255,255,255 F,0,493619,493719,0,0.5 F,18,536318,536818,0.5,0 MX,18,536318,536818,660.925,670.925
Sprite,Foreground,Centre,"SB\Text\0074.png",0,360 S,0,493319,,0.25 C,0,493619,,255,255,255 F,0,493619,493719,0,1 F,18,536318,536818,1,0 MX,18,536318,536818,660.925,670.925
Sprite,Foreground,Centre,"SB\Text\006f.png",0,362 S,0,493319,,0.25 C,0,493719,,0,0,0 F,0,493719,493819,0,0.5 F,18,536318,536818,0.5,0 MX,18,536318,536818,668.925,678.925
Sprite,Foreground,Centre,"SB\Text\Glow\006f.png",0,360 S,0,493319,,0.25 C,0,493719,,255,255,255 F,0,493719,493819,0,0.5 F,18,536318,536818,0.5,0 MX,18,536318,536818,666.925,676.925
Sprite,Foreground,Centre,"SB\Text\006f.png",0,360 S,0,493319,,0.25 C,0,493719,,255,255,255 F,0,493719,493819,0,1 F,18,536318,536818,1,0 MX,18,536318,536818,666.925,676.925
Sprite,Foreground,Centre,"SB\Text\006e.png",0,362 S,0,493319,,0.25 C,0,493819,,0,0,0 F,0,493819,493919,0,0.5 F,18,536318,536818,0.5,0 MX,18,536318,536818,676.3,686.3
Sprite,Foreground,Centre,"SB\Text\Glow\006e.png",0,360 S,0,493319,,0.25 C,0,493819,,255,255,255 F,0,493819,493919,0,0.5 F,18,536318,536818,0.5,0 MX,18,536318,536818,674.3,684.3
Sprite,Foreground,Centre,"SB\Text\006e.png",0,360 S,0,493319,,0.25 C,0,493819,,255,255,255 F,0,493819,493919,0,1 F,18,536318,536818,1,0 MX,18,536318,536818,674.3,684.3
Sprite,Foreground,Centre,"SB\Text\0067.png",0,362 S,0,493319,,0.25 C,0,493919,,0,0,0 F,0,493919,494019,0,0.5 F,18,536318,536818,0.5,0 MX,18,536318,536818,683.675,693.675
Sprite,Foreground,Centre,"SB\Text\Glow\0067.png",0,360 S,0,493319,,0.25 C,0,493919,,255,255,255 F,0,493919,494019,0,0.5 F,18,536318,536818,0.5,0 MX,18,536318,536818,681.675,691.675
Sprite,Foreground,Centre,"SB\Text\0067.png",0,360 S,0,493319,,0.25 C,0,493919,,255,255,255 F,0,493919,494019,0,1 F,18,536318,536818,1,0 MX,18,536318,536818,681.675,691.675
Sprite,Foreground,Centre,"SB\Text\0038.png",0,362 S,0,493319,,0.25 C,0,494019,,0,0,0 F,0,494019,494119,0,0.5 F,18,536318,536818,0.5,0 MX,18,536318,536818,690.925,700.925
Sprite,Foreground,Centre,"SB\Text\Glow\0038.png",0,360 S,0,493319,,0.25 C,0,494019,,255,255,255 F,0,494019,494119,0,0.5 F,18,536318,536818,0.5,0 MX,18,536318,536818,688.925,698.925
Sprite,Foreground,Centre,"SB\Text\0038.png",0,360 S,0,493319,,0.25 C,0,494019,,255,255,255 F,0,494019,494119,0,1 F,18,536318,536818,1,0 MX,18,536318,536818,688.925,698.925
Sprite,Foreground,Centre,"SB\Text\0039.png",0,362 S,0,493319,,0.25 C,0,494119,,0,0,0 F,0,494119,494219,0,0.5 F,18,536318,536818,0.5,0 MX,18,536318,536818,698.175,708.175
Sprite,Foreground,Centre,"SB\Text\Glow\0039.png",0,360 S,0,493319,,0.25 C,0,494119,,255,255,255 F,0,494119,494219,0,0.5 F,18,536318,536818,0.5,0 MX,18,536318,536818,696.175,706.175
Sprite,Foreground,Centre,"SB\Text\0039.png",0,360 S,0,493319,,0.25 C,0,494119,,255,255,255 F,0,494119,494219,0,1 F,18,536318,536818,1,0 MX,18,536318,536818,696.175,706.175
Sprite,Foreground,CentreLeft,"SB\Pixel.jpg",0,360 F,0,542877,,0.5 C,0,542877,,0,0,0 V,19,542877,543877,0,20.5,90.45,20.5 MX,19,584877,585877,619.55,710 V,19,584877,585877,90.45,20.5,0,20.5
Sprite,Foreground,Centre,"SB\Text\004e.png",0,362 S,0,542877,,0.25 C,0,542877,,0,0,0 F,0,542877,542977,0,0.5 F,18,584377,584877,0.5,0 MX,18,584377,584877,636.05,646.05
Sprite,Foreground,Centre,"SB\Text\Glow\004e.png",0,360 S,0,542877,,0.25 C,0,542877,,255,255,255 F,0,542877,542977,0,0.5 F,18,584377,584877,0.5,0 MX,18,584377,584877,634.05,644.05
Sprite,Foreground,Centre,"SB\Text\004e.png",0,360 S,0,542877,,0.25 C,0,542877,,255,255,255 F,0,542877,542977,0,1 F,18,584377,584877,1,0 MX,18,584377,584877,634.05,644.05
Sprite,Foreground,Centre,"SB\Text\0061.png",0,362 S,0,542877,,0.25 C,0,542977,,0,0,0 F,0,542977,543077,0,0.5 F,18,584377,584877,0.5,0 MX,18,584377,584877,644.425,654.425
Sprite,Foreground,Centre,"SB\Text\Glow\0061.png",0,360 S,0,542877,,0.25 C,0,542977,,255,255,255 F,0,542977,543077,0,0.5 F,18,584377,584877,0.5,0 MX,18,584377,584877,642.425,652.425
Sprite,Foreground,Centre,"SB\Text\0061.png",0,360 S,0,542877,,0.25 C,0,542977,,255,255,255 F,0,542977,543077,0,1 F,18,584377,584877,1,0 MX,18,584377,584877,642.425,652.425
Sprite,Foreground,Centre,"SB\Text\006f.png",0,362 S,0,542877,,0.25 C,0,543077,,0,0,0 F,0,543077,543177,0,0.5 F,18,584377,584877,0.5,0 MX,18,584377,584877,651.675,661.675
Sprite,Foreground,Centre,"SB\Text\Glow\006f.png",0,360 S,0,542877,,0.25 C,0,543077,,255,255,255 F,0,543077,543177,0,0.5 F,18,584377,584877,0.5,0 MX,18,584377,584877,649.675,659.675
Sprite,Foreground,Centre,"SB\Text\006f.png",0,360 S,0,542877,,0.25 C,0,543077,,255,255,255 F,0,543077,543177,0,1 F,18,584377,584877,1,0 MX,18,584377,584877,649.675,659.675
Sprite,Foreground,Centre,"SB\Text\0054.png",0,362 S,0,542877,,0.25 C,0,543177,,0,0,0 F,0,543177,543277,0,0.5 F,18,584377,584877,0.5,0 MX,18,584377,584877,663.425,673.425
Sprite,Foreground,Centre,"SB\Text\Glow\0054.png",0,360 S,0,542877,,0.25 C,0,543177,,255,255,255 F,0,543177,543277,0,0.5 F,18,584377,584877,0.5,0 MX,18,584377,584877,661.425,671.425
Sprite,Foreground,Centre,"SB\Text\0054.png",0,360 S,0,542877,,0.25 C,0,543177,,255,255,255 F,0,543177,543277,0,1 F,18,584377,584877,1,0 MX,18,584377,584877,661.425,671.425
Sprite,Foreground,Centre,"SB\Text\006f.png",0,362 S,0,542877,,0.25 C,0,543277,,0,0,0 F,0,543277,543377,0,0.5 F,18,584377,584877,0.5,0 MX,18,584377,584877,671.175,681.175
Sprite,Foreground,Centre,"SB\Text\Glow\006f.png",0,360 S,0,542877,,0.25 C,0,543277,,255,255,255 F,0,543277,543377,0,0.5 F,18,584377,584877,0.5,0 MX,18,584377,584877,669.175,679.175
Sprite,Foreground,Centre,"SB\Text\006f.png",0,360 S,0,542877,,0.25 C,0,543277,,255,255,255 F,0,543277,543377,0,1 F,18,584377,584877,1,0 MX,18,584377,584877,669.175,679.175
Sprite,Foreground,Centre,"SB\Text\006d.png",0,362 S,0,542877,,0.25 C,0,543377,,0,0,0 F,0,543377,543477,0,0.5 F,18,584377,584877,0.5,0 MX,18,584377,584877,680.3,690.3
Sprite,Foreground,Centre,"SB\Text\Glow\006d.png",0,360 S,0,542877,,0.25 C,0,543377,,255,255,255 F,0,543377,543477,0,0.5 F,18,584377,584877,0.5,0 MX,18,584377,584877,678.3,688.3
Sprite,Foreground,Centre,"SB\Text\006d.png",0,360 S,0,542877,,0.25 C,0,543377,,255,255,255 F,0,543377,543477,0,1 F,18,584377,584877,1,0 MX,18,584377,584877,678.3,688.3
Sprite,Foreground,Centre,"SB\Text\006f.png",0,362 S,0,542877,,0.25 C,0,543477,,0,0,0 F,0,543477,543577,0,0.5 F,18,584377,584877,0.5,0 MX,18,584377,584877,689.425,699.425
Sprite,Foreground,Centre,"SB\Text\Glow\006f.png",0,360 S,0,542877,,0.25 C,0,543477,,255,255,255 F,0,543477,543577,0,0.5 F,18,584377,584877,0.5,0 MX,18,584377,584877,687.425,697.425
Sprite,Foreground,Centre,"SB\Text\006f.png",0,360 S,0,542877,,0.25 C,0,543477,,255,255,255 F,0,543477,543577,0,1 F,18,584377,584877,1,0 MX,18,584377,584877,687.425,697.425
Sprite,Foreground,Centre,"SB\Text\0072.png",0,362 S,0,542877,,0.25 C,0,543577,,0,0,0 F,0,543577,543677,0,0.5 F,18,584377,584877,0.5,0 MX,18,584377,584877,695.55,705.55
Sprite,Foreground,Centre,"SB\Text\Glow\0072.png",0,360 S,0,542877,,0.25 C,0,543577,,255,255,255 F,0,543577,543677,0,0.5 F,18,584377,584877,0.5,0 MX,18,584377,584877,693.55,703.55
Sprite,Foreground,Centre,"SB\Text\0072.png",0,360 S,0,542877,,0.25 C,0,543577,,255,255,255 F,0,543577,543677,0,1 F,18,584377,584877,1,0 MX,18,584377,584877,693.55,703.55
Sprite,Foreground,Centre,"SB\Text\0069.png",0,362 S,0,542877,,0.25 C,0,543677,,0,0,0 F,0,543677,543777,0,0.5 F,18,584377,584877,0.5,0 MX,18,584377,584877,699.925,709.925
Sprite,Foreground,Centre,"SB\Text\Glow\0069.png",0,360 S,0,542877,,0.25 C,0,543677,,255,255,255 F,0,543677,543777,0,0.5 F,18,584377,584877,0.5,0 MX,18,584377,584877,697.925,707.925
Sprite,Foreground,Centre,"SB\Text\0069.png",0,360 S,0,542877,,0.25 C,0,543677,,255,255,255 F,0,543677,543777,0,1 F,18,584377,584877,1,0 MX,18,584377,584877,697.925,707.925
Sprite,Foreground,CentreLeft,"SB\Pixel.jpg",0,360 F,0,593794,,0.5 C,0,593794,,0,0,0 V,19,593794,594794,0,20.5,79.2,20.5 MX,19,630604,631604,630.8,710 V,19,630604,631604,79.2,20.5,0,20.5
Sprite,Foreground,Centre,"SB\Text\0057.png",0,362 S,0,593794,,0.25 C,0,593794,,0,0,0 F,0,593794,593894,0,0.5 F,18,630104,630604,0.5,0 MX,18,630104,630604,648.425,658.425
Sprite,Foreground,Centre,"SB\Text\Glow\0057.png",0,360 S,0,593794,,0.25 C,0,593794,,255,255,255 F,0,593794,593894,0,0.5 F,18,630104,630604,0.5,0 MX,18,630104,630604,646.425,656.425
Sprite,Foreground,Centre,"SB\Text\0057.png",0,360 S,0,593794,,0.25 C,0,593794,,255,255,255 F,0,593794,593894,0,1 F,18,630104,630604,1,0 MX,18,630104,630604,646.425,656.425
Sprite,Foreground,Centre,"SB\Text\0061.png",0,362 S,0,593794,,0.25 C,0,593894,,0,0,0 F,0,593894,593994,0,0.5 F,18,630104,630604,0.5,0 MX,18,630104,630604,657.925,667.925
Sprite,Foreground,Centre,"SB\Text\Glow\0061.png",0,360 S,0,593794,,0.25 C,0,593894,,255,255,255 F,0,593894,593994,0,0.5 F,18,630104,630604,0.5,0 MX,18,630104,630604,655.925,665.925
Sprite,Foreground,Centre,"SB\Text\0061.png",0,360 S,0,593794,,0.25 C,0,593894,,255,255,255 F,0,593894,593994,0,1 F,18,630104,630604,1,0 MX,18,630104,630604,655.925,665.925
Sprite,Foreground,Centre,"SB\Text\006e.png",0,362 S,0,593794,,0.25 C,0,593994,,0,0,0 F,0,593994,594094,0,0.5 F,18,630104,630604,0.5,0 MX,18,630104,630604,665.3,675.3
Sprite,Foreground,Centre,"SB\Text\Glow\006e.png",0,360 S,0,593794,,0.25 C,0,593994,,255,255,255 F,0,593994,594094,0,0.5 F,18,630104,630604,0.5,0 MX,18,630104,630604,663.3,673.3
Sprite,Foreground,Centre,"SB\Text\006e.png",0,360 S,0,593794,,0.25 C,0,593994,,255,255,255 F,0,593994,594094,0,1 F,18,630104,630604,1,0 MX,18,630104,630604,663.3,673.3
Sprite,Foreground,Centre,"SB\Text\0070.png",0,362 S,0,593794,,0.25 C,0,594094,,0,0,0 F,0,594094,594194,0,0.5 F,18,630104,630604,0.5,0 MX,18,630104,630604,672.8,682.8
Sprite,Foreground,Centre,"SB\Text\Glow\0070.png",0,360 S,0,593794,,0.25 C,0,594094,,255,255,255 F,0,594094,594194,0,0.5 F,18,630104,630604,0.5,0 MX,18,630104,630604,670.8,680.8
Sprite,Foreground,Centre,"SB\Text\0070.png",0,360 S,0,593794,,0.25 C,0,594094,,255,255,255 F,0,594094,594194,0,1 F,18,630104,630604,1,0 MX,18,630104,630604,670.8,680.8
Sprite,Foreground,Centre,"SB\Text\0061.png",0,362 S,0,593794,,0.25 C,0,594194,,0,0,0 F,0,594194,594294,0,0.5 F,18,630104,630604,0.5,0 MX,18,630104,630604,680.175,690.175
Sprite,Foreground,Centre,"SB\Text\Glow\0061.png",0,360 S,0,593794,,0.25 C,0,594194,,255,255,255 F,0,594194,594294,0,0.5 F,18,630104,630604,0.5,0 MX,18,630104,630604,678.175,688.175
Sprite,Foreground,Centre,"SB\Text\0061.png",0,360 S,0,593794,,0.25 C,0,594194,,255,255,255 F,0,594194,594294,0,1 F,18,630104,630604,1,0 MX,18,630104,630604,678.175,688.175
Sprite,Foreground,Centre,"SB\Text\0063.png",0,362 S,0,593794,,0.25 C,0,594294,,0,0,0 F,0,594294,594394,0,0.5 F,18,630104,630604,0.5,0 MX,18,630104,630604,687.175,697.175
Sprite,Foreground,Centre,"SB\Text\Glow\0063.png",0,360 S,0,593794,,0.25 C,0,594294,,255,255,255 F,0,594294,594394,0,0.5 F,18,630104,630604,0.5,0 MX,18,630104,630604,685.175,695.175
Sprite,Foreground,Centre,"SB\Text\0063.png",0,360 S,0,593794,,0.25 C,0,594294,,255,255,255 F,0,594294,594394,0,1 F,18,630104,630604,1,0 MX,18,630104,630604,685.175,695.175
Sprite,Foreground,Centre,"SB\Text\0068.png",0,362 S,0,593794,,0.25 C,0,594394,,0,0,0 F,0,594394,594494,0,0.5 F,18,630104,630604,0.5,0 MX,18,630104,630604,694.3,704.3
Sprite,Foreground,Centre,"SB\Text\Glow\0068.png",0,360 S,0,593794,,0.25 C,0,594394,,255,255,255 F,0,594394,594494,0,0.5 F,18,630104,630604,0.5,0 MX,18,630104,630604,692.3,702.3
Sprite,Foreground,Centre,"SB\Text\0068.png",0,360 S,0,593794,,0.25 C,0,594394,,255,255,255 F,0,594394,594494,0,1 F,18,630104,630604,1,0 MX,18,630104,630604,692.3,702.3
Sprite,Foreground,Centre,"SB\Text\0069.png",0,362 S,0,593794,,0.25 C,0,594494,,0,0,0 F,0,594494,594594,0,0.5 F,18,630104,630604,0.5,0 MX,18,630104,630604,699.925,709.925
Sprite,Foreground,Centre,"SB\Text\Glow\0069.png",0,360 S,0,593794,,0.25 C,0,594494,,255,255,255 F,0,594494,594594,0,0.5 F,18,630104,630604,0.5,0 MX,18,630104,630604,697.925,707.925
Sprite,Foreground,Centre,"SB\Text\0069.png",0,360 S,0,593794,,0.25 C,0,594494,,255,255,255 F,0,594494,594594,0,1 F,18,630104,630604,1,0 MX,18,630104,630604,697.925,707.925
Sprite,Foreground,CentreLeft,"SB\Pixel.jpg",0,360 F,0,639221,,0.5 C,0,639221,,0,0,0 V,19,639221,640221,0,20.5,80.45,20.5 MX,19,681477,682477,629.55,710 V,19,681477,682477,80.45,20.5,0,20.5
Sprite,Foreground,Centre,"SB\Text\0047.png",0,362 S,0,639221,,0.25 C,0,639221,,0,0,0 F,0,639221,639321,0,0.5 F,18,680977,681477,0.5,0 MX,18,680977,681477,645.925,655.925
Sprite,Foreground,Centre,"SB\Text\Glow\0047.png",0,360 S,0,639221,,0.25 C,0,639221,,255,255,255 F,0,639221,639321,0,0.5 F,18,680977,681477,0.5,0 MX,18,680977,681477,643.925,653.925
Sprite,Foreground,Centre,"SB\Text\0047.png",0,360 S,0,639221,,0.25 C,0,639221,,255,255,255 F,0,639221,639321,0,1 F,18,680977,681477,1,0 MX,18,680977,681477,643.925,653.925
Sprite,Foreground,Centre,"SB\Text\0061.png",0,362 S,0,639221,,0.25 C,0,639321,,0,0,0 F,0,639321,639421,0,0.5 F,18,680977,681477,0.5,0 MX,18,680977,681477,654.175,664.175
Sprite,Foreground,Centre,"SB\Text\Glow\0061.png",0,360 S,0,639221,,0.25 C,0,639321,,255,255,255 F,0,639321,639421,0,0.5 F,18,680977,681477,0.5,0 MX,18,680977,681477,652.175,662.175
Sprite,Foreground,Centre,"SB\Text\0061.png",0,360 S,0,639221,,0.25 C,0,639321,,255,255,255 F,0,639321,639421,0,1 F,18,680977,681477,1,0 MX,18,680977,681477,652.175,662.175
Sprite,Foreground,Centre,"SB\Text\006d.png",0,362 S,0,639221,,0.25 C,0,639421,,0,0,0 F,0,639421,639521,0,0.5 F,18,680977,681477,0.5,0 MX,18,680977,681477,663.3,673.3
Sprite,Foreground,Centre,"SB\Text\Glow\006d.png",0,360 S,0,639221,,0.25 C,0,639421,,255,255,255 F,0,639421,639521,0,0.5 F,18,680977,681477,0.5,0 MX,18,680977,681477,661.3,671.3
Sprite,Foreground,Centre,"SB\Text\006d.png",0,360 S,0,639221,,0.25 C,0,639421,,255,255,255 F,0,639421,639521,0,1 F,18,680977,681477,1,0 MX,18,680977,681477,661.3,671.3
Sprite,Foreground,Centre,"SB\Text\0065.png",0,362 S,0,639221,,0.25 C,0,639521,,0,0,0 F,0,639521,639621,0,0.5 F,18,680977,681477,0.5,0 MX,18,680977,681477,672.425,682.425
Sprite,Foreground,Centre,"SB\Text\Glow\0065.png",0,360 S,0,639221,,0.25 C,0,639521,,255,255,255 F,0,639521,639621,0,0.5 F,18,680977,681477,0.5,0 MX,18,680977,681477,670.425,680.425
Sprite,Foreground,Centre,"SB\Text\0065.png",0,360 S,0,639221,,0.25 C,0,639521,,255,255,255 F,0,639521,639621,0,1 F,18,680977,681477,1,0 MX,18,680977,681477,670.425,680.425
Sprite,Foreground,Centre,"SB\Text\006c.png",0,362 S,0,639221,,0.25 C,0,639621,,0,0,0 F,0,639621,639721,0,0.5 F,18,680977,681477,0.5,0 MX,18,680977,681477,677.925,687.925
Sprite,Foreground,Centre,"SB\Text\Glow\006c.png",0,360 S,0,639221,,0.25 C,0,639621,,255,255,255 F,0,639621,639721,0,0.5 F,18,680977,681477,0.5,0 MX,18,680977,681477,675.925,685.925
Sprite,Foreground,Centre,"SB\Text\006c.png",0,360 S,0,639221,,0.25 C,0,639621,,255,255,255 F,0,639621,639721,0,1 F,18,680977,681477,1,0 MX,18,680977,681477,675.925,685.925
Sprite,Foreground,Centre,"SB\Text\0061.png",0,362 S,0,639221,,0.25 C,0,639721,,0,0,0 F,0,639721,639821,0,0.5 F,18,680977,681477,0.5,0 MX,18,680977,681477,683.425,693.425
Sprite,Foreground,Centre,"SB\Text\Glow\0061.png",0,360 S,0,639221,,0.25 C,0,639721,,255,255,255 F,0,639721,639821,0,0.5 F,18,680977,681477,0.5,0 MX,18,680977,681477,681.425,691.425
Sprite,Foreground,Centre,"SB\Text\0061.png",0,360 S,0,639221,,0.25 C,0,639721,,255,255,255 F,0,639721,639821,0,1 F,18,680977,681477,1,0 MX,18,680977,681477,681.425,691.425
Sprite,Foreground,Centre,"SB\Text\006e.png",0,362 S,0,639221,,0.25 C,0,639821,,0,0,0 F,0,639821,639921,0,0.5 F,18,680977,681477,0.5,0 MX,18,680977,681477,690.8,700.8
Sprite,Foreground,Centre,"SB\Text\Glow\006e.png",0,360 S,0,639221,,0.25 C,0,639821,,255,255,255 F,0,639821,639921,0,0.5 F,18,680977,681477,0.5,0 MX,18,680977,681477,688.8,698.8
Sprite,Foreground,Centre,"SB\Text\006e.png",0,360 S,0,639221,,0.25 C,0,639821,,255,255,255 F,0,639821,639921,0,1 F,18,680977,681477,1,0 MX,18,680977,681477,688.8,698.8
Sprite,Foreground,Centre,"SB\Text\0034.png",0,362 S,0,639221,,0.25 C,0,639921,,0,0,0 F,0,639921,640021,0,0.5 F,18,680977,681477,0.5,0 MX,18,680977,681477,698.175,708.175
Sprite,Foreground,Centre,"SB\Text\Glow\0034.png",0,360 S,0,639221,,0.25 C,0,639921,,255,255,255 F,0,639921,640021,0,0.5 F,18,680977,681477,0.5,0 MX,18,680977,681477,696.175,706.175
Sprite,Foreground,Centre,"SB\Text\0034.png",0,360 S,0,639221,,0.25 C,0,639921,,255,255,255 F,0,639921,640021,0,1 F,18,680977,681477,1,0 MX,18,680977,681477,696.175,706.175
Sprite,Foreground,CentreLeft,"SB\Pixel.jpg",0,360 F,0,689459,,0.5 C,0,689459,,0,0,0 V,19,689459,690459,0,20.5,51.95,20.5 MX,19,752967,753967,658.05,710 V,19,752967,753967,51.95,20.5,0,20.5
Sprite,Foreground,Centre,"SB\Text\0072.png",0,362 S,0,689459,,0.25 C,0,689459,,0,0,0 F,0,689459,689559,0,0.5 F,18,752467,752967,0.5,0 MX,18,752467,752967,672.3,682.3
Sprite,Foreground,Centre,"SB\Text\Glow\0072.png",0,360 S,0,689459,,0.25 C,0,689459,,255,255,255 F,0,689459,689559,0,0.5 F,18,752467,752967,0.5,0 MX,18,752467,752967,670.3,680.3
Sprite,Foreground,Centre,"SB\Text\0072.png",0,360 S,0,689459,,0.25 C,0,689459,,255,255,255 F,0,689459,689559,0,1 F,18,752467,752967,1,0 MX,18,752467,752967,670.3,680.3
Sprite,Foreground,Centre,"SB\Text\0061.png",0,362 S,0,689459,,0.25 C,0,689559,,0,0,0 F,0,689559,689659,0,0.5 F,18,752467,752967,0.5,0 MX,18,752467,752967,678.425,688.425
Sprite,Foreground,Centre,"SB\Text\Glow\0061.png",0,360 S,0,689459,,0.25 C,0,689559,,255,255,255 F,0,689559,689659,0,0.5 F,18,752467,752967,0.5,0 MX,18,752467,752967,676.425,686.425
Sprite,Foreground,Centre,"SB\Text\0061.png",0,360 S,0,689459,,0.25 C,0,689559,,255,255,255 F,0,689559,689659,0,1 F,18,752467,752967,1,0 MX,18,752467,752967,676.425,686.425
Sprite,Foreground,Centre,"SB\Text\0064.png",0,362 S,0,689459,,0.25 C,0,689659,,0,0,0 F,0,689659,689759,0,0.5 F,18,752467,752967,0.5,0 MX,18,752467,752967,685.8,695.8
Sprite,Foreground,Centre,"SB\Text\Glow\0064.png",0,360 S,0,689459,,0.25 C,0,689659,,255,255,255 F,0,689659,689759,0,0.5 F,18,752467,752967,0.5,0 MX,18,752467,752967,683.8,693.8
Sprite,Foreground,Centre,"SB\Text\0064.png",0,360 S,0,689459,,0.25 C,0,689659,,255,255,255 F,0,689659,689759,0,1 F,18,752467,752967,1,0 MX,18,752467,752967,683.8,693.8
Sprite,Foreground,Centre,"SB\Text\0061.png",0,362 S,0,689459,,0.25 C,0,689759,,0,0,0 F,0,689759,689859,0,0.5 F,18,752467,752967,0.5,0 MX,18,752467,752967,693.175,703.175
Sprite,Foreground,Centre,"SB\Text\Glow\0061.png",0,360 S,0,689459,,0.25 C,0,689759,,255,255,255 F,0,689759,689859,0,0.5 F,18,752467,752967,0.5,0 MX,18,752467,752967,691.175,701.175
Sprite,Foreground,Centre,"SB\Text\0061.png",0,360 S,0,689459,,0.25 C,0,689759,,255,255,255 F,0,689759,689859,0,1 F,18,752467,752967,1,0 MX,18,752467,752967,691.175,701.175
Sprite,Foreground,Centre,"SB\Text\0072.png",0,362 S,0,689459,,0.25 C,0,689859,,0,0,0 F,0,689859,689959,0,0.5 F,18,752467,752967,0.5,0 MX,18,752467,752967,699.3,709.3
Sprite,Foreground,Centre,"SB\Text\Glow\0072.png",0,360 S,0,689459,,0.25 C,0,689859,,255,255,255 F,0,689859,689959,0,0.5 F,18,752467,752967,0.5,0 MX,18,752467,752967,697.3,707.3
Sprite,Foreground,Centre,"SB\Text\0072.png",0,360 S,0,689459,,0.25 C,0,689859,,255,255,255 F,0,689859,689959,0,1 F,18,752467,752967,1,0 MX,18,752467,752967,697.3,707.3
Sprite,Foreground,CentreLeft,"SB\Pixel.jpg",0,360 F,0,762452,,0.5 C,0,762452,,0,0,0 V,19,762452,763452,0,20.5,54.95,20.5 MX,19,829429,830429,655.05,710 V,19,829429,830429,54.95,20.5,0,20.5
Sprite,Foreground,Centre,"SB\Text\004a.png",0,362 S,0,762452,,0.25 C,0,762452,,0,0,0 F,0,762452,762552,0,0.5 F,18,828929,829429,0.5,0 MX,18,828929,829429,669.55,679.55
Sprite,Foreground,Centre,"SB\Text\Glow\004a.png",0,360 S,0,762452,,0.25 C,0,762452,,255,255,255 F,0,762452,762552,0,0.5 F,18,828929,829429,0.5,0 MX,18,828929,829429,667.55,677.55
Sprite,Foreground,Centre,"SB\Text\004a.png",0,360 S,0,762452,,0.25 C,0,762452,,255,255,255 F,0,762452,762552,0,1 F,18,828929,829429,1,0 MX,18,828929,829429,667.55,677.55
Sprite,Foreground,Centre,"SB\Text\0061.png",0,362 S,0,762452,,0.25 C,0,762552,,0,0,0 F,0,762552,762652,0,0.5 F,18,828929,829429,0.5,0 MX,18,828929,829429,675.925,685.925
Sprite,Foreground,Centre,"SB\Text\Glow\0061.png",0,360 S,0,762452,,0.25 C,0,762552,,255,255,255 F,0,762552,762652,0,0.5 F,18,828929,829429,0.5,0 MX,18,828929,829429,673.925,683.925
Sprite,Foreground,Centre,"SB\Text\0061.png",0,360 S,0,762452,,0.25 C,0,762552,,255,255,255 F,0,762552,762652,0,1 F,18,828929,829429,1,0 MX,18,828929,829429,673.925,683.925
Sprite,Foreground,Centre,"SB\Text\006c.png",0,362 S,0,762452,,0.25 C,0,762652,,0,0,0 F,0,762652,762752,0,0.5 F,18,828929,829429,0.5,0 MX,18,828929,829429,681.425,691.425
Sprite,Foreground,Centre,"SB\Text\Glow\006c.png",0,360 S,0,762452,,0.25 C,0,762652,,255,255,255 F,0,762652,762752,0,0.5 F,18,828929,829429,0.5,0 MX,18,828929,829429,679.425,689.425
Sprite,Foreground,Centre,"SB\Text\006c.png",0,360 S,0,762452,,0.25 C,0,762652,,255,255,255 F,0,762652,762752,0,1 F,18,828929,829429,1,0 MX,18,828929,829429,679.425,689.425
Sprite,Foreground,Centre,"SB\Text\0074.png",0,362 S,0,762452,,0.25 C,0,762752,,0,0,0 F,0,762752,762852,0,0.5 F,18,828929,829429,0.5,0 MX,18,828929,829429,685.675,695.675
Sprite,Foreground,Centre,"SB\Text\Glow\0074.png",0,360 S,0,762452,,0.25 C,0,762752,,255,255,255 F,0,762752,762852,0,0.5 F,18,828929,829429,0.5,0 MX,18,828929,829429,683.675,693.675
Sprite,Foreground,Centre,"SB\Text\0074.png",0,360 S,0,762452,,0.25 C,0,762752,,255,255,255 F,0,762752,762852,0,1 F,18,828929,829429,1,0 MX,18,828929,829429,683.675,693.675
Sprite,Foreground,Centre,"SB\Text\007a.png",0,362 S,0,762452,,0.25 C,0,762852,,0,0,0 F,0,762852,762952,0,0.5 F,18,828929,829429,0.5,0 MX,18,828929,829429,691.175,701.175
Sprite,Foreground,Centre,"SB\Text\Glow\007a.png",0,360 S,0,762452,,0.25 C,0,762852,,255,255,255 F,0,762852,762952,0,0.5 F,18,828929,829429,0.5,0 MX,18,828929,829429,689.175,699.175
Sprite,Foreground,Centre,"SB\Text\007a.png",0,360 S,0,762452,,0.25 C,0,762852,,255,255,255 F,0,762852,762952,0,1 F,18,828929,829429,1,0 MX,18,828929,829429,689.175,699.175
Sprite,Foreground,Centre,"SB\Text\0075.png",0,362 S,0,762452,,0.25 C,0,762952,,0,0,0 F,0,762952,763052,0,0.5 F,18,828929,829429,0.5,0 MX,18,828929,829429,698.05,708.05
Sprite,Foreground,Centre,"SB\Text\Glow\0075.png",0,360 S,0,762452,,0.25 C,0,762952,,255,255,255 F,0,762952,763052,0,0.5 F,18,828929,829429,0.5,0 MX,18,828929,829429,696.05,706.05
Sprite,Foreground,Centre,"SB\Text\0075.png",0,360 S,0,762452,,0.25 C,0,762952,,255,255,255 F,0,762952,763052,0,1 F,18,828929,829429,1,0 MX,18,828929,829429,696.05,706.05
Sprite,Foreground,CentreLeft,"SB\Pixel.jpg",0,360 F,0,840393,,0.5 C,0,840393,,0,0,0 V,19,840393,841393,0,20.5,103.95,20.5 MX,19,875060,876060,606.05,710 V,19,875060,876060,103.95,20.5,0,20.5
Sprite,Foreground,Centre,"SB\Text\0044.png",0,362 S,0,840393,,0.25 C,0,840393,,0,0,0 F,0,840393,840493,0,0.5 F,18,874560,875060,0.5,0 MX,18,874560,875060,622.55,632.55
Sprite,Foreground,Centre,"SB\Text\Glow\0044.png",0,360 S,0,840393,,0.25 C,0,840393,,255,255,255 F,0,840393,840493,0,0.5 F,18,874560,875060,0.5,0 MX,18,874560,875060,620.55,630.55
Sprite,Foreground,Centre,"SB\Text\0044.png",0,360 S,0,840393,,0.25 C,0,840393,,255,255,255 F,0,840393,840493,0,1 F,18,874560,875060,1,0 MX,18,874560,875060,620.55,630.55
Sprite,Foreground,Centre,"SB\Text\0061.png",0,362 S,0,840393,,0.25 C,0,840493,,0,0,0 F,0,840493,840593,0,0.5 F,18,874560,875060,0.5,0 MX,18,874560,875060,630.925,640.925
Sprite,Foreground,Centre,"SB\Text\Glow\0061.png",0,360 S,0,840393,,0.25 C,0,840493,,255,255,255 F,0,840493,840593,0,0.5 F,18,874560,875060,0.5,0 MX,18,874560,875060,628.925,638.925
Sprite,Foreground,Centre,"SB\Text\0061.png",0,360 S,0,840393,,0.25 C,0,840493,,255,255,255 F,0,840493,840593,0,1 F,18,874560,875060,1,0 MX,18,874560,875060,628.925,638.925
Sprite,Foreground,Centre,"SB\Text\006b.png",0,362 S,0,840393,,0.25 C,0,840593,,0,0,0 F,0,840593,840693,0,0.5 F,18,874560,875060,0.5,0 MX,18,874560,875060,638.05,648.05
Sprite,Foreground,Centre,"SB\Text\Glow\006b.png",0,360 S,0,840393,,0.25 C,0,840593,,255,255,255 F,0,840593,840693,0,0.5 F,18,874560,875060,0.5,0 MX,18,874560,875060,636.05,646.05
Sprite,Foreground,Centre,"SB\Text\006b.png",0,360 S,0,840393,,0.25 C,0,840593,,255,255,255 F,0,840593,840693,0,1 F,18,874560,875060,1,0 MX,18,874560,875060,636.05,646.05
Sprite,Foreground,Centre,"SB\Text\0065.png",0,362 S,0,840393,,0.25 C,0,840693,,0,0,0 F,0,840693,840793,0,0.5 F,18,874560,875060,0.5,0 MX,18,874560,875060,645.175,655.175
Sprite,Foreground,Centre,"SB\Text\Glow\0065.png",0,360 S,0,840393,,0.25 C,0,840693,,255,255,255 F,0,840693,840793,0,0.5 F,18,874560,875060,0.5,0 MX,18,874560,875060,643.175,653.175
Sprite,Foreground,Centre,"SB\Text\0065.png",0,360 S,0,840393,,0.25 C,0,840693,,255,255,255 F,0,840693,840793,0,1 F,18,874560,875060,1,0 MX,18,874560,875060,643.175,653.175
Sprite,Foreground,Centre,"SB\Text\0044.png",0,362 S,0,840393,,0.25 C,0,840793,,0,0,0 F,0,840793,840893,0,0.5 F,18,874560,875060,0.5,0 MX,18,874560,875060,653.55,663.55
Sprite,Foreground,Centre,"SB\Text\Glow\0044.png",0,360 S,0,840393,,0.25 C,0,840793,,255,255,255 F,0,840793,840893,0,0.5 F,18,874560,875060,0.5,0 MX,18,874560,875060,651.55,661.55
Sprite,Foreground,Centre,"SB\Text\0044.png",0,360 S,0,840393,,0.25 C,0,840793,,255,255,255 F,0,840793,840893,0,1 F,18,874560,875060,1,0 MX,18,874560,875060,651.55,661.55
Sprite,Foreground,Centre,"SB\Text\0065.png",0,362 S,0,840393,,0.25 C,0,840893,,0,0,0 F,0,840893,840993,0,0.5 F,18,874560,875060,0.5,0 MX,18,874560,875060,661.925,671.925
Sprite,Foreground,Centre,"SB\Text\Glow\0065.png",0,360 S,0,840393,,0.25 C,0,840893,,255,255,255 F,0,840893,840993,0,0.5 F,18,874560,875060,0.5,0 MX,18,874560,875060,659.925,669.925
Sprite,Foreground,Centre,"SB\Text\0065.png",0,360 S,0,840393,,0.25 C,0,840893,,255,255,255 F,0,840893,840993,0,1 F,18,874560,875060,1,0 MX,18,874560,875060,659.925,669.925
Sprite,Foreground,Centre,"SB\Text\006b.png",0,362 S,0,840393,,0.25 C,0,840993,,0,0,0 F,0,840993,841093,0,0.5 F,18,874560,875060,0.5,0 MX,18,874560,875060,669.05,679.05
Sprite,Foreground,Centre,"SB\Text\Glow\006b.png",0,360 S,0,840393,,0.25 C,0,840993,,255,255,255 F,0,840993,841093,0,0.5 F,18,874560,875060,0.5,0 MX,18,874560,875060,667.05,677.05
Sprite,Foreground,Centre,"SB\Text\006b.png",0,360 S,0,840393,,0.25 C,0,840993,,255,255,255 F,0,840993,841093,0,1 F,18,874560,875060,1,0 MX,18,874560,875060,667.05,677.05
Sprite,Foreground,Centre,"SB\Text\0061.png",0,362 S,0,840393,,0.25 C,0,841093,,0,0,0 F,0,841093,841193,0,0.5 F,18,874560,875060,0.5,0 MX,18,874560,875060,676.175,686.175
Sprite,Foreground,Centre,"SB\Text\Glow\0061.png",0,360 S,0,840393,,0.25 C,0,841093,,255,255,255 F,0,841093,841193,0,0.5 F,18,874560,875060,0.5,0 MX,18,874560,875060,674.175,684.175
Sprite,Foreground,Centre,"SB\Text\0061.png",0,360 S,0,840393,,0.25 C,0,841093,,255,255,255 F,0,841093,841193,0,1 F,18,874560,875060,1,0 MX,18,874560,875060,674.175,684.175
Sprite,Foreground,Centre,"SB\Text\0061.png",0,362 S,0,840393,,0.25 C,0,841193,,0,0,0 F,0,841193,841293,0,0.5 F,18,874560,875060,0.5,0 MX,18,874560,875060,683.425,693.425
Sprite,Foreground,Centre,"SB\Text\Glow\0061.png",0,360 S,0,840393,,0.25 C,0,841193,,255,255,255 F,0,841193,841293,0,0.5 F,18,874560,875060,0.5,0 MX,18,874560,875060,681.425,691.425
Sprite,Foreground,Centre,"SB\Text\0061.png",0,360 S,0,840393,,0.25 C,0,841193,,255,255,255 F,0,841193,841293,0,1 F,18,874560,875060,1,0 MX,18,874560,875060,681.425,691.425
Sprite,Foreground,Centre,"SB\Text\006e.png",0,362 S,0,840393,,0.25 C,0,841293,,0,0,0 F,0,841293,841393,0,0.5 F,18,874560,875060,0.5,0 MX,18,874560,875060,690.8,700.8
Sprite,Foreground,Centre,"SB\Text\Glow\006e.png",0,360 S,0,840393,,0.25 C,0,841293,,255,255,255 F,0,841293,841393,0,0.5 F,18,874560,875060,0.5,0 MX,18,874560,875060,688.8,698.8
Sprite,Foreground,Centre,"SB\Text\006e.png",0,360 S,0,840393,,0.25 C,0,841293,,255,255,255 F,0,841293,841393,0,1 F,18,874560,875060,1,0 MX,18,874560,875060,688.8,698.8
Sprite,Foreground,Centre,"SB\Text\0065.png",0,362 S,0,840393,,0.25 C,0,841393,,0,0,0 F,0,841393,841493,0,0.5 F,18,874560,875060,0.5,0 MX,18,874560,875060,698.175,708.175
Sprite,Foreground,Centre,"SB\Text\Glow\0065.png",0,360 S,0,840393,,0.25 C,0,841393,,255,255,255 F,0,841393,841493,0,0.5 F,18,874560,875060,0.5,0 MX,18,874560,875060,696.175,706.175
Sprite,Foreground,Centre,"SB\Text\0065.png",0,360 S,0,840393,,0.25 C,0,841393,,255,255,255 F,0,841393,841493,0,1 F,18,874560,875060,1,0 MX,18,874560,875060,696.175,706.175
Sprite,Foreground,CentreLeft,"SB\Pixel.jpg",0,360 F,0,882855,,0.5 C,0,882855,,0,0,0 V,19,882855,883855,0,20.5,57.95,20.5 MX,19,916005,917005,652.05,710 V,19,916005,917005,57.95,20.5,0,20.5
Sprite,Foreground,Centre,"SB\Text\0041.png",0,362 S,0,882855,,0.25 C,0,882855,,0,0,0 F,0,882855,882955,0,0.5 F,18,915505,916005,0.5,0 MX,18,915505,916005,668.05,678.05
Sprite,Foreground,Centre,"SB\Text\Glow\0041.png",0,360 S,0,882855,,0.25 C,0,882855,,255,255,255 F,0,882855,882955,0,0.5 F,18,915505,916005,0.5,0 MX,18,915505,916005,666.05,676.05
Sprite,Foreground,Centre,"SB\Text\0041.png",0,360 S,0,882855,,0.25 C,0,882855,,255,255,255 F,0,882855,882955,0,1 F,18,915505,916005,1,0 MX,18,915505,916005,666.05,676.05
Sprite,Foreground,Centre,"SB\Text\006c.png",0,362 S,0,882855,,0.25 C,0,882955,,0,0,0 F,0,882955,883055,0,0.5 F,18,915505,916005,0.5,0 MX,18,915505,916005,674.175,684.175
Sprite,Foreground,Centre,"SB\Text\Glow\006c.png",0,360 S,0,882855,,0.25 C,0,882955,,255,255,255 F,0,882955,883055,0,0.5 F,18,915505,916005,0.5,0 MX,18,915505,916005,672.175,682.175
Sprite,Foreground,Centre,"SB\Text\006c.png",0,360 S,0,882855,,0.25 C,0,882955,,255,255,255 F,0,882955,883055,0,1 F,18,915505,916005,1,0 MX,18,915505,916005,672.175,682.175
Sprite,Foreground,Centre,"SB\Text\0063.png",0,362 S,0,882855,,0.25 C,0,883055,,0,0,0 F,0,883055,883155,0,0.5 F,18,915505,916005,0.5,0 MX,18,915505,916005,679.425,689.425
Sprite,Foreground,Centre,"SB\Text\Glow\0063.png",0,360 S,0,882855,,0.25 C,0,883055,,255,255,255 F,0,883055,883155,0,0.5 F,18,915505,916005,0.5,0 MX,18,915505,916005,677.425,687.425
Sprite,Foreground,Centre,"SB\Text\0063.png",0,360 S,0,882855,,0.25 C,0,883055,,255,255,255 F,0,883055,883155,0,1 F,18,915505,916005,1,0 MX,18,915505,916005,677.425,687.425
Sprite,Foreground,Centre,"SB\Text\0068.png",0,362 S,0,882855,,0.25 C,0,883155,,0,0,0 F,0,883155,883255,0,0.5 F,18,915505,916005,0.5,0 MX,18,915505,916005,686.55,696.55
Sprite,Foreground,Centre,"SB\Text\Glow\0068.png",0,360 S,0,882855,,0.25 C,0,883155,,255,255,255 F,0,883155,883255,0,0.5 F,18,915505,916005,0.5,0 MX,18,915505,916005,684.55,694.55
Sprite,Foreground,Centre,"SB\Text\0068.png",0,360 S,0,882855,,0.25 C,0,883155,,255,255,255 F,0,883155,883255,0,1 F,18,915505,916005,1,0 MX,18,915505,916005,684.55,694.55
Sprite,Foreground,Centre,"SB\Text\0079.png",0,362 S,0,882855,,0.25 C,0,883255,,0,0,0 F,0,883255,883355,0,0.5 F,18,915505,916005,0.5,0 MX,18,915505,916005,693.55,703.55
Sprite,Foreground,Centre,"SB\Text\Glow\0079.png",0,360 S,0,882855,,0.25 C,0,883255,,255,255,255 F,0,883255,883355,0,0.5 F,18,915505,916005,0.5,0 MX,18,915505,916005,691.55,701.55
Sprite,Foreground,Centre,"SB\Text\0079.png",0,360 S,0,882855,,0.25 C,0,883255,,255,255,255 F,0,883255,883355,0,1 F,18,915505,916005,1,0 MX,18,915505,916005,691.55,701.55
Sprite,Foreground,Centre,"SB\Text\0072.png",0,362 S,0,882855,,0.25 C,0,883355,,0,0,0 F,0,883355,883455,0,0.5 F,18,915505,916005,0.5,0 MX,18,915505,916005,699.3,709.3
Sprite,Foreground,Centre,"SB\Text\Glow\0072.png",0,360 S,0,882855,,0.25 C,0,883355,,255,255,255 F,0,883355,883455,0,0.5 F,18,915505,916005,0.5,0 MX,18,915505,916005,697.3,707.3
Sprite,Foreground,Centre,"SB\Text\0072.png",0,360 S,0,882855,,0.25 C,0,883355,,255,255,255 F,0,883355,883455,0,1 F,18,915505,916005,1,0 MX,18,915505,916005,697.3,707.3
Sprite,Foreground,CentreLeft,"SB\Pixel.jpg",0,360 F,0,927451,,0.5 C,0,927451,,0,0,0 V,19,927451,928451,0,20.5,50.95,20.5 MX,19,956969,957969,659.05,710 V,19,956969,957969,50.95,20.5,0,20.5
Sprite,Foreground,Centre,"SB\Text\0043.png",0,362 S,0,927451,,0.25 C,0,927451,,0,0,0 F,0,927451,927551,0,0.5 F,18,956469,956969,0.5,0 MX,18,956469,956969,675.175,685.175
Sprite,Foreground,Centre,"SB\Text\Glow\0043.png",0,360 S,0,927451,,0.25 C,0,927451,,255,255,255 F,0,927451,927551,0,0.5 F,18,956469,956969,0.5,0 MX,18,956469,956969,673.175,683.175
Sprite,Foreground,Centre,"SB\Text\0043.png",0,360 S,0,927451,,0.25 C,0,927451,,255,255,255 F,0,927451,927551,0,1 F,18,956469,956969,1,0 MX,18,956469,956969,673.175,683.175
Sprite,Foreground,Centre,"SB\Text\0061.png",0,362 S,0,927451,,0.25 C,0,927551,,0,0,0 F,0,927551,927651,0,0.5 F,18,956469,956969,0.5,0 MX,18,956469,956969,683.175,693.175
Sprite,Foreground,Centre,"SB\Text\Glow\0061.png",0,360 S,0,927451,,0.25 C,0,927551,,255,255,255 F,0,927551,927651,0,0.5 F,18,956469,956969,0.5,0 MX,18,956469,956969,681.175,691.175
Sprite,Foreground,Centre,"SB\Text\0061.png",0,360 S,0,927451,,0.25 C,0,927551,,255,255,255 F,0,927551,927651,0,1 F,18,956469,956969,1,0 MX,18,956469,956969,681.175,691.175
Sprite,Foreground,Centre,"SB\Text\0070.png",0,362 S,0,927451,,0.25 C,0,927651,,0,0,0 F,0,927651,927751,0,0.5 F,18,956469,956969,0.5,0 MX,18,956469,956969,690.55,700.55
Sprite,Foreground,Centre,"SB\Text\Glow\0070.png",0,360 S,0,927451,,0.25 C,0,927651,,255,255,255 F,0,927651,927751,0,0.5 F,18,956469,956969,0.5,0 MX,18,956469,956969,688.55,698.55
Sprite,Foreground,Centre,"SB\Text\0070.png",0,360 S,0,927451,,0.25 C,0,927651,,255,255,255 F,0,927651,927751,0,1 F,18,956469,956969,1,0 MX,18,956469,956969,688.55,698.55
Sprite,Foreground,Centre,"SB\Text\0075.png",0,362 S,0,927451,,0.25 C,0,927751,,0,0,0 F,0,927751,927851,0,0.5 F,18,956469,956969,0.5,0 MX,18,956469,956969,698.05,708.05
Sprite,Foreground,Centre,"SB\Text\Glow\0075.png",0,360 S,0,927451,,0.25 C,0,927751,,255,255,255 F,0,927751,927851,0,0.5 F,18,956469,956969,0.5,0 MX,18,956469,956969,696.05,706.05
Sprite,Foreground,Centre,"SB\Text\0075.png",0,360 S,0,927451,,0.25 C,0,927751,,255,255,255 F,0,927751,927851,0,1 F,18,956469,956969,1,0 MX,18,956469,956969,696.05,706.05
Sprite,Foreground,CentreLeft,"SB\Pixel.jpg",0,360 F,0,966022,,0.5 C,0,966022,,0,0,0 V,19,966022,967022,0,20.5,65.45,20.5 MX,19,995860,996860,644.55,710 V,19,995860,996860,65.45,20.5,0,20.5
Sprite,Foreground,Centre,"SB\Text\0053.png",0,362 S,0,966022,,0.25 C,0,966022,,0,0,0 F,0,966022,966122,0,0.5 F,18,995360,995860,0.5,0 MX,18,995360,995860,660.425,670.425
Sprite,Foreground,Centre,"SB\Text\Glow\0053.png",0,360 S,0,966022,,0.25 C,0,966022,,255,255,255 F,0,966022,966122,0,0.5 F,18,995360,995860,0.5,0 MX,18,995360,995860,658.425,668.425
Sprite,Foreground,Centre,"SB\Text\0053.png",0,360 S,0,966022,,0.25 C,0,966022,,255,255,255 F,0,966022,966122,0,1 F,18,995360,995860,1,0 MX,18,995360,995860,658.425,668.425
Sprite,Foreground,Centre,"SB\Text\0057.png",0,362 S,0,966022,,0.25 C,0,966122,,0,0,0 F,0,966122,966222,0,0.5 F,18,995360,995860,0.5,0 MX,18,995360,995860,670.425,680.425
Sprite,Foreground,Centre,"SB\Text\Glow\0057.png",0,360 S,0,966022,,0.25 C,0,966122,,255,255,255 F,0,966122,966222,0,0.5 F,18,995360,995860,0.5,0 MX,18,995360,995860,668.425,678.425
Sprite,Foreground,Centre,"SB\Text\0057.png",0,360 S,0,966022,,0.25 C,0,966122,,255,255,255 F,0,966122,966222,0,1 F,18,995360,995860,1,0 MX,18,995360,995860,668.425,678.425
Sprite,Foreground,Centre,"SB\Text\0041.png",0,362 S,0,966022,,0.25 C,0,966222,,0,0,0 F,0,966222,966322,0,0.5 F,18,995360,995860,0.5,0 MX,18,995360,995860,680.55,690.55
Sprite,Foreground,Centre,"SB\Text\Glow\0041.png",0,360 S,0,966022,,0.25 C,0,966222,,255,255,255 F,0,966222,966322,0,0.5 F,18,995360,995860,0.5,0 MX,18,995360,995860,678.55,688.55
Sprite,Foreground,Centre,"SB\Text\0041.png",0,360 S,0,966022,,0.25 C,0,966222,,255,255,255 F,0,966222,966322,0,1 F,18,995360,995860,1,0 MX,18,995360,995860,678.55,688.55
Sprite,Foreground,Centre,"SB\Text\004b.png",0,362 S,0,966022,,0.25 C,0,966322,,0,0,0 F,0,966322,966422,0,0.5 F,18,995360,995860,0.5,0 MX,18,995360,995860,689.3,699.3
Sprite,Foreground,Centre,"SB\Text\Glow\004b.png",0,360 S,0,966022,,0.25 C,0,966322,,255,255,255 F,0,966322,966422,0,0.5 F,18,995360,995860,0.5,0 MX,18,995360,995860,687.3,697.3
Sprite,Foreground,Centre,"SB\Text\004b.png",0,360 S,0,966022,,0.25 C,0,966322,,255,255,255 F,0,966322,966422,0,1 F,18,995360,995860,1,0 MX,18,995360,995860,687.3,697.3
Sprite,Foreground,Centre,"SB\Text\0045.png",0,362 S,0,966022,,0.25 C,0,966422,,0,0,0 F,0,966422,966522,0,0.5 F,18,995360,995860,0.5,0 MX,18,995360,995860,697.8,707.8
Sprite,Foreground,Centre,"SB\Text\Glow\0045.png",0,360 S,0,966022,,0.25 C,0,966422,,255,255,255 F,0,966422,966522,0,0.5 F,18,995360,995860,0.5,0 MX,18,995360,995860,695.8,705.8
Sprite,Foreground,Centre,"SB\Text\0045.png",0,360 S,0,966022,,0.25 C,0,966422,,255,255,255 F,0,966422,966522,0,1 F,18,995360,995860,1,0 MX,18,995360,995860,695.8,705.8
Sprite,Foreground,CentreLeft,"SB\Pixel.jpg",0,360 F,0,1002446,,0.5 C,0,1002446,,0,0,0 V,19,1002446,1003446,0,20.5,79.45,20.5 MX,19,1060138,1061138,630.55,710 V,19,1060138,1061138,79.45,20.5,0,20.5
Sprite,Foreground,Centre,"SB\Text\0043.png",0,362 S,0,1002446,,0.25 C,0,1002446,,0,0,0 F,0,1002446,1002546,0,0.5 F,18,1059638,1060138,0.5,0 MX,18,1059638,1060138,646.675,656.675
Sprite,Foreground,Centre,"SB\Text\Glow\0043.png",0,360 S,0,1002446,,0.25 C,0,1002446,,255,255,255 F,0,1002446,1002546,0,0.5 F,18,1059638,1060138,0.5,0 MX,18,1059638,1060138,644.675,654.675
Sprite,Foreground,Centre,"SB\Text\0043.png",0,360 S,0,1002446,,0.25 C,0,1002446,,255,255,255 F,0,1002446,1002546,0,1 F,18,1059638,1060138,1,0 MX,18,1059638,1060138,644.675,654.675
Sprite,Foreground,Centre,"SB\Text\0079.png",0,362 S,0,1002446,,0.25 C,0,1002546,,0,0,0 F,0,1002546,1002646,0,0.5 F,18,1059638,1060138,0.5,0 MX,18,1059638,1060138,654.3,664.3
Sprite,Foreground,Centre,"SB\Text\Glow\0079.png",0,360 S,0,1002446,,0.25 C,0,1002546,,255,255,255 F,0,1002546,1002646,0,0.5 F,18,1059638,1060138,0.5,0 MX,18,1059638,1060138,652.3,662.3
Sprite,Foreground,Centre,"SB\Text\0079.png",0,360 S,0,1002446,,0.25 C,0,1002546,,255,255,255 F,0,1002546,1002646,0,1 F,18,1059638,1060138,1,0 MX,18,1059638,1060138,652.3,662.3
Sprite,Foreground,Centre,"SB\Text\0063.png",0,362 S,0,1002446,,0.25 C,0,1002646,,0,0,0 F,0,1002646,1002746,0,0.5 F,18,1059638,1060138,0.5,0 MX,18,1059638,1060138,660.925,670.925
Sprite,Foreground,Centre,"SB\Text\Glow\0063.png",0,360 S,0,1002446,,0.25 C,0,1002646,,255,255,255 F,0,1002646,1002746,0,0.5 F,18,1059638,1060138,0.5,0 MX,18,1059638,1060138,658.925,668.925
Sprite,Foreground,Centre,"SB\Text\0063.png",0,360 S,0,1002446,,0.25 C,0,1002646,,255,255,255 F,0,1002646,1002746,0,1 F,18,1059638,1060138,1,0 MX,18,1059638,1060138,658.925,668.925
Sprite,Foreground,Centre,"SB\Text\0068.png",0,362 S,0,1002446,,0.25 C,0,1002746,,0,0,0 F,0,1002746,1002846,0,0.5 F,18,1059638,1060138,0.5,0 MX,18,1059638,1060138,668.05,678.05
Sprite,Foreground,Centre,"SB\Text\Glow\0068.png",0,360 S,0,1002446,,0.25 C,0,1002746,,255,255,255 F,0,1002746,1002846,0,0.5 F,18,1059638,1060138,0.5,0 MX,18,1059638,1060138,666.05,676.05
Sprite,Foreground,Centre,"SB\Text\0068.png",0,360 S,0,1002446,,0.25 C,0,1002746,,255,255,255 F,0,1002746,1002846,0,1 F,18,1059638,1060138,1,0 MX,18,1059638,1060138,666.05,676.05
Sprite,Foreground,Centre,"SB\Text\006c.png",0,362 S,0,1002446,,0.25 C,0,1002846,,0,0,0 F,0,1002846,1002946,0,0.5 F,18,1059638,1060138,0.5,0 MX,18,1059638,1060138,673.675,683.675
Sprite,Foreground,Centre,"SB\Text\Glow\006c.png",0,360 S,0,1002446,,0.25 C,0,1002846,,255,255,255 F,0,1002846,1002946,0,0.5 F,18,1059638,1060138,0.5,0 MX,18,1059638,1060138,671.675,681.675
Sprite,Foreground,Centre,"SB\Text\006c.png",0,360 S,0,1002446,,0.25 C,0,1002846,,255,255,255 F,0,1002846,1002946,0,1 F,18,1059638,1060138,1,0 MX,18,1059638,1060138,671.675,681.675
Sprite,Foreground,Centre,"SB\Text\006f.png",0,362 S,0,1002446,,0.25 C,0,1002946,,0,0,0 F,0,1002946,1003046,0,0.5 F,18,1059638,1060138,0.5,0 MX,18,1059638,1060138,679.175,689.175
Sprite,Foreground,Centre,"SB\Text\Glow\006f.png",0,360 S,0,1002446,,0.25 C,0,1002946,,255,255,255 F,0,1002946,1003046,0,0.5 F,18,1059638,1060138,0.5,0 MX,18,1059638,1060138,677.175,687.175
Sprite,Foreground,Centre,"SB\Text\006f.png",0,360 S,0,1002446,,0.25 C,0,1002946,,255,255,255 F,0,1002946,1003046,0,1 F,18,1059638,1060138,1,0 MX,18,1059638,1060138,677.175,687.175
Sprite,Foreground,Centre,"SB\Text\0072.png",0,362 S,0,1002446,,0.25 C,0,1003046,,0,0,0 F,0,1003046,1003146,0,0.5 F,18,1059638,1060138,0.5,0 MX,18,1059638,1060138,685.3,695.3
Sprite,Foreground,Centre,"SB\Text\Glow\0072.png",0,360 S,0,1002446,,0.25 C,0,1003046,,255,255,255 F,0,1003046,1003146,0,0.5 F,18,1059638,1060138,0.5,0 MX,18,1059638,1060138,683.3,693.3
Sprite,Foreground,Centre,"SB\Text\0072.png",0,360 S,0,1002446,,0.25 C,0,1003046,,255,255,255 F,0,1003046,1003146,0,1 F,18,1059638,1060138,1,0 MX,18,1059638,1060138,683.3,693.3
Sprite,Foreground,Centre,"SB\Text\0079.png",0,362 S,0,1002446,,0.25 C,0,1003146,,0,0,0 F,0,1003146,1003246,0,0.5 F,18,1059638,1060138,0.5,0 MX,18,1059638,1060138,691.05,701.05
Sprite,Foreground,Centre,"SB\Text\Glow\0079.png",0,360 S,0,1002446,,0.25 C,0,1003146,,255,255,255 F,0,1003146,1003246,0,0.5 F,18,1059638,1060138,0.5,0 MX,18,1059638,1060138,689.05,699.05
Sprite,Foreground,Centre,"SB\Text\0079.png",0,360 S,0,1002446,,0.25 C,0,1003146,,255,255,255 F,0,1003146,1003246,0,1 F,18,1059638,1060138,1,0 MX,18,1059638,1060138,689.05,699.05
Sprite,Foreground,Centre,"SB\Text\006e.png",0,362 S,0,1002446,,0.25 C,0,1003246,,0,0,0 F,0,1003246,1003346,0,0.5 F,18,1059638,1060138,0.5,0 MX,18,1059638,1060138,698.05,708.05
Sprite,Foreground,Centre,"SB\Text\Glow\006e.png",0,360 S,0,1002446,,0.25 C,0,1003246,,255,255,255 F,0,1003246,1003346,0,0.5 F,18,1059638,1060138,0.5,0 MX,18,1059638,1060138,696.05,706.05
Sprite,Foreground,Centre,"SB\Text\006e.png",0,360 S,0,1002446,,0.25 C,0,1003246,,255,255,255 F,0,1003246,1003346,0,1 F,18,1059638,1060138,1,0 MX,18,1059638,1060138,696.05,706.05
Sprite,Foreground,CentreLeft,"SB\Pixel.jpg",0,360 F,0,1077649,,0.5 C,0,1077649,,0,0,0 V,19,1077649,1078649,0,20.5,93.95,20.5 MX,19,1128048,1129048,616.05,710 V,19,1128048,1129048,93.95,20.5,0,20.5
Sprite,Foreground,Centre,"SB\Text\005b.png",0,362 S,0,1077649,,0.25 C,0,1077649,,0,0,0 F,0,1077649,1077749,0,0.5 F,18,1127548,1128048,0.5,0 MX,18,1127548,1128048,630.425,640.425
Sprite,Foreground,Centre,"SB\Text\Glow\005b.png",0,360 S,0,1077649,,0.25 C,0,1077649,,255,255,255 F,0,1077649,1077749,0,0.5 F,18,1127548,1128048,0.5,0 MX,18,1127548,1128048,628.425,638.425
Sprite,Foreground,Centre,"SB\Text\005b.png",0,360 S,0,1077649,,0.25 C,0,1077649,,255,255,255 F,0,1077649,1077749,0,1 F,18,1127548,1128048,1,0 MX,18,1127548,1128048,628.425,638.425
Sprite,Foreground,Centre,"SB\Text\0054.png",0,362 S,0,1077649,,0.25 C,0,1077749,,0,0,0 F,0,1077749,1077849,0,0.5 F,18,1127548,1128048,0.5,0 MX,18,1127548,1128048,641.175,651.175
Sprite,Foreground,Centre,"SB\Text\Glow\0054.png",0,360 S,0,1077649,,0.25 C,0,1077749,,255,255,255 F,0,1077749,1077849,0,0.5 F,18,1127548,1128048,0.5,0 MX,18,1127548,1128048,639.175,649.175
Sprite,Foreground,Centre,"SB\Text\0054.png",0,360 S,0,1077649,,0.25 C,0,1077749,,255,255,255 F,0,1077749,1077849,0,1 F,18,1127548,1128048,1,0 MX,18,1127548,1128048,639.175,649.175
Sprite,Foreground,Centre,"SB\Text\004e.png",0,362 S,0,1077649,,0.25 C,0,1077849,,0,0,0 F,0,1077849,1077949,0,0.5 F,18,1127548,1128048,0.5,0 MX,18,1127548,1128048,650.05,660.05
Sprite,Foreground,Centre,"SB\Text\Glow\004e.png",0,360 S,0,1077649,,0.25 C,0,1077849,,255,255,255 F,0,1077849,1077949,0,0.5 F,18,1127548,1128048,0.5,0 MX,18,1127548,1128048,648.05,658.05
Sprite,Foreground,Centre,"SB\Text\004e.png",0,360 S,0,1077649,,0.25 C,0,1077849,,255,255,255 F,0,1077849,1077949,0,1 F,18,1127548,1128048,1,0 MX,18,1127548,1128048,648.05,658.05
Sprite,Foreground,Centre,"SB\Text\0054.png",0,362 S,0,1077649,,0.25 C,0,1077949,,0,0,0 F,0,1077949,1078049,0,0.5 F,18,1127548,1128048,0.5,0 MX,18,1127548,1128048,658.925,668.925
Sprite,Foreground,Centre,"SB\Text\Glow\0054.png",0,360 S,0,1077649,,0.25 C,0,1077949,,255,255,255 F,0,1077949,1078049,0,0.5 F,18,1127548,1128048,0.5,0 MX,18,1127548,1128048,656.925,666.925
Sprite,Foreground,Centre,"SB\Text\0054.png",0,360 S,0,1077649,,0.25 C,0,1077949,,255,255,255 F,0,1077949,1078049,0,1 F,18,1127548,1128048,1,0 MX,18,1127548,1128048,656.925,666.925
Sprite,Foreground,Centre,"SB\Text\006c.png",0,362 S,0,1077649,,0.25 C,0,1078049,,0,0,0 F,0,1078049,1078149,0,0.5 F,18,1127548,1128048,0.5,0 MX,18,1127548,1128048,664.925,674.925
Sprite,Foreground,Centre,"SB\Text\Glow\006c.png",0,360 S,0,1077649,,0.25 C,0,1078049,,255,255,255 F,0,1078049,1078149,0,0.5 F,18,1127548,1128048,0.5,0 MX,18,1127548,1128048,662.925,672.925
Sprite,Foreground,Centre,"SB\Text\006c.png",0,360 S,0,1077649,,0.25 C,0,1078049,,255,255,255 F,0,1078049,1078149,0,1 F,18,1127548,1128048,1,0 MX,18,1127548,1128048,662.925,672.925
Sprite,Foreground,Centre,"SB\Text\0065.png",0,362 S,0,1077649,,0.25 C,0,1078149,,0,0,0 F,0,1078149,1078249,0,0.5 F,18,1127548,1128048,0.5,0 MX,18,1127548,1128048,670.425,680.425
Sprite,Foreground,Centre,"SB\Text\Glow\0065.png",0,360 S,0,1077649,,0.25 C,0,1078149,,255,255,255 F,0,1078149,1078249,0,0.5 F,18,1127548,1128048,0.5,0 MX,18,1127548,1128048,668.425,678.425
Sprite,Foreground,Centre,"SB\Text\0065.png",0,360 S,0,1077649,,0.25 C,0,1078149,,255,255,255 F,0,1078149,1078249,0,1 F,18,1127548,1128048,1,0 MX,18,1127548,1128048,668.425,678.425
Sprite,Foreground,Centre,"SB\Text\0061.png",0,362 S,0,1077649,,0.25 C,0,1078249,,0,0,0 F,0,1078249,1078349,0,0.5 F,18,1127548,1128048,0.5,0 MX,18,1127548,1128048,677.675,687.675
Sprite,Foreground,Centre,"SB\Text\Glow\0061.png",0,360 S,0,1077649,,0.25 C,0,1078249,,255,255,255 F,0,1078249,1078349,0,0.5 F,18,1127548,1128048,0.5,0 MX,18,1127548,1128048,675.675,685.675
Sprite,Foreground,Centre,"SB\Text\0061.png",0,360 S,0,1077649,,0.25 C,0,1078249,,255,255,255 F,0,1078249,1078349,0,1 F,18,1127548,1128048,1,0 MX,18,1127548,1128048,675.675,685.675
Sprite,Foreground,Centre,"SB\Text\006c.png",0,362 S,0,1077649,,0.25 C,0,1078349,,0,0,0 F,0,1078349,1078449,0,0.5 F,18,1127548,1128048,0.5,0 MX,18,1127548,1128048,683.175,693.175
Sprite,Foreground,Centre,"SB\Text\Glow\006c.png",0,360 S,0,1077649,,0.25 C,0,1078349,,255,255,255 F,0,1078349,1078449,0,0.5 F,18,1127548,1128048,0.5,0 MX,18,1127548,1128048,681.175,691.175
Sprite,Foreground,Centre,"SB\Text\006c.png",0,360 S,0,1077649,,0.25 C,0,1078349,,255,255,255 F,0,1078349,1078449,0,1 F,18,1127548,1128048,1,0 MX,18,1127548,1128048,681.175,691.175
Sprite,Foreground,Centre,"SB\Text\0075.png",0,362 S,0,1077649,,0.25 C,0,1078449,,0,0,0 F,0,1078449,1078549,0,0.5 F,18,1127548,1128048,0.5,0 MX,18,1127548,1128048,688.8,698.8
Sprite,Foreground,Centre,"SB\Text\Glow\0075.png",0,360 S,0,1077649,,0.25 C,0,1078449,,255,255,255 F,0,1078449,1078549,0,0.5 F,18,1127548,1128048,0.5,0 MX,18,1127548,1128048,686.8,696.8
Sprite,Foreground,Centre,"SB\Text\0075.png",0,360 S,0,1077649,,0.25 C,0,1078449,,255,255,255 F,0,1078449,1078549,0,1 F,18,1127548,1128048,1,0 MX,18,1127548,1128048,686.8,696.8
Sprite,Foreground,Centre,"SB\Text\005d.png",0,362 S,0,1077649,,0.25 C,0,1078549,,0,0,0 F,0,1078549,1078649,0,0.5 F,18,1127548,1128048,0.5,0 MX,18,1127548,1128048,699.175,709.175
Sprite,Foreground,Centre,"SB\Text\Glow\005d.png",0,360 S,0,1077649,,0.25 C,0,1078549,,255,255,255 F,0,1078549,1078649,0,0.5 F,18,1127548,1128048,0.5,0 MX,18,1127548,1128048,697.175,707.175
Sprite,Foreground,Centre,"SB\Text\005d.png",0,360 S,0,1077649,,0.25 C,0,1078549,,255,255,255 F,0,1078549,1078649,0,1 F,18,1127548,1128048,1,0 MX,18,1127548,1128048,697.175,707.175
Sprite,Foreground,CentreLeft,"SB\Pixel.jpg",0,360 F,0,1136407,,0.5 C,0,1136407,,0,0,0 V,19,1136407,1137407,0,20.5,56.45,20.5 MX,19,1184201,1185201,653.55,710 V,19,1184201,1185201,56.45,20.5,0,20.5
Sprite,Foreground,Centre,"SB\Text\002d.png",0,362 S,0,1136407,,0.25 C,0,1136407,,0,0,0 F,0,1136407,1136507,0,0.5 F,18,1183701,1184201,0.5,0 MX,18,1183701,1184201,668.175,678.175
Sprite,Foreground,Centre,"SB\Text\Glow\002d.png",0,360 S,0,1136407,,0.25 C,0,1136407,,255,255,255 F,0,1136407,1136507,0,0.5 F,18,1183701,1184201,0.5,0 MX,18,1183701,1184201,666.175,676.175
Sprite,Foreground,Centre,"SB\Text\002d.png",0,360 S,0,1136407,,0.25 C,0,1136407,,255,255,255 F,0,1136407,1136507,0,1 F,18,1183701,1184201,1,0 MX,18,1183701,1184201,666.175,676.175
Sprite,Foreground,Centre,"SB\Text\0044.png",0,362 S,0,1136407,,0.25 C,0,1136507,,0,0,0 F,0,1136507,1136607,0,0.5 F,18,1183701,1184201,0.5,0 MX,18,1183701,1184201,675.8,685.8
Sprite,Foreground,Centre,"SB\Text\Glow\0044.png",0,360 S,0,1136407,,0.25 C,0,1136507,,255,255,255 F,0,1136507,1136607,0,0.5 F,18,1183701,1184201,0.5,0 MX,18,1183701,1184201,673.8,683.8
Sprite,Foreground,Centre,"SB\Text\0044.png",0,360 S,0,1136407,,0.25 C,0,1136507,,255,255,255 F,0,1136507,1136607,0,1 F,18,1183701,1184201,1,0 MX,18,1183701,1184201,673.8,683.8
Sprite,Foreground,Centre,"SB\Text\0075.png",0,362 S,0,1136407,,0.25 C,0,1136607,,0,0,0 F,0,1136607,1136707,0,0.5 F,18,1183701,1184201,0.5,0 MX,18,1183701,1184201,684.3,694.3
Sprite,Foreground,Centre,"SB\Text\Glow\0075.png",0,360 S,0,1136407,,0.25 C,0,1136607,,255,255,255 F,0,1136607,1136707,0,0.5 F,18,1183701,1184201,0.5,0 MX,18,1183701,1184201,682.3,692.3
Sprite,Foreground,Centre,"SB\Text\0075.png",0,360 S,0,1136407,,0.25 C,0,1136607,,255,255,255 F,0,1136607,1136707,0,1 F,18,1183701,1184201,1,0 MX,18,1183701,1184201,682.3,692.3
Sprite,Foreground,Centre,"SB\Text\0073.png",0,362 S,0,1136407,,0.25 C,0,1136707,,0,0,0 F,0,1136707,1136807,0,0.5 F,18,1183701,1184201,0.5,0 MX,18,1183701,1184201,691.425,701.425
Sprite,Foreground,Centre,"SB\Text\Glow\0073.png",0,360 S,0,1136407,,0.25 C,0,1136707,,255,255,255 F,0,1136707,1136807,0,0.5 F,18,1183701,1184201,0.5,0 MX,18,1183701,1184201,689.425,699.425
Sprite,Foreground,Centre,"SB\Text\0073.png",0,360 S,0,1136407,,0.25 C,0,1136707,,255,255,255 F,0,1136707,1136807,0,1 F,18,1183701,1184201,1,0 MX,18,1183701,1184201,689.425,699.425
Sprite,Foreground,Centre,"SB\Text\006b.png",0,362 S,0,1136407,,0.25 C,0,1136807,,0,0,0 F,0,1136807,1136907,0,0.5 F,18,1183701,1184201,0.5,0 MX,18,1183701,1184201,698.3,708.3
Sprite,Foreground,Centre,"SB\Text\Glow\006b.png",0,360 S,0,1136407,,0.25 C,0,1136807,,255,255,255 F,0,1136807,1136907,0,0.5 F,18,1183701,1184201,0.5,0 MX,18,1183701,1184201,696.3,706.3
Sprite,Foreground,Centre,"SB\Text\006b.png",0,360 S,0,1136407,,0.25 C,0,1136807,,255,255,255 F,0,1136807,1136907,0,1 F,18,1183701,1184201,1,0 MX,18,1183701,1184201,696.3,706.3
Sprite,Foreground,CentreLeft,"SB\Pixel.jpg",0,360 F,0,1194456,,0.5 C,0,1194456,,0,0,0 V,19,1194456,1195456,0,20.5,61.95,20.5 MX,19,1241456,1242456,648.05,710 V,19,1241456,1242456,61.95,20.5,0,20.5
Sprite,Foreground,Centre,"SB\Text\0052.png",0,362 S,0,1194456,,0.25 C,0,1194456,,0,0,0 F,0,1194456,1194556,0,0.5 F,18,1240956,1241456,0.5,0 MX,18,1240956,1241456,664.175,674.175
Sprite,Foreground,Centre,"SB\Text\Glow\0052.png",0,360 S,0,1194456,,0.25 C,0,1194456,,255,255,255 F,0,1194456,1194556,0,0.5 F,18,1240956,1241456,0.5,0 MX,18,1240956,1241456,662.175,672.175
Sprite,Foreground,Centre,"SB\Text\0052.png",0,360 S,0,1194456,,0.25 C,0,1194456,,255,255,255 F,0,1194456,1194556,0,1 F,18,1240956,1241456,1,0 MX,18,1240956,1241456,662.175,672.175
Sprite,Foreground,Centre,"SB\Text\0061.png",0,362 S,0,1194456,,0.25 C,0,1194556,,0,0,0 F,0,1194556,1194656,0,0.5 F,18,1240956,1241456,0.5,0 MX,18,1240956,1241456,672.175,682.175
Sprite,Foreground,Centre,"SB\Text\Glow\0061.png",0,360 S,0,1194456,,0.25 C,0,1194556,,255,255,255 F,0,1194556,1194656,0,0.5 F,18,1240956,1241456,0.5,0 MX,18,1240956,1241456,670.175,680.175
Sprite,Foreground,Centre,"SB\Text\0061.png",0,360 S,0,1194456,,0.25 C,0,1194556,,255,255,255 F,0,1194556,1194656,0,1 F,18,1240956,1241456,1,0 MX,18,1240956,1241456,670.175,680.175
Sprite,Foreground,Centre,"SB\Text\0069.png",0,362 S,0,1194456,,0.25 C,0,1194656,,0,0,0 F,0,1194656,1194756,0,0.5 F,18,1240956,1241456,0.5,0 MX,18,1240956,1241456,677.675,687.675
Sprite,Foreground,Centre,"SB\Text\Glow\0069.png",0,360 S,0,1194456,,0.25 C,0,1194656,,255,255,255 F,0,1194656,1194756,0,0.5 F,18,1240956,1241456,0.5,0 MX,18,1240956,1241456,675.675,685.675
Sprite,Foreground,Centre,"SB\Text\0069.png",0,360 S,0,1194456,,0.25 C,0,1194656,,255,255,255 F,0,1194656,1194756,0,1 F,18,1240956,1241456,1,0 MX,18,1240956,1241456,675.675,685.675
Sprite,Foreground,Centre,"SB\Text\0064.png",0,362 S,0,1194456,,0.25 C,0,1194756,,0,0,0 F,0,1194756,1194856,0,0.5 F,18,1240956,1241456,0.5,0 MX,18,1240956,1241456,683.3,693.3
Sprite,Foreground,Centre,"SB\Text\Glow\0064.png",0,360 S,0,1194456,,0.25 C,0,1194756,,255,255,255 F,0,1194756,1194856,0,0.5 F,18,1240956,1241456,0.5,0 MX,18,1240956,1241456,681.3,691.3
Sprite,Foreground,Centre,"SB\Text\0064.png",0,360 S,0,1194456,,0.25 C,0,1194756,,255,255,255 F,0,1194756,1194856,0,1 F,18,1240956,1241456,1,0 MX,18,1240956,1241456,681.3,691.3
Sprite,Foreground,Centre,"SB\Text\0065.png",0,362 S,0,1194456,,0.25 C,0,1194856,,0,0,0 F,0,1194856,1194956,0,0.5 F,18,1240956,1241456,0.5,0 MX,18,1240956,1241456,690.675,700.675
Sprite,Foreground,Centre,"SB\Text\Glow\0065.png",0,360 S,0,1194456,,0.25 C,0,1194856,,255,255,255 F,0,1194856,1194956,0,0.5 F,18,1240956,1241456,0.5,0 MX,18,1240956,1241456,688.675,698.675
Sprite,Foreground,Centre,"SB\Text\0065.png",0,360 S,0,1194456,,0.25 C,0,1194856,,255,255,255 F,0,1194856,1194956,0,1 F,18,1240956,1241456,1,0 MX,18,1240956,1241456,688.675,698.675
Sprite,Foreground,Centre,"SB\Text\006e.png",0,362 S,0,1194456,,0.25 C,0,1194956,,0,0,0 F,0,1194956,1195056,0,0.5 F,18,1240956,1241456,0.5,0 MX,18,1240956,1241456,698.05,708.05
Sprite,Foreground,Centre,"SB\Text\Glow\006e.png",0,360 S,0,1194456,,0.25 C,0,1194956,,255,255,255 F,0,1194956,1195056,0,0.5 F,18,1240956,1241456,0.5,0 MX,18,1240956,1241456,696.05,706.05
Sprite,Foreground,Centre,"SB\Text\006e.png",0,360 S,0,1194456,,0.25 C,0,1194956,,255,255,255 F,0,1194956,1195056,0,1 F,18,1240956,1241456,1,0 MX,18,1240956,1241456,696.05,706.05
Sprite,Foreground,CentreLeft,"SB\Pixel.jpg",0,360 F,0,1253536,,0.5 C,0,1253536,,0,0,0 V,19,1253536,1254536,0,20.5,63.7,20.5 MX,19,1364536,1365536,646.3,710 V,19,1364536,1365536,63.7,20.5,0,20.5
Sprite,Foreground,Centre,"SB\Text\0048.png",0,362 S,0,1253536,,0.25 C,0,1253536,,0,0,0 F,0,1253536,1253636,0,0.5 F,18,1364036,1364536,0.5,0 MX,18,1364036,1364536,662.8,672.8
Sprite,Foreground,Centre,"SB\Text\Glow\0048.png",0,360 S,0,1253536,,0.25 C,0,1253536,,255,255,255 F,0,1253536,1253636,0,0.5 F,18,1364036,1364536,0.5,0 MX,18,1364036,1364536,660.8,670.8
Sprite,Foreground,Centre,"SB\Text\0048.png",0,360 S,0,1253536,,0.25 C,0,1253536,,255,255,255 F,0,1253536,1253636,0,1 F,18,1364036,1364536,1,0 MX,18,1364036,1364536,660.8,670.8
Sprite,Foreground,Centre,"SB\Text\0065.png",0,362 S,0,1253536,,0.25 C,0,1253636,,0,0,0 F,0,1253636,1253736,0,0.5 F,18,1364036,1364536,0.5,0 MX,18,1364036,1364536,671.175,681.175
Sprite,Foreground,Centre,"SB\Text\Glow\0065.png",0,360 S,0,1253536,,0.25 C,0,1253636,,255,255,255 F,0,1253636,1253736,0,0.5 F,18,1364036,1364536,0.5,0 MX,18,1364036,1364536,669.175,679.175
Sprite,Foreground,Centre,"SB\Text\0065.png",0,360 S,0,1253536,,0.25 C,0,1253636,,255,255,255 F,0,1253636,1253736,0,1 F,18,1364036,1364536,1,0 MX,18,1364036,1364536,669.175,679.175
Sprite,Foreground,Centre,"SB\Text\0061.png",0,362 S,0,1253536,,0.25 C,0,1253736,,0,0,0 F,0,1253736,1253836,0,0.5 F,18,1364036,1364536,0.5,0 MX,18,1364036,1364536,678.425,688.425
Sprite,Foreground,Centre,"SB\Text\Glow\0061.png",0,360 S,0,1253536,,0.25 C,0,1253736,,255,255,255 F,0,1253736,1253836,0,0.5 F,18,1364036,1364536,0.5,0 MX,18,1364036,1364536,676.425,686.425
Sprite,Foreground,Centre,"SB\Text\0061.png",0,360 S,0,1253536,,0.25 C,0,1253736,,255,255,255 F,0,1253736,1253836,0,1 F,18,1364036,1364536,1,0 MX,18,1364036,1364536,676.425,686.425
Sprite,Foreground,Centre,"SB\Text\0078.png",0,362 S,0,1253536,,0.25 C,0,1253836,,0,0,0 F,0,1253836,1253936,0,0.5 F,18,1364036,1364536,0.5,0 MX,18,1364036,1364536,685.3,695.3
Sprite,Foreground,Centre,"SB\Text\Glow\0078.png",0,360 S,0,1253536,,0.25 C,0,1253836,,255,255,255 F,0,1253836,1253936,0,0.5 F,18,1364036,1364536,0.5,0 MX,18,1364036,1364536,683.3,693.3
Sprite,Foreground,Centre,"SB\Text\0078.png",0,360 S,0,1253536,,0.25 C,0,1253836,,255,255,255 F,0,1253836,1253936,0,1 F,18,1364036,1364536,1,0 MX,18,1364036,1364536,683.3,693.3
Sprite,Foreground,Centre,"SB\Text\0079.png",0,362 S,0,1253536,,0.25 C,0,1253936,,0,0,0 F,0,1253936,1254036,0,0.5 F,18,1364036,1364536,0.5,0 MX,18,1364036,1364536,691.8,701.8
Sprite,Foreground,Centre,"SB\Text\Glow\0079.png",0,360 S,0,1253536,,0.25 C,0,1253936,,255,255,255 F,0,1253936,1254036,0,0.5 F,18,1364036,1364536,0.5,0 MX,18,1364036,1364536,689.8,699.8
Sprite,Foreground,Centre,"SB\Text\0079.png",0,360 S,0,1253536,,0.25 C,0,1253936,,255,255,255 F,0,1253936,1254036,0,1 F,18,1364036,1364536,1,0 MX,18,1364036,1364536,689.8,699.8
Sprite,Foreground,Centre,"SB\Text\0073.png",0,362 S,0,1253536,,0.25 C,0,1254036,,0,0,0 F,0,1254036,1254136,0,0.5 F,18,1364036,1364536,0.5,0 MX,18,1364036,1364536,698.425,708.425
Sprite,Foreground,Centre,"SB\Text\Glow\0073.png",0,360 S,0,1253536,,0.25 C,0,1254036,,255,255,255 F,0,1254036,1254136,0,0.5 F,18,1364036,1364536,0.5,0 MX,18,1364036,1364536,696.425,706.425
Sprite,Foreground,Centre,"SB\Text\0073.png",0,360 S,0,1253536,,0.25 C,0,1254036,,255,255,255 F,0,1254036,1254136,0,1 F,18,1364036,1364536,1,0 MX,18,1364036,1364536,696.425,706.425
Sprite,Foreground,CentreLeft,"SB\Pixel.jpg",0,360 F,0,1399912,,0.5 C,0,1399912,,0,0,0 V,19,1399912,1400912,0,20.5,93.95,20.5 MX,19,1444563,1445563,616.05,710 V,19,1444563,1445563,93.95,20.5,0,20.5
Sprite,Foreground,Centre,"SB\Text\005b.png",0,362 S,0,1399912,,0.25 C,0,1399912,,0,0,0 F,0,1399912,1400012,0,0.5 F,18,1444063,1444563,0.5,0 MX,18,1444063,1444563,630.425,640.425
Sprite,Foreground,Centre,"SB\Text\Glow\005b.png",0,360 S,0,1399912,,0.25 C,0,1399912,,255,255,255 F,0,1399912,1400012,0,0.5 F,18,1444063,1444563,0.5,0 MX,18,1444063,1444563,628.425,638.425
Sprite,Foreground,Centre,"SB\Text\005b.png",0,360 S,0,1399912,,0.25 C,0,1399912,,255,255,255 F,0,1399912,1400012,0,1 F,18,1444063,1444563,1,0 MX,18,1444063,1444563,628.425,638.425
Sprite,Foreground,Centre,"SB\Text\0054.png",0,362 S,0,1399912,,0.25 C,0,1400012,,0,0,0 F,0,1400012,1400112,0,0.5 F,18,1444063,1444563,0.5,0 MX,18,1444063,1444563,641.175,651.175
Sprite,Foreground,Centre,"SB\Text\Glow\0054.png",0,360 S,0,1399912,,0.25 C,0,1400012,,255,255,255 F,0,1400012,1400112,0,0.5 F,18,1444063,1444563,0.5,0 MX,18,1444063,1444563,639.175,649.175
Sprite,Foreground,Centre,"SB\Text\0054.png",0,360 S,0,1399912,,0.25 C,0,1400012,,255,255,255 F,0,1400012,1400112,0,1 F,18,1444063,1444563,1,0 MX,18,1444063,1444563,639.175,649.175
Sprite,Foreground,Centre,"SB\Text\004e.png",0,362 S,0,1399912,,0.25 C,0,1400112,,0,0,0 F,0,1400112,1400212,0,0.5 F,18,1444063,1444563,0.5,0 MX,18,1444063,1444563,650.05,660.05
Sprite,Foreground,Centre,"SB\Text\Glow\004e.png",0,360 S,0,1399912,,0.25 C,0,1400112,,255,255,255 F,0,1400112,1400212,0,0.5 F,18,1444063,1444563,0.5,0 MX,18,1444063,1444563,648.05,658.05
Sprite,Foreground,Centre,"SB\Text\004e.png",0,360 S,0,1399912,,0.25 C,0,1400112,,255,255,255 F,0,1400112,1400212,0,1 F,18,1444063,1444563,1,0 MX,18,1444063,1444563,648.05,658.05
Sprite,Foreground,Centre,"SB\Text\0054.png",0,362 S,0,1399912,,0.25 C,0,1400212,,0,0,0 F,0,1400212,1400312,0,0.5 F,18,1444063,1444563,0.5,0 MX,18,1444063,1444563,658.925,668.925
Sprite,Foreground,Centre,"SB\Text\Glow\0054.png",0,360 S,0,1399912,,0.25 C,0,1400212,,255,255,255 F,0,1400212,1400312,0,0.5 F,18,1444063,1444563,0.5,0 MX,18,1444063,1444563,656.925,666.925
Sprite,Foreground,Centre,"SB\Text\0054.png",0,360 S,0,1399912,,0.25 C,0,1400212,,255,255,255 F,0,1400212,1400312,0,1 F,18,1444063,1444563,1,0 MX,18,1444063,1444563,656.925,666.925
Sprite,Foreground,Centre,"SB\Text\006c.png",0,362 S,0,1399912,,0.25 C,0,1400312,,0,0,0 F,0,1400312,1400412,0,0.5 F,18,1444063,1444563,0.5,0 MX,18,1444063,1444563,664.925,674.925
Sprite,Foreground,Centre,"SB\Text\Glow\006c.png",0,360 S,0,1399912,,0.25 C,0,1400312,,255,255,255 F,0,1400312,1400412,0,0.5 F,18,1444063,1444563,0.5,0 MX,18,1444063,1444563,662.925,672.925
Sprite,Foreground,Centre,"SB\Text\006c.png",0,360 S,0,1399912,,0.25 C,0,1400312,,255,255,255 F,0,1400312,1400412,0,1 F,18,1444063,1444563,1,0 MX,18,1444063,1444563,662.925,672.925
Sprite,Foreground,Centre,"SB\Text\0065.png",0,362 S,0,1399912,,0.25 C,0,1400412,,0,0,0 F,0,1400412,1400512,0,0.5 F,18,1444063,1444563,0.5,0 MX,18,1444063,1444563,670.425,680.425
Sprite,Foreground,Centre,"SB\Text\Glow\0065.png",0,360 S,0,1399912,,0.25 C,0,1400412,,255,255,255 F,0,1400412,1400512,0,0.5 F,18,1444063,1444563,0.5,0 MX,18,1444063,1444563,668.425,678.425
Sprite,Foreground,Centre,"SB\Text\0065.png",0,360 S,0,1399912,,0.25 C,0,1400412,,255,255,255 F,0,1400412,1400512,0,1 F,18,1444063,1444563,1,0 MX,18,1444063,1444563,668.425,678.425
Sprite,Foreground,Centre,"SB\Text\0061.png",0,362 S,0,1399912,,0.25 C,0,1400512,,0,0,0 F,0,1400512,1400612,0,0.5 F,18,1444063,1444563,0.5,0 MX,18,1444063,1444563,677.675,687.675
Sprite,Foreground,Centre,"SB\Text\Glow\0061.png",0,360 S,0,1399912,,0.25 C,0,1400512,,255,255,255 F,0,1400512,1400612,0,0.5 F,18,1444063,1444563,0.5,0 MX,18,1444063,1444563,675.675,685.675
Sprite,Foreground,Centre,"SB\Text\0061.png",0,360 S,0,1399912,,0.25 C,0,1400512,,255,255,255 F,0,1400512,1400612,0,1 F,18,1444063,1444563,1,0 MX,18,1444063,1444563,675.675,685.675
Sprite,Foreground,Centre,"SB\Text\006c.png",0,362 S,0,1399912,,0.25 C,0,1400612,,0,0,0 F,0,1400612,1400712,0,0.5 F,18,1444063,1444563,0.5,0 MX,18,1444063,1444563,683.175,693.175
Sprite,Foreground,Centre,"SB\Text\Glow\006c.png",0,360 S,0,1399912,,0.25 C,0,1400612,,255,255,255 F,0,1400612,1400712,0,0.5 F,18,1444063,1444563,0.5,0 MX,18,1444063,1444563,681.175,691.175
Sprite,Foreground,Centre,"SB\Text\006c.png",0,360 S,0,1399912,,0.25 C,0,1400612,,255,255,255 F,0,1400612,1400712,0,1 F,18,1444063,1444563,1,0 MX,18,1444063,1444563,681.175,691.175
Sprite,Foreground,Centre,"SB\Text\0075.png",0,362 S,0,1399912,,0.25 C,0,1400712,,0,0,0 F,0,1400712,1400812,0,0.5 F,18,1444063,1444563,0.5,0 MX,18,1444063,1444563,688.8,698.8
Sprite,Foreground,Centre,"SB\Text\Glow\0075.png",0,360 S,0,1399912,,0.25 C,0,1400712,,255,255,255 F,0,1400712,1400812,0,0.5 F,18,1444063,1444563,0.5,0 MX,18,1444063,1444563,686.8,696.8
Sprite,Foreground,Centre,"SB\Text\0075.png",0,360 S,0,1399912,,0.25 C,0,1400712,,255,255,255 F,0,1400712,1400812,0,1 F,18,1444063,1444563,1,0 MX,18,1444063,1444563,686.8,696.8
Sprite,Foreground,Centre,"SB\Text\005d.png",0,362 S,0,1399912,,0.25 C,0,1400812,,0,0,0 F,0,1400812,1400912,0,0.5 F,18,1444063,1444563,0.5,0 MX,18,1444063,1444563,699.175,709.175
Sprite,Foreground,Centre,"SB\Text\Glow\005d.png",0,360 S,0,1399912,,0.25 C,0,1400812,,255,255,255 F,0,1400812,1400912,0,0.5 F,18,1444063,1444563,0.5,0 MX,18,1444063,1444563,697.175,707.175
Sprite,Foreground,Centre,"SB\Text\005d.png",0,360 S,0,1399912,,0.25 C,0,1400812,,255,255,255 F,0,1400812,1400912,0,1 F,18,1444063,1444563,1,0 MX,18,1444063,1444563,697.175,707.175
//Storyboard Layer 4 (Overlay)
//Storyboard Sound Samples

[TimingPoints]
728,857.142857142857,4,1,0,60,1,8
34997,857.142857142857,4,1,0,60,1,1
34997,-50,4,1,0,60,0,1
35003,-50,4,1,0,80,0,1
89854,-50,4,1,0,40,0,0
102896,638.297872340426,4,1,0,40,1,8
108002,-100,4,1,0,40,0,0
127151,-100,4,1,0,60,0,0
127231,-100,4,1,0,5,0,0
127311,-100,4,1,0,5,0,0
127471,-100,4,1,0,60,0,0
128348,-100,4,1,0,5,0,0
128427,-100,4,1,0,70,0,1
148853,-100,4,1,0,60,0,0
176007,434.782608695652,4,1,0,60,1,8
179485,-100,4,1,0,60,0,0
193398,-71.4285714285714,4,1,0,70,0,1
193507,-90.9090909090909,4,1,0,70,0,1
207311,-71.4285714285714,4,1,0,70,0,1
207420,-90.9090909090909,4,1,0,70,0,1
221224,-90.9090909090909,4,1,0,70,0,0
221333,-100,4,1,0,70,0,0
225491,428.571428571429,4,1,0,20,1,8
225491,-100,4,1,0,20,0,0
225919,-100,4,1,0,30,0,0
228062,-100,4,1,0,50,0,0
228919,-100,4,1,0,50,0,0
242633,-100,4,1,0,60,0,0
252062,-100,4,1,0,60,0,0
256348,-100,4,1,0,70,0,1
266633,-100,4,1,0,70,0,0
270062,-100,4,1,0,70,0,1
283776,-100,4,1,0,70,0,0
288422,422.535211267606,4,1,0,60,1,8
299407,-100,4,1,0,30,0,8
299830,-100,4,1,0,40,0,8
300252,-100,4,1,0,50,0,8
300675,-100,4,1,0,60,0,8
301098,-100,4,1,0,70,0,8
301520,-100,4,1,0,80,0,8
301943,-100,4,1,0,70,0,8
305217,-100,4,1,0,70,0,0
305323,-100,4,1,0,70,0,1
317999,-100,4,1,0,70,0,0
318844,-100,4,1,0,70,0,1
330464,-100,4,1,0,70,0,0
332365,-100,4,1,0,30,0,0
334920,419.58041958042,4,1,0,60,1,8
338276,-90.9090909090909,4,1,0,60,0,0
351913,-90.9090909090909,4,1,0,60,0,0
352122,-89.7435667324188,4,1,0,60,0,0
352332,-88.6076285851754,4,1,0,60,0,0
352437,-88.0503366164369,4,1,0,60,0,0
352542,-87.5000109375014,4,1,0,60,0,0
352647,-86.9565217391304,4,1,0,60,0,0
352752,-86.4197424173157,4,1,0,60,0,0
352857,-85.8895494749572,4,1,0,60,0,0
352961,-85.3658224271381,4,1,0,60,0,0
353066,-84.8485157024906,4,1,0,60,0,0
353171,-84.3373697198481,4,1,0,60,0,0
353276,-83.8323453691432,4,1,0,60,0,0
353381,-83.3333333333333,4,1,0,70,0,1
380234,-83.3333333333333,4,1,0,70,0,0
380444,-100,4,1,0,70,0,0
386947,419.58041958042,4,1,0,70,1,8
387262,-100,4,1,0,70,0,0
387367,416.666666666667,4,1,0,60,1,0
387367,-111.111111111111,4,1,0,60,0,0
393964,-100,4,1,0,60,0,0
398721,-105.263157894737,4,1,0,60,0,0
399137,-111.111111111111,4,1,0,60,0,0
400075,-107.181136120043,4,1,0,60,0,0
400179,-103.51966873706,4,1,0,60,0,0
400283,-100,4,1,0,70,0,0
400700,-95.2380952380952,4,1,0,80,0,1
407262,-86.9565217391304,4,1,0,80,0,1
407471,-95.2380952380952,4,1,0,80,0,1
412054,-86.9565217391304,4,1,0,80,0,1
412158,-86.9565217391304,4,1,0,80,0,0
412262,-95.2380952380952,4,1,0,80,0,0
412679,-86.9565217391304,4,1,0,80,0,0
412887,-95.2380952380952,4,1,0,80,0,0
413929,-86.9565217391304,4,1,0,80,0,0
414033,-86.9565217391304,4,1,0,80,0,1
425492,-86.9565217391304,4,1,0,80,0,0
425700,-90.9090909090909,4,1,0,80,0,0
426117,-95.2380952380952,4,1,0,80,0,0
426533,-100,4,1,0,80,0,0
432738,382.165605095541,4,1,0,80,1,8
432753,-100,4,1,0,50,0,8
443438,-105.263157894737,4,1,0,50,0,0
445636,-125,4,1,0,50,0,0
453948,-100,4,1,0,50,0,0
454139,-100,4,1,0,50,0,0
454154,-100,4,1,0,70,0,0
457196,-100,4,1,0,70,0,1
457211,-100,4,1,0,80,0,1
481655,-100,4,1,0,80,0,0
488819,375,4,1,0,80,1,8
488834,-100,4,1,0,60,0,8
506819,-100,4,1,0,60,0,1
535506,-100,4,1,0,60,0,0
541319,375,4,1,0,60,1,8
541377,375,4,1,0,70,1,0
541377,-100,4,1,0,70,0,0
555720,-100,4,1,0,5,0,0
555814,-100,4,1,0,70,0,0
556189,-100,4,1,0,5,0,0
556377,-100,4,1,0,40,0,0
557877,-90.9090909090909,4,1,0,80,0,1
584877,-90.9090909090909,4,1,0,80,0,0
585064,-100,4,1,0,80,0,0
587877,-100,4,1,0,40,0,0
589377,368.098159509202,4,1,0,70,1,8
591585,-125,4,1,0,70,0,0
591769,-121.212121212121,4,1,0,70,0,0
591953,-117.647058823529,4,1,0,70,0,0
592137,-114.285714285714,4,1,0,70,0,0
592321,-111.111111111111,4,1,0,70,0,0
598211,-117.647058823529,4,1,0,70,0,0
604100,-117.647058823529,4,1,0,70,0,0
604469,-114.002986878256,4,1,0,70,0,0
604653,-112.26431510348,4,1,0,70,0,0
604837,-110.577880000885,4,1,0,70,0,0
605021,-108.941362311736,4,1,0,70,0,0
605205,-107.352693318046,4,1,0,70,0,0
605389,-105.809580845926,4,1,0,70,0,0
605757,-102.852723128698,4,1,0,70,0,0
605941,-101.435412522607,4,1,0,70,0,0
606125,-100.056632053742,4,1,0,70,0,0
607045,-90.987091661306,4,1,0,80,0,1
630603,-90.987091661306,4,1,0,80,0,0
636295,365.853658536585,4,1,0,60,1,8
637758,-125,4,1,0,30,0,0
640319,-120.481927710843,4,1,0,30,0,0
640502,-116.279069767442,4,1,0,30,0,0
640685,-111.111111111111,4,1,0,50,0,0
656965,-111.111111111111,4,1,0,60,0,0
658246,-90.9090909090909,4,1,0,70,0,1
658429,-100,4,1,0,70,0,1
668078,-101.010101010101,4,1,0,70,0,1
668261,-102.040816326531,4,1,0,70,0,1
668490,-105.820105820106,4,1,0,70,0,0
668627,-111.111111111111,4,1,0,70,0,0
668764,-109.89010989011,4,1,0,70,0,0
668993,-108.695652173913,4,1,0,70,0,0
669084,-107.52688172043,4,1,0,70,0,0
669176,-106.382978723404,4,1,0,70,0,0
669267,-105.263157894737,4,1,0,70,0,0
669359,-104.166666666667,4,1,0,70,0,0
669450,-103.092783505155,4,1,0,70,0,0
669541,-102.040816326531,4,1,0,70,0,0
669724,-101.010101010101,4,1,0,70,0,0
669953,-90.9090909090909,4,1,0,70,0,1
670136,-100,4,1,0,70,0,1
681477,-100,4,1,0,70,0,0
685249,350.877192982456,4,1,0,60,1,8
688056,350.877192982456,7,1,0,60,1,0
692134,-100,7,1,0,5,0,8
692266,-100,7,1,0,60,0,8
692309,-100,7,1,0,5,0,8
692441,-100,7,1,0,60,0,8
692484,-100,7,1,0,5,0,8
692617,-100,7,1,0,60,0,8
705248,350.877192982456,4,1,0,80,1,0
708055,-100,4,1,0,90,0,9
730511,-100,4,1,0,90,0,8
730862,-100,4,1,0,90,0,9
752967,-100,4,1,0,70,0,8
753142,-100,4,1,0,70,0,0
753669,-100,4,1,0,65,0,0
754370,-100,4,1,0,60,0,0
755072,-100,4,1,0,50,0,0
755774,-100,4,1,0,40,0,0
756476,-100,4,1,0,30,0,0
756826,-100,4,1,0,20,0,0
761057,348.837209302326,4,1,0,70,1,0
783208,-111.111111111111,4,1,0,70,0,0
783382,-111.111111111111,4,1,0,60,0,0
807016,-90.9090909090908,4,1,0,60,0,0
807103,-90.9090909090908,4,1,0,80,0,1
823629,-86.9565217391304,4,1,0,80,0,1
823716,-85.1063829787234,4,1,0,80,0,1
823804,-83.3333333333333,4,1,0,80,0,1
829429,-83.3333333333333,4,1,0,80,0,0
833727,333.333333333333,4,1,0,60,1,8
836060,-100,4,1,0,50,0,8
837560,-100,4,1,0,60,0,8
839060,-100,4,1,0,70,0,8
853560,-100,4,1,0,80,0,9
874893,-100,4,1,0,80,0,8
881530,331.491712707182,4,1,0,60,1,0
881530,-150.15015015015,4,1,0,60,0,0
886833,-120.481927710843,4,1,0,60,0,0
891971,-100,4,1,0,60,0,0
893463,-105.263157894737,4,1,0,60,0,0
893629,-111.111111111111,4,1,0,60,0,0
893960,-116.279069767442,4,1,0,60,0,0
894292,-120.481927710843,4,1,0,60,0,0
894347,-114.942528735632,4,1,0,60,0,0
894402,-109.89010989011,4,1,0,60,0,0
894458,-105.263157894737,4,1,0,70,0,0
894789,-92.5925925925926,4,1,0,80,0,1
894955,-100,4,1,0,80,0,1
913353,-100,4,1,0,80,0,0
921034,320.855614973262,4,1,0,60,1,8
926167,-100,4,1,0,60,0,0
931301,-133.333333333333,4,1,0,60,0,0
936435,-83.3333333333333,4,1,0,70,0,1
944135,-83.3333333333333,4,1,0,70,0,0
944456,-100,4,1,0,70,0,0
946702,-83.3333333333333,4,1,0,70,0,1
955525,-83.3333333333333,4,1,0,70,0,0
955686,-90.9090909090909,4,1,0,50,0,0
956889,-166.666666666667,4,1,0,50,0,0
959536,324.324324324324,4,1,0,60,1,8
959536,-166.666666666667,4,1,0,60,0,0
964076,-166.666666666667,4,1,0,40,0,0
964400,-166.666666666667,4,1,0,50,0,0
964644,-100,4,1,0,50,0,8
964725,-100,4,1,0,60,0,8
968738,-99.009900990099,4,1,0,60,0,8
968819,-97.5976342333462,4,1,0,60,0,8
968900,-96.2249971373063,4,1,0,60,0,8
969062,-93.5924721702784,4,1,0,60,0,8
969224,-91.1002357674102,4,1,0,60,0,8
969265,-91.1002357674102,4,1,0,75,0,8
969305,-89.9031563200121,4,1,0,75,0,8
969386,-88.737207422335,4,1,0,75,0,8
969467,-87.6011135853559,4,1,0,75,0,8
969549,-86.4936677985805,4,1,0,75,0,8
969630,-85.4139458765991,4,1,0,75,0,8
969711,-84.360777300202,4,1,0,75,0,8
969792,-83.3333333333333,4,1,0,75,0,8
969873,-74.0740740740741,4,1,0,75,0,0
969914,-74.0740740740741,4,1,0,70,0,0
970198,-95.2380952380952,4,1,0,70,0,0
970360,-74.0740740740741,4,1,0,70,0,0
970684,-95.2380952380952,4,1,0,70,0,0
970846,-74.0740740740741,4,1,0,70,0,0
971171,-95.2380952380952,4,1,0,70,0,0
971333,-74.0740740740741,4,1,0,70,0,0
971414,-95.2380952380952,4,1,0,70,0,0
972144,-74.0740740740741,4,1,0,70,0,0
972468,-80,4,1,0,70,0,0
972508,-80,4,1,0,50,0,0
972792,-100,4,1,0,50,0,0
972833,-100,4,1,0,60,0,0
972873,-99.009900990099,4,1,0,60,0,0
972954,-98.0392156862745,4,1,0,60,0,0
973157,-90.9090909090909,4,1,0,70,0,0
973279,-86.9565217391304,4,1,0,70,0,0
973441,-83.3333333333333,4,1,0,70,0,0
973481,-83.3333333333333,4,1,0,80,0,0
973603,-80,4,1,0,80,0,0
973684,-166.666666666667,4,1,0,80,0,0
974130,-166.666666666667,4,1,0,40,0,0
974738,-166.666666666667,4,1,0,40,0,0
974779,-166.666666666667,4,1,0,60,0,0
975022,-166.666666666667,4,1,0,5,0,0
975103,-90.9090909090909,4,1,0,70,0,1
979765,-91.743119266055,4,1,0,70,0,1
979927,-94.3396226415094,4,1,0,70,0,1
980089,-97.0873786407767,4,1,0,70,0,1
980170,-98.5221674876847,4,1,0,70,0,1
980292,-100,4,1,0,70,0,0
984792,-99.009900990099,4,1,0,70,0,0
984873,-97.7199015374272,4,1,0,70,0,0
984954,-96.4629914909995,4,1,0,70,0,0
985035,-95.2380952380952,4,1,0,70,0,0
985116,-94.043916628187,4,1,0,70,0,0
985197,-92.8792282107653,4,1,0,70,0,0
985278,-91.743119266055,4,1,0,70,0,0
985481,-90.9090909090909,4,1,0,70,0,1
990144,-91.743119266055,4,1,0,70,0,1
990306,-94.3396226415094,4,1,0,70,0,1
990468,-97.0873786407767,4,1,0,70,0,1
990549,-98.5221674876847,4,1,0,70,0,1
990671,-100,4,1,0,70,0,0
993711,-102.040816326531,4,1,0,70,0,0
993792,-103.37829944765,4,1,0,70,0,0
993873,-104.75130991513,4,1,0,70,0,0
994035,-107.609845439979,4,1,0,70,0,0
994359,-113.821841500809,4,1,0,70,0,0
994441,-120.794975895363,4,1,0,70,0,0
994481,-116.959064327485,4,1,0,70,0,0
994644,-120.794975895363,4,1,0,70,0,0
995008,-128.678268299337,4,1,0,70,0,0
995332,-137.662355540566,4,1,0,70,0,0
995495,-142.641753808891,4,1,0,70,0,0
995779,-142.641753808891,4,1,0,5,0,0
995860,-90.9090909090909,4,1,0,60,0,0
998454,324.324324324324,4,1,0,10,1,8
998764,307.692307692308,4,1,0,10,1,0
998764,-111.111111111111,4,1,0,6,0,0
998917,-111.111111111111,4,1,0,9,0,0
999071,-111.111111111111,4,1,0,12,0,0
999225,-111.111111111111,4,1,0,15,0,0
999379,-111.111111111111,4,1,0,18,0,0
999687,-111.111111111111,4,1,0,21,0,0
999994,-111.111111111111,4,1,0,24,0,0
1001148,-133.333333333333,4,1,0,35,0,0
1010225,-129.87012987013,4,1,0,37,0,0
1010379,-128.205128205128,4,1,0,39,0,0
1010533,-126.582278481013,4,1,0,41,0,0
1010687,-125,4,1,0,43,0,0
1010917,-117.647058823529,4,1,0,60,0,0
1015687,-90.9090909090909,4,1,0,60,0,0
1015994,-100,4,1,0,60,0,0
1020917,-90.9090909090909,4,1,0,80,0,1
1020994,-100,4,1,0,80,0,1
1030764,-90.9090909090909,4,1,0,80,0,1
1030917,-100,4,1,0,80,0,1
1040610,-90.9090909090909,4,1,0,80,0,0
1040687,-100,4,1,0,80,0,0
1060302,-80,4,1,0,80,0,0
1060610,-80,4,1,0,80,0,0
1060917,-80,4,1,0,80,0,0
1061225,-80,4,1,0,80,0,0
1061533,-83.3333333333333,4,1,0,70,0,0
1061840,-83.3333333333333,4,1,0,70,0,0
1062148,-83.3333333333333,4,1,0,70,0,0
1062456,-83.3333333333333,4,1,0,70,0,0
1062610,-83.3333333333333,4,1,0,60,0,0
1062764,-86.9565217391304,4,1,0,60,0,0
1063994,-90.9090909090909,4,1,0,50,0,0
1065225,-95.2380952380952,4,1,0,40,0,0
1066456,-100,4,1,0,30,0,0
1067687,-105.263157894737,4,1,0,20,0,0
1068917,-111.111111111111,4,1,0,10,0,0
1070148,-117.647058823529,4,1,0,10,0,0
1071649,300,4,1,0,10,1,8
1071659,-100,4,1,0,60,0,8
1100449,-100,4,1,0,60,0,8
1100459,-100,4,1,0,70,0,8
1108849,-100,4,1,0,70,0,9
1108859,-100,4,1,0,90,0,9
1128049,-100,4,1,0,90,0,8
1132584,294.117647058824,4,1,0,40,1,8
1132731,-100,4,1,0,50,0,8
1133760,-100,4,1,0,60,0,8
1135231,-100,4,1,0,70,0,8
1137436,-99.009900990099,4,1,0,70,0,8
1137510,-98.0392156862745,4,1,0,70,0,8
1137584,-97.0873786407767,4,1,0,70,0,8
1137731,-96.1538461538461,4,1,0,70,0,8
1137804,-95.2380952380952,4,1,0,70,0,8
1137878,-94.3396226415094,4,1,0,70,0,8
1138172,-93.4579439252336,4,1,0,70,0,8
1138319,-92.5925925925926,4,1,0,70,0,8
1139642,-105.263157894737,4,1,0,70,0,8
1140231,-106.382978723404,4,1,0,70,0,8
1140819,-105.263157894737,4,1,0,70,0,8
1140966,-104.166666666667,4,1,0,70,0,8
1141113,-103.092783505155,4,1,0,70,0,8
1141162,-102.040816326531,4,1,0,70,0,8
1141211,-101.010101010101,4,1,0,70,0,8
1141260,-100,4,1,0,70,0,8
1141309,-99.009900990099,4,1,0,70,0,8
1141358,-98.0392156862745,4,1,0,70,0,8
1141407,-97.0873786407767,4,1,0,70,0,8
1141554,-96.1538461538461,4,1,0,70,0,8
1141701,-95.2380952380952,4,1,0,70,0,8
1141848,-94.3396226415094,4,1,0,70,0,8
1142142,-93.4579439252336,4,1,0,70,0,8
1142289,-90.9090909090909,4,1,0,80,0,9
1160672,-90.9090909090909,4,1,0,80,0,8
1160966,-90.9090909090909,4,1,0,80,0,9
1170525,-111.111111111111,4,1,0,80,0,9
1178907,-108.695652173913,4,1,0,80,0,9
1179054,-106.382978723404,4,1,0,80,0,9
1179201,-104.166666666667,4,1,0,80,0,9
1179348,-102.040816326531,4,1,0,80,0,9
1179495,-100,4,1,0,80,0,9
1179936,-90.9090909090909,4,1,0,80,0,9
1182584,-90.0900900900901,4,1,0,80,0,9
1182657,-89.2857142857143,4,1,0,80,0,9
1182731,-88.4955752212389,4,1,0,80,0,9
1182804,-87.719298245614,4,1,0,80,0,9
1182878,-86.9565217391304,4,1,0,80,0,9
1182951,-85.4700854700855,4,1,0,80,0,9
1183025,-84.7457627118644,4,1,0,80,0,9
1183098,-84.0336134453781,4,1,0,80,0,9
1183172,-83.3333333333333,4,1,0,80,0,9
1183760,-100,4,1,0,80,0,9
1184201,-95.2380952380952,4,1,0,80,0,8
1187456,250,4,1,0,70,1,8
1193456,-111.111111111111,4,1,0,75,0,0
1205701,-111.111111111111,4,1,0,75,0,0
1205826,-108.53461983036,4,1,0,75,0,0
1205831,-108.53461983036,4,1,0,75,0,0
1205951,-106.074910101514,4,1,0,75,0,0
1205956,-106.074910101514,4,1,0,75,0,0
1206076,-103.724218049051,4,1,0,75,0,0
1206201,-101.475453087898,4,1,0,75,0,0
1206206,-101.475453087898,4,1,0,75,0,0
1206326,-99.3221264867281,4,1,0,75,0,0
1206451,-97.2582888376662,4,1,0,75,0,0
1206456,-97.2582888376662,4,1,0,75,0,0
1206576,-95.2784751632835,4,1,0,75,0,0
1206701,-93.3776565943301,4,1,0,75,0,0
1206706,-93.3776565943301,4,1,0,75,0,0
1206826,-91.5511977185442,4,1,0,75,0,0
1206951,-89.794818838953,4,1,0,75,0,0
1207076,-88.1045624947688,4,1,0,75,0,0
1207138,-87.2831123761344,4,1,0,75,0,0
1207201,-86.4767636935955,4,1,0,75,0,0
1207326,-84.9080233836696,4,1,0,75,0,0
1207388,-84.1448401963268,4,1,0,75,0,0
1207451,-83.3951847620318,4,1,0,75,0,0
1208456,-100,4,1,0,85,0,0
1209456,-100,4,1,0,85,0,1
1241456,-100,4,1,0,80,0,0
1244536,250,4,1,0,70,1,8
1252536,-100,4,1,0,80,0,8
1252661,-100,4,1,0,80,0,0
1267411,-100,4,1,0,70,0,0
1268536,-100,4,1,0,80,0,0
1268786,-100,4,1,0,80,0,0
1269034,-104.166666666667,4,1,0,80,0,0
1269534,-107.52688172043,4,1,0,80,0,0
1270034,-109.89010989011,4,1,0,80,0,0
1270534,-111.111111111111,4,1,0,80,0,0
1275911,-106.382978723404,4,1,0,80,0,0
1276159,-103.092783505155,4,1,0,80,0,0
1276409,-101.010101010101,4,1,0,80,0,0
1276534,-100,4,1,0,80,0,0
1283536,-100,4,1,0,70,0,0
1284036,-100,4,1,0,60,0,0
1284786,-104.166666666667,4,1,0,60,0,0
1285284,-107.52688172043,4,1,0,60,0,0
1285534,-109.89010989011,4,1,0,60,0,0
1285784,-111.111111111111,4,1,0,60,0,0
1292284,-109.89010989011,4,1,0,60,0,0
1292409,-107.52688172043,4,1,0,60,0,0
1292494,-105.263157894737,4,1,0,60,0,0
1296536,-105.263157894737,4,1,0,70,0,0
1298494,-105.263157894737,4,1,0,70,0,0
1299452,-100,4,1,0,70,0,0
1299659,-99.009900990099,4,1,0,70,0,0
1299909,-98.0392156862745,4,1,0,70,0,0
1300034,-97.0873786407767,4,1,0,70,0,0
1300409,-96.1538461538461,4,1,0,70,0,0
1300494,-95.2380952380952,4,1,0,70,0,0
1300536,-95.2380952380952,4,1,0,90,0,1
1315534,-94.3396226415094,4,1,0,90,0,1
1316034,-93.4579439252336,4,1,0,90,0,1
1316159,-92.5925925925926,4,1,0,90,0,1
1316409,-91.743119266055,4,1,0,90,0,1
1316534,-90.9090909090909,4,1,0,90,0,1
1332536,-90.9090909090909,4,1,0,90,0,0
1332784,-91.743119266055,4,1,0,90,0,0
1333034,-92.5925925925926,4,1,0,90,0,0
1333159,-93.4579439252336,4,1,0,90,0,0
1333284,-94.3396226415094,4,1,0,90,0,0
1333409,-95.2380952380952,4,1,0,90,0,0
1364536,-95.2380952380952,4,1,0,60,0,0
1364619,-95.2380952380952,4,1,0,60,0,0
1383188,465.116279069767,4,1,0,60,1,8
1398071,-92.5925925925926,4,1,0,60,0,0
1398304,-94.3396226415094,4,1,0,60,0,0
1398536,-96.1538461538461,4,1,0,60,0,0
1398769,-98.0392156862745,4,1,0,60,0,0
1399001,-100,4,1,0,60,0,0
1399932,-94.3396226415094,4,1,0,60,0,0
1400164,-96.1538461538461,4,1,0,60,0,0
1400397,-98.0392156862745,4,1,0,60,0,0
1400629,-100,4,1,0,60,0,0
1400862,-102.040816326531,4,1,0,60,0,0
1401792,-96.1538461538461,4,1,0,60,0,0
1402025,-98.0392156862745,4,1,0,60,0,0
1402257,-100,4,1,0,60,0,0
1402490,-102.040816326531,4,1,0,60,0,0
1402722,-104.166666666667,4,1,0,60,0,0
1403653,-98.0392156862745,4,1,0,60,0,0
1403885,-100,4,1,0,60,0,0
1404118,-102.040816326531,4,1,0,60,0,0
1404350,-104.166666666667,4,1,0,60,0,0
1404583,-106.382978723404,4,1,0,60,0,0
1409234,-102.040816326531,4,1,0,60,0,0
1409699,-100,4,1,0,60,0,0
1409932,-98.0392156862745,4,1,0,60,0,0
1410164,-96.1538461538461,4,1,0,60,0,0
1410397,-94.3396226415094,4,1,0,60,0,0
1410629,-92.5925925925926,4,1,0,60,0,0
1410862,-90.9090909090909,4,1,0,60,0,0
1411094,-86.9565217391304,4,1,0,60,0,0
1412955,-86.9565217391304,4,1,0,70,0,0
1442722,-86.9565217391304,4,1,0,60,0,0
1446443,-86.9565217391304,4,1,0,10,0,0
1448304,-76.9230769230769,4,1,0,70,0,1
1485513,-76.9230769230769,4,1,0,60,0,0
1487374,-76.9230769230769,4,1,0,50,0,0
1489234,-76.9230769230769,4,1,0,40,0,0
1491094,-76.9230769230769,4,1,0,30,0,0
1492955,-76.9230769230769,4,1,0,20,0,0

[HitObjects]
256,192,34998,5,12,0:0:0:0:
256,192,35426,1,0,0:0:0:0:
256,192,35640,1,8,0:0:0:0:
256,192,35854,1,12,0:0:0:0:
256,192,36283,1,8,0:0:0:0:
256,192,36497,1,0,0:0:0:0:
256,192,36711,1,0,0:0:0:0:
256,192,37140,1,0,0:0:0:0:
256,192,37354,1,8,0:0:0:0:
256,192,37569,1,12,0:0:0:0:
256,192,37997,1,0,0:0:0:0:
256,192,38211,1,8,0:0:0:0:
256,192,38426,1,8,0:0:0:0:
256,192,38854,1,8,0:0:0:0:
256,192,39283,1,12,0:0:0:0:
256,192,39711,1,0,0:0:0:0:^
256,192,39926,1,8,0:0:0:0:
256,192,40140,1,8,0:0:0:0:
256,192,40569,1,0,0:0:0:0:
256,192,40997,1,12,0:0:0:0:
256,192,41426,1,0,0:0:0:0:
256,192,41640,1,0,0:0:0:0:
256,192,41854,1,12,0:0:0:0:
256,192,42283,1,0,0:0:0:0:
256,192,42497,1,8,0:0:0:0:
256,192,42711,1,12,0:0:0:0:
256,192,43140,1,0,0:0:0:0:
256,192,43354,1,8,0:0:0:0:
256,192,43569,1,0,0:0:0:0:
256,192,43997,1,0,0:0:0:0:
256,192,44426,1,12,0:0:0:0:
256,192,44854,1,0,0:0:0:0:
256,192,45069,1,0,0:0:0:0:
256,192,45283,1,0,0:0:0:0:
256,192,45711,1,0,0:0:0:0:
256,192,46140,1,12,0:0:0:0:
256,192,46569,1,0,0:0:0:0:
256,192,46783,1,0,0:0:0:0:
256,192,46997,1,8,0:0:0:0:
256,192,47426,1,0,0:0:0:0:
256,192,47854,1,12,0:0:0:0:
256,192,48283,1,0,0:0:0:0:
256,192,48426,1,8,0:0:0:0:
256,192,48569,1,8,0:0:0:0:
256,192,48711,1,0,0:0:0:0:
256,192,49140,1,0,0:0:0:0:
256,192,49569,1,12,0:0:0:0:
256,192,49997,1,8,0:0:0:0:
256,192,50211,1,8,0:0:0:0:
256,192,50426,1,0,0:0:0:0:
256,192,50854,1,0,0:0:0:0:
256,192,51283,1,12,0:0:0:0:
256,192,51711,1,8,0:0:0:0:
256,192,51926,1,0,0:0:0:0:
256,192,52140,1,8,0:0:0:0:
256,192,52569,1,0,0:0:0:0:
256,192,52997,1,12,0:0:0:0:
256,192,53426,1,0,0:0:0:0:
256,192,53640,1,0,0:0:0:0:
256,192,53854,1,8,0:0:0:0:
256,192,54283,1,8,0:0:0:0:
256,192,54497,1,8,0:0:0:0:
256,192,54711,1,12,0:0:0:0:
256,192,54926,1,0,0:0:0:0:
256,192,55140,1,8,0:0:0:0:
256,192,55354,1,8,0:0:0:0:
256,192,55569,1,0,0:0:0:0:
256,192,55997,1,0,0:0:0:0:
256,192,56211,1,0,0:0:0:0:
256,192,56426,1,12,0:0:0:0:
256,192,56854,1,0,0:0:0:0:
256,192,57069,1,8,0:0:0:0:
256,192,57283,1,0,0:0:0:0:
256,192,57497,1,0,0:0:0:0:
256,192,57711,1,8,0:0:0:0:
256,192,58140,1,12,0:0:0:0:
256,192,58569,1,0,0:0:0:0:
256,192,58783,1,0,0:0:0:0:
256,192,58997,1,0,0:0:0:0:
256,192,59211,1,8,0:0:0:0:
256,192,59426,1,0,0:0:0:0:
256,192,59640,1,0,0:0:0:0:
256,192,59854,1,8,0:0:0:0:
256,192,60283,1,12,0:0:0:0:
256,192,60497,1,12,0:0:0:0:
256,192,60711,1,0,0:0:0:0:
256,192,60926,1,0,0:0:0:0:
256,192,61140,1,0,0:0:0:0:
256,192,61354,1,0,0:0:0:0:
256,192,61569,1,12,0:0:0:0:
256,192,61997,1,0,0:0:0:0:
256,192,62211,1,0,0:0:0:0:
256,192,62426,1,8,0:0:0:0:
256,192,62854,1,0,0:0:0:0:
256,192,63069,1,8,0:0:0:0:
256,192,63283,1,12,0:0:0:0:
256,192,63711,1,8,0:0:0:0:
256,192,63926,1,8,0:0:0:0:
256,192,64140,1,8,0:0:0:0:
256,192,64569,1,0,0:0:0:0:
256,192,64783,1,8,0:0:0:0:
256,192,64997,1,12,0:0:0:0:
256,192,65426,1,0,0:0:0:0:
256,192,65854,1,8,0:0:0:0:
256,192,66069,1,0,0:0:0:0:
256,192,66283,1,0,0:0:0:0:
256,192,66497,1,0,0:0:0:0:
256,192,66711,1,12,0:0:0:0:
256,192,67140,1,8,0:0:0:0:
256,192,67354,1,0,0:0:0:0:
256,192,67783,1,0,0:0:0:0:
256,192,67997,1,8,0:0:0:0:
256,192,68426,1,12,0:0:0:0:
256,192,68854,1,0,0:0:0:0:
256,192,69069,1,8,0:0:0:0:
256,192,69283,1,0,0:0:0:0:
256,192,69711,1,0,0:0:0:0:
256,192,69926,1,0,0:0:0:0:
256,192,70140,1,12,0:0:0:0:
256,192,70569,1,8,0:0:0:0:
256,192,70783,1,8,0:0:0:0:
256,192,70997,1,0,0:0:0:0:
256,192,71426,1,8,0:0:0:0:
256,192,71854,1,12,0:0:0:0:
256,192,72283,1,8,0:0:0:0:
256,192,72497,1,0,0:0:0:0:
256,192,72711,1,0,0:0:0:0:
256,192,73140,1,0,0:0:0:0:
256,192,73569,1,12,0:0:0:0:
256,192,73997,1,0,0:0:0:0:
256,192,74211,1,0,0:0:0:0:
256,192,74426,1,8,0:0:0:0:
256,192,74854,1,0,0:0:0:0:
256,192,75283,1,12,0:0:0:0:
256,192,75497,1,0,0:0:0:0:
256,192,75711,1,8,0:0:0:0:
256,192,76140,1,0,0:0:0:0:
256,192,76569,1,0,0:0:0:0:
256,192,76783,1,0,0:0:0:0:
256,192,76997,1,8,0:0:0:0:
256,192,77426,1,0,0:0:0:0:
256,192,77640,1,8,0:0:0:0:
256,192,78069,1,8,0:0:0:0:
256,192,78283,1,0,0:0:0:0:
256,192,78711,1,12,0:0:0:0:
256,192,78926,1,8,0:0:0:0:
256,192,79140,1,8,0:0:0:0:
256,192,79354,1,0,0:0:0:0:
256,192,79569,1,0,0:0:0:0:
256,192,79997,1,0,0:0:0:0:
256,192,80211,1,0,0:0:0:0:
256,192,80426,1,12,0:0:0:0:
256,192,80854,1,12,0:0:0:0:
256,192,81069,1,12,0:0:0:0:
256,192,81283,1,0,0:0:0:0:
256,192,81497,1,0,0:0:0:0:
256,192,81711,1,0,0:0:0:0:
256,192,81926,1,0,0:0:0:0:
256,192,82033,1,0,0:0:0:0:
256,192,82140,1,12,0:0:0:0:
256,192,82354,1,12,0:0:0:0:
256,192,82569,1,0,0:0:0:0:
256,192,82997,1,12,0:0:0:0:
256,192,83426,1,0,0:0:0:0:
256,192,83640,1,0,0:0:0:0:
256,192,83854,1,8,0:0:0:0:
256,192,84069,1,8,0:0:0:0:
256,192,84283,1,8,0:0:0:0:
253,187,84926,1,8,0:0:0:0:
256,192,85140,1,0,0:0:0:0:
253,187,85354,1,0,0:0:0:0:
253,187,85569,1,8,0:0:0:0:
256,186,85997,1,0,0:0:0:0:
256,186,86140,1,0,0:0:0:0:
253,187,86283,1,0,0:0:0:0:
256,192,86426,12,0,89854,0:0:0:0:
256,192,108002,5,8,0:0:0:0:
256,192,108321,1,8,0:0:0:0:
256,192,108481,1,0,0:0:0:0:
256,192,108640,1,8,0:0:0:0:
256,192,108800,1,8,0:0:0:0:
256,192,108959,1,8,0:0:0:0:
256,192,109119,1,0,0:0:0:0:
256,192,109278,1,8,0:0:0:0:
256,192,109598,1,8,0:0:0:0:
256,192,109757,1,0,0:0:0:0:
256,192,109917,1,8,0:0:0:0:
256,192,110236,1,0,0:0:0:0:
256,192,110555,1,8,0:0:0:0:
256,192,110715,1,0,0:0:0:0:
256,192,111034,1,0,0:0:0:0:
256,192,111193,1,8,0:0:0:0:
256,192,111832,1,0,0:0:0:0:
256,192,112151,1,0,0:0:0:0:
256,192,112470,1,8,0:0:0:0:
256,192,112789,1,8,0:0:0:0:
256,192,113108,1,0,0:0:0:0:
256,192,113427,1,0,0:0:0:0:
256,192,113587,1,0,0:0:0:0:
256,192,113747,1,8,0:0:0:0:
256,192,113906,1,8,0:0:0:0:
256,192,114066,1,0,0:0:0:0:
256,192,114225,1,0,0:0:0:0:
256,192,114385,1,8,0:0:0:0:
256,192,114704,1,0,0:0:0:0:
256,192,114864,1,0,0:0:0:0:
256,192,115023,1,8,0:0:0:0:
256,192,115342,1,0,0:0:0:0:
256,192,115661,1,8,0:0:0:0:
256,192,115821,1,0,0:0:0:0:
256,192,116140,1,0,0:0:0:0:
256,192,116300,1,8,0:0:0:0:
256,192,116619,1,0,0:0:0:0:
256,192,116938,1,8,0:0:0:0:
256,192,117257,1,0,0:0:0:0:
256,192,117576,1,8,0:0:0:0:
256,192,117736,1,8,0:0:0:0:
256,192,117896,1,0,0:0:0:0:
256,192,118215,1,0,0:0:0:0:
256,192,118534,1,8,0:0:0:0:
256,192,118693,1,0,0:0:0:0:
256,192,118853,1,8,0:0:0:0:
256,192,119013,1,0,0:0:0:0:
256,192,119172,1,8,0:0:0:0:
256,192,119332,1,8,0:0:0:0:
256,192,119491,1,0,0:0:0:0:
256,192,119810,1,8,0:0:0:0:
256,192,119970,1,0,0:0:0:0:
256,192,120130,1,8,0:0:0:0:
256,192,120449,1,0,0:0:0:0:
256,192,120608,1,8,0:0:0:0:
256,192,120768,1,0,0:0:0:0:
256,192,120927,1,0,0:0:0:0:
256,192,121247,1,0,0:0:0:0:
256,192,121406,1,8,0:0:0:0:
256,192,122044,1,0,0:0:0:0:
256,192,122364,1,0,0:0:0:0:
256,192,122683,1,8,0:0:0:0:
256,192,123002,1,0,0:0:0:0:
256,192,123321,1,8,0:0:0:0:
256,192,123481,1,0,0:0:0:0:
256,192,123800,1,8,0:0:0:0:
256,192,123959,1,8,0:0:0:0:
256,192,124278,1,0,0:0:0:0:
256,192,124598,1,8,0:0:0:0:
256,192,124917,1,8,0:0:0:0:
256,192,125236,1,0,0:0:0:0:
256,192,125555,1,8,0:0:0:0:
256,192,125874,5,8,0:0:0:0:
256,192,126034,5,0,0:0:0:0:
256,192,126353,5,0,0:0:0:0:
256,192,126513,5,8,0:0:0:0:
256,192,126832,1,0,0:0:0:0:
256,192,126991,1,8,0:0:0:0:
256,192,127151,1,0,0:0:0:0:
256,192,127470,1,8,0:0:0:0:
256,192,127630,1,8,0:0:0:0:
256,192,127789,1,0,0:0:0:0:
256,192,127869,1,0,0:0:0:0:
256,192,127949,1,8,0:0:0:0:
256,192,128108,1,8,0:0:0:0:
256,192,128268,1,0,0:0:0:0:
256,192,128427,1,12,0:0:0:0:
256,192,128747,1,0,0:0:0:0:
256,192,128906,1,8,0:0:0:0:
256,192,128986,1,0,0:0:0:0:
256,192,129066,1,8,0:0:0:0:
256,192,129225,1,0,0:0:0:0:
256,192,129385,1,8,0:0:0:0:
256,192,129544,1,0,0:0:0:0:
256,192,129704,1,8,0:0:0:0:
256,192,130023,1,8,0:0:0:0:
256,192,130183,1,0,0:0:0:0:
256,192,130263,1,8,0:0:0:0:
256,192,130342,1,8,0:0:0:0:
256,192,130661,1,8,0:0:0:0:
256,192,130821,1,0,0:0:0:0:
256,192,130981,1,8,0:0:0:0:
256,192,131060,1,8,0:0:0:0:
256,192,131140,1,0,0:0:0:0:
256,192,131300,1,8,0:0:0:0:
256,192,131459,1,0,0:0:0:0:
256,192,131619,1,8,0:0:0:0:
256,192,131938,1,8,0:0:0:0:
256,192,132257,1,0,0:0:0:0:
256,192,132576,1,8,0:0:0:0:
256,192,132736,1,0,0:0:0:0:
256,192,132896,1,8,0:0:0:0:
256,192,132975,1,0,0:0:0:0:
256,192,133055,1,8,0:0:0:0:
256,192,133215,1,0,0:0:0:0:
256,192,133374,1,0,0:0:0:0:
256,192,133534,1,12,0:0:0:0:
256,192,133853,1,8,0:0:0:0:
256,192,134013,1,0,0:0:0:0:
256,192,134092,1,8,0:0:0:0:
256,192,134172,1,8,0:0:0:0:
256,192,134332,1,0,0:0:0:0:
256,192,134491,1,8,0:0:0:0:
256,192,134651,1,8,0:0:0:0:
256,192,134810,1,0,0:0:0:0:
256,192,135130,1,8,0:0:0:0:
256,192,135449,1,8,0:0:0:0:
256,192,135767,1,0,0:0:0:0:
256,192,135927,1,8,0:0:0:0:
256,192,136007,1,0,0:0:0:0:
256,192,136087,1,0,0:0:0:0:
256,192,136247,1,8,0:0:0:0:
256,192,136406,1,8,0:0:0:0:
256,192,136566,1,0,0:0:0:0:
256,192,136725,1,8,0:0:0:0:
256,192,137044,1,0,0:0:0:0:
256,192,137364,1,8,0:0:0:0:
256,192,137683,1,8,0:0:0:0:
256,192,137842,1,0,0:0:0:0:
256,192,137922,1,0,0:0:0:0:
256,192,138002,1,8,0:0:0:0:
256,192,138161,1,8,0:0:0:0:
256,192,138321,1,8,0:0:0:0:
256,192,138481,1,0,0:0:0:0:
256,192,138640,1,12,0:0:0:0:
256,192,138959,1,0,0:0:0:0:
256,192,139119,1,8,0:0:0:0:
256,192,139278,1,8,0:0:0:0:
256,192,139598,1,8,0:0:0:0:
256,192,139757,1,0,0:0:0:0:
256,192,139917,1,8,0:0:0:0:
256,192,140076,1,8,0:0:0:0:
256,192,140236,1,0,0:0:0:0:
256,192,140555,1,8,0:0:0:0:
256,192,140874,1,8,0:0:0:0:
256,192,141034,1,0,0:0:0:0:
256,192,141114,1,0,0:0:0:0:
256,192,141193,1,8,0:0:0:0:
256,192,141353,1,0,0:0:0:0:
256,192,141512,1,8,0:0:0:0:
256,192,141672,1,8,0:0:0:0:
256,192,141832,1,0,0:0:0:0:
256,192,142151,1,8,0:0:0:0:
256,192,142470,1,0,0:0:0:0:
256,192,142789,1,8,0:0:0:0:
256,192,142949,1,0,0:0:0:0:
256,192,143108,1,8,0:0:0:0:
256,192,143268,1,8,0:0:0:0:
256,192,143427,1,0,0:0:0:0:
256,192,143747,1,12,0:0:0:0:
256,192,144066,1,0,0:0:0:0:
256,192,144225,1,8,0:0:0:0:
256,192,144305,1,0,0:0:0:0:
256,192,144385,1,8,0:0:0:0:
256,192,144544,1,0,0:0:0:0:
256,192,144704,1,8,0:0:0:0:
256,192,145023,1,8,0:0:0:0:
256,192,145183,1,8,0:0:0:0:
256,192,145342,1,0,0:0:0:0:
256,192,145502,1,0,0:0:0:0:
256,192,145661,1,8,0:0:0:0:
256,192,145981,1,0,0:0:0:0:
256,192,146300,1,8,0:0:0:0:
256,192,146619,1,8,0:0:0:0:
256,192,146778,1,0,0:0:0:0:
256,192,146938,1,8,0:0:0:0:
256,192,147018,1,8,0:0:0:0:
256,192,147098,1,0,0:0:0:0:
256,192,147257,1,0,0:0:0:0:
256,192,147576,1,8,0:0:0:0:
256,192,147896,1,0,0:0:0:0:
256,192,148055,1,0,0:0:0:0:
256,192,148215,1,8,0:0:0:0:
256,192,148374,1,8,0:0:0:0:
256,192,148534,1,0,0:0:0:0:
256,192,148853,1,0,0:0:0:0:
256,192,149013,1,8,0:0:0:0:
256,192,149332,1,0,0:0:0:0:
256,192,149491,1,8,0:0:0:0:
256,192,149651,1,8,0:0:0:0:
256,192,149810,1,0,0:0:0:0:
256,192,150130,1,8,0:0:0:0:
256,192,150289,1,0,0:0:0:0:
256,192,150449,1,8,0:0:0:0:
256,192,150768,1,8,0:0:0:0:
256,192,150927,1,0,0:0:0:0:
256,192,151087,1,8,0:0:0:0:
256,192,151247,1,8,0:0:0:0:
256,192,151406,1,0,0:0:0:0:
256,192,151725,1,0,0:0:0:0:
256,192,151885,1,8,0:0:0:0:
256,192,152044,1,8,0:0:0:0:
256,192,152364,1,0,0:0:0:0:
256,192,152683,1,8,0:0:0:0:
256,192,152842,1,0,0:0:0:0:
256,192,153002,1,0,0:0:0:0:
256,192,153161,1,8,0:0:0:0:
256,192,153321,1,8,0:0:0:0:
256,192,153640,1,0,0:0:0:0:
256,192,153959,1,8,0:0:0:0:
256,192,154119,1,0,0:0:0:0:
256,192,154438,1,0,0:0:0:0:
256,192,154598,1,8,0:0:0:0:
256,192,154757,1,8,0:0:0:0:
256,192,154917,1,0,0:0:0:0:
256,192,155076,1,0,0:0:0:0:
256,192,155236,1,8,0:0:0:0:
256,192,155555,1,0,0:0:0:0:
256,192,155874,1,8,0:0:0:0:
256,192,156193,1,0,0:0:0:0:
256,192,156513,1,8,0:0:0:0:
256,192,156672,1,8,0:0:0:0:
256,192,156832,1,8,0:0:0:0:
256,192,156991,1,0,0:0:0:0:
256,192,157151,1,8,0:0:0:0:
256,192,157470,1,0,0:0:0:0:
256,192,157789,1,8,0:0:0:0:
256,192,157949,1,0,0:0:0:0:
256,192,158108,1,0,0:0:0:0:
256,192,158427,1,8,0:0:0:0:
256,192,158587,1,0,0:0:0:0:
256,192,158747,1,8,0:0:0:0:
256,192,158906,1,0,0:0:0:0:
256,192,159066,1,8,0:0:0:0:
256,192,159385,1,0,0:0:0:0:
256,192,159544,1,0,0:0:0:0:
256,192,159704,1,8,0:0:0:0:
256,192,160023,1,0,0:0:0:0:
256,192,160342,1,8,0:0:0:0:
256,192,160661,1,0,0:0:0:0:
256,192,160821,1,0,0:0:0:0:
256,192,160981,1,8,0:0:0:0:
256,192,161140,1,0,0:0:0:0:
256,192,161459,1,0,0:0:0:0:
256,192,161619,1,8,0:0:0:0:
256,192,161938,1,0,0:0:0:0:
256,192,162098,1,0,0:0:0:0:
256,192,162257,1,8,0:0:0:0:
256,192,162576,1,0,0:0:0:0:
256,192,163215,1,0,0:0:0:0:
256,192,163534,1,8,0:0:0:0:
256,192,163693,1,8,0:0:0:0:
256,192,163853,1,0,0:0:0:0:
256,192,164172,1,8,0:0:0:0:
256,192,164332,1,0,0:0:0:0:
256,192,164491,1,8,0:0:0:0:
256,192,164651,1,8,0:0:0:0:
256,192,164810,1,0,0:0:0:0:
256,192,164970,1,8,0:0:0:0:
256,192,165289,1,0,0:0:0:0:
256,192,165608,1,8,0:0:0:0:
256,192,165768,1,8,0:0:0:0:
256,192,165927,1,0,0:0:0:0:
256,192,166087,1,8,0:0:0:0:
256,192,166406,1,0,0:0:0:0:
256,192,166725,1,8,0:0:0:0:
256,192,166885,1,0,0:0:0:0:
256,192,167044,1,8,0:0:0:0:
256,192,167204,1,0,0:0:0:0:
256,192,167364,1,8,0:0:0:0:
256,192,167683,1,8,0:0:0:0:
256,192,167842,1,0,0:0:0:0:
256,192,168002,1,8,0:0:0:0:
256,192,168161,1,8,0:0:0:0:
256,192,168321,1,0,0:0:0:0:
256,192,168640,1,8,0:0:0:0:
256,192,168800,1,8,0:0:0:0:
256,192,168959,1,0,0:0:0:0:
256,192,169119,1,0,0:0:0:0:
256,192,169278,1,8,0:0:0:0:
256,192,179485,5,12,0:0:0:0:
256,192,179920,5,0,0:0:0:0:
256,192,180028,1,0,0:0:0:0:
256,192,180137,5,0,0:0:0:0:
256,192,180354,1,8,0:0:0:0:
256,192,180463,1,0,0:0:0:0:
256,192,180680,1,0,0:0:0:0:
256,192,180789,1,8,0:0:0:0:
256,192,181007,1,8,0:0:0:0:
256,192,181224,1,8,0:0:0:0:
256,192,181441,1,0,0:0:0:0:
256,192,181659,1,0,0:0:0:0:
256,192,181767,1,0,0:0:0:0:
256,192,181876,1,0,0:0:0:0:
256,192,182093,1,8,0:0:0:0:
256,192,182202,1,8,0:0:0:0:
256,192,182311,1,0,0:0:0:0:
256,192,182528,1,8,0:0:0:0:
256,192,182746,1,0,0:0:0:0:
256,192,182963,1,12,0:0:0:0:
256,192,183398,1,0,0:0:0:0:
256,192,183507,1,0,0:0:0:0:
256,192,183615,1,0,0:0:0:0:
256,192,183724,1,8,0:0:0:0:
256,192,183833,1,8,0:0:0:0:
256,192,183941,1,0,0:0:0:0:
256,192,184159,1,8,0:0:0:0:
256,192,184267,1,8,0:0:0:0:
256,192,184485,1,0,0:0:0:0:
256,192,184702,1,8,0:0:0:0:
256,192,184920,1,0,0:0:0:0:
256,192,185137,1,8,0:0:0:0:
256,192,185246,1,8,0:0:0:0:
256,192,185354,1,0,0:0:0:0:
256,192,185572,1,0,0:0:0:0:
256,192,185680,1,8,0:0:0:0:
256,192,185789,1,0,0:0:0:0:
256,192,186007,1,8,0:0:0:0:
256,192,186115,1,8,0:0:0:0:
256,192,186224,1,8,0:0:0:0:
256,192,186441,1,4,0:0:0:0:
256,192,186876,1,0,0:0:0:0:
256,192,186985,1,0,0:0:0:0:
256,192,187093,1,8,0:0:0:0:
256,192,187202,1,0,0:0:0:0:
256,192,187311,1,8,0:0:0:0:
256,192,187420,1,0,0:0:0:0:
256,192,187637,1,8,0:0:0:0:
256,192,187746,1,8,0:0:0:0:
256,192,187963,1,0,0:0:0:0:
256,192,188180,1,8,0:0:0:0:
256,192,188398,1,0,0:0:0:0:
256,192,188615,1,0,0:0:0:0:
256,192,188833,1,0,0:0:0:0:
256,192,189050,1,8,0:0:0:0:
256,192,189159,1,8,0:0:0:0:
256,192,189267,1,0,0:0:0:0:
256,192,189485,1,0,0:0:0:0:
256,192,189702,1,8,0:0:0:0:
256,192,189920,1,12,0:0:0:0:
256,192,190246,1,0,0:0:0:0:
256,192,190354,1,0,0:0:0:0:
256,192,190572,1,12,0:0:0:0:
256,192,190789,1,0,0:0:0:0:
256,192,191007,1,0,0:0:0:0:
256,192,191115,1,8,0:0:0:0:
256,192,191224,1,0,0:0:0:0:
256,192,191441,1,12,0:0:0:0:
256,192,191876,1,8,0:0:0:0:
256,192,192093,1,0,0:0:0:0:
256,192,192311,1,0,0:0:0:0:
256,192,192528,1,0,0:0:0:0:
256,192,192746,1,8,0:0:0:0:
256,192,192963,1,0,0:0:0:0:
256,192,193072,1,0,0:0:0:0:
256,192,193180,1,0,0:0:0:0:
256,192,193289,1,0,0:0:0:0:
256,192,193398,1,12,0:0:0:0:
256,192,193724,1,0,0:0:0:0:
256,192,193833,1,8,0:0:0:0:
256,192,194050,1,0,0:0:0:0:
256,192,194267,1,8,0:0:0:0:
256,192,194376,1,8,0:0:0:0:
256,192,194485,1,0,0:0:0:0:
256,192,194702,1,0,0:0:0:0:
256,192,194811,1,0,0:0:0:0:
256,192,194920,1,8,0:0:0:0:
256,192,195028,1,8,0:0:0:0:
256,192,195137,1,0,0:0:0:0:
256,192,195354,1,0,0:0:0:0:
256,192,195463,1,0,0:0:0:0:
256,192,195572,1,8,0:0:0:0:
256,192,195789,1,8,0:0:0:0:
256,192,196007,1,0,0:0:0:0:
256,192,196115,1,0,0:0:0:0:
256,192,196224,1,8,0:0:0:0:
256,192,196441,1,0,0:0:0:0:
256,192,196550,1,0,0:0:0:0:
256,192,196659,1,8,0:0:0:0:
256,192,196876,1,8,0:0:0:0:
256,192,196985,1,8,0:0:0:0:
256,192,197093,1,0,0:0:0:0:
256,192,197202,1,0,0:0:0:0:
256,192,197311,1,8,0:0:0:0:
256,192,197528,1,0,0:0:0:0:
256,192,197746,1,0,0:0:0:0:
256,192,197854,1,0,0:0:0:0:
256,192,197963,1,8,0:0:0:0:
256,192,198180,1,8,0:0:0:0:
256,192,198289,1,8,0:0:0:0:
256,192,198398,1,0,0:0:0:0:
256,192,198507,1,8,0:0:0:0:
256,192,198615,1,0,0:0:0:0:
256,192,198833,1,0,0:0:0:0:
256,192,199050,1,0,0:0:0:0:
256,192,199159,1,0,0:0:0:0:
256,192,199267,1,8,0:0:0:0:
256,192,199376,1,8,0:0:0:0:
256,192,199485,1,0,0:0:0:0:
256,192,199593,1,0,0:0:0:0:
256,192,199702,1,8,0:0:0:0:
256,192,199920,1,0,0:0:0:0:
256,192,200137,1,8,0:0:0:0:
256,192,200246,1,8,0:0:0:0:
256,192,200354,1,4,0:0:0:0:
256,192,200789,1,0,0:0:0:0:
256,192,201007,1,0,0:0:0:0:
256,192,201224,1,0,0:0:0:0:
256,192,201333,1,8,0:0:0:0:
256,192,201441,1,0,0:0:0:0:
256,192,201659,1,0,0:0:0:0:
256,192,201876,1,8,0:0:0:0:
256,192,201985,1,8,0:0:0:0:
256,192,202093,1,0,0:0:0:0:
256,192,202311,1,8,0:0:0:0:
256,192,202420,1,0,0:0:0:0:
256,192,202528,1,0,0:0:0:0:
256,192,202746,1,8,0:0:0:0:
256,192,202963,1,0,0:0:0:0:
256,192,203072,1,0,0:0:0:0:
256,192,203180,1,8,0:0:0:0:
256,192,203398,1,0,0:0:0:0:
256,192,203615,1,8,0:0:0:0:
256,192,203833,1,0,0:0:0:0:
256,192,203941,1,0,0:0:0:0:
256,192,204050,1,0,0:0:0:0:
256,192,204267,1,8,0:0:0:0:
256,192,204485,1,0,0:0:0:0:
256,192,204593,1,0,0:0:0:0:
256,192,204702,1,0,0:0:0:0:
256,192,204811,1,0,0:0:0:0:
256,192,204920,1,8,0:0:0:0:
256,192,205137,1,0,0:0:0:0:
256,192,205354,1,8,0:0:0:0:
256,192,205463,1,8,0:0:0:0:
256,192,205572,1,8,0:0:0:0:
256,192,205789,1,0,0:0:0:0:
256,192,206007,1,8,0:0:0:0:
256,192,206224,1,0,0:0:0:0:
256,192,206333,1,8,0:0:0:0:
256,192,206441,1,0,0:0:0:0:
256,192,206550,1,0,0:0:0:0:
256,192,206659,1,8,0:0:0:0:
256,192,206876,1,0,0:0:0:0:
256,192,206985,1,0,0:0:0:0:
256,192,207093,1,0,0:0:0:0:
256,192,207202,1,0,0:0:0:0:
256,192,207311,1,12,0:0:0:0:
256,192,207637,1,0,0:0:0:0:
256,192,207746,1,8,0:0:0:0:
256,192,207963,1,0,0:0:0:0:
256,192,208180,1,0,0:0:0:0:
256,192,208289,1,8,0:0:0:0:
256,192,208398,1,0,0:0:0:0:
256,192,208615,1,0,0:0:0:0:
256,192,208833,1,8,0:0:0:0:
256,192,209050,1,0,0:0:0:0:
256,192,209267,1,8,0:0:0:0:
256,192,209376,1,8,0:0:0:0:
256,192,209485,1,0,0:0:0:0:
256,192,209702,1,8,0:0:0:0:
256,192,209920,1,0,0:0:0:0:
256,192,210028,1,0,0:0:0:0:
256,192,210137,1,8,0:0:0:0:
256,192,210354,1,0,0:0:0:0:
256,192,210572,1,8,0:0:0:0:
256,192,210789,1,8,0:0:0:0:
256,192,210898,1,8,0:0:0:0:
256,192,211007,1,0,0:0:0:0:
256,192,211224,1,0,0:0:0:0:
256,192,211441,1,0,0:0:0:0:
256,192,211550,1,0,0:0:0:0:
256,192,211659,1,0,0:0:0:0:
256,192,211767,1,0,0:0:0:0:
256,192,211876,1,8,0:0:0:0:
256,192,212093,1,0,0:0:0:0:
256,192,212202,1,0,0:0:0:0:
256,192,212311,1,8,0:0:0:0:
256,192,212420,1,8,0:0:0:0:
256,192,212528,1,0,0:0:0:0:
256,192,212746,1,8,0:0:0:0:
256,192,212854,1,0,0:0:0:0:
256,192,212963,1,8,0:0:0:0:
256,192,213180,1,0,0:0:0:0:
256,192,213289,1,8,0:0:0:0:
256,192,213398,1,8,0:0:0:0:
256,192,213507,1,0,0:0:0:0:
256,192,213615,1,8,0:0:0:0:
256,192,213833,1,0,0:0:0:0:
256,192,214050,1,0,0:0:0:0:
256,192,214159,1,0,0:0:0:0:
256,192,214267,1,12,0:0:0:0:
256,192,214702,1,8,0:0:0:0:
256,192,214920,1,0,0:0:0:0:
256,192,215137,1,0,0:0:0:0:
256,192,215246,1,8,0:0:0:0:
256,192,215354,1,0,0:0:0:0:
256,192,215572,1,0,0:0:0:0:
256,192,215789,1,8,0:0:0:0:
256,192,215898,1,8,0:0:0:0:
256,192,216007,1,0,0:0:0:0:
256,192,216224,1,0,0:0:0:0:
256,192,216441,1,8,0:0:0:0:
256,192,216659,1,8,0:0:0:0:
256,192,216876,1,0,0:0:0:0:
256,192,216985,1,0,0:0:0:0:
256,192,217093,1,8,0:0:0:0:
256,192,217311,1,0,0:0:0:0:
256,192,217528,1,8,0:0:0:0:
256,192,217746,1,0,0:0:0:0:
256,192,217854,1,0,0:0:0:0:
256,192,217963,1,0,0:0:0:0:
256,192,218180,1,8,0:0:0:0:
256,192,218398,1,0,0:0:0:0:
256,192,218615,1,8,0:0:0:0:
256,192,218724,1,0,0:0:0:0:
256,192,218833,1,8,0:0:0:0:
256,192,219050,1,0,0:0:0:0:
256,192,219267,1,8,0:0:0:0:
256,192,219485,1,0,0:0:0:0:
256,192,219702,1,0,0:0:0:0:
256,192,219811,1,8,0:0:0:0:
256,192,219920,1,0,0:0:0:0:
256,192,220137,1,8,0:0:0:0:
272,104,220354,1,0,0:0:0:0:
272,104,220463,1,0,0:0:0:0:
272,104,220572,1,0,0:0:0:0:
172,360,220789,1,0,0:0:0:0:
172,360,220898,1,0,0:0:0:0:
172,360,221007,1,0,0:0:0:0:
368,160,221224,1,12,0:0:0:0:
189,219,228062,5,0,0:0:0:0:
194,209,228276,1,8,0:0:0:0:
194,209,228491,1,0,0:0:0:0:
194,209,228705,1,0,0:0:0:0:
199,221,228919,1,8,0:0:0:0:
144,205,229562,1,0,0:0:0:0:
172,203,229776,1,8,0:0:0:0:
172,203,229991,1,8,0:0:0:0:
172,203,230205,1,0,0:0:0:0:
172,203,230419,1,8,0:0:0:0:
174,203,230848,1,0,0:0:0:0:
175,203,231276,1,8,0:0:0:0:
192,210,231491,1,0,0:0:0:0:
192,210,231705,1,0,0:0:0:0:
195,209,232133,1,8,0:0:0:0:
195,209,232348,1,0,0:0:0:0:
186,177,232776,1,0,0:0:0:0:
206,221,232991,1,8,0:0:0:0:
211,222,233419,1,8,0:0:0:0:
219,224,233848,1,0,0:0:0:0:
222,225,234276,1,0,0:0:0:0:
222,225,234491,1,8,0:0:0:0:
219,224,234705,1,8,0:0:0:0:
229,222,234919,1,0,0:0:0:0:
229,222,235348,1,8,0:0:0:0:
237,235,235776,1,8,0:0:0:0:
235,236,236205,1,0,0:0:0:0:
248,243,236419,1,8,0:0:0:0:
251,240,236848,1,0,0:0:0:0:
251,240,237062,1,8,0:0:0:0:
251,240,237276,1,0,0:0:0:0:
251,240,237705,1,8,0:0:0:0:
201,225,238133,1,8,0:0:0:0:
201,225,238562,1,0,0:0:0:0:
201,225,238776,1,8,0:0:0:0:
191,233,239098,1,0,0:0:0:0:
157,196,241776,1,0,0:0:0:0:
166,200,241991,1,0,0:0:0:0:
167,213,242205,1,8,0:0:0:0:
171,207,242419,1,8,0:0:0:0:
173,203,242633,1,4,0:0:0:0:
187,206,243276,1,0,0:0:0:0:
187,206,243491,1,8,0:0:0:0:
191,227,243919,1,8,0:0:0:0:
214,217,244133,1,0,0:0:0:0:
174,200,244562,1,0,0:0:0:0:
186,189,244991,1,0,0:0:0:0:
181,195,245205,1,8,0:0:0:0:
196,191,245633,1,0,0:0:0:0:
196,191,245848,1,0,0:0:0:0:
196,191,246062,1,8,0:0:0:0:
194,187,246491,1,8,0:0:0:0:
206,191,246705,1,0,0:0:0:0:
199,182,246919,1,8,0:0:0:0:
209,178,247562,1,0,0:0:0:0:
186,188,247991,5,0,0:0:0:0:
195,187,248419,1,0,0:0:0:0:
191,198,248633,1,8,0:0:0:0:
167,196,249062,1,8,0:0:0:0:
188,205,249276,1,0,0:0:0:0:
196,204,249491,1,0,0:0:0:0:
221,184,250133,1,0,0:0:0:0:
216,185,250348,1,8,0:0:0:0:
221,184,250562,1,8,0:0:0:0:
221,184,250776,1,0,0:0:0:0:
221,184,250991,1,8,0:0:0:0:
221,184,251205,1,0,0:0:0:0:
221,184,251419,1,8,0:0:0:0:
226,183,251633,1,8,0:0:0:0:
226,183,251741,1,8,0:0:0:0:
226,183,251848,1,8,0:0:0:0:
226,183,252062,1,0,0:0:0:0:
226,183,252276,1,8,0:0:0:0:
226,183,252491,1,0,0:0:0:0:
226,183,252705,1,12,0:0:0:0:
165,205,253133,1,0,0:0:0:0:
165,205,253241,1,0,0:0:0:0:
165,205,253348,1,8,0:0:0:0:
226,191,253562,1,0,0:0:0:0:
234,191,253776,1,8,0:0:0:0:
234,191,253991,1,0,0:0:0:0:
234,191,254205,1,0,0:0:0:0:
234,191,254419,1,8,0:0:0:0:
238,191,254848,1,4,0:0:0:0:
238,191,255062,1,4,0:0:0:0:
238,191,255491,1,0,0:0:0:0:
238,191,255705,1,0,0:0:0:0:
238,191,255919,1,8,0:0:0:0:
238,191,256133,1,0,0:0:0:0:
238,191,256348,1,12,0:0:0:0:
190,198,256776,1,8,0:0:0:0:
190,198,256991,1,0,0:0:0:0:
183,193,257419,1,8,0:0:0:0:
193,189,257633,1,8,0:0:0:0:
204,187,257848,1,0,0:0:0:0:
206,189,258276,1,0,0:0:0:0:
206,189,258705,1,0,0:0:0:0:
206,189,258919,1,8,0:0:0:0:
206,189,259133,1,0,0:0:0:0:
206,189,259348,1,8,0:0:0:0:
161,196,259562,1,0,0:0:0:0:
208,190,259776,1,0,0:0:0:0:
200,180,260205,1,8,0:0:0:0:
183,212,260419,1,0,0:0:0:0:
198,204,260848,1,0,0:0:0:0:
198,204,261062,1,8,0:0:0:0:
223,192,261276,1,8,0:0:0:0:
198,204,261705,1,0,0:0:0:0:
176,171,262133,1,8,0:0:0:0:
188,195,262348,1,0,0:0:0:0:
194,203,262562,1,0,0:0:0:0:
194,203,262776,1,8,0:0:0:0:
201,212,262991,1,0,0:0:0:0:
201,212,263098,1,0,0:0:0:0:
201,212,263205,1,8,0:0:0:0:
204,198,263633,1,0,0:0:0:0:
204,198,263848,1,8,0:0:0:0:
196,218,264062,1,0,0:0:0:0:
208,200,264276,1,8,0:0:0:0:
208,200,264491,1,0,0:0:0:0:
208,200,264705,1,0,0:0:0:0:
208,200,264812,1,0,0:0:0:0:
208,200,264919,1,8,0:0:0:0:
208,200,265133,1,0,0:0:0:0:
194,217,265348,1,8,0:0:0:0:
208,200,265562,1,0,0:0:0:0:
184,203,265776,1,8,0:0:0:0:
183,188,266205,1,8,0:0:0:0:
183,188,266419,1,0,0:0:0:0:
158,204,266633,1,12,0:0:0:0:
202,166,267062,1,8,0:0:0:0:
205,183,267276,1,0,0:0:0:0:
205,183,267491,1,0,0:0:0:0:
198,183,267598,1,0,0:0:0:0:
205,183,267705,1,8,0:0:0:0:
182,199,268133,1,8,0:0:0:0:
177,191,268562,1,0,0:0:0:0:
183,192,268776,1,12,0:0:0:0:
196,194,268991,1,0,0:0:0:0:
196,194,269098,1,8,0:0:0:0:
196,194,269205,1,8,0:0:0:0:
196,194,269419,1,0,0:0:0:0:
205,192,269633,1,8,0:0:0:0:
205,192,269741,1,0,0:0:0:0:
205,192,269848,1,0,0:0:0:0:
202,178,269955,1,0,0:0:0:0:
205,192,270062,1,12,0:0:0:0:
198,201,270491,1,8,0:0:0:0:
198,201,270705,1,0,0:0:0:0:
208,202,270919,1,8,0:0:0:0:
203,197,271133,1,0,0:0:0:0:
203,197,271348,1,8,0:0:0:0:
208,200,271562,1,0,0:0:0:0:
167,186,271991,1,0,0:0:0:0:
201,203,272419,1,0,0:0:0:0:
169,208,272633,1,8,0:0:0:0:
201,203,272848,1,0,0:0:0:0:
160,208,273062,1,8,0:0:0:0:
209,216,273276,1,0,0:0:0:0:
205,203,273491,1,0,0:0:0:0:
202,213,273919,1,8,0:0:0:0:
202,213,274133,1,0,0:0:0:0:
202,213,274562,1,8,0:0:0:0:
158,189,274776,1,0,0:0:0:0:
216,206,274991,1,8,0:0:0:0:
186,213,275205,1,0,0:0:0:0:
186,213,275312,1,0,0:0:0:0:
186,213,275419,1,0,0:0:0:0:
186,197,275633,1,8,0:0:0:0:
219,206,275848,1,0,0:0:0:0:
210,217,276062,1,0,0:0:0:0:
131,202,276276,1,8,0:0:0:0:
201,200,276705,1,0,0:0:0:0:
201,200,276812,1,0,0:0:0:0:
201,200,276919,1,8,0:0:0:0:
201,200,277348,1,8,0:0:0:0:
201,200,277562,1,0,0:0:0:0:
201,200,277776,1,0,0:0:0:0:
219,186,278205,1,8,0:0:0:0:
214,191,278419,1,8,0:0:0:0:
220,186,278633,1,0,0:0:0:0:
220,186,278955,1,0,0:0:0:0:
220,186,279062,1,8,0:0:0:0:
220,186,279276,1,0,0:0:0:0:
220,186,279705,1,0,0:0:0:0:
244,191,279919,1,8,0:0:0:0:
247,188,280348,1,8,0:0:0:0:
247,193,280776,1,8,0:0:0:0:
247,193,280991,1,0,0:0:0:0:
245,187,281205,1,0,0:0:0:0:
245,187,281419,1,8,0:0:0:0:
245,187,281848,1,8,0:0:0:0:
231,162,282276,1,0,0:0:0:0:
231,162,282491,1,12,0:0:0:0:
168,180,282705,1,0,0:0:0:0:
186,178,282812,1,0,0:0:0:0:
186,178,282919,1,0,0:0:0:0:
186,178,283133,1,8,0:0:0:0:
186,178,283348,1,8,0:0:0:0:
186,178,283562,1,0,0:0:0:0:
186,178,283776,1,8,0:0:0:0:
256,192,291802,5,4,0:0:0:0:
256,192,292119,1,8,0:0:0:0:
256,192,292224,5,0,0:0:0:0:
256,192,292436,5,8,0:0:0:0:
256,192,292647,1,0,0:0:0:0:
256,192,292858,1,0,0:0:0:0:
256,192,293069,1,8,0:0:0:0:
256,192,293281,1,0,0:0:0:0:
256,192,293492,1,8,0:0:0:0:
256,192,293703,1,0,0:0:0:0:
256,192,293809,1,8,0:0:0:0:
256,192,293914,1,0,0:0:0:0:
256,192,294126,1,8,0:0:0:0:
256,192,294548,1,0,0:0:0:0:
256,192,294760,1,8,0:0:0:0:
256,192,294971,1,0,0:0:0:0:
256,192,295076,1,0,0:0:0:0:
256,192,295182,1,0,0:0:0:0:
256,192,295499,1,0,0:0:0:0:
256,192,295605,1,8,0:0:0:0:
256,192,295816,1,8,0:0:0:0:
256,192,295922,1,0,0:0:0:0:
256,192,296027,1,8,0:0:0:0:
256,192,296238,1,0,0:0:0:0:
256,192,296450,1,8,0:0:0:0:
256,192,296661,1,0,0:0:0:0:
256,192,296872,1,8,0:0:0:0:
256,192,297083,1,0,0:0:0:0:
256,192,297189,1,0,0:0:0:0:
256,192,297295,1,0,0:0:0:0:
256,192,297506,1,8,0:0:0:0:
256,192,297823,1,0,0:0:0:0:
256,192,297929,1,0,0:0:0:0:
256,192,298140,1,8,0:0:0:0:
256,192,298351,1,0,0:0:0:0:
256,192,298457,1,0,0:0:0:0:
256,192,298562,1,12,0:0:0:0:
256,192,299407,1,0,0:0:0:0:
256,192,299830,1,0,0:0:0:0:
256,192,300252,1,0,0:0:0:0:
256,192,300464,1,0,0:0:0:0:
256,192,300675,1,0,0:0:0:0:
256,192,300886,1,0,0:0:0:0:
256,192,301098,1,0,0:0:0:0:
256,192,301309,1,0,0:0:0:0:
256,192,301520,1,0,0:0:0:0:
256,192,301731,1,0,0:0:0:0:
256,192,301943,1,8,0:0:0:0:
256,192,302154,1,0,0:0:0:0:
256,192,302260,1,0,0:0:0:0:
256,192,302365,1,0,0:0:0:0:
256,192,302576,1,8,0:0:0:0:
256,192,302788,1,0,0:0:0:0:
256,192,302893,1,0,0:0:0:0:
256,192,302999,1,0,0:0:0:0:
256,192,303210,1,0,0:0:0:0:
256,192,303422,1,8,0:0:0:0:
256,192,305323,1,4,0:0:0:0:
256,192,305745,1,0,0:0:0:0:
256,192,305957,1,8,0:0:0:0:
256,192,306379,1,0,0:0:0:0:
256,192,306591,1,8,0:0:0:0:
256,192,306802,1,0,0:0:0:0:
256,192,306907,1,8,0:0:0:0:
256,192,307013,1,0,0:0:0:0:
256,192,307224,1,0,0:0:0:0:
256,192,307330,1,0,0:0:0:0:
256,192,307647,1,8,0:0:0:0:
256,192,308069,1,0,0:0:0:0:
256,192,308281,1,8,0:0:0:0:
256,192,308492,1,8,0:0:0:0:
256,192,308598,1,8,0:0:0:0:
256,192,308703,1,0,0:0:0:0:
256,192,308914,1,0,0:0:0:0:
256,192,309020,1,8,0:0:0:0:
256,192,309126,1,0,0:0:0:0:
256,192,309337,1,8,0:0:0:0:
256,192,309654,1,0,0:0:0:0:
256,192,309760,1,0,0:0:0:0:
256,192,309971,1,8,0:0:0:0:
256,192,310182,1,0,0:0:0:0:
256,192,310288,1,8,0:0:0:0:
256,192,310393,1,0,0:0:0:0:
256,192,310605,1,8,0:0:0:0:
256,192,310710,1,0,0:0:0:0:
256,192,310922,1,8,0:0:0:0:
256,192,311027,1,8,0:0:0:0:
256,192,311133,1,0,0:0:0:0:
256,192,311238,1,8,0:0:0:0:
256,192,311450,1,0,0:0:0:0:
256,192,311661,1,8,0:0:0:0:
256,192,311767,1,8,0:0:0:0:
256,192,311872,1,0,0:0:0:0:
256,192,312083,1,4,0:0:0:0:
256,192,312506,1,0,0:0:0:0:
256,192,312717,1,8,0:0:0:0:
256,192,312823,1,0,0:0:0:0:
256,192,312929,1,0,0:0:0:0:
256,192,313140,1,0,0:0:0:0:
256,192,313351,1,8,0:0:0:0:
256,192,313562,1,8,0:0:0:0:
256,192,313668,1,8,0:0:0:0:
256,192,313774,1,0,0:0:0:0:
256,192,313985,1,8,0:0:0:0:
256,192,314091,1,0,0:0:0:0:
256,192,314407,1,8,0:0:0:0:
256,192,314619,1,0,0:0:0:0:
256,192,314830,1,0,0:0:0:0:
256,192,314936,1,0,0:0:0:0:
256,192,315041,1,8,0:0:0:0:
256,192,315252,1,8,0:0:0:0:
256,192,315358,1,8,0:0:0:0:
256,192,315464,1,0,0:0:0:0:
256,192,315781,1,0,0:0:0:0:
256,192,316098,1,8,0:0:0:0:
256,192,316520,1,0,0:0:0:0:
256,192,316731,1,8,0:0:0:0:
256,192,316943,1,0,0:0:0:0:
256,192,317048,1,0,0:0:0:0:
256,192,317154,1,0,0:0:0:0:
256,192,317365,1,8,0:0:0:0:
256,192,317471,1,0,0:0:0:0:
256,192,317576,1,8,0:0:0:0:
256,192,317788,1,0,0:0:0:0:
256,192,317999,1,8,0:0:0:0:
256,192,318105,1,8,0:0:0:0:
256,192,318210,1,0,0:0:0:0:
256,192,318316,1,0,0:0:0:0:
256,192,318422,1,8,0:0:0:0:
256,192,318527,1,0,0:0:0:0:
256,192,318633,1,0,0:0:0:0:
256,192,318844,1,4,0:0:0:0:
256,192,319267,1,0,0:0:0:0:
256,192,319479,1,8,0:0:0:0:
256,192,319901,1,0,0:0:0:0:
256,192,320113,1,8,0:0:0:0:
256,192,320324,1,0,0:0:0:0:
256,192,320429,1,8,0:0:0:0:
256,192,320535,1,0,0:0:0:0:
256,192,320746,1,0,0:0:0:0:
256,192,320852,1,0,0:0:0:0:
256,192,320958,1,0,0:0:0:0:
256,192,321169,1,8,0:0:0:0:
256,192,321591,1,0,0:0:0:0:
256,192,321803,1,8,0:0:0:0:
256,192,322014,1,8,0:0:0:0:
256,192,322120,1,0,0:0:0:0:
256,192,322225,1,8,0:0:0:0:
256,192,322436,1,0,0:0:0:0:
256,192,322541,1,0,0:0:0:0:
256,192,322648,1,0,0:0:0:0:
256,192,322859,1,8,0:0:0:0:
256,192,323175,1,0,0:0:0:0:
256,192,323282,1,0,0:0:0:0:
256,192,323493,1,8,0:0:0:0:
256,192,323704,1,0,0:0:0:0:
256,192,323810,1,8,0:0:0:0:
256,192,323915,1,0,0:0:0:0:
256,192,324127,1,8,0:0:0:0:
256,192,324232,1,0,0:0:0:0:
256,192,324444,1,8,0:0:0:0:
256,192,324549,1,8,0:0:0:0:
256,192,324655,1,0,0:0:0:0:
256,192,324760,1,8,0:0:0:0:
256,192,324972,1,0,0:0:0:0:
256,192,325183,1,8,0:0:0:0:
256,192,325289,1,8,0:0:0:0:
256,192,325394,1,0,0:0:0:0:
256,192,325605,1,4,0:0:0:0:
256,192,326027,1,0,0:0:0:0:
256,192,326238,1,8,0:0:0:0:
256,192,326344,1,8,0:0:0:0:
256,192,326450,1,0,0:0:0:0:
256,192,326661,1,0,0:0:0:0:
256,192,326872,1,8,0:0:0:0:
256,192,327083,1,0,0:0:0:0:
256,192,327506,1,8,0:0:0:0:
256,192,327717,1,0,0:0:0:0:
256,192,327929,1,8,0:0:0:0:
256,192,328351,1,0,0:0:0:0:
256,192,328562,1,8,0:0:0:0:
256,192,328774,1,0,0:0:0:0:
256,192,328879,1,8,0:0:0:0:
256,192,328985,1,0,0:0:0:0:
256,192,329407,1,0,0:0:0:0:
256,192,329619,1,0,0:0:0:0:
256,192,329724,1,0,0:0:0:0:
256,192,329830,1,0,0:0:0:0:
256,192,330041,1,0,0:0:0:0:
256,192,330252,1,0,0:0:0:0:
256,192,330464,1,12,0:0:0:0:
256,192,331309,1,0,0:0:0:0:
256,192,331520,1,8,0:0:0:0:
256,192,331626,1,8,0:0:0:0:
256,192,331731,1,0,0:0:0:0:
256,192,331943,1,8,0:0:0:0:
256,192,332154,1,0,0:0:0:0:
256,192,332365,1,4,0:0:0:0:
256,96,338276,5,12,0:0:0:0:
256,192,338696,5,8,0:0:0:0:
256,192,338906,5,0,0:0:0:0:
256,192,339325,1,0,0:0:0:0:
256,192,339430,1,0,0:0:0:0:
256,192,339535,1,0,0:0:0:0:
256,192,339745,1,8,0:0:0:0:
256,192,339954,1,0,0:0:0:0:
256,192,340164,1,0,0:0:0:0:
256,192,340374,1,8,0:0:0:0:
256,192,340584,1,0,0:0:0:0:
256,192,340794,1,0,0:0:0:0:
256,192,341003,1,0,0:0:0:0:
256,192,341108,1,0,0:0:0:0:
256,192,341213,1,8,0:0:0:0:
256,192,341423,1,0,0:0:0:0:
256,96,341633,1,12,0:0:0:0:
256,192,342052,1,0,0:0:0:0:
256,192,342262,1,8,0:0:0:0:
256,192,342681,1,0,0:0:0:0:
256,192,342786,1,0,0:0:0:0:
256,192,342891,1,0,0:0:0:0:
256,96,343101,1,12,0:0:0:0:
256,192,343310,1,0,0:0:0:0:
256,192,343520,1,8,0:0:0:0:
256,192,343730,1,8,0:0:0:0:
256,192,343940,1,0,0:0:0:0:
256,192,344150,1,0,0:0:0:0:
256,192,344255,1,0,0:0:0:0:
256,192,344359,1,8,0:0:0:0:
256,192,344464,1,0,0:0:0:0:
256,192,344569,1,8,0:0:0:0:
256,192,344779,1,0,0:0:0:0:
256,96,344989,1,12,0:0:0:0:
256,192,345409,1,0,0:0:0:0:
256,192,345619,1,12,0:0:0:0:
256,192,345829,1,0,0:0:0:0:
256,192,346038,1,8,0:0:0:0:
256,192,346143,1,0,0:0:0:0:
256,192,346248,1,0,0:0:0:0:
256,96,346458,1,12,0:0:0:0:
256,192,346878,1,0,0:0:0:0:
256,192,347087,1,0,0:0:0:0:
256,96,347297,1,12,0:0:0:0:
256,192,347507,1,0,0:0:0:0:
256,192,347717,1,8,0:0:0:0:
256,192,347822,1,0,0:0:0:0:
256,192,347926,1,0,0:0:0:0:
256,96,348136,1,12,0:0:0:0:
256,192,348346,1,0,0:0:0:0:
256,192,348766,1,8,0:0:0:0:
256,192,348975,1,0,0:0:0:0:
256,192,349185,1,8,0:0:0:0:
256,192,349395,1,0,0:0:0:0:
256,192,349605,1,0,0:0:0:0:
256,96,349815,1,12,0:0:0:0:
256,192,350024,1,0,0:0:0:0:
256,192,350444,1,8,0:0:0:0:
256,192,350654,1,8,0:0:0:0:
256,192,350864,1,0,0:0:0:0:
256,192,351073,1,0,0:0:0:0:
256,192,351178,1,0,0:0:0:0:
256,192,351283,1,8,0:0:0:0:
256,192,351493,1,0,0:0:0:0:
256,192,351913,1,0,0:0:0:0:
256,96,352122,1,12,0:0:0:0:
256,192,352332,1,0,0:0:0:0:
256,192,352437,1,0,0:0:0:0:
256,192,352542,1,8,0:0:0:0:
256,192,352647,1,0,0:0:0:0:
256,192,352752,1,8,0:0:0:0:
256,192,352857,1,0,0:0:0:0:
256,192,352961,1,8,0:0:0:0:
256,192,353066,1,8,0:0:0:0:
256,192,353171,1,0,0:0:0:0:
256,192,353276,1,0,0:0:0:0:
256,96,353381,1,12,0:0:0:0:
256,192,353591,1,0,0:0:0:0:
256,192,353801,1,0,0:0:0:0:
256,192,354010,1,8,0:0:0:0:
256,192,354220,1,8,0:0:0:0:
256,192,354430,1,0,0:0:0:0:
256,192,354535,1,0,0:0:0:0:
256,192,354640,1,8,0:0:0:0:
256,192,354850,1,0,0:0:0:0:
256,192,355059,1,8,0:0:0:0:
256,192,355479,1,8,0:0:0:0:
256,192,355689,1,0,0:0:0:0:
256,192,355899,1,8,0:0:0:0:
256,192,356003,1,8,0:0:0:0:
256,192,356108,1,0,0:0:0:0:
256,192,356318,1,8,0:0:0:0:
256,192,356528,1,0,0:0:0:0:
256,192,356738,1,8,0:0:0:0:
256,192,357157,1,8,0:0:0:0:
256,192,357367,1,0,0:0:0:0:
256,192,357577,1,0,0:0:0:0:
256,192,357787,1,8,0:0:0:0:
256,192,357996,1,8,0:0:0:0:
256,192,358206,1,0,0:0:0:0:
256,192,358311,1,0,0:0:0:0:
256,192,358416,1,0,0:0:0:0:
256,192,358626,1,8,0:0:0:0:
256,192,358836,1,8,0:0:0:0:
256,192,359045,1,8,0:0:0:0:
256,192,359150,1,8,0:0:0:0:
256,192,359255,1,0,0:0:0:0:
256,192,359360,1,0,0:0:0:0:
256,192,359465,1,8,0:0:0:0:
256,192,359675,1,8,0:0:0:0:
256,192,359885,1,0,0:0:0:0:
256,192,359989,1,0,0:0:0:0:
256,192,360094,1,8,0:0:0:0:
256,192,360514,1,0,0:0:0:0:
256,192,360723,1,8,0:0:0:0:
256,192,361143,1,0,0:0:0:0:
256,192,361248,1,0,0:0:0:0:
256,192,361353,1,8,0:0:0:0:
256,192,361563,1,0,0:0:0:0:
256,192,361772,1,8,0:0:0:0:
256,192,361982,1,0,0:0:0:0:
256,192,362192,1,0,0:0:0:0:
256,192,362402,1,8,0:0:0:0:
256,192,362612,1,0,0:0:0:0:
256,192,362717,1,8,0:0:0:0:
256,192,362822,1,0,0:0:0:0:
256,192,363031,1,8,0:0:0:0:
256,192,363241,1,0,0:0:0:0:
256,192,363451,1,8,0:0:0:0:
256,192,363661,1,8,0:0:0:0:
256,192,363871,1,0,0:0:0:0:
256,192,364080,1,8,0:0:0:0:
256,192,364500,1,0,0:0:0:0:
256,192,364710,1,8,0:0:0:0:
256,192,364920,1,0,0:0:0:0:
256,192,365024,1,0,0:0:0:0:
256,192,365129,1,8,0:0:0:0:
256,192,365339,1,8,0:0:0:0:
256,192,365549,1,0,0:0:0:0:
256,192,365759,1,8,0:0:0:0:
256,192,365864,1,8,0:0:0:0:
256,192,365968,1,0,0:0:0:0:
256,192,366178,1,0,0:0:0:0:
256,192,366388,1,8,0:0:0:0:
256,192,366493,1,8,0:0:0:0:
256,192,366598,1,0,0:0:0:0:
256,192,366703,1,0,0:0:0:0:
256,96,366808,1,12,0:0:0:0:
256,192,367017,1,0,0:0:0:0:
256,192,367227,1,0,0:0:0:0:
256,192,367436,1,8,0:0:0:0:
256,192,367542,1,8,0:0:0:0:
256,192,367647,1,8,0:0:0:0:
256,192,367857,1,0,0:0:0:0:
256,192,368066,1,8,0:0:0:0:
256,192,368276,1,0,0:0:0:0:
256,192,368485,1,8,0:0:0:0:
256,192,368905,1,8,0:0:0:0:
256,192,369115,1,0,0:0:0:0:
256,192,369325,1,8,0:0:0:0:
256,192,369429,1,8,0:0:0:0:
256,192,369534,1,0,0:0:0:0:
256,192,369744,1,8,0:0:0:0:
256,192,369954,1,0,0:0:0:0:
256,192,370164,1,8,0:0:0:0:
256,192,370584,1,8,0:0:0:0:
256,192,370794,1,0,0:0:0:0:
256,192,371004,1,0,0:0:0:0:
256,192,371214,1,8,0:0:0:0:
256,192,371423,1,0,0:0:0:0:
256,192,371633,1,0,0:0:0:0:
256,192,371738,1,8,0:0:0:0:
256,192,371843,1,8,0:0:0:0:
256,192,372053,1,0,0:0:0:0:
256,192,372263,1,0,0:0:0:0:
256,192,372472,1,8,0:0:0:0:
256,192,372577,1,8,0:0:0:0:
256,192,372682,1,0,0:0:0:0:
256,192,372787,1,0,0:0:0:0:
256,192,372892,1,8,0:0:0:0:
256,192,373102,1,8,0:0:0:0:
256,192,373312,1,0,0:0:0:0:
256,192,373416,1,0,0:0:0:0:
256,192,373521,1,8,0:0:0:0:
256,192,373940,1,0,0:0:0:0:
256,192,374149,1,8,0:0:0:0:
256,192,374570,1,8,0:0:0:0:
256,192,374674,1,8,0:0:0:0:
256,192,374779,1,8,0:0:0:0:
256,192,374989,1,0,0:0:0:0:
256,192,375198,1,8,0:0:0:0:
256,192,375408,1,0,0:0:0:0:
256,192,375618,1,0,0:0:0:0:
256,192,375724,1,0,0:0:0:0:
256,192,375828,1,8,0:0:0:0:
256,192,376038,1,8,0:0:0:0:
256,192,376248,1,0,0:0:0:0:
256,192,376457,1,8,0:0:0:0:
256,192,376667,1,0,0:0:0:0:
256,192,376878,1,8,0:0:0:0:
256,192,377087,1,0,0:0:0:0:
256,192,377192,1,0,0:0:0:0:
256,192,377297,1,0,0:0:0:0:
256,96,377507,1,12,0:0:0:0:
256,192,377926,1,0,0:0:0:0:
256,192,378136,1,0,0:0:0:0:
256,96,378346,1,12,0:0:0:0:
256,192,378556,1,0,0:0:0:0:
256,192,378766,1,0,0:0:0:0:
256,192,378871,1,0,0:0:0:0:
256,192,378975,1,8,0:0:0:0:
256,192,379185,1,0,0:0:0:0:
256,192,379395,1,8,0:0:0:0:
256,192,379500,1,8,0:0:0:0:
256,192,379605,1,0,0:0:0:0:
256,192,379815,1,0,0:0:0:0:
256,192,380024,1,0,0:0:0:0:
256,96,380234,1,12,0:0:0:0:
256,192,387367,5,4,0:0:0:0:
256,192,387783,5,0,0:0:0:0:
256,192,387992,5,8,0:0:0:0:
256,192,388408,1,8,0:0:0:0:
256,192,388617,1,8,0:0:0:0:
256,192,388825,1,8,0:0:0:0:
256,192,389033,1,0,0:0:0:0:
256,192,389450,1,8,0:0:0:0:
256,192,389658,1,0,0:0:0:0:
256,192,390075,1,0,0:0:0:0:
256,192,390283,1,8,0:0:0:0:
256,192,390492,1,8,0:0:0:0:
256,192,390700,1,0,0:0:0:0:
256,192,390908,1,0,0:0:0:0:
256,192,391117,1,8,0:0:0:0:
256,192,391325,1,0,0:0:0:0:
256,192,391742,1,0,0:0:0:0:
256,192,391950,1,8,0:0:0:0:
256,192,392158,1,0,0:0:0:0:
256,192,392367,1,0,0:0:0:0:
256,192,392783,1,8,0:0:0:0:
256,192,393200,1,0,0:0:0:0:
256,192,393408,1,0,0:0:0:0:
256,192,393617,1,8,0:0:0:0:
256,192,393825,1,0,0:0:0:0:
256,192,394033,1,12,0:0:0:0:
256,192,394450,1,0,0:0:0:0:
256,192,394658,1,8,0:0:0:0:
256,192,395075,1,8,0:0:0:0:
256,192,395283,1,8,0:0:0:0:
256,192,395492,1,8,0:0:0:0:
256,192,395700,1,0,0:0:0:0:
256,192,396117,1,8,0:0:0:0:
256,192,396325,1,8,0:0:0:0:
256,192,396950,1,8,0:0:0:0:
256,192,397158,1,0,0:0:0:0:
256,192,397367,1,12,0:0:0:0:
256,192,397575,1,0,0:0:0:0:
256,192,397783,1,0,0:0:0:0:
256,192,397992,1,12,0:0:0:0:
256,192,398200,1,0,0:0:0:0:
256,192,398408,1,0,0:0:0:0:
256,192,398617,1,8,0:0:0:0:
256,192,398825,1,0,0:0:0:0:
256,192,399242,1,0,0:0:0:0:
256,192,400075,1,0,0:0:0:0:
256,192,400179,1,0,0:0:0:0:
256,192,400283,1,8,0:0:0:0:
256,192,400700,1,12,0:0:0:0:
256,192,400908,1,0,0:0:0:0:
256,192,401117,1,8,0:0:0:0:
256,192,401325,1,8,0:0:0:0:
256,192,401429,1,0,0:0:0:0:
256,192,401637,1,0,0:0:0:0:
256,192,401742,1,0,0:0:0:0:
256,192,401950,1,8,0:0:0:0:
256,192,402158,1,0,0:0:0:0:
256,192,402262,1,0,0:0:0:0:
256,192,402367,1,8,0:0:0:0:
256,192,402575,1,8,0:0:0:0:
256,192,402783,1,0,0:0:0:0:
256,192,402992,1,0,0:0:0:0:
256,192,403096,1,8,0:0:0:0:
256,192,403304,1,8,0:0:0:0:
256,192,403408,1,0,0:0:0:0:
256,192,403617,1,8,0:0:0:0:
256,192,403825,1,0,0:0:0:0:
256,192,403929,1,0,0:0:0:0:
256,192,404033,1,8,0:0:0:0:
256,192,404242,1,0,0:0:0:0:
256,192,404450,1,8,0:0:0:0:
256,192,404658,1,8,0:0:0:0:
256,192,404762,1,8,0:0:0:0:
256,192,404867,1,0,0:0:0:0:
256,192,405075,1,8,0:0:0:0:
256,192,405283,1,8,0:0:0:0:
256,192,405492,1,0,0:0:0:0:
256,192,405700,1,8,0:0:0:0:
256,192,405908,1,0,0:0:0:0:
256,192,406117,1,8,0:0:0:0:
256,192,406325,1,0,0:0:0:0:
256,192,406429,1,8,0:0:0:0:
256,192,406637,1,8,0:0:0:0:
256,192,406742,1,0,0:0:0:0:
256,192,406950,1,8,0:0:0:0:
256,192,407054,1,8,0:0:0:0:
256,192,407158,1,0,0:0:0:0:
256,192,407367,1,12,0:0:0:0:
256,192,407783,1,8,0:0:0:0:
256,192,407992,1,0,0:0:0:0:
256,192,408096,1,8,0:0:0:0:
256,192,408200,1,8,0:0:0:0:
256,192,408408,1,8,0:0:0:0:
256,192,408512,1,0,0:0:0:0:
256,192,408721,1,8,0:0:0:0:
256,192,408825,1,0,0:0:0:0:
256,192,408929,1,8,0:0:0:0:
256,192,409033,1,8,0:0:0:0:
256,192,409137,1,0,0:0:0:0:
256,192,409242,1,8,0:0:0:0:
256,192,409346,1,0,0:0:0:0:
256,192,409450,1,8,0:0:0:0:
256,192,409554,1,8,0:0:0:0:
256,192,409658,1,0,0:0:0:0:
256,192,409762,1,0,0:0:0:0:
256,192,409867,1,8,0:0:0:0:
256,192,410075,1,0,0:0:0:0:
256,192,410179,1,8,0:0:0:0:
256,192,410387,1,8,0:0:0:0:
256,192,410492,1,0,0:0:0:0:
256,192,410596,1,0,0:0:0:0:
256,192,410700,1,12,0:0:0:0:
256,192,410908,1,0,0:0:0:0:
256,192,411325,1,8,0:0:0:0:
256,192,411533,1,8,0:0:0:0:
256,192,411950,1,0,0:0:0:0:
256,192,412158,1,12,0:0:0:0:
256,192,412575,1,8,0:0:0:0:
256,192,412783,1,12,0:0:0:0:
256,192,412992,1,0,0:0:0:0:
256,192,413200,1,8,0:0:0:0:
256,192,413304,1,8,0:0:0:0:
256,192,413408,1,0,0:0:0:0:
256,192,413512,1,0,0:0:0:0:
256,192,413617,1,8,0:0:0:0:
256,192,413721,1,0,0:0:0:0:
256,192,413825,1,0,0:0:0:0:
256,192,414033,1,12,0:0:0:0:
256,192,414242,1,0,0:0:0:0:
256,192,414450,1,8,0:0:0:0:
256,192,414658,1,0,0:0:0:0:
256,192,414762,1,8,0:0:0:0:
256,192,414867,1,8,0:0:0:0:
256,192,414971,1,8,0:0:0:0:
256,192,415075,1,0,0:0:0:0:
256,192,415283,1,8,0:0:0:0:
256,192,415492,1,0,0:0:0:0:
256,192,415596,1,0,0:0:0:0:
256,192,415700,1,8,0:0:0:0:
256,192,415908,1,8,0:0:0:0:
256,192,416117,1,8,0:0:0:0:
256,192,416325,1,0,0:0:0:0:
256,192,416429,1,8,0:0:0:0:
256,192,416637,1,8,0:0:0:0:
256,192,416742,1,0,0:0:0:0:
256,192,416846,1,0,0:0:0:0:
256,192,416950,1,8,0:0:0:0:
256,192,417158,1,0,0:0:0:0:
256,192,417262,1,8,0:0:0:0:
256,192,417367,1,0,0:0:0:0:
256,192,417575,1,8,0:0:0:0:
256,192,417783,1,8,0:0:0:0:
256,192,417992,1,0,0:0:0:0:
256,192,418096,1,0,0:0:0:0:
256,192,418200,1,8,0:0:0:0:
256,192,418408,1,0,0:0:0:0:
256,192,418617,1,8,0:0:0:0:
256,192,418721,1,0,0:0:0:0:
256,192,418825,1,8,0:0:0:0:
256,192,418929,1,8,0:0:0:0:
256,192,419033,1,0,0:0:0:0:
256,192,419242,1,8,0:0:0:0:
256,192,419450,1,8,0:0:0:0:
256,192,419658,1,0,0:0:0:0:
256,192,419762,1,8,0:0:0:0:
256,192,419867,1,8,0:0:0:0:
256,192,420075,1,0,0:0:0:0:
256,192,420179,1,0,0:0:0:0:
256,192,420283,1,12,0:0:0:0:
256,192,420700,1,4,0:0:0:0:
256,192,421117,1,8,0:0:0:0:
256,192,421325,1,0,0:0:0:0:
256,192,421429,1,8,0:0:0:0:
256,192,421637,1,8,0:0:0:0:
256,192,421742,1,0,0:0:0:0:
256,192,421846,1,0,0:0:0:0:
256,192,421950,1,8,0:0:0:0:
256,192,422158,1,4,0:0:0:0:
256,192,422575,1,8,0:0:0:0:
256,192,422783,1,0,0:0:0:0:
256,192,422992,1,8,0:0:0:0:
256,192,423096,1,8,0:0:0:0:
256,192,423200,1,0,0:0:0:0:
256,192,423304,1,0,0:0:0:0:
256,192,423408,1,12,0:0:0:0:
256,192,423617,1,12,0:0:0:0:
256,192,424033,1,4,0:0:0:0:
256,192,424450,1,8,0:0:0:0:
256,192,424658,1,0,0:0:0:0:
256,192,424867,1,8,0:0:0:0:
256,192,425075,1,0,0:0:0:0:
256,192,425283,1,0,0:0:0:0:
256,192,425492,1,12,0:0:0:0:
256,192,425908,1,0,0:0:0:0:
256,192,426325,1,12,0:0:0:0:
256,192,426742,1,0,0:0:0:0:
256,192,426846,1,0,0:0:0:0:
256,192,426950,1,12,0:0:0:0:
256,192,427367,1,0,0:0:0:0:
256,191,443438,5,8,0:0:0:0:
256,191,443534,1,8,0:0:0:0:
256,191,443629,1,0,0:0:0:0:
256,191,443725,1,0,0:0:0:0:
256,191,443820,5,8,0:0:0:0:
256,191,443916,1,8,0:0:0:0:
256,191,444011,5,0,0:0:0:0:
256,191,444107,1,0,0:0:0:0:
256,191,444202,1,8,0:0:0:0:
256,191,444298,1,8,0:0:0:0:
256,191,444394,1,0,0:0:0:0:
256,191,444489,1,8,0:0:0:0:
256,191,444585,1,8,0:0:0:0:
256,191,444712,1,8,0:0:0:0:
256,191,444839,1,8,0:0:0:0:
352,192,444967,1,4,0:0:0:0:
256,191,445636,1,0,0:0:0:0:
256,191,445731,1,8,0:0:0:0:
256,191,446495,1,0,0:0:0:0:
256,191,447069,1,0,0:0:0:0:
256,191,447260,1,8,0:0:0:0:
354,194,448024,1,12,0:0:0:0:
256,191,448597,1,8,0:0:0:0:
256,191,448788,1,8,0:0:0:0:
256,191,449553,1,0,0:0:0:0:
256,191,450126,1,0,0:0:0:0:
256,191,450317,1,8,0:0:0:0:
256,191,451081,1,0,0:0:0:0:
256,191,451846,1,8,0:0:0:0:
256,191,452610,1,0,0:0:0:0:
256,191,453183,1,8,0:0:0:0:
256,191,453374,1,8,0:0:0:0:
256,191,453948,1,0,0:0:0:0:
256,191,454043,1,0,0:0:0:0:
355,193,454139,1,12,0:0:0:0:
256,191,454330,1,8,0:0:0:0:
256,191,454521,1,8,0:0:0:0:
256,191,454712,1,0,0:0:0:0:
256,191,454903,1,8,0:0:0:0:
256,191,455094,1,8,0:0:0:0:
256,191,455285,1,8,0:0:0:0:
256,191,455381,1,8,0:0:0:0:
357,192,455476,1,4,0:0:0:0:
256,191,455859,1,8,0:0:0:0:
357,192,456050,1,12,0:0:0:0:
256,191,456241,1,0,0:0:0:0:
256,191,456432,1,0,0:0:0:0:
256,191,456527,1,0,0:0:0:0:
256,191,456623,1,8,0:0:0:0:
256,191,456814,1,8,0:0:0:0:
256,191,456909,1,8,0:0:0:0:
256,191,457005,1,8,0:0:0:0:
256,191,457101,1,8,0:0:0:0:
357,192,457196,1,4,0:0:0:0:
256,191,457387,1,0,0:0:0:0:
256,191,457578,1,8,0:0:0:0:
256,191,457769,1,0,0:0:0:0:
256,191,457865,1,8,0:0:0:0:
256,191,457960,1,0,0:0:0:0:
256,191,458152,1,0,0:0:0:0:
256,191,458343,1,8,0:0:0:0:
256,191,458534,1,0,0:0:0:0:
256,191,458629,1,0,0:0:0:0:
256,191,458725,1,8,0:0:0:0:
256,191,458820,1,8,0:0:0:0:
256,191,458916,1,0,0:0:0:0:
256,191,459107,1,8,0:0:0:0:
254,191,459298,1,0,0:0:0:0:
254,191,459394,1,8,0:0:0:0:
254,191,459489,1,0,0:0:0:0:
256,191,459680,1,0,0:3:0:0:
256,191,459871,1,8,0:0:0:0:
256,191,460062,1,8,0:0:0:0:
254,191,460158,1,8,0:0:0:0:
254,191,460253,1,0,0:0:0:0:
254,191,460445,1,0,0:0:0:0:
256,191,460636,1,8,0:0:0:0:
256,191,460731,1,8,0:0:0:0:
256,191,460827,1,0,0:0:0:0:
256,191,460922,1,8,0:0:0:0:
256,191,461018,1,0,0:0:0:0:
254,191,461209,1,0,0:0:0:0:
254,191,461400,1,8,0:0:0:0:
256,191,461495,1,0,0:0:0:0:
256,191,461591,1,0,0:0:0:0:
256,191,461782,1,0,0:0:0:0:
256,191,461973,1,8,0:0:0:0:
254,191,462069,1,0,0:0:0:0:
254,191,462164,1,8,0:0:0:0:
254,191,462355,1,8,0:0:0:0:
254,191,462546,1,0,0:0:0:0:
256,191,462642,1,0,0:0:0:0:
256,191,462737,1,8,0:0:0:0:
256,191,462833,1,8,0:0:0:0:
256,191,462929,1,0,0:0:0:0:
254,191,463024,1,0,0:0:0:0:
254,191,463120,1,8,0:0:0:0:
254,191,463215,1,0,0:0:0:0:
254,191,463311,1,8,0:0:0:0:
254,191,463502,1,8,0:0:0:0:
256,191,463693,1,0,0:0:0:0:
256,191,463788,1,0,0:0:0:0:
256,191,463884,1,8,0:0:0:0:
254,191,463980,1,8,0:0:0:0:
254,191,464075,1,0,0:0:0:0:
254,191,464266,1,0,0:0:0:0:
254,191,464457,1,8,0:0:0:0:
256,191,464553,1,0,0:0:0:0:
256,191,464648,1,8,0:0:0:0:
256,191,464839,1,8,0:0:0:0:
254,191,465030,1,0,0:0:0:0:
254,191,465126,1,0,0:0:0:0:
254,191,465222,1,8,0:0:0:0:
254,191,465413,1,0,0:0:0:0:
256,191,465604,1,8,0:0:0:0:
256,191,465699,1,0,0:0:0:0:
256,191,465795,1,8,0:0:0:0:
254,191,465890,1,8,0:0:0:0:
254,191,465986,1,0,0:0:0:0:
254,191,466081,1,0,0:0:0:0:
254,191,466177,1,8,0:0:0:0:
254,191,466273,1,0,0:0:0:0:
254,191,466368,1,8,0:0:0:0:
256,191,466559,1,0,0:0:0:0:
256,191,466655,1,0,0:0:0:0:
256,191,466750,1,8,0:0:0:0:
254,191,466941,1,0,0:0:0:0:
254,191,467132,1,8,0:0:0:0:
256,191,467228,1,0,0:0:0:0:
254,191,467323,1,8,0:0:0:0:
256,191,467515,1,0,0:0:0:0:
256,191,467706,1,0,0:0:0:0:
254,191,467801,1,8,0:0:0:0:
254,191,467897,1,8,0:0:0:0:
254,191,467992,1,0,0:0:0:0:
254,191,468088,1,8,0:0:0:0:
357,191,468279,1,4,0:0:0:0:
256,191,468470,1,8,0:0:0:0:
256,191,468566,1,8,0:0:0:0:
256,191,468661,1,0,0:0:0:0:
254,191,468852,1,8,0:0:0:0:
254,191,468948,1,8,0:0:0:0:
254,191,469043,1,0,0:0:0:0:
256,191,469139,1,0,0:0:0:0:
256,191,469234,1,8,0:0:0:0:
256,191,469330,1,8,0:0:0:0:
357,191,469425,1,4,0:0:0:0:
256,191,469616,1,0,0:0:0:0:
256,191,469807,1,8,0:0:0:0:
256,191,469998,1,0,0:0:0:0:
256,191,470094,1,8,0:0:0:0:
256,191,470189,1,0,0:0:0:0:
256,191,470381,1,0,0:0:0:0:
256,191,470572,1,8,0:0:0:0:
256,191,470763,1,0,0:0:0:0:
256,191,470859,1,0,0:0:0:0:
256,191,470954,1,8,0:0:0:0:
256,191,471050,1,8,0:0:0:0:
256,191,471145,1,0,0:0:0:0:
256,191,471336,1,8,0:0:0:0:
256,191,471527,1,0,0:0:0:0:
256,191,471718,1,0,0:0:0:0:
256,191,471814,1,0,0:0:0:0:
256,191,471909,1,8,0:0:0:0:
256,191,472005,1,0,0:0:0:0:
256,191,472101,1,0,0:0:0:0:
256,191,472196,1,8,0:0:0:0:
256,191,472292,1,8,0:0:0:0:
256,191,472387,1,0,0:0:0:0:
256,191,472483,1,8,0:0:0:0:
256,191,472674,1,0,0:0:0:0:
256,191,472769,1,0,0:0:0:0:
256,191,472865,1,8,0:0:0:0:
256,191,473056,1,8,0:0:0:0:
256,191,473247,1,8,0:0:0:0:
256,191,473343,1,0,0:0:0:0:
256,191,473438,1,8,0:0:0:0:
256,191,473629,1,8,0:0:0:0:
256,191,473820,1,0,0:0:0:0:
256,191,473916,1,0,0:0:0:0:
256,191,474011,1,8,0:0:0:0:
256,191,474107,1,8,0:0:0:0:
256,191,474202,1,0,0:0:0:0:
256,191,474394,1,8,0:0:0:0:
256,191,474585,1,0,0:0:0:0:
256,191,474680,1,0,0:0:0:0:
256,191,474776,1,8,0:0:0:0:
256,191,474871,1,0,0:0:0:0:
256,191,474967,1,8,0:0:0:0:
256,191,475062,1,8,0:0:0:0:
256,191,475158,1,0,0:0:0:0:
256,191,475253,1,8,0:0:0:0:
256,191,475349,1,8,0:0:0:0:
256,191,475445,1,0,0:0:0:0:
256,191,475540,1,0,0:0:0:0:
256,191,475731,1,0,0:0:0:0:
256,191,475922,1,8,0:0:0:0:
256,191,476018,1,0,0:0:0:0:
256,191,476113,1,0,0:0:0:0:
256,191,476304,1,0,0:0:0:0:
256,191,476495,1,0,0:0:0:0:
256,191,476687,1,8,0:0:0:0:
256,191,476782,1,8,0:0:0:0:
256,191,476878,1,0,0:0:0:0:
256,191,476973,1,0,0:0:0:0:
256,191,477069,1,8,0:0:0:0:
256,191,477260,1,0,0:0:0:0:
256,191,477355,1,0,0:0:0:0:
256,191,477451,1,8,0:0:0:0:
256,191,477642,1,0,0:0:0:0:
256,191,477833,1,8,0:0:0:0:
256,191,477929,1,8,0:0:0:0:
256,191,478024,1,0,0:0:0:0:
256,191,478120,1,0,0:0:0:0:
256,191,478215,1,8,0:0:0:0:
256,191,478311,1,8,0:0:0:0:
256,191,478406,1,0,0:0:0:0:
256,191,478502,1,0,0:0:0:0:
256,191,478597,1,8,0:0:0:0:
257,191,478788,5,0,0:0:0:0:
257,191,478884,1,0,0:0:0:0:
257,191,478980,1,12,0:0:0:0:
257,191,479171,1,0,0:0:0:0:
257,191,479362,1,8,0:0:0:0:
257,191,479457,1,0,0:0:0:0:
257,191,479553,1,8,0:0:0:0:
257,191,479744,1,8,0:0:0:0:
257,191,479935,1,12,0:0:0:0:
257,191,480126,1,8,0:0:0:0:
257,191,480317,1,0,0:0:0:0:
257,191,480413,1,0,0:0:0:0:
257,191,480508,1,8,0:0:0:0:
257,191,480795,1,0,0:0:0:0:
257,191,480890,1,8,0:0:0:0:
257,191,481081,1,8,0:0:0:0:
255,190,481273,5,8,0:0:0:0:
255,190,481368,1,8,0:0:0:0:
255,190,481464,1,8,0:0:0:0:
255,190,481559,1,8,0:0:0:0:
354,191,481655,1,4,0:0:0:0:
231,241,491819,5,4,0:0:0:0:
355,211,492194,5,8,0:0:0:0:
355,211,492381,5,0,0:0:0:0:
241,166,492756,1,0,0:0:0:0:
241,166,492850,1,0,0:0:0:0:
241,166,492944,1,8,0:0:0:0:
262,227,493131,1,0,0:0:0:0:
198,202,493506,1,0,0:0:0:0:
198,202,493600,1,0,0:0:0:0:
198,202,493694,1,8,0:0:0:0:
264,248,493881,1,0,0:0:0:0:
264,248,493975,1,0,0:0:0:0:
264,248,494069,1,8,0:0:0:0:
313,188,494256,1,8,0:0:0:0:
313,188,494444,1,0,0:0:0:0:
313,188,494631,1,0,0:0:0:0:
313,188,494819,1,6,0:0:0:0:
209,262,495194,1,8,0:0:0:0:
209,262,495381,1,0,0:0:0:0:
298,266,495756,1,8,0:0:0:0:
302,150,495850,1,8,0:0:0:0:
193,198,495944,1,0,0:0:0:0:
193,198,496131,1,8,0:0:0:0:
269,144,496506,1,8,0:0:0:0:
269,144,496694,1,0,0:0:0:0:
269,144,496881,1,8,0:0:0:0:
217,138,497069,1,8,0:0:0:0:
217,138,497162,1,8,0:0:0:0:
217,138,497256,1,0,0:0:0:0:
212,142,497444,1,8,0:0:0:0:
212,142,497537,1,8,0:0:0:0:
212,142,497631,1,8,0:0:0:0:
212,142,497725,1,8,0:0:0:0:
212,142,497819,1,0,0:0:0:0:
224,214,498194,1,8,0:0:0:0:
293,204,498381,1,0,0:0:0:0:
293,204,498756,1,0,0:0:0:0:
293,204,498850,1,0,0:0:0:0:
293,204,498944,1,8,0:0:0:0:
387,179,499131,1,6,0:0:0:0:
296,163,499506,1,8,0:0:0:0:
296,163,499694,1,0,0:0:0:0:
296,163,499881,1,8,0:0:0:0:
227,160,500069,1,0,0:0:0:0:
189,221,500162,1,0,0:0:0:0:
218,156,500256,1,0,0:0:0:0:
218,156,500350,1,0,0:0:0:0:
214,156,500444,1,8,0:0:0:0:
210,159,500631,1,8,0:0:0:0:
210,159,500725,1,8,0:0:0:0:
255,196,500819,1,0,0:0:0:0:
266,195,501194,1,8,0:0:0:0:
200,265,501287,1,8,0:0:0:0:
266,195,501381,1,0,0:0:0:0:
266,195,501569,1,8,0:0:0:0:
262,196,501756,1,0,0:0:0:0:
264,196,501850,1,0,0:0:0:0:
274,206,501944,1,8,0:0:0:0:
264,223,502131,1,8,0:0:0:0:
264,223,502319,1,0,0:0:0:0:
292,166,502506,1,8,0:0:0:0:
292,166,502600,1,8,0:0:0:0:
292,166,502694,1,0,0:0:0:0:
276,167,502881,1,0,0:0:0:0:
276,167,503069,1,8,0:0:0:0:
280,163,503162,1,8,0:0:0:0:
280,163,503256,1,0,0:0:0:0:
280,163,503350,1,0,0:0:0:0:
280,163,503444,1,8,0:0:0:0:
280,159,503631,1,8,0:0:0:0:
280,159,503819,1,4,0:0:0:0:
226,181,504194,1,8,0:0:0:0:
226,181,504381,1,0,0:0:0:0:
312,197,504475,1,0,0:0:0:0:
226,181,504569,1,8,0:0:0:0:
166,217,504756,1,8,0:0:0:0:
226,181,504944,1,0,0:0:0:0:
193,218,505131,1,6,0:0:0:0:
226,119,505506,1,8,0:0:0:0:
66,178,505600,1,8,0:0:0:0:
393,280,505694,1,0,0:0:0:0:
393,280,505881,1,0,0:0:0:0:
291,102,506069,1,8,0:0:0:0:
242,152,506162,1,0,0:0:0:0:
242,152,506256,1,8,0:0:0:0:
238,94,506350,1,0,0:0:0:0:
238,94,506444,1,8,0:0:0:0:
238,94,506537,1,8,0:0:0:0:
238,94,506631,1,0,0:0:0:0:
238,94,506725,1,8,0:0:0:0:
290,158,506819,1,0,0:0:0:0:
207,254,507100,1,0,0:0:0:0:
207,254,507194,1,8,0:0:0:0:
383,191,507381,1,0,0:0:0:0:
279,245,507756,1,0,0:0:0:0:
279,245,507850,1,0,0:0:0:0:
279,245,507944,1,8,0:0:0:0:
279,245,508131,1,8,0:0:0:0:
145,217,508225,1,8,0:0:0:0:
279,245,508319,1,0,0:0:0:0:
233,203,508506,1,0,0:0:0:0:
233,203,508694,1,8,0:0:0:0:
329,157,508787,1,8,0:0:0:0:
244,192,508881,1,0,0:0:0:0:
226,170,509069,1,0,0:0:0:0:
226,170,509256,1,8,0:0:0:0:
226,170,509350,1,8,0:0:0:0:
226,170,509444,1,0,0:0:0:0:
226,170,509537,1,0,0:0:0:0:
226,170,509631,1,8,0:0:0:0:
294,197,509819,1,0,0:0:0:0:
294,197,510100,1,0,0:0:0:0:
147,228,510194,1,8,0:0:0:0:
346,120,510381,1,8,0:0:0:0:
346,120,510756,1,0,0:0:0:0:
284,234,510944,1,8,0:0:0:0:
276,208,511131,1,8,0:0:0:0:
276,208,511225,1,8,0:0:0:0:
276,208,511319,1,0,0:0:0:0:
276,208,511506,1,8,0:0:0:0:
259,230,511694,1,8,0:0:0:0:
259,230,511787,1,8,0:0:0:0:
333,230,511881,1,8,0:0:0:0:
221,189,512069,1,0,0:0:0:0:
221,189,512256,1,0,0:0:0:0:
327,140,512350,1,0,0:0:0:0:
279,156,512444,1,8,0:0:0:0:
279,156,512537,1,0,0:0:0:0:
279,156,512631,1,8,0:0:0:0:
279,156,512725,1,8,0:0:0:0:
279,156,512819,1,0,0:0:0:0:
288,176,513100,1,0,0:0:0:0:
288,176,513194,1,8,0:0:0:0:
293,174,513381,1,0,0:0:0:0:
232,98,513756,1,0,0:0:0:0:
232,98,513850,1,0,0:0:0:0:
232,98,513944,1,8,0:0:0:0:
277,197,514131,1,8,0:0:0:0:
277,197,514225,1,8,0:0:0:0:
277,197,514319,1,0,0:0:0:0:
277,197,514506,1,8,0:0:0:0:
217,193,514694,1,8,0:0:0:0:
217,193,514787,1,8,0:0:0:0:
217,193,514881,1,8,0:0:0:0:
244,245,515069,1,0,0:0:0:0:
244,245,515256,1,0,0:0:0:0:
244,245,515350,1,0,0:0:0:0:
244,245,515444,1,8,0:0:0:0:
244,245,515537,1,8,0:0:0:0:
244,245,515631,1,8,0:0:0:0:
335,220,515819,1,4,0:0:0:0:
314,267,516006,1,0,0:0:0:0:
314,267,516100,1,0,0:0:0:0:
314,267,516194,1,8,0:0:0:0:
300,187,516381,1,8,0:0:0:0:
195,280,516662,1,0,0:0:0:0:
279,200,516756,1,8,0:0:0:0:
240,236,516944,1,8,0:0:0:0:
310,195,517131,1,4,0:0:0:0:
312,190,517506,1,0,0:0:0:0:
312,190,517600,1,0,0:0:0:0:
312,190,517694,1,8,0:0:0:0:
212,243,517881,1,0,0:0:0:0:
279,183,518069,1,8,0:0:0:0:
370,261,518162,1,8,0:0:0:0:
277,183,518256,1,0,0:0:0:0:
370,261,518350,1,0,0:0:0:0:
246,158,518444,1,8,0:0:0:0:
246,158,518537,1,0,0:0:0:0:
246,158,518631,1,8,0:0:0:0:
246,158,518725,1,8,0:0:0:0:
246,158,518819,1,0,0:0:0:0:
236,163,519100,1,0,0:0:0:0:
236,163,519194,1,8,0:0:0:0:
321,257,519381,1,0,0:0:0:0:
329,300,519756,1,0,0:0:0:0:
329,300,519850,1,0,0:0:0:0:
329,300,519944,1,8,0:0:0:0:
269,262,520131,1,8,0:0:0:0:
269,262,520225,1,8,0:0:0:0:
269,262,520319,1,0,0:0:0:0:
310,243,520506,1,0,0:0:0:0:
310,243,520694,1,8,0:0:0:0:
310,243,520787,1,8,0:0:0:0:
310,243,520881,1,8,0:0:0:0:
310,243,521069,1,0,0:0:0:0:
321,172,521256,1,0,0:0:0:0:
321,172,521350,1,0,0:0:0:0:
321,172,521444,1,8,0:0:0:0:
173,238,521537,1,8,0:0:0:0:
321,172,521631,1,8,0:0:0:0:
255,124,521819,1,0,0:0:0:0:
255,124,522100,1,0,0:0:0:0:
255,124,522194,1,8,0:0:0:0:
255,124,522381,1,8,0:0:0:0:
250,134,522756,1,8,0:0:0:0:
250,134,522850,1,8,0:0:0:0:
250,134,522944,1,0,0:0:0:0:
247,134,523131,1,8,0:0:0:0:
247,134,523319,1,0,0:0:0:0:
249,141,523506,1,0,0:0:0:0:
249,141,523600,1,0,0:0:0:0:
230,70,523694,1,8,0:0:0:0:
406,236,523881,1,8,0:0:0:0:
406,236,524069,1,8,0:0:0:0:
406,236,524162,1,8,0:0:0:0:
249,141,524256,1,0,0:0:0:0:
249,141,524444,1,8,0:0:0:0:
249,141,524537,1,0,0:0:0:0:
249,141,524631,1,8,0:0:0:0:
249,141,524725,1,8,0:0:0:0:
249,141,524819,1,0,0:0:0:0:
312,170,525100,1,0,0:0:0:0:
312,170,525194,1,8,0:0:0:0:
312,170,525381,1,8,0:0:0:0:
308,147,525756,1,8,0:0:0:0:
308,147,525850,1,8,0:0:0:0:
308,147,525944,1,0,0:0:0:0:
308,147,526131,1,8,0:0:0:0:
236,147,526506,1,0,0:0:0:0:
236,147,526600,1,0,0:0:0:0:
220,151,526694,1,8,0:0:0:0:
426,175,526881,1,8,0:0:0:0:
426,175,527069,1,8,0:0:0:0:
426,175,527162,1,8,0:0:0:0:
360,161,527256,1,0,0:0:0:0:
360,161,527350,1,0,0:0:0:0:
360,161,527444,1,0,0:0:0:0:
360,149,527631,1,8,0:0:0:0:
360,149,527725,1,8,0:0:0:0:
360,149,527819,1,0,0:0:0:0:
360,149,528100,1,0,0:0:0:0:
360,149,528194,1,8,0:0:0:0:
233,222,528381,1,0,0:0:0:0:
233,222,528756,1,0,0:0:0:0:
233,222,528850,1,0,0:0:0:0:
302,225,528944,1,8,0:0:0:0:
356,161,529131,1,0,0:0:0:0:
356,161,529225,1,0,0:0:0:0:
356,161,529319,1,8,0:0:0:0:
316,149,529506,1,0,0:0:0:0:
316,149,529694,1,8,0:0:0:0:
316,149,529787,1,8,0:0:0:0:
316,149,529881,1,0,0:0:0:0:
277,265,529975,1,0,0:0:0:0:
316,149,530069,1,8,0:0:0:0:
316,149,530256,1,0,0:0:0:0:
316,149,530350,1,0,0:0:0:0:
316,149,530444,1,8,0:0:0:0:
316,149,530537,1,0,0:0:0:0:
316,149,530631,1,8,0:0:0:0:
316,149,530725,1,8,0:0:0:0:
501,87,530819,2,0,B|125:89|125:89|350:323,1,700
332,259,532881,1,8,0:0:0:0:
414,254,532975,1,8,0:0:0:0:
184,254,533069,1,0,0:0:0:0:
184,254,533256,1,0,0:0:0:0:
360,182,533444,1,8,0:0:0:0:
360,182,533631,1,8,0:0:0:0:
256,192,533819,12,0,535506,0:0:0:0:
231,251,535694,5,8,0:0:0:0:
231,251,535881,1,8,0:0:0:0:
226,251,535975,1,8,0:0:0:0:
226,251,536069,1,0,0:0:0:0:
226,251,536256,5,8,0:0:0:0:
226,251,536444,1,8,0:0:0:0:
226,251,536537,1,8,0:0:0:0:
226,251,536631,1,8,0:0:0:0:
273,233,536819,1,4,0:0:0:0:
153,176,541377,5,12,0:0:0:0:
172,79,541752,1,0,0:0:0:0:
172,79,541939,5,12,0:0:0:0:
172,79,542314,1,8,0:0:0:0:
172,79,542502,1,0,0:0:0:0:
172,79,542689,1,12,0:0:0:0:
172,79,543064,1,0,0:0:0:0:
172,79,543439,1,8,0:0:0:0:
172,79,543814,1,0,0:0:0:0:
172,79,544002,1,8,0:0:0:0:
172,79,544189,1,8,0:0:0:0:
172,79,544377,1,4,0:0:0:0:
172,79,544564,1,8,0:0:0:0:
172,79,544939,1,0,0:0:0:0:
172,79,545127,1,0,0:0:0:0:
172,79,545314,1,8,0:0:0:0:
172,79,545408,1,8,0:0:0:0:
172,79,545502,1,8,0:0:0:0:
172,79,545595,1,8,0:0:0:0:
172,79,545689,1,4,0:0:0:0:
172,79,546064,1,0,0:0:0:0:
172,79,546252,1,8,0:0:0:0:
172,79,546439,1,0,0:0:0:0:
172,79,546814,1,0,0:0:0:0:
172,79,547002,1,12,0:0:0:0:
172,79,547377,1,4,0:0:0:0:
172,79,547752,1,8,0:0:0:0:
172,79,547939,1,0,0:0:0:0:
172,79,548033,1,8,0:0:0:0:
172,79,548127,1,8,0:0:0:0:
172,79,548314,1,0,0:0:0:0:
172,79,548689,1,0,0:0:0:0:
172,79,548783,1,0,0:0:0:0:
172,79,548877,1,8,0:0:0:0:
172,79,549064,1,0,0:0:0:0:
172,79,549252,1,8,0:0:0:0:
172,79,549345,1,0,0:0:0:0:
172,79,549439,1,0,0:0:0:0:
172,79,549533,1,8,0:0:0:0:
172,79,549627,1,0,0:0:0:0:
172,79,549814,1,0,0:0:0:0:
172,79,550002,1,12,0:0:0:0:
172,79,550377,1,4,0:0:0:0:
172,79,550658,1,0,0:0:0:0:
172,79,550752,1,8,0:0:0:0:
172,79,550939,1,0,0:0:0:0:
172,79,551314,1,0,0:0:0:0:
172,79,551502,1,8,0:0:0:0:
172,79,551689,1,8,0:0:0:0:
172,79,551783,1,8,0:0:0:0:
172,79,551877,1,0,0:0:0:0:
172,79,552064,1,0,0:0:0:0:
172,79,552252,1,8,0:0:0:0:
172,79,552439,1,4,0:0:0:0:
172,79,552814,1,0,0:0:0:0:
172,79,553002,1,8,0:0:0:0:
172,79,553095,1,8,0:0:0:0:
172,79,553189,1,8,0:0:0:0:
172,79,553283,1,8,0:0:0:0:
172,79,553377,1,4,0:0:0:0:
172,79,553752,1,8,0:0:0:0:
172,79,553939,1,0,0:0:0:0:
172,79,554127,1,8,0:0:0:0:
172,79,554314,1,0,0:0:0:0:
172,79,554502,1,0,0:0:0:0:
172,79,554689,1,12,0:0:0:0:
172,79,555064,1,0,0:0:0:0:
172,79,555252,1,8,0:0:0:0:
172,79,555439,1,8,0:0:0:0:
172,79,555814,1,0,0:0:0:0:
172,79,557877,1,4,0:0:0:0:
318,122,558252,1,8,0:0:0:0:
318,122,558439,1,8,0:0:0:0:
318,122,558627,1,0,0:0:0:0:
318,122,558814,1,0,0:0:0:0:
318,122,559002,1,8,0:0:0:0:
318,122,559189,1,0,0:0:0:0:
318,122,559283,1,8,0:0:0:0:
318,122,559377,1,0,0:0:0:0:
318,122,559564,1,0,0:0:0:0:
318,122,559752,1,8,0:0:0:0:
318,122,559939,1,0,0:0:0:0:
318,122,560314,1,0,0:0:0:0:
318,122,560408,1,0,0:0:0:0:
318,122,560502,1,8,0:0:0:0:
318,122,560689,1,8,0:0:0:0:
318,122,560877,1,4,0:0:0:0:
318,122,561252,1,8,0:0:0:0:
318,122,561439,1,0,0:0:0:0:
318,122,561627,1,0,0:0:0:0:
318,122,561814,1,8,0:0:0:0:
318,122,562002,1,8,0:0:0:0:
318,122,562189,1,0,0:0:0:0:
318,122,562283,1,8,0:0:0:0:
318,122,562377,1,0,0:0:0:0:
318,122,562564,1,0,0:0:0:0:
318,122,562752,1,8,0:0:0:0:
318,122,562939,1,0,0:0:0:0:
318,122,563314,1,0,0:0:0:0:
318,122,563502,1,8,0:0:0:0:
318,122,563595,1,8,0:0:0:0:
318,122,563689,1,8,0:0:0:0:
318,122,563783,1,8,0:0:0:0:
318,122,563877,1,4,0:0:0:0:
318,122,564252,1,8,0:0:0:0:
318,122,564439,1,0,0:0:0:0:
318,122,564814,1,0,0:0:0:0:
318,122,565002,1,8,0:0:0:0:
318,122,565189,1,8,0:0:0:0:
318,122,565377,1,0,0:0:0:0:
318,122,565470,1,0,0:0:0:0:
318,122,565658,1,0,0:0:0:0:
318,122,565752,1,8,0:0:0:0:
318,122,565939,1,0,0:0:0:0:
318,122,566314,1,0,0:0:0:0:
318,122,566408,1,0,0:0:0:0:
318,122,566502,1,8,0:0:0:0:
318,122,566689,1,0,0:0:0:0:
318,122,566877,1,12,0:0:0:0:
318,122,567158,1,0,0:0:0:0:
318,122,567252,1,8,0:0:0:0:
318,122,567439,1,0,0:0:0:0:
318,122,567814,1,0,0:0:0:0:
318,122,568002,1,8,0:0:0:0:
318,122,568189,1,12,0:0:0:0:
318,122,568377,1,0,0:0:0:0:
318,122,568470,1,0,0:0:0:0:
318,122,568564,1,0,0:0:0:0:
318,122,568658,1,0,0:0:0:0:
318,122,568752,1,8,0:0:0:0:
318,122,568845,1,8,0:0:0:0:
318,122,568939,1,8,0:0:0:0:
318,122,569033,1,8,0:0:0:0:
318,122,569127,1,0,0:0:0:0:
318,122,569314,1,8,0:0:0:0:
318,122,569408,1,8,0:0:0:0:
318,122,569502,1,0,0:0:0:0:
318,122,569689,1,0,0:0:0:0:
318,122,569877,1,12,0:0:0:0:
318,122,570252,1,8,0:0:0:0:
318,122,570439,1,0,0:0:0:0:
318,122,570533,1,8,0:0:0:0:
318,122,570627,1,0,0:0:0:0:
318,122,570814,1,0,0:0:0:0:
318,122,571002,1,8,0:0:0:0:
318,122,571189,1,8,0:0:0:0:
318,122,571377,1,0,0:0:0:0:
318,122,571564,1,0,0:0:0:0:
318,122,571939,1,8,0:0:0:0:
318,122,572033,1,8,0:0:0:0:
318,122,572127,1,0,0:0:0:0:
318,122,572314,1,8,0:0:0:0:
318,122,572408,1,0,0:0:0:0:
318,122,572502,1,8,0:0:0:0:
318,122,572689,1,0,0:0:0:0:
318,122,572877,1,12,0:0:0:0:
318,122,573252,1,8,0:0:0:0:
318,122,573439,1,0,0:0:0:0:
318,122,573814,1,0,0:0:0:0:
318,122,573908,1,0,0:0:0:0:
318,122,574002,1,8,0:0:0:0:
318,122,574189,1,8,0:0:0:0:
318,122,574377,1,0,0:0:0:0:
318,122,574564,1,8,0:0:0:0:
318,122,574658,1,8,0:0:0:0:
318,122,574752,1,8,0:0:0:0:
318,122,574939,1,0,0:0:0:0:
318,122,575314,1,0,0:0:0:0:
318,122,575502,1,8,0:0:0:0:
318,122,575595,1,8,0:0:0:0:
318,122,575689,1,8,0:0:0:0:
318,122,575783,1,8,0:0:0:0:
318,122,575877,1,4,0:0:0:0:
318,122,576158,1,0,0:0:0:0:
318,122,576252,1,8,0:0:0:0:
318,122,576439,1,0,0:0:0:0:
318,122,576814,1,0,0:0:0:0:
318,122,577002,1,8,0:0:0:0:
318,122,577189,1,0,0:0:0:0:
318,122,577564,1,0,0:0:0:0:
318,122,577658,1,8,0:0:0:0:
318,122,577752,1,8,0:0:0:0:
318,122,577939,1,0,0:0:0:0:
318,122,578127,1,8,0:0:0:0:
318,122,578314,1,0,0:0:0:0:
318,122,578408,1,0,0:0:0:0:
318,122,578502,1,8,0:0:0:0:
318,122,578689,1,8,0:0:0:0:
318,122,578877,1,4,0:0:0:0:
318,122,579158,1,0,0:0:0:0:
318,122,579252,1,8,0:0:0:0:
318,122,579439,1,0,0:0:0:0:
318,122,579814,1,0,0:0:0:0:
318,122,580002,1,8,0:0:0:0:
318,122,580189,1,4,0:0:0:0:
318,122,580564,1,0,0:0:0:0:
318,122,580658,1,0,0:0:0:0:
318,122,580752,1,8,0:0:0:0:
318,122,580939,1,0,0:0:0:0:
318,122,581127,1,8,0:0:0:0:
318,122,581314,1,0,0:0:0:0:
318,122,581408,1,0,0:0:0:0:
318,122,581502,1,0,0:0:0:0:
318,122,581689,1,12,0:0:0:0:
318,122,582064,1,0,0:0:0:0:
318,122,582252,1,8,0:0:0:0:
318,122,582439,1,8,0:0:0:0:
318,122,582533,1,8,0:0:0:0:
318,122,582627,1,0,0:0:0:0:
318,122,582814,1,0,0:0:0:0:
318,122,583002,1,8,0:0:0:0:
318,122,583189,1,0,0:0:0:0:
318,122,583564,1,0,0:0:0:0:
318,122,583658,1,0,0:0:0:0:
318,122,583752,1,8,0:0:0:0:
318,122,583939,1,0,0:0:0:0:
318,122,584127,1,8,0:0:0:0:
318,122,584220,1,8,0:0:0:0:
318,122,584314,1,0,0:0:0:0:
318,122,584408,1,0,0:0:0:0:
318,122,584502,1,8,0:0:0:0:
318,122,584595,1,8,0:0:0:0:
318,122,584689,1,8,0:0:0:0:
318,122,584783,1,8,0:0:0:0:
318,122,584877,1,4,0:0:0:0:
256,192,591585,5,0,0:0:0:0:
256,192,591769,1,8,0:0:0:0:
256,192,591953,5,8,0:0:0:0:
256,192,592137,5,0,0:0:0:0:
256,192,592321,1,12,0:0:0:0:
256,192,592689,1,8,0:0:0:0:
256,192,592873,1,0,0:0:0:0:
256,192,593242,1,0,0:0:0:0:
256,192,593610,1,12,0:0:0:0:
256,192,593978,1,0,0:0:0:0:
256,192,594162,1,8,0:0:0:0:
256,192,594346,1,8,0:0:0:0:
256,192,594438,1,8,0:0:0:0:
256,192,594530,1,0,0:0:0:0:
256,192,594714,1,0,0:0:0:0:
256,192,594898,1,8,0:0:0:0:
256,192,595266,1,4,0:0:0:0:
256,192,595450,1,8,0:0:0:0:
256,192,595634,1,0,0:0:0:0:
256,192,595818,1,12,0:0:0:0:
256,192,596186,1,0,0:0:0:0:
256,192,596278,1,0,0:0:0:0:
256,192,596370,1,8,0:0:0:0:
256,192,596554,1,4,0:0:0:0:
256,192,596923,1,8,0:0:0:0:
256,192,597107,1,0,0:0:0:0:
256,192,597291,1,0,0:0:0:0:
256,192,597383,1,0,0:0:0:0:
256,192,597475,1,8,0:0:0:0:
256,192,597659,1,0,0:0:0:0:
256,192,597751,1,0,0:0:0:0:
256,192,597843,1,8,0:0:0:0:
256,192,598211,1,4,0:0:0:0:
256,192,598579,1,0,0:0:0:0:
256,192,598763,1,8,0:0:0:0:
256,192,598947,1,8,0:0:0:0:
256,192,599131,1,0,0:0:0:0:
256,192,599315,1,8,0:0:0:0:
256,192,599499,1,0,0:0:0:0:
256,192,599867,1,8,0:0:0:0:
256,192,600235,1,0,0:0:0:0:
256,192,600419,1,8,0:0:0:0:
256,192,600603,1,0,0:0:0:0:
256,192,600788,1,8,0:0:0:0:
256,192,601156,1,4,0:0:0:0:
256,192,601524,1,8,0:0:0:0:
256,192,601708,1,0,0:0:0:0:
256,192,602076,1,0,0:0:0:0:
256,192,602260,1,8,0:0:0:0:
256,192,602444,1,0,0:0:0:0:
256,192,602812,1,0,0:0:0:0:
256,192,602996,1,8,0:0:0:0:
256,192,603180,1,0,0:0:0:0:
256,192,603364,1,8,0:0:0:0:
256,192,603548,1,8,0:0:0:0:
256,192,603732,1,4,0:0:0:0:
256,192,603916,1,8,0:0:0:0:
256,192,604100,1,4,0:0:0:0:
256,192,604469,1,8,0:0:0:0:
256,192,604653,1,0,0:0:0:0:
256,192,604837,1,8,0:0:0:0:
256,192,605021,1,8,0:0:0:0:
256,192,605205,1,0,0:0:0:0:
256,192,605389,1,12,0:0:0:0:
256,192,605757,1,0,0:0:0:0:
256,192,605941,1,0,0:0:0:0:
256,192,606125,1,8,0:0:0:0:
256,192,607045,1,12,0:0:0:0:
256,192,607413,1,0,0:0:0:0:
256,192,607597,1,8,0:0:0:0:
256,192,607781,1,0,0:0:0:0:
256,192,607873,1,8,0:0:0:0:
256,192,607965,1,0,0:0:0:0:
256,192,608150,1,0,0:0:0:0:
256,192,608334,1,8,0:0:0:0:
256,192,608426,1,8,0:0:0:0:
256,192,608518,1,0,0:0:0:0:
256,192,608610,1,0,0:0:0:0:
256,192,608702,1,8,0:0:0:0:
256,192,608886,1,0,0:0:0:0:
256,192,609070,1,8,0:0:0:0:
256,192,609254,1,0,0:0:0:0:
256,192,609346,1,8,0:0:0:0:
256,192,609438,1,0,0:0:0:0:
256,192,609622,1,8,0:0:0:0:
256,192,609806,1,8,0:0:0:0:
256,192,609990,1,0,0:0:0:0:
256,192,610358,1,8,0:0:0:0:
256,192,610542,1,0,0:0:0:0:
256,192,610726,1,8,0:0:0:0:
256,192,610818,1,8,0:0:0:0:
256,192,610910,1,0,0:0:0:0:
256,192,611095,1,8,0:0:0:0:
256,192,611279,1,0,0:0:0:0:
256,192,611370,1,0,0:0:0:0:
256,192,611463,1,8,0:0:0:0:
256,192,611647,1,0,0:0:0:0:
256,192,611831,1,8,0:0:0:0:
256,192,612015,1,0,0:0:0:0:
256,192,612199,1,0,0:0:0:0:
256,192,612291,1,8,0:0:0:0:
256,192,612383,1,0,0:0:0:0:
256,192,612567,1,8,0:0:0:0:
256,192,612751,1,0,0:0:0:0:
256,192,612843,1,0,0:0:0:0:
256,192,612935,1,12,0:0:0:0:
256,192,613303,1,0,0:0:0:0:
256,192,613487,1,8,0:0:0:0:
256,192,613671,1,0,0:0:0:0:
256,192,613763,1,8,0:0:0:0:
256,192,613855,1,0,0:0:0:0:
256,192,614040,1,8,0:0:0:0:
256,192,614223,1,0,0:0:0:0:
256,192,614315,1,0,0:0:0:0:
256,192,614408,1,8,0:0:0:0:
256,192,614592,1,0,0:0:0:0:
256,192,614776,1,8,0:0:0:0:
256,192,614960,1,8,0:0:0:0:
256,192,615144,1,0,0:0:0:0:
256,192,615236,1,8,0:0:0:0:
256,192,615328,1,0,0:0:0:0:
256,192,615512,1,8,0:0:0:0:
256,192,615696,1,0,0:0:0:0:
256,192,615880,1,8,0:0:0:0:
256,192,616248,1,8,0:0:0:0:
256,192,616432,1,0,0:0:0:0:
256,192,616616,1,0,0:0:0:0:
256,192,616708,1,8,0:0:0:0:
256,192,616800,1,0,0:0:0:0:
256,192,616985,1,8,0:0:0:0:
256,192,617168,1,4,0:0:0:0:
256,192,617537,1,0,0:0:0:0:
256,192,617720,1,12,0:0:0:0:
256,192,617905,1,0,0:0:0:0:
256,192,618088,1,8,0:0:0:0:
256,192,618181,1,8,0:0:0:0:
256,192,618273,1,0,0:0:0:0:
256,192,618364,1,0,0:0:0:0:
256,192,618457,1,8,0:0:0:0:
256,192,618548,1,0,0:0:0:0:
256,192,618641,1,8,0:0:0:0:
256,192,618732,1,0,0:0:0:0:
256,192,618824,1,12,0:0:0:0:
256,192,619192,1,0,0:0:0:0:
256,192,619376,1,8,0:0:0:0:
256,192,619560,1,0,0:0:0:0:
256,192,619652,1,8,0:0:0:0:
256,192,619744,1,0,0:0:0:0:
256,192,619929,1,0,0:0:0:0:
256,192,620113,1,8,0:0:0:0:
256,192,620205,1,8,0:0:0:0:
256,192,620297,1,0,0:0:0:0:
256,192,620389,1,0,0:0:0:0:
256,192,620481,1,8,0:0:0:0:
256,192,620665,1,0,0:0:0:0:
256,192,620849,1,8,0:0:0:0:
256,192,621033,1,0,0:0:0:0:
256,192,621125,1,8,0:0:0:0:
256,192,621217,1,0,0:0:0:0:
256,192,621401,1,0,0:0:0:0:
256,192,621585,1,12,0:0:0:0:
256,192,621769,1,0,0:0:0:0:
256,192,622137,1,8,0:0:0:0:
256,192,622321,1,0,0:0:0:0:
256,192,622505,1,0,0:0:0:0:
256,192,622597,1,0,0:0:0:0:
256,192,622689,1,8,0:0:0:0:
256,192,622874,1,0,0:0:0:0:
256,192,623058,1,8,0:0:0:0:
256,192,623149,1,8,0:0:0:0:
256,192,623242,1,0,0:0:0:0:
256,192,623426,1,12,0:0:0:0:
256,192,623610,1,12,0:0:0:0:
256,192,623794,1,0,0:0:0:0:
256,192,623886,1,8,0:0:0:0:
256,192,623978,1,8,0:0:0:0:
256,192,624070,1,0,0:0:0:0:
256,192,624162,1,8,0:0:0:0:
256,192,624346,1,8,0:0:0:0:
256,192,624530,1,0,0:0:0:0:
256,192,624622,1,0,0:0:0:0:
256,192,624714,1,12,0:0:0:0:
256,192,625082,1,0,0:0:0:0:
256,192,625266,1,8,0:0:0:0:
256,192,625450,1,0,0:0:0:0:
256,192,625542,1,8,0:0:0:0:
256,192,625634,1,0,0:0:0:0:
256,192,625819,1,0,0:0:0:0:
256,192,626002,1,12,0:0:0:0:
256,192,626186,1,0,0:0:0:0:
256,192,626278,1,8,0:0:0:0:
256,192,626371,1,0,0:0:0:0:
256,192,626555,1,8,0:0:0:0:
256,192,626739,1,0,0:0:0:0:
256,192,626923,1,0,0:0:0:0:
256,192,627015,1,8,0:0:0:0:
256,192,627107,1,0,0:0:0:0:
256,192,627291,1,8,0:0:0:0:
256,192,627475,1,0,0:0:0:0:
256,192,627659,1,12,0:0:0:0:
256,192,628027,1,0,0:0:0:0:
256,192,628211,1,8,0:0:0:0:
256,192,628395,1,0,0:0:0:0:
256,192,628487,1,8,0:0:0:0:
256,192,628579,1,0,0:0:0:0:
256,192,628764,1,8,0:0:0:0:
256,192,628947,1,4,0:0:0:0:
256,192,629315,1,0,0:0:0:0:
256,192,629499,1,0,0:0:0:0:
256,192,629683,1,12,0:0:0:0:
256,192,629867,1,0,0:0:0:0:
256,192,629960,1,0,0:0:0:0:
256,192,630051,1,8,0:0:0:0:
256,192,630143,1,8,0:0:0:0:
256,192,630236,1,0,0:0:0:0:
256,192,630327,1,0,0:0:0:0:
256,192,630420,1,8,0:0:0:0:
256,192,630511,1,8,0:0:0:0:
256,192,630603,1,4,0:0:0:0:
301,253,637758,5,4,0:0:0:0:
243,253,637941,1,8,0:0:0:0:
395,198,638032,1,0,0:0:0:0:
326,205,638215,1,0,0:0:0:0:
316,170,638307,1,8,0:0:0:0:
289,203,638490,5,0,0:0:0:0:
313,202,638673,1,0,0:0:0:0:
345,183,638855,1,8,0:0:0:0:
345,236,639038,1,0,0:0:0:0:
378,223,639404,1,0,0:0:0:0:
318,188,639587,1,8,0:0:0:0:
346,194,639953,1,0,0:0:0:0:
387,205,640319,1,8,0:0:0:0:
387,205,640502,1,8,0:0:0:0:
370,229,640685,1,4,0:0:0:0:
212,166,641051,1,0,0:0:0:0:
198,191,641234,1,0,0:0:0:0:
309,253,641416,1,8,0:0:0:0:
450,201,641599,1,0,0:0:0:0:
294,194,641965,1,8,0:0:0:0:
441,194,642148,1,0,0:0:0:0:
328,210,642331,1,0,0:0:0:0:
409,228,642514,1,8,0:0:0:0:
227,189,642697,1,0,0:0:0:0:
258,188,642788,1,0,0:0:0:0:
409,228,642880,1,8,0:0:0:0:
263,221,643063,1,0,0:0:0:0:
341,219,643246,1,8,0:0:0:0:
428,187,643429,1,8,0:0:0:0:
417,175,643520,1,8,0:0:0:0:
402,173,643612,1,4,0:0:0:0:
210,244,643795,1,8,0:0:0:0:
235,188,643977,1,0,0:0:0:0:
289,203,644069,1,8,0:0:0:0:
313,189,644252,1,8,0:0:0:0:
313,189,644343,1,0,0:0:0:0:
308,131,644435,1,8,0:0:0:0:
308,131,644526,1,8,0:0:0:0:
405,191,644709,1,0,0:0:0:0:
398,208,644892,1,8,0:0:0:0:
405,191,645075,1,0,0:0:0:0:
288,221,645441,1,12,0:0:0:0:
128,235,645807,1,0,0:0:0:0:
266,189,645990,1,0,0:0:0:0:
300,195,646081,1,8,0:0:0:0:
343,211,646173,1,0,0:0:0:0:
343,211,646355,1,0,0:0:0:0:
408,232,646538,1,12,0:0:0:0:
312,252,646904,1,8,0:0:0:0:
312,252,647087,1,4,0:0:0:0:
376,258,647453,1,0,0:0:0:0:
337,165,647636,1,8,0:0:0:0:
378,199,647819,1,0,0:0:0:0:
261,200,648002,1,0,0:0:0:0:
241,167,648185,1,0,0:0:0:0:
351,206,648368,1,8,0:0:0:0:
378,199,648551,1,4,0:0:0:0:
368,264,648916,1,0,0:0:0:0:
500,198,649099,1,8,0:0:0:0:
320,194,649282,1,0,0:0:0:0:
345,174,649374,1,8,0:0:0:0:
329,186,649465,1,4,0:0:0:0:
256,168,649831,1,0,0:0:0:0:
244,189,650014,1,12,0:0:0:0:
285,163,650380,1,8,0:0:0:0:
285,163,650563,1,8,0:0:0:0:
314,186,650746,1,4,0:0:0:0:
287,201,651112,1,0,0:0:0:0:
347,165,651295,1,8,0:0:0:0:
287,201,651477,1,0,0:0:0:0:
298,157,651569,1,12,0:0:0:0:
286,172,651843,1,0,0:0:0:0:
395,164,651935,1,0,0:0:0:0:
395,164,652026,1,8,0:0:0:0:
182,111,652118,1,0,0:0:0:0:
221,105,652209,1,0,0:0:0:0:
360,146,652392,1,8,0:0:0:0:
365,199,652758,1,8,0:0:0:0:
280,191,652941,1,0,0:0:0:0:
339,138,653307,1,0,0:0:0:0:
339,138,653490,1,8,0:0:0:0:
279,129,653673,1,8,0:0:0:0:
361,240,653764,1,0,0:0:0:0:
181,159,653855,1,0,0:0:0:0:
352,136,654038,1,0,0:0:0:0:
176,144,654221,1,8,0:0:0:0:
197,139,654404,1,0,0:0:0:0:
218,161,654770,1,8,0:0:0:0:
218,161,654953,1,8,0:0:0:0:
312,151,655136,1,0,0:0:0:0:
362,157,655319,1,12,0:0:0:0:
285,209,655685,1,8,0:0:0:0:
337,157,655868,1,0,0:0:0:0:
285,209,656051,1,8,0:0:0:0:
346,229,656142,1,8,0:0:0:0:
427,191,656234,1,0,0:0:0:0:
375,140,656416,1,8,0:0:0:0:
354,131,656599,1,0,0:0:0:0:
216,186,656782,1,0,0:0:0:0:
239,171,656874,1,0,0:0:0:0:
338,150,656965,1,8,0:0:0:0:
346,139,657148,1,8,0:0:0:0:
201,172,658246,1,4,0:0:0:0:
190,201,658612,1,8,0:0:0:0:
330,116,658795,1,0,0:0:0:0:
278,224,658977,1,0,0:0:0:0:
416,190,659069,1,0,0:0:0:0:
305,162,659160,1,0,0:0:0:0:
376,210,659343,1,8,0:0:0:0:
346,142,659709,1,0,0:0:0:0:
362,206,659801,1,0,0:0:0:0:
362,206,659892,1,0,0:0:0:0:
381,191,660075,1,8,0:0:0:0:
427,198,660258,1,8,0:0:0:0:
306,228,660532,1,0,0:0:0:0:
403,195,660624,1,8,0:0:0:0:
403,195,660807,1,0,0:0:0:0:
240,192,660990,1,0,0:0:0:0:
323,220,661173,1,8,0:0:0:0:
224,177,661355,1,0,0:0:0:0:
248,176,661538,1,8,0:0:0:0:
265,211,661721,1,8,0:0:0:0:
248,182,661904,1,0,0:0:0:0:
211,225,662087,1,0,0:0:0:0:
306,273,662270,1,8,0:0:0:0:
220,177,662453,1,0,0:0:0:0:
327,173,662636,1,8,0:0:0:0:
371,216,662727,1,0,0:0:0:0:
272,197,662819,1,0,0:0:0:0:
400,203,663002,1,8,0:0:0:0:
441,197,663185,1,0,0:0:0:0:
441,197,663459,1,0,0:0:0:0:
290,175,663551,1,8,0:0:0:0:
290,175,663734,1,8,0:0:0:0:
441,197,663916,1,0,0:0:0:0:
452,205,664099,1,12,0:0:0:0:
407,201,664374,1,0,0:0:0:0:
414,184,664465,1,8,0:0:0:0:
418,180,664648,1,0,0:0:0:0:
266,109,664740,1,8,0:0:0:0:
418,180,664831,1,0,0:0:0:0:
410,186,665014,1,8,0:0:0:0:
410,186,665197,1,8,0:0:0:0:
412,195,665380,1,0,0:0:0:0:
281,234,665746,1,8,0:0:0:0:
414,213,665929,1,8,0:0:0:0:
198,189,666112,1,0,0:0:0:0:
292,187,666477,1,0,0:0:0:0:
285,166,666660,1,8,0:0:0:0:
318,221,666843,1,0,0:0:0:0:
318,221,667026,1,0,0:0:0:0:
327,180,667392,1,8,0:0:0:0:
361,191,667575,1,0,0:0:0:0:
211,181,667666,1,0,0:0:0:0:
211,181,667758,1,8,0:0:0:0:
278,157,667941,1,0,0:0:0:0:
401,157,668124,1,8,0:0:0:0:
401,157,668307,1,4,0:0:0:0:
241,163,668673,5,0,0:0:0:0:
226,241,668855,5,12,0:0:0:0:
316,222,669038,1,8,0:0:0:0:
386,222,669130,1,8,0:0:0:0:
316,222,669221,1,0,0:0:0:0:
316,222,669313,1,0,0:0:0:0:
341,160,669404,1,8,0:0:0:0:
507,170,669496,1,0,0:0:0:0:
403,191,669587,1,8,0:0:0:0:
358,207,669770,1,0,0:0:0:0:
477,172,669953,1,12,0:0:0:0:
190,201,670319,1,8,0:0:0:0:
215,141,670502,1,0,0:0:0:0:
376,210,670684,1,8,0:0:0:0:
305,162,670867,1,8,0:0:0:0:
376,210,671050,1,0,0:0:0:0:
377,155,671233,1,8,0:0:0:0:
346,142,671416,1,0,0:0:0:0:
362,206,671508,1,0,0:0:0:0:
362,206,671599,1,8,0:0:0:0:
381,191,671782,1,8,0:0:0:0:
427,198,671965,1,0,0:0:0:0:
306,228,672239,1,0,0:0:0:0:
403,195,672331,1,8,0:0:0:0:
403,195,672514,1,0,0:0:0:0:
240,192,672697,1,0,0:0:0:0:
323,220,672880,1,8,0:0:0:0:
384,160,673063,1,0,0:0:0:0:
248,176,673245,1,0,0:0:0:0:
265,211,673428,1,8,0:0:0:0:
248,182,673611,1,0,0:0:0:0:
179,161,673795,1,0,0:0:0:0:
306,273,673977,1,8,0:0:0:0:
220,177,674160,1,0,0:0:0:0:
327,173,674343,1,8,0:0:0:0:
371,216,674434,1,0,0:0:0:0:
272,197,674526,1,0,0:0:0:0:
400,203,674709,1,8,0:0:0:0:
441,197,674892,1,0,0:0:0:0:
441,197,675166,1,0,0:0:0:0:
290,175,675258,1,8,0:0:0:0:
290,175,675441,1,8,0:0:0:0:
441,197,675623,1,0,0:0:0:0:
452,205,675806,1,12,0:0:0:0:
407,201,676081,1,0,0:0:0:0:
414,184,676172,1,8,0:0:0:0:
418,180,676355,1,0,0:0:0:0:
418,180,676538,1,0,0:0:0:0:
410,186,676721,1,8,0:0:0:0:
410,186,676904,1,8,0:0:0:0:
412,195,677087,1,0,0:0:0:0:
281,234,677453,1,8,0:0:0:0:
221,170,677545,1,0,0:0:0:0:
414,213,677636,1,12,0:0:0:0:
198,189,677819,1,0,0:0:0:0:
292,187,678184,1,0,0:0:0:0:
285,166,678367,1,0,0:0:0:0:
318,221,678550,1,12,0:0:0:0:
318,221,678916,1,0,0:0:0:0:
327,180,679099,1,8,0:0:0:0:
361,191,679282,1,0,0:0:0:0:
211,181,679373,1,0,0:0:0:0:
211,181,679465,1,0,0:0:0:0:
278,157,679648,1,8,0:0:0:0:
401,157,679831,1,8,0:0:0:0:
401,157,680014,1,4,0:0:0:0:
241,163,680380,1,0,0:0:0:0:
226,241,680562,1,8,0:0:0:0:
162,127,680746,1,4,0:0:0:0:
348,186,681112,1,12,0:0:0:0:
358,207,681477,1,4,0:0:0:0:
125,66,688056,5,12,0:0:0:0:
134,297,688231,1,0,0:0:0:0:
134,297,688406,1,0,0:0:0:0:
134,297,688582,1,8,0:0:0:0:
134,297,688933,1,0,0:0:0:0:
141,296,689020,1,8,0:0:0:0:
141,296,689108,1,8,0:0:0:0:
141,295,689284,1,0,0:0:0:0:
134,297,689459,1,8,0:0:0:0:
134,297,689634,1,8,0:0:0:0:
139,294,689810,1,0,0:0:0:0:
141,296,690073,1,0,0:0:0:0:
141,295,690161,1,8,0:0:0:0:
139,294,690336,1,8,0:0:0:0:
139,294,690512,1,0,0:0:0:0:
139,294,690687,1,8,0:0:0:0:
141,296,690863,1,8,0:0:0:0:
141,296,691038,1,0,0:0:0:0:
139,294,691213,1,8,0:0:0:0:
139,294,691389,1,0,0:0:0:0:
139,294,691477,1,8,0:0:0:0:
139,294,691564,1,8,0:0:0:0:
141,296,691740,1,0,0:0:0:0:
141,296,691915,1,8,0:0:0:0:
139,294,692091,1,8,0:0:0:0:
139,294,692266,1,0,0:0:0:0:
139,294,692441,1,0,0:0:0:0:
141,296,692617,1,8,0:0:0:0:
143,289,692792,1,0,0:0:0:0:
122,44,692968,1,12,0:0:0:0:
158,306,693231,1,0,0:0:0:0:
158,306,693319,1,8,0:0:0:0:
150,301,693494,1,0,0:0:0:0:
148,297,693670,1,8,0:0:0:0:
148,297,693757,1,0,0:0:0:0:
151,298,693933,1,0,0:0:0:0:
151,298,694020,1,8,0:0:0:0:
151,298,694196,1,8,0:0:0:0:
150,301,694371,1,0,0:0:0:0:
148,297,694547,1,8,0:0:0:0:
148,297,694722,1,0,0:0:0:0:
151,298,694898,1,0,0:0:0:0:
151,298,695073,1,8,0:0:0:0:
150,301,695248,1,0,0:0:0:0:
150,301,695336,1,0,0:0:0:0:
148,297,695424,1,8,0:0:0:0:
148,297,695599,1,0,0:0:0:0:
151,298,695775,1,8,0:0:0:0:
151,290,695950,1,8,0:0:0:0:
150,301,696126,1,0,0:0:0:0:
154,303,696301,1,8,0:0:0:0:
154,303,696477,1,0,0:0:0:0:
154,302,696652,1,0,0:0:0:0:
154,302,696740,1,8,0:0:0:0:
154,302,696827,1,0,0:0:0:0:
159,293,697003,1,8,0:0:0:0:
159,293,697178,1,8,0:0:0:0:
159,293,697354,1,0,0:0:0:0:
159,293,697529,1,8,0:0:0:0:
159,293,697705,1,0,0:0:0:0:
171,301,697792,1,0,0:0:0:0:
113,28,697880,1,12,0:0:0:0:
180,299,698056,1,0,0:0:0:0:
180,295,698231,1,8,0:0:0:0:
180,295,698406,1,8,0:0:0:0:
180,295,698582,1,0,0:0:0:0:
180,295,698757,1,8,0:0:0:0:
180,299,698933,1,0,0:0:0:0:
180,299,699020,1,0,0:0:0:0:
180,295,699108,1,8,0:0:0:0:
180,295,699284,1,0,0:0:0:0:
180,295,699459,1,8,0:0:0:0:
180,295,699634,1,8,0:0:0:0:
183,292,699898,1,0,0:0:0:0:
183,292,699985,1,8,0:0:0:0:
183,289,700161,1,8,0:0:0:0:
181,269,700336,1,0,0:0:0:0:
185,289,700512,1,0,0:0:0:0:
199,279,700687,1,8,0:0:0:0:
201,273,700863,1,8,0:0:0:0:
201,273,701038,1,0,0:0:0:0:
201,273,701213,1,8,0:0:0:0:
201,273,701389,1,0,0:0:0:0:
201,273,701477,1,8,0:0:0:0:
201,273,701652,1,8,0:0:0:0:
208,286,701740,1,0,0:0:0:0:
206,285,701915,1,8,0:0:0:0:
206,285,702091,1,0,0:0:0:0:
206,285,702266,1,8,0:0:0:0:
206,285,702441,1,8,0:0:0:0:
206,285,702617,1,0,0:0:0:0:
208,286,702705,1,0,0:0:0:0:
168,29,702792,1,12,0:0:0:0:
219,304,703056,1,0,0:0:0:0:
219,304,703143,1,8,0:0:0:0:
219,304,703319,1,0,0:0:0:0:
219,304,703406,1,0,0:0:0:0:
219,304,703494,1,8,0:0:0:0:
219,304,703670,1,0,0:0:0:0:
219,304,703845,1,8,0:0:0:0:
219,304,704108,1,0,0:0:0:0:
219,304,704196,1,8,0:0:0:0:
219,304,704371,1,0,0:0:0:0:
219,304,704459,1,0,0:0:0:0:
219,304,704547,1,8,0:0:0:0:
235,306,704722,1,0,0:0:0:0:
235,306,704810,1,8,0:0:0:0:
235,306,704898,1,8,0:0:0:0:
225,291,705073,1,0,0:0:0:0:
225,291,705161,1,0,0:0:0:0:
140,49,705248,1,12,0:0:0:0:
127,308,705423,1,0,0:0:0:0:
127,308,705511,1,0,0:0:0:0:
127,308,705598,1,8,0:0:0:0:
127,308,705686,1,0,0:0:0:0:
127,308,705774,1,0,0:0:0:0:
127,308,705862,1,0,0:0:0:0:
127,308,705949,1,8,0:0:0:0:
127,308,706037,1,0,0:0:0:0:
127,308,706125,1,8,0:0:0:0:
127,308,706212,1,0,0:0:0:0:
127,308,706300,1,8,0:0:0:0:
127,308,706388,1,8,0:0:0:0:
127,308,706476,1,0,0:0:0:0:
127,308,706563,1,0,0:0:0:0:
115,39,706651,1,12,0:0:0:0:
122,44,708055,1,12,0:0:0:0:
139,279,708318,1,0,0:0:0:0:
139,279,708405,1,8,0:0:0:0:
136,289,708581,1,0,0:0:0:0:
136,287,708756,1,8,0:0:0:0:
136,287,708844,1,8,0:0:0:0:
136,287,708932,1,0,0:0:0:0:
131,278,709107,1,8,0:0:0:0:
131,278,709283,1,0,0:0:0:0:
133,272,709458,1,8,0:0:0:0:
126,263,709546,1,0,0:0:0:0:
140,278,709721,1,0,0:0:0:0:
140,278,709809,1,8,0:0:0:0:
135,283,709984,1,0,0:0:0:0:
133,272,710160,1,8,0:0:0:0:
133,272,710248,1,0,0:0:0:0:
132,274,710335,1,0,0:0:0:0:
140,278,710511,1,8,0:0:0:0:
140,280,710686,1,0,0:0:0:0:
140,280,710774,1,0,0:0:0:0:
140,280,710862,1,8,0:0:0:0:
127,274,711037,1,0,0:0:0:0:
136,268,711212,1,8,0:0:0:0:
126,274,711300,1,0,0:0:0:0:
136,268,711476,1,0,0:0:0:0:
136,268,711563,1,8,0:0:0:0:
127,274,711739,1,0,0:0:0:0:
128,274,711914,1,8,0:0:0:0:
136,268,712090,1,0,0:0:0:0:
136,268,712177,1,0,0:0:0:0:
136,268,712265,1,8,0:0:0:0:
136,268,712440,1,0,0:0:0:0:
136,268,712616,1,8,0:0:0:0:
136,268,712791,1,0,0:0:0:0:
143,264,712967,1,8,0:0:0:0:
136,268,713055,1,8,0:0:0:0:
143,264,713142,1,0,0:0:0:0:
143,264,713318,1,8,0:0:0:0:
143,264,713493,1,0,0:0:0:0:
143,264,713581,1,0,0:0:0:0:
61,0,713669,1,12,0:0:0:0:
143,264,713932,1,0,0:0:0:0:
143,264,714019,1,8,0:0:0:0:
151,260,714195,1,0,0:0:0:0:
146,256,714370,1,8,0:0:0:0:
146,256,714458,1,0,0:0:0:0:
146,256,714546,1,0,0:0:0:0:
152,245,714721,1,8,0:0:0:0:
152,245,714897,1,0,0:0:0:0:
152,245,714984,1,0,0:0:0:0:
152,245,715072,1,8,0:0:0:0:
144,244,715160,1,0,0:0:0:0:
140,266,715335,1,0,0:0:0:0:
140,266,715423,1,8,0:0:0:0:
152,256,715598,1,0,0:0:0:0:
152,256,715774,1,8,0:0:0:0:
152,256,715862,1,0,0:0:0:0:
152,256,715949,1,8,0:0:0:0:
140,266,716125,1,8,0:0:0:0:
140,266,716300,1,0,0:0:0:0:
140,266,716388,1,0,0:0:0:0:
140,266,716476,1,8,0:0:0:0:
140,249,716739,1,0,0:0:0:0:
140,266,716826,1,8,0:0:0:0:
140,266,717002,1,0,0:0:0:0:
143,257,717177,1,8,0:0:0:0:
143,257,717353,1,8,0:0:0:0:
143,257,717528,1,0,0:0:0:0:
143,257,717704,1,8,0:0:0:0:
143,257,717791,1,8,0:0:0:0:
143,257,717879,1,0,0:0:0:0:
143,257,718055,1,0,0:0:0:0:
143,257,718230,1,8,0:0:0:0:
143,257,718318,1,0,0:0:0:0:
135,257,718405,1,8,0:0:0:0:
135,257,718581,1,0,0:0:0:0:
143,257,718669,1,8,0:0:0:0:
129,243,718756,1,8,0:0:0:0:
127,261,718844,1,0,0:0:0:0:
137,257,718932,1,8,0:0:0:0:
137,257,719019,1,0,0:0:0:0:
137,257,719107,1,8,0:0:0:0:
122,44,719283,1,12,0:0:0:0:
139,279,719546,1,0,0:0:0:0:
139,279,719633,1,8,0:0:0:0:
136,289,719809,1,0,0:0:0:0:
136,287,719984,1,8,0:0:0:0:
136,287,720072,1,8,0:0:0:0:
136,287,720160,1,0,0:0:0:0:
131,278,720335,1,8,0:0:0:0:
131,278,720511,1,0,0:0:0:0:
135,258,720598,1,0,0:0:0:0:
133,272,720686,1,8,0:0:0:0:
126,263,720774,1,0,0:0:0:0:
140,278,720949,1,8,0:0:0:0:
140,278,721037,1,0,0:0:0:0:
135,283,721212,1,8,0:0:0:0:
133,272,721388,1,0,0:0:0:0:
133,272,721476,1,0,0:0:0:0:
132,274,721563,1,8,0:0:0:0:
140,278,721739,1,8,0:0:0:0:
140,280,721914,1,0,0:0:0:0:
140,280,722002,1,8,0:0:0:0:
140,280,722090,1,0,0:0:0:0:
127,274,722265,1,0,0:0:0:0:
136,268,722440,1,8,0:0:0:0:
126,274,722528,1,0,0:0:0:0:
136,268,722704,1,0,0:0:0:0:
136,268,722791,1,8,0:0:0:0:
127,274,722967,1,0,0:0:0:0:
128,274,723142,1,8,0:0:0:0:
136,268,723318,1,0,0:0:0:0:
136,268,723405,1,0,0:0:0:0:
136,268,723493,1,8,0:0:0:0:
136,268,723668,1,0,0:0:0:0:
136,268,723844,1,8,0:0:0:0:
136,268,724019,1,0,0:0:0:0:
134,262,724107,1,0,0:0:0:0:
143,264,724195,1,8,0:0:0:0:
143,264,724370,1,0,0:0:0:0:
136,268,724458,1,0,0:0:0:0:
143,264,724546,1,8,0:0:0:0:
139,256,724633,1,8,0:0:0:0:
143,264,724721,1,0,0:0:0:0:
143,264,724809,1,0,0:0:0:0:
134,11,724897,1,12,0:0:0:0:
143,264,725160,1,0,0:0:0:0:
143,264,725247,1,8,0:0:0:0:
151,260,725423,1,0,0:0:0:0:
146,256,725598,1,8,0:0:0:0:
146,256,725686,1,0,0:0:0:0:
146,256,725774,1,0,0:0:0:0:
152,245,725949,1,8,0:0:0:0:
152,245,726125,1,0,0:0:0:0:
152,245,726212,1,8,0:0:0:0:
152,245,726300,1,8,0:0:0:0:
144,244,726388,1,0,0:0:0:0:
140,266,726563,1,8,0:0:0:0:
140,266,726651,1,0,0:0:0:0:
152,256,726826,1,0,0:0:0:0:
152,256,727002,1,8,0:0:0:0:
152,256,727090,1,8,0:0:0:0:
152,256,727177,1,0,0:0:0:0:
140,266,727353,1,8,0:0:0:0:
140,266,727528,1,0,0:0:0:0:
140,266,727616,1,0,0:0:0:0:
82,0,727704,1,12,0:0:0:0:
140,249,727967,1,0,0:0:0:0:
140,266,728054,1,8,0:0:0:0:
140,266,728230,1,0,0:0:0:0:
143,257,728405,1,8,0:0:0:0:
131,238,728493,1,0,0:0:0:0:
143,257,728581,1,8,0:0:0:0:
143,257,728756,1,0,0:0:0:0:
143,257,728932,1,8,0:0:0:0:
143,257,729019,1,8,0:0:0:0:
143,257,729107,1,0,0:0:0:0:
143,257,729283,1,0,0:0:0:0:
143,257,729458,1,8,0:0:0:0:
143,257,729546,1,0,0:0:0:0:
135,257,729633,1,8,0:0:0:0:
135,257,729809,1,0,0:0:0:0:
143,257,729897,1,8,0:0:0:0:
129,243,729984,1,8,0:0:0:0:
127,261,730072,1,0,0:0:0:0:
137,257,730160,1,8,0:0:0:0:
137,257,730247,1,0,0:0:0:0:
137,257,730335,1,8,0:0:0:0:
108,21,730511,1,12,0:0:0:0:
142,294,730862,1,8,0:0:0:0:
142,294,731037,1,0,0:0:0:0:
142,294,731125,1,0,0:0:0:0:
142,294,731212,1,8,0:0:0:0:
142,294,731388,1,0,0:0:0:0:
133,290,731563,1,8,0:0:0:0:
133,290,731651,1,8,0:0:0:0:
131,297,731739,1,0,0:0:0:0:
133,291,731914,1,8,0:0:0:0:
133,291,732090,1,0,0:0:0:0:
133,290,732265,1,8,0:0:0:0:
133,290,732440,1,0,0:0:0:0:
133,291,732616,1,8,0:0:0:0:
133,291,732704,1,8,0:0:0:0:
133,291,732791,1,0,0:0:0:0:
133,290,732879,1,0,0:0:0:0:
133,290,732967,1,8,0:0:0:0:
133,290,733142,1,0,0:0:0:0:
133,290,733230,1,0,0:0:0:0:
133,291,733318,1,8,0:0:0:0:
142,294,733669,1,8,0:0:0:0:
142,294,733844,1,0,0:0:0:0:
142,294,733932,1,8,0:0:0:0:
142,294,734019,1,0,0:0:0:0:
142,294,734195,1,0,0:0:0:0:
133,290,734370,1,8,0:0:0:0:
133,290,734458,1,0,0:0:0:0:
131,297,734546,1,8,0:0:0:0:
133,291,734721,1,8,0:0:0:0:
133,291,734897,1,0,0:0:0:0:
133,290,735072,1,8,0:0:0:0:
133,290,735247,1,0,0:0:0:0:
133,291,735423,1,8,0:0:0:0:
133,291,735511,1,8,0:0:0:0:
133,291,735598,1,8,0:0:0:0:
133,290,735686,1,8,0:0:0:0:
133,290,735774,1,0,0:0:0:0:
133,290,735949,1,0,0:0:0:0:
133,290,736037,1,0,0:0:0:0:
93,11,736125,1,12,0:0:0:0:
125,292,736476,1,0,0:0:0:0:
125,292,736563,1,0,0:0:0:0:
125,292,736651,1,8,0:0:0:0:
120,289,736826,1,8,0:0:0:0:
120,289,737002,1,0,0:0:0:0:
120,289,737177,1,8,0:0:0:0:
120,289,737265,1,0,0:0:0:0:
120,289,737353,1,0,0:0:0:0:
113,289,737528,1,8,0:0:0:0:
113,289,737704,1,0,0:0:0:0:
113,289,737791,1,0,0:0:0:0:
113,289,737879,1,8,0:0:0:0:
109,284,738055,1,0,0:0:0:0:
109,284,738230,1,8,0:0:0:0:
109,284,738318,1,8,0:0:0:0:
108,284,738405,1,0,0:0:0:0:
109,284,738493,1,0,0:0:0:0:
103,284,738581,1,8,0:0:0:0:
109,284,738756,1,0,0:0:0:0:
109,284,738844,1,0,0:0:0:0:
109,284,738932,1,8,0:0:0:0:
125,292,739283,1,8,0:0:0:0:
125,292,739370,1,8,0:0:0:0:
125,292,739458,1,0,0:0:0:0:
120,289,739633,1,8,0:0:0:0:
120,289,739809,1,0,0:0:0:0:
120,289,739984,1,0,0:0:0:0:
120,289,740072,1,8,0:0:0:0:
120,289,740160,1,0,0:0:0:0:
58,0,740335,1,12,0:0:0:0:
113,289,740598,1,0,0:0:0:0:
113,289,740686,1,8,0:0:0:0:
109,284,740862,1,0,0:0:0:0:
109,284,741037,1,8,0:0:0:0:
109,284,741125,1,8,0:0:0:0:
108,284,741212,1,0,0:0:0:0:
103,284,741388,1,8,0:0:0:0:
110,279,741476,1,8,0:0:0:0:
109,284,741563,1,8,0:0:0:0:
109,284,741651,1,8,0:0:0:0:
117,0,741739,1,4,0:0:0:0:
110,296,742090,1,8,0:0:0:0:
110,296,742265,1,0,0:0:0:0:
110,296,742353,1,0,0:0:0:0:
110,296,742440,1,8,0:0:0:0:
110,296,742616,1,0,0:0:0:0:
98,291,742791,1,8,0:0:0:0:
98,291,742879,1,8,0:0:0:0:
98,291,742967,1,0,0:0:0:0:
102,297,743142,1,8,0:0:0:0:
96,298,743318,1,0,0:0:0:0:
96,298,743493,1,8,0:0:0:0:
98,291,743669,1,0,0:0:0:0:
97,284,743756,1,0,0:0:0:0:
97,284,743844,1,8,0:0:0:0:
93,284,744019,1,0,0:0:0:0:
92,284,744107,1,0,0:0:0:0:
92,284,744195,1,8,0:0:0:0:
109,291,744283,1,0,0:0:0:0:
109,291,744370,1,8,0:0:0:0:
101,286,744458,1,8,0:0:0:0:
103,54,744546,1,4,0:0:0:0:
105,289,744721,1,0,0:0:0:0:
106,287,744897,1,8,0:0:0:0:
106,287,744984,1,8,0:0:0:0:
109,291,745072,1,0,0:0:0:0:
106,287,745248,1,8,0:0:0:0:
105,289,745423,1,0,0:0:0:0:
105,289,745511,1,0,0:0:0:0:
106,287,745598,1,8,0:0:0:0:
106,287,745774,1,0,0:0:0:0:
106,287,745949,1,8,0:0:0:0:
106,287,746037,1,8,0:0:0:0:
105,289,746125,1,0,0:0:0:0:
105,289,746212,1,0,0:0:0:0:
105,289,746300,1,8,0:0:0:0:
106,287,746476,1,0,0:0:0:0:
106,287,746563,1,0,0:0:0:0:
106,287,746651,1,8,0:0:0:0:
106,287,746826,1,8,0:0:0:0:
105,289,746914,1,0,0:0:0:0:
105,289,747002,1,8,0:0:0:0:
105,289,747090,1,8,0:0:0:0:
106,287,747177,1,0,0:0:0:0:
106,287,747265,1,0,0:0:0:0:
100,14,747353,1,12,0:0:0:0:
116,294,747528,1,0,0:0:0:0:
112,290,747704,1,8,0:0:0:0:
112,290,747879,1,0,0:0:0:0:
112,290,747967,1,0,0:0:0:0:
112,290,748055,1,8,0:0:0:0:
109,289,748230,1,0,0:0:0:0:
105,287,748405,1,8,0:0:0:0:
105,287,748493,1,8,0:0:0:0:
105,287,748581,1,0,0:0:0:0:
111,272,748756,1,8,0:0:0:0:
111,272,748932,1,0,0:0:0:0:
111,272,749107,1,8,0:0:0:0:
111,272,749283,1,0,0:0:0:0:
111,272,749370,1,0,0:0:0:0:
111,272,749458,1,8,0:0:0:0:
111,272,749633,1,0,0:0:0:0:
111,272,749721,1,0,0:0:0:0:
111,272,749809,1,8,0:0:0:0:
111,272,749897,1,8,0:0:0:0:
111,272,749984,1,0,0:0:0:0:
111,272,750072,1,0,0:0:0:0:
103,63,750160,1,12,0:0:0:0:
112,280,750335,1,0,0:0:0:0:
112,280,750423,1,0,0:0:0:0:
112,280,750511,1,8,0:0:0:0:
112,280,750598,1,0,0:0:0:0:
112,280,750686,1,0,0:0:0:0:
112,280,750774,1,0,0:0:0:0:
112,280,750862,1,8,0:0:0:0:
112,280,750949,1,8,0:0:0:0:
112,280,751037,1,0,0:0:0:0:
112,280,751125,1,0,0:0:0:0:
112,280,751212,1,8,0:0:0:0:
112,280,751300,1,8,0:0:0:0:
112,280,751388,1,0,0:0:0:0:
112,280,751476,1,0,0:0:0:0:
109,266,751563,1,8,0:0:0:0:
109,266,751651,1,8,0:0:0:0:
109,266,751739,1,8,0:0:0:0:
109,266,751826,1,0,0:0:0:0:
109,266,751914,1,8,0:0:0:0:
109,266,752002,1,0,0:0:0:0:
109,266,752090,1,8,0:0:0:0:
110,272,752265,1,0,0:0:0:0:
126,258,752440,1,0,0:0:0:0:
126,258,752499,1,0,0:0:0:0:
126,258,752557,1,0,0:0:0:0:
126,258,752616,1,8,0:0:0:0:
118,32,752967,1,4,0:0:0:0:
256,192,753142,12,0,757177,0:0:0:0:
256,192,761057,5,4,0:0:0:0:
256,192,761405,1,8,0:0:0:0:
256,192,761667,5,8,0:0:0:0:
256,192,761754,1,0,0:0:0:0:
256,192,761929,1,0,0:0:0:0:
256,192,762103,1,0,0:0:0:0:
256,192,762277,1,12,0:0:0:0:
256,192,762626,1,0,0:0:0:0:
256,192,762713,1,0,0:0:0:0:
256,192,762801,1,8,0:0:0:0:
256,192,762975,1,0,0:0:0:0:
256,192,763150,1,8,0:0:0:0:
256,192,763237,1,0,0:0:0:0:
256,192,763324,1,0,0:0:0:0:
256,192,763411,1,0,0:0:0:0:
256,192,763498,1,8,0:0:0:0:
256,192,763847,1,0,0:0:0:0:
256,192,764022,1,0,0:0:0:0:
256,192,764196,1,8,0:0:0:0:
256,192,764458,1,8,0:0:0:0:
256,192,764545,1,0,0:0:0:0:
256,192,764719,1,0,0:0:0:0:
256,192,764894,1,0,0:0:0:0:
256,192,765068,1,12,0:0:0:0:
256,192,765417,1,0,0:0:0:0:
256,192,765504,1,0,0:0:0:0:
256,192,765591,1,8,0:0:0:0:
256,192,765766,1,0,0:0:0:0:
256,192,765940,1,8,0:0:0:0:
256,192,766027,1,8,0:0:0:0:
256,192,766115,1,0,0:0:0:0:
256,192,766202,1,0,0:0:0:0:
256,192,766289,1,8,0:0:0:0:
256,192,766463,1,8,0:0:0:0:
256,192,766638,1,4,0:0:0:0:
256,192,766987,1,8,0:0:0:0:
256,192,767248,1,8,0:0:0:0:
256,192,767336,1,0,0:0:0:0:
256,192,767510,1,0,0:0:0:0:
256,192,767684,1,0,0:0:0:0:
256,192,767859,1,12,0:0:0:0:
256,192,768208,1,0,0:0:0:0:
256,192,768295,1,0,0:0:0:0:
256,192,768382,1,8,0:0:0:0:
256,192,768557,1,0,0:0:0:0:
256,192,768731,1,0,0:0:0:0:
256,192,768818,1,0,0:0:0:0:
256,192,768905,1,0,0:0:0:0:
256,192,768993,1,0,0:0:0:0:
256,192,769080,1,8,0:0:0:0:
256,192,769429,1,0,0:0:0:0:
256,192,769603,1,0,0:0:0:0:
256,192,769777,1,8,0:0:0:0:
256,192,770039,1,8,0:0:0:0:
256,192,770126,1,0,0:0:0:0:
256,192,770301,1,0,0:0:0:0:
256,192,770475,1,0,0:0:0:0:
256,192,770650,1,12,0:0:0:0:
256,192,770998,1,8,0:0:0:0:
256,192,771086,1,0,0:0:0:0:
256,192,771173,1,8,0:0:0:0:
256,192,771347,1,0,0:0:0:0:
256,192,771522,1,0,0:0:0:0:
256,192,771609,1,8,0:0:0:0:
256,192,771696,1,0,0:0:0:0:
256,192,771783,1,0,0:0:0:0:
256,192,771870,1,8,0:0:0:0:
256,192,772045,1,8,0:0:0:0:
256,192,772219,5,4,0:0:0:0:
256,192,772568,1,8,0:0:0:0:
256,192,772830,1,8,0:0:0:0:
256,192,772917,1,0,0:0:0:0:
256,192,773091,1,0,0:0:0:0:
256,192,773266,1,0,0:0:0:0:
256,192,773440,1,12,0:0:0:0:
256,192,773789,1,0,0:0:0:0:
256,192,773876,1,0,0:0:0:0:
256,192,773963,1,8,0:0:0:0:
256,192,774138,1,0,0:0:0:0:
256,192,774312,1,8,0:0:0:0:
256,192,774400,1,0,0:0:0:0:
256,192,774487,1,0,0:0:0:0:
256,192,774574,1,0,0:0:0:0:
256,192,774661,1,8,0:0:0:0:
256,192,775010,1,0,0:0:0:0:
256,192,775359,1,8,0:0:0:0:
256,192,775620,1,8,0:0:0:0:
256,192,775708,1,0,0:0:0:0:
256,192,775882,1,0,0:0:0:0:
256,192,776057,1,0,0:0:0:0:
256,192,776231,1,12,0:0:0:0:
256,192,776580,1,0,0:0:0:0:
256,192,776667,1,0,0:0:0:0:
256,192,776754,1,8,0:0:0:0:
256,192,776929,1,0,0:0:0:0:
256,192,777103,1,0,0:0:0:0:
256,192,777190,1,0,0:0:0:0:
256,192,777277,1,8,0:0:0:0:
256,192,777365,1,0,0:0:0:0:
256,192,777452,1,8,0:0:0:0:
256,192,777626,1,8,0:0:0:0:
256,192,777801,1,4,0:0:0:0:
256,192,778150,1,8,0:0:0:0:
256,192,778411,1,8,0:0:0:0:
256,192,778498,1,0,0:0:0:0:
256,192,778673,1,0,0:0:0:0:
256,192,778847,1,0,0:0:0:0:
256,192,779022,1,12,0:0:0:0:
256,192,779370,1,0,0:0:0:0:
256,192,779458,1,0,0:0:0:0:
256,192,779545,1,8,0:0:0:0:
256,192,779719,1,0,0:0:0:0:
256,192,779894,1,0,0:0:0:0:
256,192,779981,1,0,0:0:0:0:
256,192,780068,1,0,0:0:0:0:
256,192,780155,1,0,0:0:0:0:
256,192,780243,1,8,0:0:0:0:
256,192,780591,1,0,0:0:0:0:
256,192,780766,1,0,0:0:0:0:
256,192,780940,1,8,0:0:0:0:
256,192,781202,1,8,0:0:0:0:
256,192,781289,1,8,0:0:0:0:
256,192,781463,1,0,0:0:0:0:
256,192,781638,1,0,0:0:0:0:
256,192,781812,1,12,0:0:0:0:
256,192,782161,1,0,0:0:0:0:
256,192,782248,1,0,0:0:0:0:
256,192,782336,1,8,0:0:0:0:
256,192,782510,1,8,0:0:0:0:
256,192,782597,1,0,0:0:0:0:
256,192,782684,1,8,0:0:0:0:
256,192,782859,1,0,0:0:0:0:
256,192,783033,1,0,0:0:0:0:
256,192,783382,5,4,0:0:0:0:
256,192,783905,1,0,0:0:0:0:
256,192,784254,1,0,0:0:0:0:
256,192,784603,1,8,0:0:0:0:
256,192,784952,1,8,0:0:0:0:
256,192,785126,1,0,0:0:0:0:
256,192,785475,1,8,0:0:0:0:
256,192,785650,1,0,0:0:0:0:
256,192,785998,1,0,0:0:0:0:
256,192,786173,1,12,0:0:0:0:
256,192,786696,1,0,0:0:0:0:
256,192,787045,1,0,0:0:0:0:
256,192,787394,1,8,0:0:0:0:
256,192,787743,1,0,0:0:0:0:
256,192,787917,1,0,0:0:0:0:
256,192,788266,1,8,0:0:0:0:
256,192,788440,1,0,0:0:0:0:
256,192,788789,1,8,0:0:0:0:
256,192,788963,1,4,0:0:0:0:
256,192,789487,1,0,0:0:0:0:
256,192,789836,1,0,0:0:0:0:
256,192,790184,1,8,0:0:0:0:
256,192,790533,1,8,0:0:0:0:
256,192,790708,1,0,0:0:0:0:
256,192,791057,1,8,0:0:0:0:
256,192,791231,1,0,0:0:0:0:
256,192,791580,1,0,0:0:0:0:
256,192,791754,1,12,0:0:0:0:
256,192,792277,1,0,0:0:0:0:
256,192,792452,1,8,0:0:0:0:
256,192,792801,1,8,0:0:0:0:
256,192,792975,1,4,0:0:0:0:
256,192,793324,1,0,0:0:0:0:
256,192,793498,1,8,0:0:0:0:
256,192,793760,1,0,0:0:0:0:
256,192,793847,1,8,0:0:0:0:
256,192,793934,1,8,0:0:0:0:
256,192,794022,1,0,0:0:0:0:
256,192,794196,1,8,0:0:0:0:
256,192,794283,1,0,0:0:0:0:
256,192,794370,1,8,0:0:0:0:
256,192,794458,1,8,0:0:0:0:
256,192,794545,1,4,0:0:0:0:
256,192,794807,1,0,0:0:0:0:
256,192,794894,1,8,0:0:0:0:
256,192,795243,1,0,0:0:0:0:
256,192,795417,1,0,0:0:0:0:
256,192,795766,1,8,0:0:0:0:
256,192,795940,1,0,0:0:0:0:
256,192,796115,1,0,0:0:0:0:
256,192,796289,1,8,0:0:0:0:
256,192,796638,1,0,0:0:0:0:
256,192,796812,1,0,0:0:0:0:
256,192,796987,1,8,0:0:0:0:
256,192,797336,1,0,0:0:0:0:
256,192,797684,1,8,0:0:0:0:
256,192,798033,1,0,0:0:0:0:
256,192,798208,1,0,0:0:0:0:
256,192,798557,1,8,0:0:0:0:
256,192,798905,1,0,0:0:0:0:
256,192,799080,1,8,0:0:0:0:
256,192,799429,1,8,0:0:0:0:
256,192,799603,1,0,0:0:0:0:
256,192,799777,1,8,0:0:0:0:
256,192,799952,1,12,0:0:0:0:
256,192,800126,1,4,0:0:0:0:
256,192,800475,1,12,0:0:0:0:
256,192,800824,1,0,0:0:0:0:
256,192,800998,1,0,0:0:0:0:
256,192,801347,1,8,0:0:0:0:
256,192,801696,1,0,0:0:0:0:
256,192,801870,1,8,0:0:0:0:
256,192,802219,1,0,0:0:0:0:
256,192,802394,1,0,0:0:0:0:
256,192,802568,1,8,0:0:0:0:
256,192,802917,1,12,0:0:0:0:
256,192,803266,1,8,0:0:0:0:
256,192,803615,1,8,0:0:0:0:
256,192,803789,1,0,0:0:0:0:
256,192,803963,1,8,0:0:0:0:
256,192,804138,1,0,0:0:0:0:
256,192,804312,1,12,0:0:0:0:
256,192,804487,1,0,0:0:0:0:
256,192,804661,1,0,0:0:0:0:
256,192,804836,1,12,0:0:0:0:
256,192,805010,1,0,0:0:0:0:
256,192,805184,1,0,0:0:0:0:
256,192,805359,1,12,0:0:0:0:
256,192,806231,1,0,0:0:0:0:
256,192,806318,1,0,0:0:0:0:
256,192,806405,1,8,0:0:0:0:
256,192,806493,1,0,0:0:0:0:
256,192,806580,1,0,0:0:0:0:
256,192,806667,1,0,0:0:0:0:
256,192,806754,1,12,0:0:0:0:
256,192,807103,5,4,0:0:0:0:
256,192,807452,1,8,0:0:0:0:
256,192,807801,1,0,0:0:0:0:
256,192,807975,1,8,0:0:0:0:
256,192,808062,1,0,0:0:0:0:
256,192,808150,1,8,0:0:0:0:
256,192,808324,1,0,0:0:0:0:
256,192,808673,1,0,0:0:0:0:
256,192,808760,1,0,0:0:0:0:
256,192,808847,1,8,0:0:0:0:
256,192,809022,1,0,0:0:0:0:
256,192,809109,1,8,0:0:0:0:
256,192,809196,1,0,0:0:0:0:
256,192,809283,1,0,0:0:0:0:
256,192,809370,1,8,0:0:0:0:
256,192,809458,1,0,0:0:0:0:
256,192,809545,1,8,0:0:0:0:
256,192,809807,1,8,0:0:0:0:
256,192,809894,1,4,0:0:0:0:
256,192,810243,1,8,0:0:0:0:
256,192,810591,1,0,0:0:0:0:
256,192,810766,1,0,0:0:0:0:
256,192,810853,1,0,0:0:0:0:
256,192,810940,1,8,0:0:0:0:
256,192,811115,1,8,0:0:0:0:
256,192,811463,1,0,0:0:0:0:
256,192,811551,1,0,0:0:0:0:
256,192,811638,1,8,0:0:0:0:
256,192,811812,1,0,0:0:0:0:
256,192,811987,1,8,0:0:0:0:
256,192,812074,1,0,0:0:0:0:
256,192,812161,1,0,0:0:0:0:
256,192,812248,1,0,0:0:0:0:
256,192,812336,1,8,0:0:0:0:
256,192,812597,1,8,0:0:0:0:
256,192,812684,1,4,0:0:0:0:
256,192,813033,1,8,0:0:0:0:
256,192,813382,1,0,0:0:0:0:
256,192,813557,1,8,0:0:0:0:
256,192,813644,1,0,0:0:0:0:
256,192,813731,1,8,0:0:0:0:
256,192,813905,1,0,0:0:0:0:
256,192,814254,1,0,0:0:0:0:
256,192,814429,1,8,0:0:0:0:
256,192,814603,1,0,0:0:0:0:
256,192,814690,1,0,0:0:0:0:
256,192,814777,1,8,0:0:0:0:
256,192,814865,1,0,0:0:0:0:
256,192,814952,1,0,0:0:0:0:
256,192,815126,1,8,0:0:0:0:
256,192,815475,1,12,0:0:0:0:
256,192,815650,1,0,0:0:0:0:
256,192,815737,1,0,0:0:0:0:
256,192,815824,1,8,0:0:0:0:
256,192,815998,1,0,0:0:0:0:
256,192,816173,1,0,0:0:0:0:
256,192,816260,1,0,0:0:0:0:
256,192,816347,1,0,0:0:0:0:
256,192,816522,1,8,0:0:0:0:
256,192,816696,1,4,0:0:0:0:
256,192,817045,1,0,0:0:0:0:
256,192,817132,1,0,0:0:0:0:
256,192,817219,1,8,0:0:0:0:
256,192,817394,1,0,0:0:0:0:
256,192,817568,1,0,0:0:0:0:
256,192,817743,1,8,0:0:0:0:
256,192,817830,1,0,0:0:0:0:
256,192,817917,1,8,0:0:0:0:
256,192,818004,1,8,0:0:0:0:
256,192,818091,1,0,0:0:0:0:
256,192,818179,1,8,0:0:0:0:
256,192,818266,1,4,0:0:0:0:
256,192,818615,1,12,0:0:0:0:
256,192,818963,1,0,0:0:0:0:
256,192,819138,1,8,0:0:0:0:
256,192,819225,1,0,0:0:0:0:
256,192,819312,1,8,0:0:0:0:
256,192,819487,1,0,0:0:0:0:
256,192,819836,1,0,0:0:0:0:
256,192,820010,1,8,0:0:0:0:
256,192,820184,1,0,0:0:0:0:
256,192,820272,1,8,0:0:0:0:
256,192,820359,1,0,0:0:0:0:
256,192,820533,1,0,0:0:0:0:
256,192,820708,1,8,0:0:0:0:
256,192,821057,1,4,0:0:0:0:
256,192,821405,1,8,0:0:0:0:
256,192,821754,1,0,0:0:0:0:
256,192,821929,1,0,0:0:0:0:
256,192,822016,1,0,0:0:0:0:
256,192,822103,1,8,0:0:0:0:
256,192,822277,1,8,0:0:0:0:
256,192,822626,1,0,0:0:0:0:
256,192,822801,1,8,0:0:0:0:
256,192,822975,1,8,0:0:0:0:
256,192,823062,1,0,0:0:0:0:
256,192,823150,1,8,0:0:0:0:
256,192,823324,1,0,0:0:0:0:
256,192,823498,1,8,0:0:0:0:
256,192,823673,1,0,0:0:0:0:
256,192,823760,1,0,0:0:0:0:
256,192,823847,1,12,0:0:0:0:
256,192,824196,1,8,0:0:0:0:
256,192,824545,1,8,0:0:0:0:
256,192,824719,1,0,0:0:0:0:
256,192,824894,1,8,0:0:0:0:
256,192,825068,1,0,0:0:0:0:
256,192,825243,1,8,0:0:0:0:
256,192,825417,1,0,0:0:0:0:
256,192,825591,1,8,0:0:0:0:
256,192,825766,1,0,0:0:0:0:
256,192,825940,1,8,0:0:0:0:
256,192,826027,1,0,0:0:0:0:
256,192,826115,1,0,0:0:0:0:
256,192,826202,1,0,0:0:0:0:
256,192,826289,1,8,0:0:0:0:
256,192,826463,1,0,0:0:0:0:
256,192,826638,1,12,0:0:0:0:
256,192,826987,1,8,0:0:0:0:
256,192,827074,1,8,0:0:0:0:
256,192,827161,1,0,0:0:0:0:
256,192,827248,1,0,0:0:0:0:
256,192,827336,1,0,0:0:0:0:
256,192,827510,1,8,0:0:0:0:
256,192,827684,1,8,0:0:0:0:
256,192,827859,1,4,0:0:0:0:
256,192,828208,1,0,0:0:0:0:
256,192,828382,1,8,0:0:0:0:
256,192,828731,1,0,0:0:0:0:
256,192,828905,1,8,0:0:0:0:
256,192,828993,1,0,0:0:0:0:
256,192,829080,1,8,0:0:0:0:
256,192,829167,1,8,0:0:0:0:
256,192,829254,1,0,0:0:0:0:
256,192,829429,1,12,0:0:0:0:
256,192,837560,5,8,0:0:0:0:
256,192,837893,1,0,0:0:0:0:
256,192,838060,1,8,0:0:0:0:
256,192,838227,1,0,0:0:0:0:
256,192,838393,1,8,0:0:0:0:
256,192,838560,1,0,0:0:0:0:
256,192,838727,1,0,0:0:0:0:
256,192,838893,1,8,0:0:0:0:
256,192,839060,5,4,0:0:0:0:
256,192,839393,1,8,0:0:0:0:
256,192,839560,1,0,0:0:0:0:
256,192,839893,1,0,0:0:0:0:
256,192,840060,1,8,0:0:0:0:
256,192,840227,1,0,0:0:0:0:
256,192,840310,1,0,0:0:0:0:
256,192,840393,1,8,0:0:0:0:
256,192,840560,1,0,0:0:0:0:
256,192,840727,1,12,0:0:0:0:
256,192,840893,1,8,0:0:0:0:
256,192,840977,1,8,0:0:0:0:
256,192,841060,1,0,0:0:0:0:
256,192,841227,1,0,0:0:0:0:
256,192,841393,1,0,0:0:0:0:
256,192,841727,1,0,0:0:0:0:
256,192,841893,1,0,0:0:0:0:
256,192,842060,1,12,0:0:0:0:
256,192,842393,1,8,0:0:0:0:
256,192,842560,1,0,0:0:0:0:
256,192,842893,1,0,0:0:0:0:
256,192,843227,1,0,0:0:0:0:
256,192,843393,1,12,0:0:0:0:
256,192,843560,1,0,0:0:0:0:
256,192,843727,1,8,0:0:0:0:
256,192,843893,1,8,0:0:0:0:
256,192,844060,1,0,0:0:0:0:
256,192,844227,1,0,0:0:0:0:
256,192,844393,1,4,0:0:0:0:
256,192,844727,1,0,0:0:0:0:
256,192,844893,1,0,0:0:0:0:
256,192,845060,1,8,0:0:0:0:
256,192,845227,1,0,0:0:0:0:
256,192,845393,1,8,0:0:0:0:
256,192,845560,1,0,0:0:0:0:
256,192,845727,1,0,0:0:0:0:
256,192,846060,1,8,0:0:0:0:
256,192,846227,1,0,0:0:0:0:
256,192,846393,5,8,0:0:0:0:
256,192,846560,1,0,0:0:0:0:
256,192,846727,1,8,0:0:0:0:
256,192,847060,5,4,0:0:0:0:
256,192,847393,1,0,0:0:0:0:
256,192,847560,1,0,0:0:0:0:
256,192,847727,1,8,0:0:0:0:
256,192,847893,1,0,0:0:0:0:
256,192,848060,1,8,0:0:0:0:
256,192,848227,1,0,0:0:0:0:
256,192,848560,1,8,0:0:0:0:
256,192,848727,1,0,0:0:0:0:
256,192,848893,1,0,0:0:0:0:
256,192,849060,1,8,0:0:0:0:
256,192,849227,1,0,0:0:0:0:
256,192,849393,1,12,0:0:0:0:
256,192,849727,5,4,0:0:0:0:
256,192,849893,1,4,0:0:0:0:
256,192,850060,1,4,0:0:0:0:
256,192,850227,1,12,0:0:0:0:
256,192,850560,1,4,0:0:0:0:
256,192,850893,1,12,0:0:0:0:
256,192,851227,1,4,0:0:0:0:
256,192,851393,2,4,B|512:192|512:192|512:96,1,350,0|0,0:0|0:0,0:0:0:0:
256,192,852393,5,4,0:0:0:0:
256,192,852727,1,8,0:0:0:0:
256,192,852810,1,0,0:0:0:0:
256,192,852893,1,8,0:0:0:0:
256,192,852977,1,8,0:0:0:0:
256,192,853060,1,0,0:0:0:0:
256,192,853227,1,0,0:0:0:0:
256,192,853560,1,4,0:0:0:0:
256,192,853893,1,0,0:0:0:0:
256,192,854060,1,8,0:0:0:0:
256,192,854227,1,8,0:0:0:0:
256,192,854310,1,8,0:0:0:0:
256,192,854393,1,0,0:0:0:0:
256,192,854560,1,0,0:0:0:0:
256,192,854727,1,8,0:0:0:0:
256,192,854893,1,4,0:0:0:0:
256,192,855227,1,0,0:0:0:0:
256,192,855393,1,8,0:0:0:0:
256,192,855560,1,8,0:0:0:0:
256,192,855643,1,8,0:0:0:0:
256,192,855727,1,0,0:0:0:0:
256,192,855893,1,0,0:0:0:0:
256,192,855977,1,0,0:0:0:0:
256,192,856060,1,8,0:0:0:0:
256,192,856227,1,0,0:0:0:0:
256,192,856393,1,4,0:0:0:0:
256,192,856560,1,0,0:0:0:0:
256,192,856643,1,0,0:0:0:0:
256,192,856727,1,8,0:0:0:0:
256,192,856893,1,8,0:0:0:0:
256,192,857060,1,0,0:0:0:0:
256,192,857227,1,8,0:0:0:0:
256,192,857310,1,0,0:0:0:0:
256,192,857393,1,8,0:0:0:0:
256,192,857560,1,4,0:0:0:0:
256,192,857893,1,0,0:0:0:0:
256,192,858060,1,8,0:0:0:0:
256,192,858227,1,8,0:0:0:0:
256,192,858310,1,0,0:0:0:0:
256,192,858393,1,0,0:0:0:0:
256,192,858560,1,0,0:0:0:0:
256,192,858643,1,0,0:0:0:0:
256,192,858727,1,8,0:0:0:0:
256,192,858893,1,4,0:0:0:0:
256,192,859227,1,0,0:0:0:0:
256,192,859393,1,8,0:0:0:0:
256,192,859560,1,0,0:0:0:0:
256,192,859643,1,0,0:0:0:0:
256,192,859727,1,0,0:0:0:0:
256,192,859893,1,0,0:0:0:0:
256,192,860060,1,8,0:0:0:0:
259,186,860227,1,0,0:0:0:0:
256,192,860310,1,0,0:0:0:0:
256,192,860393,1,8,0:0:0:0:
256,192,860560,1,0,0:0:0:0:
256,192,860727,1,8,0:0:0:0:
256,192,860893,1,8,0:0:0:0:
256,192,860977,1,8,0:0:0:0:
256,192,861060,1,0,0:0:0:0:
256,192,861227,1,0,0:0:0:0:
256,192,861393,1,8,0:0:0:0:
256,192,861477,1,0,0:0:0:0:
256,192,861560,1,8,0:0:0:0:
256,192,861727,1,4,0:0:0:0:
256,192,861893,1,0,0:0:0:0:
256,192,861977,1,0,0:0:0:0:
256,192,862060,1,8,0:0:0:0:
256,192,862227,1,0,0:0:0:0:
256,192,862560,1,0,0:0:0:0:
256,192,862643,1,0,0:0:0:0:
256,192,862727,1,8,0:0:0:0:
256,192,862893,1,0,0:0:0:0:
256,192,863060,1,4,0:0:0:0:
256,192,863393,1,8,0:0:0:0:
256,192,863560,1,0,0:0:0:0:
256,192,863727,1,8,0:0:0:0:
256,192,863810,1,0,0:0:0:0:
256,192,863893,1,8,0:0:0:0:
256,192,864060,1,8,0:0:0:0:
256,192,864227,1,4,0:0:0:0:
256,192,864560,1,0,0:0:0:0:
256,192,864727,1,8,0:0:0:0:
256,192,864893,1,8,0:0:0:0:
256,192,864977,1,8,0:0:0:0:
256,192,865060,1,0,0:0:0:0:
256,192,865227,1,0,0:0:0:0:
256,192,865393,1,8,0:0:0:0:
256,192,865560,1,4,0:0:0:0:
256,192,865893,1,0,0:0:0:0:
256,192,866060,1,8,0:0:0:0:
256,192,866227,1,8,0:0:0:0:
256,192,866310,1,8,0:0:0:0:
256,192,866393,1,0,0:0:0:0:
256,192,866560,1,0,0:0:0:0:
256,192,866643,1,0,0:0:0:0:
256,192,866727,1,8,0:0:0:0:
256,192,866893,1,0,0:0:0:0:
256,192,867060,1,4,0:0:0:0:
256,192,867227,1,0,0:0:0:0:
256,192,867310,1,0,0:0:0:0:
256,192,867393,1,8,0:0:0:0:
256,192,867560,1,8,0:0:0:0:
256,192,867727,1,0,0:0:0:0:
256,192,867893,1,8,0:0:0:0:
256,192,867977,1,0,0:0:0:0:
256,192,868060,1,8,0:0:0:0:
256,192,868227,1,4,0:0:0:0:
256,192,868560,1,0,0:0:0:0:
256,192,868727,1,8,0:0:0:0:
256,192,868893,1,0,0:0:0:0:
256,192,869060,1,8,0:0:0:0:
256,192,869227,1,0,0:0:0:0:
256,192,869393,1,0,0:0:0:0:
256,192,869560,1,4,0:0:0:0:
256,192,869727,1,12,0:0:0:0:
256,192,870227,1,0,0:0:0:0:
256,192,870393,1,8,0:0:0:0:
256,192,870560,1,0,0:0:0:0:
256,192,870727,1,12,0:0:0:0:
256,192,870893,1,0,0:0:0:0:
256,192,871227,1,0,0:0:0:0:
256,192,871393,1,12,0:0:0:0:
256,192,871560,1,0,0:0:0:0:
256,192,871727,1,8,0:0:0:0:
256,192,872060,1,0,0:0:0:0:
256,192,872227,1,4,0:0:0:0:
256,192,872393,1,12,0:0:0:0:
256,192,872560,1,0,0:0:0:0:
256,192,872727,1,8,0:0:0:0:
256,192,872893,1,4,0:0:0:0:
256,192,873060,1,8,0:0:0:0:
256,192,873143,1,0,0:0:0:0:
256,192,873227,1,0,0:0:0:0:
256,192,873393,1,8,0:0:0:0:
256,192,873560,1,4,0:0:0:0:
256,192,873893,1,0,0:0:0:0:
256,192,874060,1,8,0:0:0:0:
256,192,874227,1,0,0:0:0:0:
256,192,874310,1,0,0:0:0:0:
256,192,874393,1,8,0:0:0:0:
256,192,874560,1,8,0:0:0:0:
256,192,874727,1,0,0:0:0:0:
257,192,874893,1,0,0:0:0:0:
256,192,875060,1,4,0:0:0:0:
64,64,881530,5,0,0:0:0:0:
64,64,881695,1,0,0:0:0:0:
320,64,882027,5,8,0:0:0:0:
64,64,882358,5,0,0:0:0:0:
320,64,882524,1,8,0:0:0:0:
64,64,882690,1,0,0:0:0:0:
64,64,882855,1,0,0:0:0:0:
64,64,883021,1,0,0:0:0:0:
64,64,883353,1,0,0:0:0:0:
64,64,883684,1,0,0:0:0:0:
320,64,883850,1,8,0:0:0:0:
64,64,884016,1,0,0:0:0:0:
64,64,884099,1,0,0:0:0:0:
320,64,884181,1,8,0:0:0:0:
64,64,884347,1,0,0:0:0:0:
320,64,884679,1,8,0:0:0:0:
320,64,885010,1,8,0:0:0:0:
64,64,885176,1,0,0:0:0:0:
64,64,885342,1,0,0:0:0:0:
320,64,885507,1,8,0:0:0:0:
64,64,885673,1,0,0:0:0:0:
64,64,885756,1,0,0:0:0:0:
320,64,885839,1,8,0:0:0:0:
64,64,886005,1,0,0:0:0:0:
320,64,886170,1,8,0:0:0:0:
320,64,886336,1,8,0:0:0:0:
64,64,886502,1,0,0:0:0:0:
64,64,886668,1,0,0:0:0:0:
320,64,886833,1,12,0:0:0:0:
64,64,887082,1,0,0:0:0:0:
320,64,887165,1,8,0:0:0:0:
64,64,887331,1,0,0:0:0:0:
64,64,887662,1,0,0:0:0:0:
320,64,887828,1,8,0:0:0:0:
320,64,887994,1,8,0:0:0:0:
320,64,888076,1,8,0:0:0:0:
64,64,888159,1,0,0:0:0:0:
64,64,888408,1,0,0:0:0:0:
320,64,888491,1,8,0:0:0:0:
64,64,888657,1,0,0:0:0:0:
64,64,888988,1,0,0:0:0:0:
320,64,889154,1,8,0:0:0:0:
320,64,889485,1,8,0:0:0:0:
64,64,889734,1,0,0:0:0:0:
320,64,889817,1,8,0:0:0:0:
64,64,889983,1,0,0:0:0:0:
64,64,890314,1,0,0:0:0:0:
320,64,890480,1,8,0:0:0:0:
64,64,890646,1,0,0:0:0:0:
64,64,890811,1,0,0:0:0:0:
320,64,890977,1,8,0:0:0:0:
320,64,891060,1,8,0:0:0:0:
64,64,891143,1,0,0:0:0:0:
320,64,891309,1,8,0:0:0:0:
64,64,891474,1,0,0:0:0:0:
64,64,891640,1,0,0:0:0:0:
64,64,891723,1,0,0:0:0:0:
320,64,891806,1,8,0:0:0:0:
320,64,891971,1,12,0:0:0:0:
320,64,892303,1,12,0:0:0:0:
320,64,892634,1,12,0:0:0:0:
320,64,892966,1,12,0:0:0:0:
320,64,893297,1,12,0:0:0:0:
64,64,893629,1,0,0:0:0:0:
64,64,893960,1,0,0:0:0:0:
64,64,894292,1,0,0:0:0:0:
64,64,894347,1,0,0:0:0:0:
64,64,894402,1,0,0:0:0:0:
320,64,894458,1,8,0:0:0:0:
320,64,894789,1,12,0:0:0:0:
64,64,895038,1,0,0:0:0:0:
320,64,895121,1,8,0:0:0:0:
320,64,895286,1,8,0:0:0:0:
320,64,895535,1,8,0:0:0:0:
64,64,895618,1,0,0:0:0:0:
320,64,895784,1,8,0:0:0:0:
320,64,895949,1,8,0:0:0:0:
64,64,896115,1,0,0:0:0:0:
64,64,896364,1,0,0:0:0:0:
320,64,896447,1,8,0:0:0:0:
64,64,896612,1,0,0:0:0:0:
64,64,896944,1,0,0:0:0:0:
320,64,897110,1,8,0:0:0:0:
320,64,897275,1,8,0:0:0:0:
64,64,897441,1,0,0:0:0:0:
320,64,897690,1,8,0:0:0:0:
64,64,897773,1,0,0:0:0:0:
64,64,897938,1,0,0:0:0:0:
320,64,898104,1,8,0:0:0:0:
64,64,898270,1,0,0:0:0:0:
64,64,898353,1,0,0:0:0:0:
320,64,898436,1,8,0:0:0:0:
64,64,898518,1,0,0:0:0:0:
320,64,898601,1,8,0:0:0:0:
64,64,898767,1,0,0:0:0:0:
320,64,898933,1,12,0:0:0:0:
320,64,899264,1,12,0:0:0:0:
320,64,899596,1,12,0:0:0:0:
64,64,899762,1,0,0:0:0:0:
64,64,899927,1,0,0:0:0:0:
64,64,900010,1,0,0:0:0:0:
320,64,900093,1,12,0:0:0:0:
64,64,900342,1,0,0:0:0:0:
320,64,900425,1,8,0:0:0:0:
320,64,900590,1,8,0:0:0:0:
320,64,900673,1,8,0:0:0:0:
64,64,900756,1,0,0:0:0:0:
64,64,900922,1,0,0:0:0:0:
320,64,901088,1,8,0:0:0:0:
320,64,901253,1,8,0:0:0:0:
64,64,901419,1,0,0:0:0:0:
64,64,901668,1,0,0:0:0:0:
320,64,901750,1,8,0:0:0:0:
64,64,901916,1,0,0:0:0:0:
64,64,902248,1,0,0:0:0:0:
320,64,902413,1,8,0:0:0:0:
64,64,902579,1,0,0:0:0:0:
64,64,902662,1,0,0:0:0:0:
320,64,902745,1,8,0:0:0:0:
64,64,902994,1,0,0:0:0:0:
320,64,903076,1,8,0:0:0:0:
64,64,903242,1,0,0:0:0:0:
64,64,903574,1,0,0:0:0:0:
320,64,903739,1,8,0:0:0:0:
320,64,903905,1,12,0:0:0:0:
64,64,904237,1,0,0:0:0:0:
320,64,904402,1,8,0:0:0:0:
64,64,904568,1,0,0:0:0:0:
320,64,904734,1,8,0:0:0:0:
320,64,904817,1,8,0:0:0:0:
64,64,904900,1,0,0:0:0:0:
320,64,905065,1,8,0:0:0:0:
64,64,905148,1,0,0:0:0:0:
64,64,905231,1,0,0:0:0:0:
64,64,905314,1,0,0:0:0:0:
320,64,905397,1,12,0:0:0:0:
64,64,905646,1,0,0:0:0:0:
320,64,905728,1,8,0:0:0:0:
64,64,905894,1,0,0:0:0:0:
320,64,906143,1,8,0:0:0:0:
64,64,906226,1,0,0:0:0:0:
320,64,906391,1,8,0:0:0:0:
320,64,906557,1,8,0:0:0:0:
64,64,906723,1,0,0:0:0:0:
64,64,906971,1,0,0:0:0:0:
320,64,907054,1,8,0:0:0:0:
64,64,907220,1,0,0:0:0:0:
64,64,907552,1,0,0:0:0:0:
320,64,907717,1,8,0:0:0:0:
320,64,907883,1,8,0:0:0:0:
64,64,908049,1,0,0:0:0:0:
320,64,908297,1,8,0:0:0:0:
64,64,908380,1,0,0:0:0:0:
64,64,908546,1,0,0:0:0:0:
320,64,908712,1,8,0:0:0:0:
64,64,908878,1,0,0:0:0:0:
64,64,908960,1,0,0:0:0:0:
64,64,909043,1,0,0:0:0:0:
320,64,909209,1,12,0:0:0:0:
320,64,909541,1,12,0:0:0:0:
320,64,909872,1,12,0:0:0:0:
64,64,910204,1,0,0:0:0:0:
320,64,910369,1,12,0:0:0:0:
64,64,910701,1,4,0:0:0:0:
64,64,910949,1,0,0:0:0:0:
320,64,911032,1,8,0:0:0:0:
320,64,911198,1,8,0:0:0:0:
64,64,911530,1,0,0:0:0:0:
320,64,911695,1,8,0:0:0:0:
64,64,911861,1,0,0:0:0:0:
64,64,911944,1,0,0:0:0:0:
64,64,912027,1,0,0:0:0:0:
320,64,912192,1,8,0:0:0:0:
320,64,912358,1,8,0:0:0:0:
320,64,912441,1,8,0:0:0:0:
64,64,912524,1,0,0:0:0:0:
64,64,912690,1,0,0:0:0:0:
320,64,912855,1,8,0:0:0:0:
320,64,913021,1,8,0:0:0:0:
64,64,913187,1,0,0:0:0:0:
64,64,913353,1,4,0:0:0:0:
64,64,913684,1,0,0:0:0:0:
64,64,913850,1,0,0:0:0:0:
320,64,914016,1,8,0:0:0:0:
64,64,914181,1,0,0:0:0:0:
64,64,914347,1,0,0:0:0:0:
320,64,914679,1,12,0:0:0:0:
64,64,916005,1,4,0:0:0:0:
256,192,926167,5,4,0:0:0:0:
256,192,926488,1,0,0:0:0:0:
256,192,926809,5,0,0:0:0:0:
256,192,927130,1,0,0:0:0:0:
256,192,927451,1,0,0:0:0:0:
256,192,927611,1,8,0:0:0:0:
256,192,927771,1,12,0:0:0:0:
256,192,927932,1,0,0:0:0:0:
256,192,928092,1,8,0:0:0:0:
256,192,928253,1,0,0:0:0:0:
256,192,928413,1,8,0:0:0:0:
256,192,928734,1,4,0:0:0:0:
256,192,929055,1,0,0:0:0:0:
256,192,929376,1,0,0:0:0:0:
256,192,929697,1,0,0:0:0:0:
256,192,929857,1,12,0:0:0:0:
256,192,930017,1,12,0:0:0:0:
256,192,930178,1,0,0:0:0:0:
256,192,930338,1,0,0:0:0:0:
256,192,930499,1,8,0:0:0:0:
256,192,930659,1,0,0:0:0:0:
256,192,930820,1,0,0:0:0:0:
256,192,930980,1,8,0:0:0:0:
256,192,931301,1,8,0:0:0:0:
256,192,931782,1,0,0:0:0:0:
256,192,931943,1,8,0:0:0:0:
256,192,932103,1,0,0:0:0:0:
256,192,932424,1,0,0:0:0:0:
256,192,932745,1,8,0:0:0:0:
256,192,933066,1,0,0:0:0:0:
256,192,933226,1,8,0:0:0:0:
256,192,933306,1,0,0:0:0:0:
256,192,933386,1,0,0:0:0:0:
256,192,933547,1,12,0:0:0:0:
256,192,933868,1,4,0:0:0:0:
256,192,936114,1,0,0:0:0:0:
256,192,936435,1,8,0:0:0:0:
256,192,936515,1,8,0:0:0:0:
256,192,936595,1,0,0:0:0:0:
256,192,936675,1,0,0:0:0:0:
256,192,936755,1,8,0:0:0:0:
256,192,936916,1,0,0:0:0:0:
256,192,936996,1,8,0:0:0:0:
256,192,937076,1,8,0:0:0:0:
256,192,937156,1,0,0:0:0:0:
256,192,937237,1,8,0:0:0:0:
256,192,937397,1,8,0:0:0:0:
256,192,937558,1,8,0:0:0:0:
256,192,937638,1,0,0:0:0:0:
256,192,937718,1,0,0:0:0:0:
256,192,937878,1,8,0:0:0:0:
256,192,937959,1,8,0:0:0:0:
256,192,938039,1,0,0:0:0:0:
256,192,938199,1,8,0:0:0:0:
256,192,938279,1,0,0:0:0:0:
256,192,938360,1,8,0:0:0:0:
256,192,938440,1,8,0:0:0:0:
256,192,938520,1,0,0:0:0:0:
256,192,938600,1,0,0:0:0:0:
256,192,938681,1,8,0:0:0:0:
256,192,938761,1,8,0:0:0:0:
256,192,938841,1,0,0:0:0:0:
256,192,938921,1,0,0:0:0:0:
256,192,939001,1,8,0:0:0:0:
256,192,939162,1,0,0:0:0:0:
256,192,939322,1,8,0:0:0:0:
256,192,939483,1,0,0:0:0:0:
256,192,939563,1,8,0:0:0:0:
256,192,939643,1,8,0:0:0:0:
256,192,939723,1,8,0:0:0:0:
256,192,939804,1,0,0:0:0:0:
256,192,939964,1,8,0:0:0:0:
256,192,940124,1,0,0:0:0:0:
256,192,940205,1,0,0:0:0:0:
256,192,940285,1,8,0:0:0:0:
256,192,940365,1,8,0:0:0:0:
256,192,940445,1,0,0:0:0:0:
256,192,940606,1,8,0:0:0:0:
256,192,940766,1,0,0:0:0:0:
256,192,940846,1,8,0:0:0:0:
256,192,940927,1,8,0:0:0:0:
256,192,941007,1,0,0:0:0:0:
256,192,941087,1,8,0:0:0:0:
256,192,941247,1,8,0:0:0:0:
256,192,941568,1,12,0:0:0:0:
256,192,941729,1,0,0:0:0:0:
256,192,941889,1,8,0:0:0:0:
256,192,942050,1,8,0:0:0:0:
256,192,942210,1,0,0:0:0:0:
256,192,942290,1,0,0:0:0:0:
256,192,942370,1,8,0:0:0:0:
256,192,942531,1,8,0:0:0:0:
256,192,942691,1,0,0:0:0:0:
256,192,942852,1,8,0:0:0:0:
256,192,943012,1,8,0:0:0:0:
256,192,943173,1,0,0:0:0:0:
256,192,943333,1,8,0:0:0:0:
256,192,943413,1,0,0:0:0:0:
256,192,943493,1,8,0:0:0:0:
256,192,943574,1,8,0:0:0:0:
256,192,943654,1,0,0:0:0:0:
256,192,943814,1,8,0:0:0:0:
256,192,943975,1,8,0:0:0:0:
256,192,944135,1,0,0:0:0:0:
256,192,944456,1,4,0:0:0:0:
256,192,944616,1,0,0:0:0:0:
256,192,944777,1,8,0:0:0:0:
256,192,944937,1,8,0:0:0:0:
256,192,945098,1,0,0:0:0:0:
256,192,945258,1,12,0:0:0:0:
256,192,945419,1,0,0:0:0:0:
256,192,945499,1,0,0:0:0:0:
256,192,945579,1,8,0:0:0:0:
256,192,945739,1,0,0:1:0:0:
256,192,945900,1,8,0:0:0:0:
256,192,945980,1,0,0:0:0:0:
256,192,946060,1,8,0:0:0:0:
256,192,946140,1,8,0:0:0:0:
256,192,946221,1,0,0:0:0:0:
256,192,946301,1,0,0:0:0:0:
256,192,946381,1,8,0:0:0:0:
256,192,946542,1,8,0:0:0:0:
256,192,946702,1,8,0:0:0:0:
256,192,946782,1,8,0:0:0:0:
256,192,946862,1,0,0:0:0:0:
256,192,946942,1,0,0:0:0:0:
256,192,947022,1,8,0:0:0:0:
256,192,947183,1,0,0:0:0:0:
256,192,947263,1,8,0:0:0:0:
256,192,947343,1,8,0:0:0:0:
256,192,947423,1,0,0:0:0:0:
256,192,947504,1,8,0:0:0:0:
256,192,947664,1,8,0:0:0:0:
256,192,947825,1,8,0:0:0:0:
256,192,947905,1,0,0:0:0:0:
256,192,947985,1,0,0:0:0:0:
256,192,948145,1,8,0:0:0:0:
256,192,948226,1,8,0:0:0:0:
256,192,948306,1,0,0:0:0:0:
256,192,948466,1,8,0:0:0:0:
256,192,948546,1,0,0:0:0:0:
256,192,948627,1,8,0:0:0:0:
256,192,948707,1,8,0:0:0:0:
256,192,948787,1,0,0:0:0:0:
256,192,948867,1,0,0:0:0:0:
256,192,948948,1,8,0:0:0:0:
256,192,949028,1,8,0:0:0:0:
256,192,949108,1,0,0:0:0:0:
256,192,949188,1,0,0:0:0:0:
256,192,949268,1,8,0:0:0:0:
256,192,949429,1,0,0:0:0:0:
256,192,949590,1,8,0:0:0:0:
256,192,949670,1,0,0:0:0:0:
256,192,949750,1,8,0:0:0:0:
256,192,949830,1,8,0:0:0:0:
256,192,949911,1,0,0:0:0:0:
256,192,950071,1,8,0:0:0:0:
256,192,950151,1,0,0:0:0:0:
256,192,950231,1,8,0:0:0:0:
256,192,950392,1,8,0:0:0:0:
256,192,950472,1,8,0:0:0:0:
256,192,950552,1,0,0:0:0:0:
256,192,950713,1,8,0:0:0:0:
256,192,950873,1,8,0:0:0:0:
256,192,951034,1,0,0:0:0:0:
256,192,951114,1,8,0:0:0:0:
256,192,951194,1,0,0:0:0:0:
256,192,951274,1,0,0:0:0:0:
256,192,951354,1,8,0:0:0:0:
256,192,951515,1,12,0:0:0:0:
256,192,951836,1,8,0:0:0:0:
256,192,951996,1,0,0:0:0:0:
256,192,952076,1,0,0:0:0:0:
256,192,952156,1,8,0:0:0:0:
256,192,952317,1,8,0:0:0:0:
256,192,952477,1,0,0:0:0:0:
256,192,952638,1,8,0:0:0:0:
256,192,952798,1,8,0:0:0:0:
256,192,952959,1,0,0:0:0:0:
256,192,953119,1,8,0:0:0:0:
256,192,953199,1,0,0:0:0:0:
256,192,953279,1,8,0:0:0:0:
256,192,953360,1,8,0:0:0:0:
256,192,953440,1,0,0:0:0:0:
256,192,953600,1,8,0:0:0:0:
256,192,953761,1,8,0:0:0:0:
256,192,953841,1,0,0:0:0:0:
256,192,953921,1,0,0:0:0:0:
256,192,954001,1,0,0:0:0:0:
256,192,954082,1,8,0:0:0:0:
256,192,954242,1,8,0:0:0:0:
256,192,954402,1,0,0:0:0:0:
256,192,954563,1,0,0:0:0:0:
256,192,954723,1,8,0:0:0:0:
256,192,954884,1,0,0:0:0:0:
256,192,954964,1,0,0:0:0:0:
256,192,955044,1,8,0:0:0:0:
256,192,955124,1,8,0:0:0:0:
256,192,955205,1,0,0:0:0:0:
256,192,955365,1,0,0:0:0:0:
256,192,955525,1,12,0:0:0:0:
256,192,956969,1,0,0:0:0:0:
207,256,964725,5,4,0:0:0:0:
207,256,965373,1,0,0:0:0:0:
207,256,965698,1,0,0:0:0:0:
320,143,965860,1,8,0:0:0:0:
207,143,966184,1,0,0:0:0:0:
207,256,966346,1,8,0:0:0:0:
207,143,966508,1,8,0:0:0:0:
207,256,966671,1,0,0:0:0:0:
207,143,966833,1,8,0:0:0:0:
207,256,966995,1,0,0:0:0:0:
207,256,967319,1,0,0:0:0:0:
207,256,967644,1,0,0:0:0:0:
320,256,967806,1,8,0:0:0:0:
207,256,968130,1,0,0:0:0:0:
207,256,968454,1,8,0:0:0:0:
207,256,968779,1,0,0:0:0:0:
352,184,968860,1,0,0:0:0:0:
207,256,968941,1,8,0:0:0:0:
207,256,969103,1,0,0:0:0:0:
207,143,969265,1,8,0:0:0:0:
207,256,969346,1,0,0:0:0:0:
207,256,969427,1,8,0:0:0:0:
207,143,969508,1,0,0:0:0:0:
207,256,969590,1,8,0:0:0:0:
303,91,969671,1,8,0:0:0:0:
207,256,969752,1,0,0:0:0:0:
227,58,969833,1,0,0:0:0:0:
320,256,969914,1,12,0:0:0:0:
320,256,970238,1,0,0:0:0:0:
320,256,970400,1,12,0:0:0:0:
207,256,970725,1,0,0:0:0:0:
207,256,970887,1,12,0:0:0:0:
207,256,971211,1,8,0:0:0:0:
320,256,971373,1,4,0:0:0:0:
320,256,971698,1,0,0:0:0:0:
320,256,971860,1,8,0:0:0:0:
207,143,971941,1,0,0:0:0:0:
207,256,972022,1,8,0:0:0:0:
207,143,972184,1,12,0:0:0:0:
320,256,972508,1,4,0:0:0:0:
207,256,972833,1,8,0:0:0:0:
207,256,972914,1,8,0:0:0:0:
207,256,972995,1,0,0:0:0:0:
207,256,973157,1,12,0:0:0:0:
320,143,973319,1,12,0:0:0:0:
320,143,973481,1,12,0:0:0:0:
320,143,973644,1,4,0:0:0:0:
207,256,974779,1,8,0:0:0:0:
207,256,975103,1,4,0:0:0:0:
320,256,975427,1,8,0:0:0:0:
320,256,975671,1,8,0:0:0:0:
320,256,975752,1,0,0:0:0:0:
320,256,975914,1,0,0:0:0:0:
320,256,976076,1,8,0:0:0:0:
320,256,976238,1,0,0:0:0:0:
207,143,976563,1,0,0:0:0:0:
207,256,976725,1,8,0:0:0:0:
207,143,976887,1,8,0:0:0:0:
207,143,976968,1,0,0:0:0:0:
207,143,977049,1,8,0:0:0:0:
207,143,977211,1,0,0:0:0:0:
207,143,977373,1,8,0:0:0:0:
207,143,977536,1,8,0:0:0:0:
207,143,977617,1,0,0:0:0:0:
207,143,977698,1,0,0:0:0:0:
207,143,978022,1,8,0:0:0:0:
207,143,978184,1,0,0:0:0:0:
320,256,978265,1,0,0:0:0:0:
207,143,978346,1,8,0:0:0:0:
207,143,978508,1,0,0:0:0:0:
207,143,978671,1,0,0:0:0:0:
207,143,978833,1,12,0:0:0:0:
207,143,979157,1,12,0:0:0:0:
207,143,979481,1,4,0:0:0:0:
207,256,979806,1,0,0:0:0:0:
207,256,979968,1,8,0:0:0:0:
207,143,980130,1,8,0:0:0:0:
207,143,980211,1,8,0:0:0:0:
207,143,980292,1,0,0:0:0:0:
320,256,980617,1,12,0:0:0:0:
207,256,980860,1,8,0:0:0:0:
320,256,980941,1,0,0:0:0:0:
207,143,981103,1,0,0:0:0:0:
207,143,981265,1,12,0:0:0:0:
207,143,981427,1,0,0:0:0:0:
207,143,981752,1,0,0:0:0:0:
207,143,981914,1,12,0:0:0:0:
207,256,982157,1,0,0:0:0:0:
207,256,982238,1,8,0:0:0:0:
320,256,982400,1,0,0:0:0:0:
320,256,982563,1,12,0:0:0:0:
320,256,982725,1,8,0:0:0:0:
320,256,982806,1,0,0:0:0:0:
207,143,982887,1,8,0:0:0:0:
320,143,983049,1,0,0:0:0:0:
207,143,983211,1,12,0:0:0:0:
320,256,983373,1,8,0:0:0:0:
207,143,983454,1,8,0:0:0:0:
207,143,983536,1,0,0:0:0:0:
396,218,983617,1,0,0:0:0:0:
207,143,983698,1,0,0:0:0:0:
207,143,983860,1,0,0:0:0:0:
207,143,984022,1,8,0:0:0:0:
320,143,984346,1,0,0:0:0:0:
320,143,984508,1,12,0:0:0:0:
207,256,984833,1,8,0:0:0:0:
207,256,984914,1,8,0:0:0:0:
207,143,984995,1,0,0:0:0:0:
207,143,985076,1,0,0:0:0:0:
207,143,985157,1,8,0:0:0:0:
207,143,985238,1,0,0:0:0:0:
207,143,985319,1,8,0:0:0:0:
207,143,985481,1,4,0:0:0:0:
320,256,985806,1,0,0:0:0:0:
207,256,986049,1,8,0:0:0:0:
320,256,986130,1,0,0:0:0:0:
207,256,986292,1,0,0:0:0:0:
207,143,986454,1,8,0:0:0:0:
207,143,986617,1,0,0:0:0:0:
207,256,986941,1,0,0:0:0:0:
320,256,987103,1,8,0:0:0:0:
207,256,987265,1,0,0:0:0:0:
207,256,987346,1,8,0:0:0:0:
207,256,987427,1,0,0:0:0:0:
207,256,987590,1,0,0:0:0:0:
207,143,987752,1,8,0:0:0:0:
207,143,987914,1,8,0:0:0:0:
207,143,987995,1,8,0:0:0:0:
320,256,988076,1,0,0:0:0:0:
320,143,988400,1,8,0:0:0:0:
207,143,988563,1,8,0:0:0:0:
207,143,988644,1,0,0:0:0:0:
207,143,988725,1,8,0:0:0:0:
207,143,988887,1,0,0:0:0:0:
207,143,989049,1,0,0:0:0:0:
207,143,989211,1,12,0:0:0:0:
207,143,989536,1,4,0:0:0:0:
207,143,989860,1,12,0:0:0:0:
207,143,990184,1,0,0:0:0:0:
207,143,990346,1,8,0:0:0:0:
207,256,990508,5,8,0:0:0:0:
207,256,990590,1,8,0:0:0:0:
207,256,990671,1,0,0:0:0:0:
207,256,990995,1,12,0:0:0:0:
320,256,991238,1,8,0:0:0:0:
207,143,991319,1,0,0:0:0:0:
320,256,991481,1,0,0:0:0:0:
320,256,991644,1,12,0:0:0:0:
320,256,991806,1,0,0:0:0:0:
320,256,992130,1,0,0:0:0:0:
320,256,992292,1,12,0:0:0:0:
207,143,992536,1,8,0:0:0:0:
207,143,992617,1,0,0:0:0:0:
320,256,992779,1,0,0:0:0:0:
320,256,992941,1,12,0:0:0:0:
207,143,993103,1,8,0:0:0:0:
320,256,993184,1,8,0:0:0:0:
207,256,993265,1,0,0:0:0:0:
207,143,993427,1,8,0:0:0:0:
207,143,993590,1,8,0:0:0:0:
207,143,993752,1,8,0:0:0:0:
207,143,993833,1,0,0:0:0:0:
207,143,993914,1,8,0:0:0:0:
207,143,994076,1,0,0:0:0:0:
207,143,994400,1,8,0:0:0:0:
207,143,994725,1,0,0:0:0:0:
207,143,995049,1,8,0:0:0:0:
207,143,995373,1,8,0:0:0:0:
207,143,995536,1,0,0:0:0:0:
207,143,995860,1,4,0:0:0:0:
256,192,998764,12,0,1000917,0:0:0:0:
256,192,1001225,5,8,0:0:0:0:
256,192,1002456,1,0,0:0:0:0:
256,192,1003687,1,8,0:0:0:0:
256,192,1004917,1,0,0:0:0:0:
256,192,1006148,1,8,0:0:0:0:
256,192,1007379,1,8,0:0:0:0:
256,192,1007994,1,0,0:0:0:0:
256,192,1008610,1,8,0:0:0:0:
256,192,1009840,1,8,0:0:0:0:
256,192,1010302,1,8,0:0:0:0:
256,192,1010456,1,0,0:0:0:0:
256,192,1010610,1,0,0:0:0:0:
256,192,1010764,1,0,0:0:0:0:
256,192,1011071,1,8,0:0:0:0:
256,192,1011379,1,0,0:0:0:0:
256,192,1011994,1,0,0:0:0:0:
256,192,1012302,1,8,0:0:0:0:
256,192,1012610,1,0,0:0:0:0:
256,192,1013225,1,0,0:0:0:0:
256,192,1013379,1,0,0:0:0:0:
256,192,1013533,1,8,0:0:0:0:
256,192,1013840,1,0,0:0:0:0:
256,192,1014456,1,0,0:0:0:0:
256,192,1014764,1,8,0:0:0:0:
256,192,1015071,1,0,0:0:0:0:
256,192,1015687,1,12,0:0:0:0:
256,192,1015994,1,8,0:0:0:0:
256,192,1016148,1,0,0:0:0:0:
256,192,1016302,1,0,0:0:0:0:
256,192,1016456,1,8,0:0:0:0:
256,192,1016610,1,8,0:0:0:0:
256,192,1016764,1,0,0:0:0:0:
256,192,1016917,1,8,0:0:0:0:
256,192,1017071,1,0,0:0:0:0:
256,192,1017225,1,0,0:0:0:0:
256,192,1017379,1,8,0:0:0:0:
256,192,1017533,1,8,0:0:0:0:
256,192,1017687,1,0,0:0:0:0:
256,192,1017764,1,0,0:0:0:0:
256,192,1017840,1,8,0:0:0:0:
256,192,1017917,1,8,0:0:0:0:
256,192,1017994,1,0,0:0:0:0:
256,192,1018148,1,8,0:0:0:0:
256,192,1018302,1,0,0:0:0:0:
256,192,1018379,1,0,0:0:0:0:
256,192,1018456,1,12,0:0:0:0:
256,192,1018764,1,0,0:0:0:0:
256,192,1018917,1,12,0:0:0:0:
256,192,1019225,1,8,0:0:0:0:
256,192,1019379,1,8,0:0:0:0:
256,192,1019533,1,4,0:0:0:0:
256,192,1019840,1,0,0:0:0:0:
256,192,1019994,1,8,0:0:0:0:
256,192,1020302,1,0,0:0:0:0:
256,192,1020917,1,12,0:0:0:0:
256,192,1021225,1,0,0:0:0:0:
256,192,1021456,1,8,0:0:0:0:
256,192,1021533,1,0,0:0:0:0:
256,192,1021687,1,0,0:0:0:0:
256,192,1021840,1,8,0:0:0:0:
256,192,1021994,1,8,0:0:0:0:
256,192,1022071,1,8,0:0:0:0:
256,192,1022148,1,0,0:0:0:0:
256,192,1022302,1,0,0:0:0:0:
256,192,1022456,1,8,0:0:0:0:
256,192,1022610,1,0,0:0:0:0:
256,192,1022687,1,0,0:0:0:0:
256,192,1022764,1,8,0:0:0:0:
256,192,1022840,1,8,0:0:0:0:
256,192,1022917,1,0,0:0:0:0:
256,192,1023071,1,8,0:0:0:0:
256,192,1023225,1,8,0:0:0:0:
256,192,1023379,1,0,0:0:0:0:
256,192,1023533,1,0,0:0:0:0:
256,192,1023610,1,0,0:0:0:0:
256,192,1023687,1,8,0:0:0:0:
256,192,1023840,1,8,0:0:0:0:
256,192,1023994,1,0,0:0:0:0:
256,192,1024148,1,0,0:0:0:0:
256,192,1024225,1,8,0:0:0:0:
256,192,1024302,1,0,0:0:0:0:
256,192,1024379,1,0,0:0:0:0:
256,192,1024456,1,8,0:0:0:0:
256,192,1024610,1,0,0:0:0:0:
256,192,1024764,1,8,0:0:0:0:
256,192,1024840,1,0,0:0:0:0:
256,192,1024917,1,8,0:0:0:0:
256,192,1025071,1,0,0:0:0:0:
256,192,1025148,1,8,0:0:0:0:
256,192,1025225,1,0,0:0:0:0:
256,192,1025379,1,8,0:0:0:0:
256,192,1025456,1,8,0:0:0:0:
256,192,1025533,1,0,0:0:0:0:
256,192,1025687,1,0,0:0:0:0:
256,192,1025764,1,0,0:0:0:0:
256,192,1025840,1,8,0:0:0:0:
256,192,1025994,1,0,0:0:0:0:
256,192,1026148,1,8,0:0:0:0:
256,192,1026302,1,0,0:0:0:0:
256,192,1026456,1,8,0:0:0:0:
256,192,1026610,1,0,0:0:0:0:
256,192,1026687,1,0,0:0:0:0:
96,160,1026764,1,0,0:0:0:0:
256,192,1026917,1,8,0:0:0:0:
256,192,1027225,1,0,0:0:0:0:
256,192,1027379,1,8,0:0:0:0:
256,192,1027533,1,4,0:0:0:0:
256,192,1027840,1,0,0:0:0:0:
256,192,1027994,1,0,0:0:0:0:
256,192,1028148,1,12,0:0:0:0:
256,192,1028456,1,0,0:0:0:0:
256,192,1028610,1,8,0:0:0:0:
256,192,1028764,1,0,0:0:0:0:
256,192,1028840,1,0,0:0:0:0:
256,192,1028917,1,8,0:0:0:0:
256,192,1029071,1,0,0:0:0:0:
256,192,1029148,1,0,0:0:0:0:
256,192,1029225,1,0,0:0:0:0:
256,192,1029379,1,12,0:0:0:0:
256,192,1029687,1,0,0:0:0:0:
256,192,1029764,1,0,0:0:0:0:
256,192,1029840,1,8,0:0:0:0:
256,192,1029994,1,8,0:0:0:0:
256,192,1030148,1,0,0:0:0:0:
256,192,1030225,1,0,0:0:0:0:
256,192,1030302,1,8,0:0:0:0:
256,192,1030379,1,0,0:0:0:0:
256,192,1030456,1,8,0:0:0:0:
256,192,1030610,1,0,0:0:0:0:
256,192,1030764,1,12,0:0:0:0:
256,192,1031071,1,0,0:0:0:0:
256,192,1031302,1,8,0:0:0:0:
256,192,1031379,1,0,0:0:0:0:
256,192,1031533,1,0,0:0:0:0:
256,192,1031687,1,8,0:0:0:0:
256,192,1031840,1,8,0:0:0:0:
256,192,1031917,1,8,0:0:0:0:
256,192,1031994,1,0,0:0:0:0:
256,192,1032148,1,0,0:0:0:0:
256,192,1032302,1,8,0:0:0:0:
256,192,1032456,1,0,0:0:0:0:
256,192,1032533,1,8,0:0:0:0:
256,192,1032610,1,0,0:0:0:0:
256,192,1032687,1,0,0:0:0:0:
256,192,1032764,1,8,0:0:0:0:
256,192,1032917,1,0,0:0:0:0:
256,192,1033071,1,0,0:0:0:0:
256,192,1033225,1,8,0:0:0:0:
256,192,1033379,1,0,0:0:0:0:
256,192,1033456,1,0,0:0:0:0:
256,192,1033533,1,8,0:0:0:0:
256,192,1033687,1,8,0:0:0:0:
256,192,1033764,1,8,0:0:0:0:
256,192,1033840,1,0,0:0:0:0:
256,192,1033994,1,0,0:0:0:0:
256,192,1034148,1,8,0:0:0:0:
256,192,1034225,1,0,0:0:0:0:
256,192,1034302,1,8,0:0:0:0:
256,192,1034379,1,8,0:0:0:0:
256,192,1034456,1,0,0:0:0:0:
256,192,1034764,1,8,0:0:0:0:
256,192,1034917,1,0,0:0:0:0:
256,192,1034994,1,0,0:0:0:0:
256,192,1035071,1,8,0:0:0:0:
256,192,1035225,1,0,0:0:0:0:
256,192,1035379,1,8,0:0:0:0:
256,192,1035533,1,8,0:0:0:0:
256,192,1035610,1,0,0:0:0:0:
256,192,1035687,1,8,0:0:0:0:
256,192,1035840,1,0,0:0:0:0:
256,192,1035994,1,0,0:0:0:0:
256,192,1036148,1,8,0:0:0:0:
256,192,1036302,1,8,0:0:0:0:
256,192,1036456,1,0,0:0:0:0:
256,192,1036610,1,8,0:0:0:0:
256,192,1036764,1,0,0:0:0:0:
256,192,1036917,1,0,0:0:0:0:
256,192,1037071,1,8,0:0:0:0:
256,192,1037225,1,8,0:0:0:0:
256,192,1037379,1,0,0:0:0:0:
256,192,1037533,1,8,0:0:0:0:
256,192,1037687,1,0,0:0:0:0:
256,192,1037764,1,0,0:0:0:0:
256,192,1037840,1,8,0:0:0:0:
256,192,1037994,1,8,0:0:0:0:
256,192,1038071,1,0,0:0:0:0:
256,192,1038148,1,8,0:0:0:0:
256,192,1038302,1,0,0:0:0:0:
256,192,1038456,1,8,0:0:0:0:
256,192,1038610,1,0,0:0:0:0:
256,192,1038687,1,0,0:0:0:0:
256,192,1038764,1,8,0:0:0:0:
256,192,1038917,1,0,0:0:0:0:
256,192,1038994,1,8,0:0:0:0:
256,192,1039071,1,0,0:0:0:0:
256,192,1039148,1,0,0:0:0:0:
256,192,1039225,1,8,0:0:0:0:
256,192,1039533,1,0,0:0:0:0:
256,192,1039610,1,0,0:0:0:0:
256,192,1039687,1,8,0:0:0:0:
256,192,1039840,1,8,0:0:0:0:
256,192,1039917,1,8,0:0:0:0:
256,192,1039994,1,0,0:0:0:0:
256,192,1040071,1,0,0:0:0:0:
256,192,1040148,1,8,0:0:0:0:
256,192,1040225,1,0,0:0:0:0:
256,192,1040302,1,8,0:0:0:0:
256,192,1040379,1,8,0:0:0:0:
256,192,1040456,1,0,0:0:0:0:
256,192,1040610,1,12,0:0:0:0:
256,192,1040917,1,0,0:0:0:0:
256,192,1041148,1,8,0:0:0:0:
256,192,1041225,1,0,0:0:0:0:
256,192,1041379,1,0,0:0:0:0:
256,192,1041456,1,0,0:0:0:0:
256,192,1041533,1,8,0:0:0:0:
256,192,1041687,1,8,0:0:0:0:
256,192,1041840,1,0,0:0:0:0:
256,192,1042148,1,8,0:0:0:0:
256,192,1042379,1,8,0:0:0:0:
256,192,1042456,1,0,0:0:0:0:
256,192,1042610,1,0,0:0:0:0:
256,192,1042764,1,8,0:0:0:0:
256,192,1042840,1,0,0:0:0:0:
256,192,1042917,1,8,0:0:0:0:
256,192,1042994,1,8,0:0:0:0:
256,192,1043071,1,0,0:0:0:0:
256,192,1043379,1,8,0:0:0:0:
256,192,1043610,1,8,0:0:0:0:
256,192,1043687,1,0,0:0:0:0:
256,192,1043840,1,0,0:0:0:0:
256,192,1043917,1,0,0:0:0:0:
256,192,1043994,1,8,0:0:0:0:
256,192,1044148,1,8,0:0:0:0:
256,192,1044302,1,0,0:0:0:0:
256,192,1044456,1,0,0:0:0:0:
256,192,1044533,1,0,0:0:0:0:
256,192,1044610,1,8,0:0:0:0:
256,192,1044764,1,0,0:0:0:0:
256,192,1044840,1,8,0:0:0:0:
256,192,1044917,1,0,0:0:0:0:
256,192,1045071,1,8,0:0:0:0:
256,192,1045148,1,0,0:0:0:0:
256,192,1045225,1,8,0:0:0:0:
256,192,1045379,1,8,0:0:0:0:
256,192,1045456,1,8,0:0:0:0:
256,192,1045533,1,4,0:0:0:0:
256,192,1045840,1,8,0:0:0:0:
256,192,1045994,1,0,0:0:0:0:
256,192,1046071,1,0,0:0:0:0:
256,192,1046148,1,0,0:0:0:0:
256,192,1046302,1,8,0:0:0:0:
256,192,1046456,1,0,0:0:0:0:
256,192,1046610,1,8,0:0:0:0:
256,192,1046917,1,0,0:0:0:0:
256,192,1047071,1,8,0:0:0:0:
256,192,1047225,1,4,0:0:0:0:
256,192,1047533,1,0,0:0:0:0:
256,192,1047687,1,0,0:0:0:0:
256,192,1047840,1,12,0:0:0:0:
256,192,1048148,1,0,0:0:0:0:
256,192,1048302,1,12,0:0:0:0:
256,224,1048456,1,0,0:0:0:0:
256,224,1048533,1,0,0:0:0:0:
256,224,1048610,1,8,0:0:0:0:
256,224,1048764,1,8,0:0:0:0:
256,224,1048840,1,0,0:0:0:0:
256,224,1049071,1,12,0:0:0:0:
256,224,1049379,1,0,0:0:0:0:
256,224,1049456,1,0,0:0:0:0:
256,224,1049533,1,8,0:0:0:0:
256,224,1049687,1,0,0:0:0:0:
256,224,1049994,1,8,0:0:0:0:
256,224,1050071,1,8,0:0:0:0:
256,224,1050148,1,8,0:0:0:0:
256,224,1050302,1,0,0:0:0:0:
256,224,1050456,1,12,0:0:0:0:
256,224,1050764,1,8,0:0:0:0:
256,224,1050994,1,8,0:0:0:0:
256,224,1051071,1,0,0:0:0:0:
256,224,1051225,1,0,0:0:0:0:
256,224,1051302,1,0,0:0:0:0:
256,224,1051379,1,8,0:0:0:0:
256,224,1051533,1,8,0:0:0:0:
256,224,1051687,1,0,0:0:0:0:
256,224,1051994,1,8,0:0:0:0:
256,224,1052225,1,8,0:0:0:0:
256,224,1052302,1,0,0:0:0:0:
256,224,1052456,1,0,0:0:0:0:
256,224,1052610,1,8,0:0:0:0:
256,224,1052687,1,0,0:0:0:0:
256,224,1052764,1,8,0:0:0:0:
256,224,1052840,1,8,0:0:0:0:
256,224,1052917,1,0,0:0:0:0:
256,224,1053225,1,8,0:0:0:0:
256,224,1053456,1,8,0:0:0:0:
256,224,1053533,1,0,0:0:0:0:
256,224,1053687,1,0,0:0:0:0:
256,224,1053764,1,0,0:0:0:0:
256,224,1053840,1,8,0:0:0:0:
256,224,1053994,1,8,0:0:0:0:
256,224,1054148,1,0,0:0:0:0:
256,224,1054456,1,12,0:0:0:0:
256,224,1054687,1,8,0:0:0:0:
256,224,1054764,1,0,0:0:0:0:
256,224,1054917,1,0,0:0:0:0:
256,224,1055071,1,12,0:0:0:0:
256,224,1055225,1,0,0:0:0:0:
256,224,1055302,1,0,0:0:0:0:
256,224,1055379,1,8,0:0:0:0:
256,224,1055533,1,0,0:0:0:0:
256,224,1055687,1,0,0:0:0:0:
256,224,1055840,1,8,0:0:0:0:
256,224,1055994,1,8,0:0:0:0:
256,224,1056148,1,0,0:0:0:0:
256,224,1056302,1,8,0:0:0:0:
256,224,1056456,1,0,0:0:0:0:
256,224,1056610,1,0,0:0:0:0:
256,224,1056764,1,8,0:0:0:0:
256,224,1056917,1,8,0:0:0:0:
256,224,1057071,1,0,0:0:0:0:
256,224,1057225,1,8,0:0:0:0:
256,224,1057379,1,0,0:0:0:0:
256,224,1057456,1,8,0:0:0:0:
256,224,1057533,1,0,0:0:0:0:
256,224,1057687,1,0,0:0:0:0:
256,224,1057764,1,0,0:0:0:0:
256,224,1057840,1,8,0:0:0:0:
256,224,1057994,1,0,0:0:0:0:
256,224,1058148,1,0,0:0:0:0:
256,224,1058302,1,8,0:0:0:0:
256,224,1058456,1,8,0:0:0:0:
256,224,1058610,1,0,0:0:0:0:
256,224,1058687,1,0,0:0:0:0:
256,224,1058764,1,0,0:0:0:0:
256,224,1058917,1,12,0:0:0:0:
256,224,1059379,1,8,0:0:0:0:
256,224,1059687,1,8,0:0:0:0:
256,224,1059840,1,0,0:0:0:0:
256,224,1059917,1,0,0:0:0:0:
256,224,1059994,1,8,0:0:0:0:
256,224,1060148,1,4,0:0:0:0:
256,192,1060302,12,8,1070148,0:0:0:0:
256,196,1076449,5,0,0:0:0:0:
256,196,1076524,1,0,0:0:0:0:
256,196,1076599,1,0,0:0:0:0:
256,196,1076674,1,8,0:0:0:0:
264,200,1076824,5,0,0:0:0:0:
264,200,1076899,1,0,0:0:0:0:
264,200,1076974,1,8,0:0:0:0:
264,200,1077199,5,0,0:0:0:0:
264,200,1077349,1,8,0:0:0:0:
272,204,1077649,1,0,0:0:0:0:
244,204,1077949,1,0,0:0:0:0:
256,208,1078099,1,0,0:0:0:0:
256,208,1078174,1,8,0:0:0:0:
244,204,1078399,1,8,0:0:0:0:
244,204,1078549,1,0,0:0:0:0:
256,196,1078849,5,0,0:0:0:0:
256,196,1078924,1,0,0:0:0:0:
256,196,1078999,1,0,0:0:0:0:
256,196,1079074,1,8,0:0:0:0:
264,200,1079224,1,0,0:0:0:0:
264,200,1079299,1,0,0:0:0:0:
264,200,1079374,1,8,0:0:0:0:
264,200,1079599,1,0,0:0:0:0:
264,200,1079749,1,8,0:0:0:0:
272,204,1080049,1,8,0:0:0:0:
244,204,1080349,1,0,0:0:0:0:
256,208,1080499,1,0,0:0:0:0:
256,208,1080574,1,0,0:0:0:0:
256,212,1080649,1,0,0:0:0:0:
244,204,1080799,1,8,0:0:0:0:
256,212,1080874,1,8,0:0:0:0:
244,204,1080949,1,8,0:0:0:0:
256,212,1081099,1,0,0:0:0:0:
256,212,1081249,1,0,0:0:0:0:
256,212,1081324,1,0,0:0:0:0:
256,208,1081399,1,0,0:0:0:0:
256,208,1081474,1,8,0:0:0:0:
256,208,1081624,1,0,0:0:0:0:
248,216,1081699,1,0,0:0:0:0:
248,216,1081774,1,8,0:0:0:0:
248,216,1082149,1,4,0:0:0:0:
248,216,1082449,1,0,0:0:0:0:
248,216,1082599,1,0,0:0:0:0:
248,216,1082749,1,8,0:0:0:0:
248,216,1082899,1,0,0:0:0:0:
248,216,1082974,1,0,0:0:0:0:
248,216,1083049,1,8,0:0:0:0:
248,216,1083199,1,0,0:0:0:0:
248,216,1083349,1,8,0:0:0:0:
248,216,1083649,1,0,0:0:0:0:
248,216,1083724,1,0,0:0:0:0:
248,216,1083799,1,0,0:0:0:0:
248,216,1083874,1,8,0:0:0:0:
248,216,1083949,1,8,0:0:0:0:
248,216,1084099,1,0,0:0:0:0:
248,216,1084174,1,0,0:0:0:0:
256,208,1084249,1,8,0:0:0:0:
256,208,1084324,1,8,0:0:0:0:
256,216,1084399,1,0,0:0:0:0:
256,216,1084549,1,8,0:0:0:0:
248,216,1084699,1,8,0:0:0:0:
248,216,1084774,1,8,0:0:0:0:
256,216,1084849,1,0,0:0:0:0:
256,216,1084999,1,0,0:0:0:0:
256,216,1085149,1,0,0:0:0:0:
264,216,1085299,1,8,0:0:0:0:
264,216,1085449,1,8,0:0:0:0:
264,216,1085599,1,0,0:0:0:0:
264,216,1085674,1,0,0:0:0:0:
264,216,1085749,1,8,0:0:0:0:
264,216,1085899,1,8,0:0:0:0:
264,216,1086049,1,0,0:0:0:0:
272,216,1086124,1,0,0:0:0:0:
272,216,1086199,1,0,0:0:0:0:
272,216,1086274,1,8,0:0:0:0:
272,216,1086424,1,0,0:0:0:0:
272,216,1086499,1,0,0:0:0:0:
272,216,1086574,1,8,0:0:0:0:
264,216,1086799,1,0,0:0:0:0:
264,216,1086949,1,8,0:0:0:0:
264,216,1087249,1,0,0:0:0:0:
264,216,1087399,1,0,0:0:0:0:
264,216,1087549,1,8,0:0:0:0:
264,216,1087699,1,0,0:0:0:0:
264,216,1087774,1,8,0:0:0:0:
264,216,1087999,1,0,0:0:0:0:
264,216,1088149,1,8,0:0:0:0:
264,216,1088449,1,0,0:0:0:0:
264,216,1088524,1,0,0:0:0:0:
264,216,1088599,1,0,0:0:0:0:
264,216,1088674,1,8,0:0:0:0:
264,216,1088824,1,0,0:0:0:0:
264,216,1088899,1,0,0:0:0:0:
264,216,1088974,1,8,0:0:0:0:
264,216,1089199,1,0,0:0:0:0:
264,216,1089349,1,0,0:0:0:0:
264,216,1089424,1,8,0:0:0:0:
264,216,1089649,1,0,0:0:0:0:
264,216,1089799,1,8,0:0:0:0:
264,216,1089874,1,8,0:0:0:0:
264,216,1089949,1,0,0:0:0:0:
264,216,1090099,1,8,0:0:0:0:
264,216,1090249,1,0,0:0:0:0:
264,216,1090324,1,0,0:0:0:0:
264,216,1090399,1,8,0:0:0:0:
264,216,1090474,1,8,0:0:0:0:
264,216,1090549,1,0,0:0:0:0:
264,216,1090624,1,0,0:0:0:0:
264,216,1090699,1,8,0:0:0:0:
264,216,1090774,1,8,0:0:0:0:
264,216,1090849,1,0,0:0:0:0:
264,216,1091149,1,0,0:0:0:0:
264,216,1091299,1,0,0:0:0:0:
264,216,1091374,1,0,0:0:0:0:
264,216,1091449,1,8,0:0:0:0:
272,220,1091599,1,8,0:0:0:0:
264,208,1091749,1,0,0:0:0:0:
264,208,1091824,1,0,0:0:0:0:
264,208,1091899,1,8,0:0:0:0:
264,208,1091974,1,8,0:0:0:0:
264,208,1092049,1,0,0:0:0:0:
264,208,1092199,1,0,0:0:0:0:
264,208,1092349,1,8,0:0:0:0:
264,208,1092649,1,0,0:0:0:0:
264,208,1092799,1,8,0:0:0:0:
269,200,1092874,1,8,0:0:0:0:
272,208,1092949,1,0,0:0:0:0:
272,208,1093099,1,0,0:0:0:0:
272,208,1093249,1,8,0:0:0:0:
272,208,1093399,1,0,0:0:0:0:
272,208,1093549,1,0,0:0:0:0:
265,198,1093624,1,0,0:0:0:0:
272,208,1093699,1,8,0:0:0:0:
272,208,1093849,1,8,0:0:0:0:
273,207,1093924,1,8,0:0:0:0:
272,208,1093999,1,8,0:0:0:0:
272,208,1094149,1,0,0:0:0:0:
272,208,1094299,1,8,0:0:0:0:
272,208,1094374,1,8,0:0:0:0:
272,208,1094449,1,0,0:0:0:0:
272,208,1094599,1,0,0:0:0:0:
278,207,1094674,1,0,0:0:0:0:
272,208,1094749,1,8,0:0:0:0:
272,208,1094824,1,8,0:0:0:0:
272,208,1094899,1,0,0:0:0:0:
278,207,1094974,1,0,0:0:0:0:
272,208,1095049,1,8,0:0:0:0:
272,208,1095199,1,0,0:0:0:0:
272,208,1095349,1,8,0:0:0:0:
272,208,1095424,1,8,0:0:0:0:
272,208,1095499,1,8,0:0:0:0:
272,208,1095574,1,8,0:0:0:0:
272,208,1095649,1,8,0:0:0:0:
270,207,1096699,1,0,0:0:0:0:
262,216,1098049,1,8,0:0:0:0:
263,212,1099099,1,0,0:0:0:0:
256,192,1100449,1,0,0:0:0:0:
260,197,1100749,1,0,0:0:0:0:
263,197,1100899,1,8,0:0:0:0:
263,197,1101049,1,0,0:0:0:0:
261,201,1101199,1,0,0:0:0:0:
263,197,1101349,1,8,0:0:0:0:
263,197,1101499,1,0,0:0:0:0:
260,197,1101649,1,8,0:0:0:0:
260,197,1101799,1,0,0:0:0:0:
263,197,1101949,1,8,0:0:0:0:
261,187,1102099,1,0,0:0:0:0:
263,197,1102249,1,0,0:0:0:0:
263,197,1102399,1,0,0:0:0:0:
260,197,1102549,1,8,0:0:0:0:
263,197,1102849,1,0,0:0:0:0:
263,197,1103149,1,0,0:0:0:0:
263,197,1103299,1,8,0:0:0:0:
263,197,1103449,1,0,0:0:0:0:
260,197,1103599,1,0,0:0:0:0:
263,197,1103749,1,8,0:0:0:0:
263,197,1104049,1,0,0:0:0:0:
263,197,1104199,1,8,0:0:0:0:
263,197,1104349,1,0,0:0:0:0:
260,197,1104499,1,8,0:0:0:0:
263,197,1104649,1,0,0:0:0:0:
263,197,1104799,1,0,0:0:0:0:
263,197,1104949,1,8,0:0:0:0:
263,197,1105099,1,8,0:0:0:0:
263,197,1105249,1,0,0:0:0:0:
267,195,1105474,1,0,0:0:0:0:
263,197,1105549,1,8,0:0:0:0:
263,197,1105699,1,0,0:0:0:0:
263,197,1105849,1,8,0:0:0:0:
263,197,1105999,1,0,0:0:0:0:
263,197,1106074,1,0,0:0:0:0:
263,197,1106149,1,8,0:0:0:0:
267,195,1106299,1,0,0:0:0:0:
267,195,1106449,1,0,0:0:0:0:
263,197,1106524,1,0,0:0:0:0:
263,197,1106599,1,0,0:0:0:0:
263,197,1106674,1,0,0:0:0:0:
263,197,1106749,1,0,0:0:0:0:
263,197,1106899,1,8,0:0:0:0:
267,195,1107199,1,0,0:0:0:0:
267,195,1107349,1,0,0:0:0:0:
267,195,1107424,1,0,0:0:0:0:
263,197,1107499,1,0,0:0:0:0:
263,197,1107649,1,8,0:0:0:0:
256,192,1107799,12,0,1108549,0:0:0:0:
267,195,1108849,5,0,0:0:0:0:
283,199,1108924,1,0,0:0:0:0:
260,196,1109074,1,8,0:0:0:0:
260,196,1109149,1,8,0:0:0:0:
268,203,1109299,1,0,0:0:0:0:
268,203,1109374,1,0,0:0:0:0:
268,203,1109449,1,8,0:0:0:0:
268,202,1109599,1,0,0:0:0:0:
268,202,1109749,1,8,0:0:0:0:
274,205,1109899,1,0,0:0:0:0:
274,205,1109974,1,0,0:0:0:0:
273,205,1110049,1,8,0:0:0:0:
274,205,1110124,1,0,0:0:0:0:
273,205,1110199,1,8,0:0:0:0:
274,205,1110349,1,0,0:0:0:0:
273,205,1110499,1,8,0:0:0:0:
274,205,1110574,1,0,0:0:0:0:
273,205,1110649,1,8,0:0:0:0:
271,192,1110799,1,0,0:0:0:0:
271,192,1110874,1,0,0:0:0:0:
273,205,1110949,1,8,0:0:0:0:
267,195,1111249,5,0,0:0:0:0:
283,199,1111324,1,8,0:0:0:0:
260,196,1111474,1,8,0:0:0:0:
260,196,1111549,1,0,0:0:0:0:
268,203,1111699,1,0,0:0:0:0:
268,203,1111774,1,0,0:0:0:0:
268,203,1111849,1,8,0:0:0:0:
268,202,1111999,1,0,0:0:0:0:
268,202,1112149,1,8,0:0:0:0:
274,205,1112299,1,0,0:0:0:0:
274,205,1112374,1,0,0:0:0:0:
273,205,1112449,1,8,0:0:0:0:
274,205,1112524,1,0,0:0:0:0:
273,205,1112599,1,8,0:0:0:0:
274,205,1112749,1,0,0:0:0:0:
273,205,1112899,1,8,0:0:0:0:
274,205,1112974,1,0,0:0:0:0:
273,205,1113049,1,8,0:0:0:0:
271,192,1113199,1,0,0:0:0:0:
271,192,1113274,1,0,0:0:0:0:
273,205,1113349,1,8,0:0:0:0:
274,205,1113649,1,8,0:0:0:0:
277,201,1113799,1,0,0:0:0:0:
277,201,1113874,1,0,0:0:0:0:
274,205,1113949,1,0,0:0:0:0:
277,201,1114099,1,8,0:0:0:0:
277,201,1114249,1,8,0:0:0:0:
277,201,1114324,1,0,0:0:0:0:
274,205,1114399,1,0,0:0:0:0:
274,205,1114549,1,8,0:0:0:0:
274,205,1114624,1,8,0:0:0:0:
277,201,1114699,1,0,0:0:0:0:
277,201,1114849,1,8,0:0:0:0:
274,205,1114924,1,0,0:0:0:0:
277,201,1114999,1,0,0:0:0:0:
277,201,1115074,1,0,0:0:0:0:
277,201,1115149,1,8,0:0:0:0:
277,201,1115299,1,0,0:0:0:0:
281,202,1115449,1,8,0:0:0:0:
281,202,1115524,1,0,0:0:0:0:
281,202,1115599,1,0,0:0:0:0:
277,201,1115674,1,8,0:0:0:0:
277,201,1115749,1,8,0:0:0:0:
277,201,1115824,1,0,0:0:0:0:
281,202,1115899,1,8,0:0:0:0:
277,201,1116049,1,0,0:0:0:0:
286,200,1116199,1,0,0:0:0:0:
286,200,1116349,1,8,0:0:0:0:
286,200,1116499,1,0,0:0:0:0:
286,200,1116574,1,0,0:0:0:0:
286,200,1116649,1,8,0:0:0:0:
286,200,1116799,1,0,0:0:0:0:
286,200,1116949,1,0,0:0:0:0:
286,200,1117174,1,0,0:0:0:0:
286,200,1117249,1,8,0:0:0:0:
286,200,1117399,1,0,0:0:0:0:
286,200,1117549,1,8,0:0:0:0:
291,199,1117624,1,8,0:0:0:0:
286,200,1117699,1,8,0:0:0:0:
286,200,1117849,1,0,0:0:0:0:
286,200,1117924,1,0,0:0:0:0:
286,200,1117999,1,0,0:0:0:0:
286,200,1118074,1,0,0:0:0:0:
286,200,1118149,1,8,0:0:0:0:
267,195,1118449,5,8,0:0:0:0:
283,199,1118524,1,8,0:0:0:0:
260,196,1118674,1,0,0:0:0:0:
260,196,1118749,1,0,0:0:0:0:
268,203,1118899,1,8,0:0:0:0:
268,203,1118974,1,0,0:0:0:0:
268,203,1119049,1,8,0:0:0:0:
268,202,1119199,1,8,0:0:0:0:
268,202,1119349,1,0,0:0:0:0:
274,205,1119499,1,0,0:0:0:0:
274,205,1119574,1,0,0:0:0:0:
273,205,1119649,1,8,0:0:0:0:
274,205,1119724,1,0,0:0:0:0:
273,205,1119799,1,8,0:0:0:0:
274,205,1119949,1,0,0:0:0:0:
273,205,1120099,1,8,0:0:0:0:
274,205,1120174,1,8,0:0:0:0:
273,205,1120249,1,8,0:0:0:0:
271,192,1120399,1,0,0:0:0:0:
271,192,1120474,1,0,0:0:0:0:
273,205,1120549,1,0,0:0:0:0:
274,205,1120699,1,8,0:0:0:0:
266,200,1120774,1,0,0:0:0:0:
266,200,1120849,1,8,0:0:0:0:
273,205,1121074,1,0,0:0:0:0:
274,205,1121149,1,8,0:0:0:0:
276,199,1121299,1,8,0:0:0:0:
276,199,1121449,1,0,0:0:0:0:
267,203,1121599,1,0,0:0:0:0:
274,205,1121674,1,0,0:0:0:0:
266,200,1121749,1,8,0:0:0:0:
267,203,1121899,1,8,0:0:0:0:
273,205,1121974,1,0,0:0:0:0:
267,203,1122049,1,0,0:0:0:0:
275,208,1122199,1,8,0:0:0:0:
266,200,1122274,1,0,0:0:0:0:
267,203,1122349,1,0,0:0:0:0:
270,197,1122499,1,8,0:0:0:0:
267,203,1122649,1,0,0:0:0:0:
275,208,1122724,1,0,0:0:0:0:
275,208,1122799,1,8,0:0:0:0:
275,208,1122874,1,0,0:0:0:0:
267,203,1122949,1,8,0:0:0:0:
266,200,1123249,1,0,0:0:0:0:
267,203,1123324,1,0,0:0:0:0:
270,197,1123399,1,8,0:0:0:0:
270,197,1123474,1,8,0:0:0:0:
267,203,1123549,1,0,0:0:0:0:
271,201,1123699,1,8,0:0:0:0:
275,208,1123849,1,0,0:0:0:0:
267,203,1123924,1,0,0:0:0:0:
271,201,1123999,1,8,0:0:0:0:
271,201,1124074,1,0,0:0:0:0:
271,201,1124149,1,0,0:0:0:0:
271,204,1124299,1,8,0:0:0:0:
271,204,1124449,1,0,0:0:0:0:
267,203,1124524,1,0,0:0:0:0:
267,203,1124599,1,0,0:0:0:0:
271,201,1124749,1,8,0:0:0:0:
275,208,1124824,1,8,0:0:0:0:
267,203,1124899,1,0,0:0:0:0:
271,201,1125049,1,8,0:0:0:0:
271,204,1125199,1,8,0:0:0:0:
271,204,1125274,1,0,0:0:0:0:
271,204,1125349,1,0,0:0:0:0:
271,204,1125424,1,0,0:0:0:0:
271,204,1125499,1,8,0:0:0:0:
281,198,1125649,1,0,0:0:0:0:
281,198,1125799,1,0,0:0:0:0:
281,198,1125949,1,8,0:0:0:0:
281,198,1126099,1,0,0:0:0:0:
281,198,1126174,1,0,0:0:0:0:
281,198,1126249,1,8,0:0:0:0:
281,198,1126324,1,0,0:0:0:0:
281,198,1126399,1,8,0:0:0:0:
281,198,1126549,1,0,0:0:0:0:
281,198,1126699,1,0,0:0:0:0:
281,198,1126849,1,0,0:0:0:0:
281,198,1126924,1,0,0:0:0:0:
281,198,1126999,1,8,0:0:0:0:
281,198,1127074,1,0,0:0:0:0:
281,198,1127149,1,8,0:0:0:0:
281,198,1127224,1,0,0:0:0:0:
281,198,1127299,1,0,0:0:0:0:
281,198,1127374,1,8,0:0:0:0:
281,198,1127449,1,0,0:0:0:0:
281,198,1127524,1,8,0:0:0:0:
281,198,1127599,1,8,0:0:0:0:
281,198,1127674,1,0,0:0:0:0:
281,198,1127749,1,8,0:0:0:0:
281,198,1127824,1,8,0:0:0:0:
281,198,1127899,1,0,0:0:0:0:
281,198,1127974,1,0,0:0:0:0:
281,198,1128049,1,8,0:0:0:0:
256,192,1135231,5,8,0:0:0:0:
256,192,1135378,1,0,0:0:0:0:
256,192,1135451,1,0,0:0:0:0:
256,192,1135525,1,8,0:0:0:0:
256,192,1135819,5,0,0:0:0:0:
256,192,1135966,1,0,0:0:0:0:
256,192,1136113,1,8,0:0:0:0:
256,192,1136407,1,0,0:0:0:0:
256,192,1136554,1,0,0:0:0:0:
256,192,1136701,1,8,0:0:0:0:
256,192,1136848,1,0,0:0:0:0:
256,192,1136995,1,8,0:0:0:0:
256,192,1137289,1,8,0:0:0:0:
256,192,1137436,1,0,0:0:0:0:
256,192,1137510,1,0,0:0:0:0:
256,192,1137584,1,8,0:0:0:0:
256,192,1137731,1,0,0:0:0:0:
256,192,1137804,1,0,0:0:0:0:
256,192,1137878,1,8,0:0:0:0:
256,192,1138172,1,8,0:0:0:0:
256,192,1138319,1,4,0:0:0:0:
256,192,1139642,1,8,0:0:0:0:
256,192,1140231,1,8,0:0:0:0:
256,192,1140819,1,8,0:0:0:0:
256,192,1140966,1,0,0:0:0:0:
256,192,1141113,1,8,0:0:0:0:
256,192,1141162,1,8,0:0:0:0:
256,192,1141211,1,8,0:0:0:0:
256,192,1141260,1,0,0:0:0:0:
256,192,1141309,1,0,0:0:0:0:
256,192,1141358,1,0,0:0:0:0:
256,192,1141407,1,8,0:0:0:0:
256,192,1141554,1,0,0:0:0:0:
256,192,1141701,1,8,0:0:0:0:
256,192,1141848,1,0,0:0:0:0:
256,192,1142142,1,0,0:0:0:0:
256,192,1142289,1,12,0:0:0:0:
256,192,1142584,1,8,0:0:0:0:
256,192,1142731,1,8,0:0:0:0:
256,192,1142878,1,0,0:0:0:0:
256,192,1143025,1,8,0:0:0:0:
256,192,1143172,1,0,0:0:0:0:
256,192,1143319,1,0,0:0:0:0:
256,192,1143392,1,0,0:0:0:0:
256,192,1143466,1,8,0:0:0:0:
256,192,1143613,1,0,0:0:0:0:
256,192,1143760,1,8,0:0:0:0:
256,192,1143834,1,8,0:0:0:0:
256,192,1143907,1,0,0:0:0:0:
256,192,1143981,1,0,0:0:0:0:
256,192,1144054,1,8,0:0:0:0:
256,192,1144201,1,0,0:0:0:0:
256,192,1144495,1,0,0:0:0:0:
256,192,1144569,1,0,0:0:0:0:
256,192,1144642,1,8,0:0:0:0:
256,192,1144789,1,8,0:0:0:0:
256,192,1144936,1,0,0:0:0:0:
256,192,1145084,1,8,0:0:0:0:
256,192,1145231,1,8,0:0:0:0:
256,192,1145378,1,0,0:0:0:0:
256,192,1145525,1,8,0:0:0:0:
256,192,1145672,1,8,0:0:0:0:
256,192,1145745,1,0,0:0:0:0:
256,192,1145819,1,0,0:0:0:0:
256,192,1145966,1,8,0:0:0:0:
256,192,1146113,1,0,0:0:0:0:
256,192,1146186,1,0,0:0:0:0:
256,192,1146260,1,8,0:0:0:0:
256,192,1146334,1,8,0:0:0:0:
256,192,1146407,1,0,0:0:0:0:
256,192,1146554,1,8,0:0:0:0:
256,192,1146848,1,0,0:0:0:0:
256,192,1146922,1,0,0:0:0:0:
256,192,1146995,1,8,0:0:0:0:
256,192,1147142,1,8,0:0:0:0:
256,192,1147289,1,0,0:0:0:0:
256,192,1147436,1,8,0:0:0:0:
256,192,1147584,1,0,0:0:0:0:
256,192,1147731,1,8,0:0:0:0:
256,192,1147878,1,8,0:0:0:0:
256,192,1148025,1,0,0:0:0:0:
256,192,1148098,1,0,0:0:0:0:
256,192,1148172,1,0,0:0:0:0:
256,192,1148319,1,8,0:0:0:0:
256,192,1148466,1,0,0:0:0:0:
256,192,1148613,1,8,0:0:0:0:
256,192,1148686,1,8,0:0:0:0:
256,192,1148760,1,0,0:0:0:0:
256,192,1148907,1,8,0:0:0:0:
256,192,1149201,1,0,0:0:0:0:
256,192,1149275,1,0,0:0:0:0:
256,192,1149348,1,8,0:0:0:0:
256,192,1149495,1,8,0:0:0:0:
256,192,1149642,1,0,0:0:0:0:
256,192,1149789,1,0,0:0:0:0:
256,192,1149936,1,8,0:0:0:0:
256,192,1150034,1,0,0:0:0:0:
256,192,1150133,1,0,0:0:0:0:
256,192,1150231,1,8,0:0:0:0:
256,192,1150304,1,8,0:0:0:0:
256,192,1150378,1,0,0:0:0:0:
256,192,1150451,1,0,0:0:0:0:
256,192,1150525,1,8,0:0:0:0:
256,192,1150672,1,8,0:0:0:0:
256,192,1150819,1,0,0:0:0:0:
256,192,1150892,1,0,0:0:0:0:
256,192,1150966,1,0,0:0:0:0:
256,192,1151039,1,0,0:0:0:0:
256,192,1151113,1,8,0:0:0:0:
256,192,1151260,1,0,0:0:0:0:
256,192,1151554,1,0,0:0:0:0:
256,192,1151701,1,12,0:0:0:0:
256,192,1151995,1,8,0:0:0:0:
256,192,1152142,1,8,0:0:0:0:
256,192,1152289,1,0,0:0:0:0:
256,192,1152436,1,0,0:0:0:0:
256,192,1152584,1,8,0:0:0:0:
256,192,1152731,1,0,0:0:0:0:
256,192,1152804,1,0,0:0:0:0:
256,192,1152878,1,8,0:0:0:0:
256,192,1153025,1,8,0:0:0:0:
256,192,1153172,1,0,0:0:0:0:
256,192,1153245,1,0,0:0:0:0:
256,192,1153319,1,8,0:0:0:0:
256,192,1153392,1,8,0:0:0:0:
256,192,1153466,1,0,0:0:0:0:
256,192,1153613,1,8,0:0:0:0:
256,192,1153907,1,0,0:0:0:0:
256,192,1153981,1,0,0:0:0:0:
256,192,1154054,1,8,0:0:0:0:
256,192,1154201,1,8,0:0:0:0:
256,192,1154348,1,0,0:0:0:0:
256,192,1154495,1,0,0:0:0:0:
256,192,1154642,1,8,0:0:0:0:
256,192,1154936,1,8,0:0:0:0:
256,192,1155084,1,8,0:0:0:0:
256,192,1155157,1,8,0:0:0:0:
256,192,1155231,1,0,0:0:0:0:
256,192,1155378,1,8,0:0:0:0:
256,192,1155525,1,0,0:0:0:0:
256,192,1155598,1,0,0:0:0:0:
256,192,1155672,1,8,0:0:0:0:
256,192,1155745,1,0,0:0:0:0:
256,192,1155819,1,0,0:0:0:0:
256,192,1155966,1,8,0:0:0:0:
256,192,1156113,1,0,0:0:0:0:
256,192,1156260,1,0,0:0:0:0:
256,192,1156334,1,0,0:0:0:0:
256,192,1156407,1,8,0:0:0:0:
256,192,1156554,1,8,0:0:0:0:
256,192,1156701,1,0,0:0:0:0:
256,192,1156848,1,0,0:0:0:0:
256,192,1156995,1,8,0:0:0:0:
256,192,1157142,1,8,0:0:0:0:
256,192,1157289,1,0,0:0:0:0:
256,192,1157436,1,8,0:0:0:0:
256,192,1157510,1,8,0:0:0:0:
256,192,1157584,1,0,0:0:0:0:
256,192,1157731,1,8,0:0:0:0:
256,192,1157878,1,0,0:0:0:0:
256,192,1157951,1,8,0:0:0:0:
256,192,1158025,1,0,0:0:0:0:
256,192,1158098,1,0,0:0:0:0:
256,192,1158172,1,8,0:0:0:0:
256,192,1158319,1,8,0:0:0:0:
256,192,1158613,1,8,0:0:0:0:
256,192,1158686,1,0,0:0:0:0:
256,192,1158760,1,0,0:0:0:0:
256,192,1158907,1,8,0:0:0:0:
256,192,1159054,1,0,0:0:0:0:
256,192,1159201,1,0,0:0:0:0:
256,192,1159348,1,8,0:0:0:0:
256,192,1159422,1,8,0:0:0:0:
256,192,1159495,1,0,0:0:0:0:
256,192,1159642,1,8,0:0:0:0:
256,192,1159789,1,0,0:0:0:0:
256,192,1159863,1,0,0:0:0:0:
256,192,1159936,1,8,0:0:0:0:
256,192,1160084,1,0,0:0:0:0:
256,192,1160231,1,8,0:0:0:0:
256,192,1160304,1,8,0:0:0:0:
256,192,1160378,1,0,0:0:0:0:
256,192,1160451,1,0,0:0:0:0:
256,192,1160525,1,8,0:0:0:0:
256,192,1160598,1,8,0:0:0:0:
256,192,1160672,1,0,0:0:0:0:
256,192,1160966,1,0,0:0:0:0:
256,192,1161113,1,12,0:0:0:0:
256,192,1161407,1,0,0:0:0:0:
256,192,1161554,1,8,0:0:0:0:
256,192,1161701,1,0,0:0:0:0:
256,192,1161848,1,0,0:0:0:0:
256,192,1161995,1,8,0:0:0:0:
256,192,1162142,1,0,0:0:0:0:
256,192,1162216,1,8,0:0:0:0:
256,192,1162289,1,0,0:0:0:0:
256,192,1162436,1,8,0:0:0:0:
256,192,1162584,1,0,0:0:0:0:
256,192,1162731,1,0,0:0:0:0:
256,192,1162804,1,0,0:0:0:0:
256,192,1162878,1,8,0:0:0:0:
256,192,1163025,1,8,0:0:0:0:
256,192,1163319,1,0,0:0:0:0:
256,192,1163466,1,8,0:0:0:0:
256,192,1163613,1,0,0:0:0:0:
256,192,1163760,1,0,0:0:0:0:
256,192,1163907,1,8,0:0:0:0:
256,192,1164054,1,8,0:0:0:0:
256,192,1164201,1,0,0:0:0:0:
256,192,1164275,1,0,0:0:0:0:
256,192,1164348,1,8,0:0:0:0:
256,192,1164495,1,8,0:0:0:0:
256,192,1164569,1,8,0:0:0:0:
256,192,1164642,1,0,0:0:0:0:
256,192,1164716,1,0,0:0:0:0:
256,192,1164789,1,8,0:0:0:0:
256,192,1164936,1,0,0:0:0:0:
256,192,1165010,1,0,0:0:0:0:
256,192,1165084,1,0,0:0:0:0:
256,192,1165231,1,8,0:0:0:0:
256,192,1165378,1,0,0:0:0:0:
256,192,1165672,1,0,0:0:0:0:
256,192,1165745,1,0,0:0:0:0:
256,192,1165819,1,8,0:0:0:0:
256,192,1165966,1,0,0:0:0:0:
256,192,1166113,1,8,0:0:0:0:
256,192,1166260,1,0,0:0:0:0:
256,192,1166407,1,8,0:0:0:0:
256,192,1166481,1,0,0:0:0:0:
256,192,1166554,1,8,0:0:0:0:
256,192,1166701,1,0,0:0:0:0:
256,192,1166848,1,0,0:0:0:0:
256,192,1166922,1,0,0:0:0:0:
256,192,1166995,1,8,0:0:0:0:
256,192,1167069,1,0,0:0:0:0:
256,192,1167142,1,8,0:0:0:0:
256,192,1167289,1,0,0:0:0:0:
256,192,1167363,1,0,0:0:0:0:
256,192,1167436,1,8,0:0:0:0:
256,192,1167510,1,8,0:0:0:0:
256,192,1167584,1,0,0:0:0:0:
256,192,1167731,1,8,0:0:0:0:
256,192,1168025,1,0,0:0:0:0:
256,192,1168098,1,0,0:0:0:0:
256,192,1168172,1,8,0:0:0:0:
256,192,1168319,1,0,0:0:0:0:
256,192,1168466,1,8,0:0:0:0:
256,192,1168539,1,0,0:0:0:0:
256,192,1168613,1,0,0:0:0:0:
256,192,1168760,1,8,0:0:0:0:
256,192,1168907,1,0,0:0:0:0:
256,192,1168981,1,8,0:0:0:0:
256,192,1169054,1,0,0:0:0:0:
256,192,1169201,1,0,0:0:0:0:
256,192,1169348,1,8,0:0:0:0:
256,192,1169495,1,0,0:0:0:0:
256,192,1169642,1,8,0:0:0:0:
256,192,1169789,1,8,0:0:0:0:
256,192,1170084,1,0,0:0:0:0:
256,192,1170525,1,12,0:0:0:0:
256,192,1170819,1,8,0:0:0:0:
256,192,1171260,1,0,0:0:0:0:
256,192,1171407,1,0,0:0:0:0:
256,192,1171554,1,0,0:0:0:0:
256,192,1171848,1,0,0:0:0:0:
256,192,1171995,1,8,0:0:0:0:
256,192,1172436,1,0,0:0:0:0:
256,192,1172878,1,0,0:0:0:0:
256,192,1173172,1,8,0:0:0:0:
256,192,1173613,1,0,0:0:0:0:
256,192,1173686,1,0,0:0:0:0:
256,192,1173760,1,0,0:0:0:0:
256,192,1173907,1,0,0:0:0:0:
256,192,1174201,1,0,0:0:0:0:
256,192,1174348,1,8,0:0:0:0:
256,192,1174642,1,8,0:0:0:0:
256,192,1174789,1,0,0:0:0:0:
256,192,1175231,1,0,0:0:0:0:
256,192,1175525,1,8,0:0:0:0:
256,192,1175819,1,8,0:0:0:0:
256,192,1175966,1,8,0:0:0:0:
256,192,1176113,1,0,0:0:0:0:
256,192,1176260,1,0,0:0:0:0:
256,192,1176554,1,0,0:0:0:0:
256,192,1176701,1,8,0:0:0:0:
256,192,1176995,1,8,0:0:0:0:
256,192,1177142,1,0,0:0:0:0:
256,192,1177436,1,0,0:0:0:0:
256,192,1177731,1,8,0:0:0:0:
256,192,1178025,1,8,0:0:0:0:
256,192,1178319,1,8,0:0:0:0:
256,192,1178392,1,8,0:0:0:0:
256,192,1178466,1,0,0:0:0:0:
256,192,1178613,1,0,0:0:0:0:
256,192,1178907,1,0,0:0:0:0:
256,192,1179054,1,8,0:0:0:0:
256,192,1179201,1,8,0:0:0:0:
256,192,1179348,1,0,0:0:0:0:
256,192,1179495,1,12,0:0:0:0:
256,192,1179936,1,8,0:0:0:0:
256,192,1180084,1,0,0:0:0:0:
256,192,1180231,1,8,0:0:0:0:
256,192,1180378,1,0,0:0:0:0:
256,192,1180451,1,0,0:0:0:0:
256,192,1180525,1,8,0:0:0:0:
256,192,1180672,1,0,0:0:0:0:
256,192,1180819,1,8,0:0:0:0:
256,192,1180892,1,0,0:0:0:0:
256,192,1180966,1,0,0:0:0:0:
256,192,1181113,1,8,0:0:0:0:
256,192,1181260,1,0,0:0:0:0:
256,192,1181407,1,8,0:0:0:0:
256,192,1181481,1,0,0:0:0:0:
256,192,1181554,1,8,0:0:0:0:
256,192,1181628,1,8,0:0:0:0:
256,192,1181701,1,0,0:0:0:0:
256,192,1181848,1,0,0:0:0:0:
256,192,1181995,1,8,0:0:0:0:
256,192,1182069,1,0,0:0:0:0:
256,192,1182142,1,0,0:0:0:0:
256,192,1182216,1,0,0:0:0:0:
256,192,1182289,1,8,0:0:0:0:
256,192,1182436,1,0,0:0:0:0:
256,192,1182584,1,8,0:0:0:0:
256,192,1182657,1,8,0:0:0:0:
256,192,1182731,1,0,0:0:0:0:
256,192,1182804,1,0,0:0:0:0:
256,192,1182878,1,8,0:0:0:0:
256,192,1182951,1,0,0:0:0:0:
256,192,1183025,1,8,0:0:0:0:
256,192,1183098,1,8,0:0:0:0:
256,192,1183172,1,0,0:0:0:0:
256,192,1183760,1,8,0:0:0:0:
256,192,1183907,1,0,0:0:0:0:
256,192,1184201,1,12,0:0:0:0:
256,192,1192456,5,12,0:0:0:0:
256,192,1192706,5,8,0:0:0:0:
256,192,1192789,5,0,0:0:0:0:
256,192,1192872,5,0,0:0:0:0:
256,192,1192956,5,8,0:0:0:0:
256,192,1193039,5,0,0:0:0:0:
256,192,1193122,5,0,0:0:0:0:
256,192,1193206,5,8,0:0:0:0:
256,192,1193456,5,0,0:0:0:0:
256,192,1193831,5,0,0:0:0:0:
256,192,1194081,5,8,0:0:0:0:
256,192,1194206,5,0,0:0:0:0:
256,192,1194456,5,8,0:0:0:0:
256,192,1194581,5,0,0:0:0:0:
256,192,1194831,5,8,0:0:0:0:
256,192,1195081,5,0,0:0:0:0:
256,192,1195206,5,8,0:0:0:0:
256,192,1195331,5,8,0:0:0:0:
256,192,1195456,5,0,0:0:0:0:
256,192,1195706,5,8,0:0:0:0:
256,192,1195831,5,0,0:0:0:0:
256,192,1196081,5,8,0:0:0:0:
256,192,1196206,5,0,0:0:0:0:
256,192,1196331,5,0,0:0:0:0:
256,192,1196456,5,8,0:0:0:0:
256,192,1196581,5,0,0:0:0:0:
256,192,1196831,5,0,0:0:0:0:
256,192,1196956,5,8,0:0:0:0:
256,192,1197081,5,8,0:0:0:0:
256,192,1197206,5,0,0:0:0:0:
256,192,1197456,5,8,0:0:0:0:
256,192,1197706,5,8,0:0:0:0:
256,192,1197831,5,0,0:0:0:0:
256,192,1198081,5,8,0:0:0:0:
256,192,1198206,5,8,0:0:0:0:
256,192,1198456,5,0,0:0:0:0:
256,192,1198581,5,0,0:0:0:0:
256,192,1198831,5,8,0:0:0:0:
256,192,1199081,5,0,0:0:0:0:
256,192,1199206,5,8,0:0:0:0:
256,192,1199331,5,8,0:0:0:0:
256,192,1199456,5,0,0:0:0:0:
256,192,1199706,5,8,0:0:0:0:
256,192,1199831,5,0,0:0:0:0:
256,192,1200081,5,0,0:0:0:0:
256,192,1200206,5,8,0:0:0:0:
256,192,1200456,5,0,0:0:0:0:
256,192,1200581,5,0,0:0:0:0:
256,192,1200831,5,0,0:0:0:0:
256,192,1200956,5,8,0:0:0:0:
256,192,1201081,5,8,0:0:0:0:
256,192,1201331,5,0,0:0:0:0:
256,192,1201456,5,4,0:0:0:0:
256,192,1201706,5,8,0:0:0:0:
256,192,1201831,5,0,0:0:0:0:
256,192,1202081,5,0,0:0:0:0:
256,192,1202206,5,8,0:0:0:0:
256,192,1202456,5,8,0:0:0:0:
256,192,1202581,5,0,0:0:0:0:
256,192,1202831,5,8,0:0:0:0:
256,192,1202956,5,8,0:0:0:0:
256,192,1203081,5,8,0:0:0:0:
256,192,1203331,5,0,0:0:0:0:
256,192,1203456,5,8,0:0:0:0:
256,192,1203706,5,0,0:0:0:0:
256,192,1203831,5,0,0:0:0:0:
256,192,1203956,5,8,0:0:0:0:
256,192,1204081,5,0,0:0:0:0:
256,192,1204206,5,8,0:0:0:0:
256,192,1204456,5,8,0:0:0:0:
256,192,1204581,5,0,0:0:0:0:
256,192,1204831,5,0,0:0:0:0:
256,192,1204956,5,8,0:0:0:0:
256,192,1205081,5,8,0:0:0:0:
256,192,1205206,5,0,0:0:0:0:
256,192,1205456,5,12,0:0:0:0:
256,192,1205706,5,8,0:0:0:0:
256,192,1205831,5,0,0:0:0:0:
256,192,1205956,5,8,0:0:0:0:
256,192,1206081,5,0,0:0:0:0:
256,192,1206206,5,8,0:0:0:0:
256,192,1206331,5,8,0:0:0:0:
256,192,1206456,5,8,0:0:0:0:
256,192,1206581,5,0,0:0:0:0:
256,192,1206706,5,8,0:0:0:0:
256,192,1206831,5,8,0:0:0:0:
256,192,1206956,5,8,0:0:0:0:
256,192,1207081,5,0,0:0:0:0:
256,192,1207143,5,0,0:0:0:0:
256,192,1207206,5,8,0:0:0:0:
256,192,1207331,5,0,0:0:0:0:
256,192,1207393,5,0,0:0:0:0:
256,192,1207456,5,0,0:0:0:0:
256,192,1209456,5,4,0:0:0:0:
256,192,1209706,5,8,0:0:0:0:
256,192,1209831,5,0,0:0:0:0:
256,192,1209956,5,8,0:0:0:0:
256,192,1210018,5,8,0:0:0:0:
256,192,1210081,5,8,0:0:0:0:
256,192,1210206,5,0,0:0:0:0:
256,192,1210331,5,0,0:0:0:0:
256,192,1210456,5,8,0:0:0:0:
256,192,1210518,5,8,0:0:0:0:
256,192,1210581,5,0,0:0:0:0:
256,192,1210643,5,0,0:0:0:0:
256,192,1210706,5,8,0:0:0:0:
256,192,1210768,5,0,0:0:0:0:
256,192,1210831,5,8,0:0:0:0:
256,192,1210956,5,0,0:0:0:0:
256,192,1211081,5,8,0:0:0:0:
256,192,1211143,5,0,0:0:0:0:
256,192,1211206,5,0,0:0:0:0:
256,192,1211331,5,8,0:0:0:0:
256,192,1211706,5,8,0:0:0:0:
256,192,1211831,5,0,0:0:0:0:
256,192,1211956,5,0,0:0:0:0:
256,192,1212081,5,0,0:0:0:0:
256,192,1212143,5,0,0:0:0:0:
256,192,1212206,5,8,0:0:0:0:
256,192,1212331,5,0,0:0:0:0:
256,192,1212456,5,8,0:0:0:0:
256,192,1212518,5,8,0:0:0:0:
256,192,1212581,5,0,0:0:0:0:
256,192,1212706,5,8,0:0:0:0:
256,192,1212831,5,0,0:0:0:0:
256,192,1213081,5,0,0:0:0:0:
256,192,1213206,5,8,0:0:0:0:
256,192,1213331,5,0,0:0:0:0:
256,192,1213456,5,8,0:0:0:0:
256,192,1213518,5,8,0:0:0:0:
256,192,1213581,5,8,0:0:0:0:
256,192,1213706,5,0,0:0:0:0:
256,192,1213768,5,0,0:0:0:0:
256,192,1213831,5,8,0:0:0:0:
256,192,1213956,5,0,0:0:0:0:
256,192,1214081,5,0,0:0:0:0:
256,192,1214206,5,8,0:0:0:0:
256,192,1214268,5,8,0:0:0:0:
256,192,1214331,5,0,0:0:0:0:
256,192,1214456,5,8,0:0:0:0:
256,192,1214518,5,0,0:0:0:0:
256,192,1214581,5,0,0:0:0:0:
256,192,1214706,5,8,0:0:0:0:
256,192,1214768,5,0,0:0:0:0:
256,192,1214831,5,8,0:0:0:0:
256,192,1214956,5,0,0:0:0:0:
256,192,1215081,5,0,0:0:0:0:
256,192,1215206,5,8,0:0:0:0:
256,192,1215268,5,8,0:0:0:0:
256,192,1215331,5,0,0:0:0:0:
256,192,1215393,5,0,0:0:0:0:
256,192,1215456,5,8,0:0:0:0:
256,192,1215706,5,8,0:0:0:0:
256,192,1215768,5,0,0:0:0:0:
256,192,1215831,5,8,0:0:0:0:
256,192,1215956,5,8,0:0:0:0:
256,192,1216081,5,0,0:0:0:0:
256,192,1216206,5,8,0:0:0:0:
256,192,1216331,5,0,0:0:0:0:
256,192,1216393,5,0,0:0:0:0:
256,192,1216456,5,8,0:0:0:0:
256,192,1216581,5,8,0:0:0:0:
256,192,1216706,5,0,0:0:0:0:
256,192,1216789,5,8,0:0:0:0:
256,192,1216872,5,8,0:0:0:0:
256,192,1216956,5,0,0:0:0:0:
256,192,1217039,5,0,0:0:0:0:
256,192,1217122,5,0,0:0:0:0:
256,192,1217206,5,12,0:0:0:0:
256,192,1217331,5,0,0:0:0:0:
256,192,1217456,5,0,0:0:0:0:
256,192,1217706,5,8,0:0:0:0:
256,192,1217831,5,0,0:0:0:0:
256,192,1217956,5,8,0:0:0:0:
256,192,1218018,5,8,0:0:0:0:
256,192,1218081,5,8,0:0:0:0:
256,192,1218206,5,0,0:0:0:0:
256,192,1218331,5,8,0:0:0:0:
256,192,1218456,5,8,0:0:0:0:
256,192,1218518,5,8,0:0:0:0:
256,192,1218581,5,0,0:0:0:0:
256,192,1218643,5,0,0:0:0:0:
256,192,1218706,5,8,0:0:0:0:
256,192,1218768,5,0,0:0:0:0:
256,192,1218831,5,8,0:0:0:0:
256,192,1219081,5,8,0:0:0:0:
256,192,1219206,5,0,0:0:0:0:
256,192,1219331,5,8,0:0:0:0:
256,192,1219456,5,8,0:0:0:0:
256,192,1219518,5,8,0:0:0:0:
256,192,1219581,5,0,0:0:0:0:
256,192,1219706,5,8,0:0:0:0:
256,192,1219831,5,0,0:0:0:0:
256,192,1219893,5,0,0:0:0:0:
256,192,1219956,5,0,0:0:0:0:
256,192,1220081,5,0,0:0:0:0:
256,192,1220206,5,8,0:0:0:0:
256,192,1220268,5,8,0:0:0:0:
256,192,1220331,5,0,0:0:0:0:
256,192,1220456,5,8,0:0:0:0:
256,192,1220581,5,0,0:0:0:0:
256,192,1220643,5,0,0:0:0:0:
256,192,1220706,5,8,0:0:0:0:
256,192,1220768,5,0,0:0:0:0:
256,192,1220831,5,8,0:0:0:0:
256,192,1221081,5,0,0:0:0:0:
256,192,1221143,5,0,0:0:0:0:
256,192,1221206,5,8,0:0:0:0:
256,192,1221331,5,0,0:0:0:0:
256,192,1221456,5,8,0:0:0:0:
256,192,1221518,5,8,0:0:0:0:
256,192,1221581,5,0,0:0:0:0:
256,192,1221706,5,0,0:0:0:0:
256,192,1221831,5,8,0:0:0:0:
256,192,1221893,5,0,0:0:0:0:
256,192,1221956,5,0,0:0:0:0:
256,192,1222081,5,0,0:0:0:0:
256,192,1222143,5,0,0:0:0:0:
256,192,1222206,5,8,0:0:0:0:
256,192,1222331,5,8,0:0:0:0:
256,192,1222456,5,0,0:0:0:0:
256,192,1222581,5,0,0:0:0:0:
256,192,1222643,5,0,0:0:0:0:
256,192,1222706,5,8,0:0:0:0:
256,192,1222768,5,0,0:0:0:0:
256,192,1222831,5,8,0:0:0:0:
256,192,1222956,5,0,0:0:0:0:
256,192,1223081,5,0,0:0:0:0:
256,192,1223143,5,0,0:0:0:0:
256,192,1223206,5,8,0:0:0:0:
256,192,1223331,5,0,0:0:0:0:
256,192,1223456,5,8,0:0:0:0:
256,192,1223581,5,8,0:0:0:0:
256,192,1223643,5,8,0:0:0:0:
256,192,1223706,5,8,0:0:0:0:
256,192,1223831,5,0,0:0:0:0:
256,192,1223956,5,8,0:0:0:0:
256,192,1224081,5,0,0:0:0:0:
256,192,1224143,5,8,0:0:0:0:
256,192,1224206,5,8,0:0:0:0:
256,192,1224331,5,0,0:0:0:0:
256,192,1224456,5,8,0:0:0:0:
256,192,1224581,5,0,0:0:0:0:
256,192,1224706,5,8,0:0:0:0:
256,192,1224789,5,8,0:0:0:0:
256,192,1224872,5,8,0:0:0:0:
256,192,1224956,5,0,0:0:0:0:
256,192,1225039,5,0,0:0:0:0:
256,192,1225122,5,0,0:0:0:0:
256,192,1225206,5,8,0:0:0:0:
256,192,1225456,5,12,0:0:0:0:
256,192,1225581,5,0,0:0:0:0:
256,192,1225643,5,0,0:0:0:0:
256,192,1225706,5,8,0:0:0:0:
256,192,1225831,5,0,0:0:0:0:
256,192,1225956,5,8,0:0:0:0:
256,192,1226081,5,0,0:0:0:0:
256,192,1226143,5,0,0:0:0:0:
256,192,1226206,5,8,0:0:0:0:
256,192,1226331,5,0,0:0:0:0:
256,192,1226456,5,8,0:0:0:0:
256,192,1226581,5,0,0:0:0:0:
256,192,1226643,5,0,0:0:0:0:
256,192,1226706,5,0,0:0:0:0:
256,192,1226831,5,8,0:0:0:0:
256,192,1226956,5,0,0:0:0:0:
256,192,1227081,5,0,0:0:0:0:
256,192,1227143,5,0,0:0:0:0:
256,192,1227206,5,8,0:0:0:0:
256,192,1227331,5,0,0:0:0:0:
256,192,1227456,5,8,0:0:0:0:
256,192,1227581,5,0,0:0:0:0:
256,192,1227643,5,0,0:0:0:0:
256,192,1227706,5,8,0:0:0:0:
256,192,1227831,5,0,0:0:0:0:
256,192,1227956,5,8,0:0:0:0:
256,192,1228081,5,0,0:0:0:0:
256,192,1228206,5,8,0:0:0:0:
256,192,1228268,5,0,0:0:0:0:
256,192,1228331,5,0,0:0:0:0:
256,192,1228456,5,8,0:0:0:0:
256,192,1228518,5,8,0:0:0:0:
256,192,1228581,5,8,0:0:0:0:
256,192,1228643,5,8,0:0:0:0:
256,192,1228706,5,0,0:0:0:0:
256,192,1228831,5,8,0:0:0:0:
256,192,1228956,5,0,0:0:0:0:
256,192,1229081,5,0,0:0:0:0:
256,192,1229143,5,0,0:0:0:0:
256,192,1229206,5,8,0:0:0:0:
256,192,1229331,5,0,0:0:0:0:
256,192,1229456,5,8,0:0:0:0:
256,192,1229581,5,0,0:0:0:0:
256,192,1229643,5,0,0:0:0:0:
256,192,1229706,5,8,0:0:0:0:
256,192,1229831,5,0,0:0:0:0:
256,192,1229956,5,8,0:0:0:0:
256,192,1230081,5,0,0:0:0:0:
256,192,1230206,5,8,0:0:0:0:
256,192,1230268,5,8,0:0:0:0:
256,192,1230331,5,0,0:0:0:0:
256,192,1230393,5,0,0:0:0:0:
256,192,1230456,5,8,0:0:0:0:
256,192,1230581,5,0,0:0:0:0:
256,192,1230706,5,8,0:0:0:0:
256,192,1230831,5,0,0:0:0:0:
256,192,1230956,5,8,0:0:0:0:
256,192,1231081,5,0,0:0:0:0:
256,192,1231143,5,0,0:0:0:0:
256,192,1231206,5,8,0:0:0:0:
256,192,1231331,5,0,0:0:0:0:
256,192,1231456,1,8,0:0:0:0:
256,192,1231518,1,8,0:0:0:0:
256,192,1231581,1,8,0:0:0:0:
256,192,1231643,1,8,0:0:0:0:
256,192,1231706,1,0,0:0:0:0:
256,192,1231831,5,8,0:0:0:0:
256,192,1231956,5,8,0:0:0:0:
256,192,1232081,5,0,0:0:0:0:
256,192,1232143,1,0,0:0:0:0:
256,192,1232206,5,8,0:0:0:0:
256,192,1232331,5,8,0:0:0:0:
256,192,1232456,5,0,0:0:0:0:
256,192,1232581,5,0,0:0:0:0:
256,192,1232706,5,8,0:0:0:0:
256,192,1232831,5,0,0:0:0:0:
256,192,1232956,5,8,0:0:0:0:
256,192,1233081,5,0,0:0:0:0:
256,192,1233143,5,0,0:0:0:0:
256,192,1233206,5,8,0:0:0:0:
256,192,1233331,5,8,0:0:0:0:
256,192,1233456,5,4,0:0:0:0:
256,192,1233581,5,0,0:0:0:0:
256,192,1233643,1,0,0:0:0:0:
256,192,1233706,5,8,0:0:0:0:
256,192,1233831,5,0,0:0:0:0:
256,192,1233956,5,8,0:0:0:0:
256,192,1234081,5,0,0:0:0:0:
256,192,1234206,5,8,0:0:0:0:
256,192,1234331,5,0,0:0:0:0:
256,192,1234456,5,8,0:0:0:0:
256,192,1234581,5,0,0:0:0:0:
256,192,1234643,1,0,0:0:0:0:
256,192,1234706,5,0,0:0:0:0:
256,192,1234831,5,8,0:0:0:0:
256,192,1234956,5,0,0:0:0:0:
256,192,1235018,1,0,0:0:0:0:
256,192,1235081,5,0,0:0:0:0:
256,192,1235143,1,0,0:0:0:0:
256,192,1235206,5,8,0:0:0:0:
256,192,1235331,5,0,0:0:0:0:
256,192,1235456,5,8,0:0:0:0:
256,192,1235518,1,8,0:0:0:0:
256,192,1235581,5,0,0:0:0:0:
256,192,1235706,5,8,0:0:0:0:
256,192,1235831,5,0,0:0:0:0:
256,192,1235956,5,8,0:0:0:0:
256,192,1236081,5,0,0:0:0:0:
256,192,1236206,1,8,0:0:0:0:
256,192,1236268,1,0,0:0:0:0:
256,192,1236331,5,0,0:0:0:0:
256,192,1236456,5,8,0:0:0:0:
256,192,1236581,5,0,0:0:0:0:
256,192,1236643,1,0,0:0:0:0:
256,192,1236706,1,0,0:0:0:0:
256,192,1236831,5,8,0:0:0:0:
256,192,1236956,5,0,0:0:0:0:
256,192,1237018,1,0,0:0:0:0:
256,192,1237081,5,0,0:0:0:0:
256,192,1237143,5,0,0:0:0:0:
256,192,1237206,5,8,0:0:0:0:
256,192,1237331,5,0,0:0:0:0:
256,192,1237456,5,8,0:0:0:0:
256,192,1237518,1,8,0:0:0:0:
256,192,1237581,5,0,0:0:0:0:
256,192,1237706,5,8,0:0:0:0:
256,192,1237831,5,8,0:0:0:0:
256,192,1237956,5,8,0:0:0:0:
256,192,1238081,5,0,0:0:0:0:
256,192,1238143,1,0,0:0:0:0:
256,192,1238206,5,8,0:0:0:0:
256,192,1238331,5,0,0:0:0:0:
256,192,1238456,5,8,0:0:0:0:
256,192,1238581,5,8,0:0:0:0:
256,192,1238706,5,8,0:0:0:0:
256,192,1238768,1,8,0:0:0:0:
256,192,1238831,5,0,0:0:0:0:
256,192,1238956,5,8,0:0:0:0:
256,192,1239081,5,0,0:0:0:0:
256,192,1239143,5,0,0:0:0:0:
256,192,1239206,5,8,0:0:0:0:
256,192,1239331,5,0,0:0:0:0:
256,192,1239456,5,8,0:0:0:0:
256,192,1239581,5,8,0:0:0:0:
256,192,1239706,1,0,0:0:0:0:
256,192,1239768,1,0,0:0:0:0:
256,192,1239831,5,0,0:0:0:0:
256,192,1239956,5,8,0:0:0:0:
256,192,1240081,5,0,0:0:0:0:
256,192,1240143,5,0,0:0:0:0:
256,192,1240206,5,8,0:0:0:0:
256,192,1240331,5,0,0:0:0:0:
256,192,1240456,5,8,0:0:0:0:
256,192,1240706,5,8,0:0:0:0:
256,192,1240768,5,8,0:0:0:0:
256,192,1240831,5,0,0:0:0:0:
256,192,1240893,5,0,0:0:0:0:
256,192,1240956,5,8,0:0:0:0:
256,192,1241018,5,8,0:0:0:0:
256,192,1241081,5,8,0:0:0:0:
256,192,1241143,5,8,0:0:0:0:
256,192,1241206,5,0,0:0:0:0:
256,192,1241268,5,0,0:0:0:0:
256,192,1241331,5,0,0:0:0:0:
256,192,1241456,5,4,0:0:0:0:
256,192,1250536,5,0,0:0:0:0:
256,192,1250661,1,0,0:0:0:0:
256,192,1250786,1,0,0:0:0:0:
256,192,1250911,1,0,0:0:0:0:
256,192,1251286,5,8,0:0:0:0:
256,192,1251411,1,0,0:0:0:0:
256,192,1251536,1,0,0:0:0:0:
256,192,1251661,1,0,0:0:0:0:
256,192,1251786,1,8,0:0:0:0:
256,192,1252036,1,8,0:0:0:0:
256,192,1252119,1,8,0:0:0:0:
256,192,1252202,1,0,0:0:0:0:
256,192,1252286,1,0,0:0:0:0:
256,192,1252369,1,8,0:0:0:0:
256,192,1252452,1,8,0:0:0:0:
256,192,1252536,5,0,0:0:0:0:
256,192,1252786,1,8,0:0:0:0:
256,192,1252911,1,8,0:0:0:0:
256,192,1253036,1,0,0:0:0:0:
256,192,1253161,1,0,0:0:0:0:
256,192,1253286,1,8,0:0:0:0:
256,192,1253411,1,8,0:0:0:0:
256,192,1253473,1,0,0:0:0:0:
256,192,1253536,1,8,0:0:0:0:
256,192,1253598,1,8,0:0:0:0:
256,192,1253661,1,0,0:0:0:0:
256,192,1253786,1,8,0:0:0:0:
256,192,1253848,1,0,0:0:0:0:
256,192,1253911,1,0,0:0:0:0:
256,192,1254036,1,8,0:0:0:0:
256,192,1254098,1,8,0:0:0:0:
256,192,1254161,1,0,0:0:0:0:
256,192,1254223,1,0,0:0:0:0:
256,192,1254286,1,8,0:0:0:0:
256,192,1254411,1,8,0:0:0:0:
256,192,1254536,1,0,0:0:0:0:
256,192,1254661,1,0,0:0:0:0:
256,192,1254786,1,8,0:0:0:0:
256,192,1254911,1,0,0:0:0:0:
256,192,1254973,1,0,0:0:0:0:
256,192,1255036,1,0,0:0:0:0:
256,192,1255161,1,0,0:0:0:0:
256,192,1255286,1,8,0:0:0:0:
256,192,1255411,1,8,0:0:0:0:
256,192,1255536,1,0,0:0:0:0:
256,192,1255661,1,0,0:0:0:0:
256,192,1255786,1,8,0:0:0:0:
256,192,1255911,1,8,0:0:0:0:
256,192,1255973,1,8,0:0:0:0:
256,192,1256036,1,0,0:0:0:0:
256,192,1256161,1,0,0:0:0:0:
256,192,1256286,1,8,0:0:0:0:
256,192,1256411,1,0,0:0:0:0:
256,192,1256536,1,8,0:0:0:0:
256,192,1256786,5,8,0:0:0:0:
256,192,1256911,1,8,0:0:0:0:
256,192,1257036,1,0,0:0:0:0:
256,192,1257161,1,0,0:0:0:0:
256,192,1257286,1,8,0:0:0:0:
256,192,1257411,1,0,0:0:0:0:
256,192,1257473,1,0,0:0:0:0:
256,192,1257536,1,0,0:0:0:0:
256,192,1257661,1,0,0:0:0:0:
256,192,1257786,1,8,0:0:0:0:
256,192,1257911,1,0,0:0:0:0:
256,192,1258036,1,0,0:0:0:0:
256,192,1258098,1,0,0:0:0:0:
256,192,1258161,1,0,0:0:0:0:
256,192,1258286,1,8,0:0:0:0:
256,192,1258411,1,0,0:0:0:0:
256,192,1258536,1,0,0:0:0:0:
256,192,1258661,1,0,0:0:0:0:
256,192,1258786,1,8,0:0:0:0:
256,192,1258911,1,8,0:0:0:0:
256,192,1258973,1,8,0:0:0:0:
256,192,1259036,1,0,0:0:0:0:
256,192,1259161,1,0,0:0:0:0:
256,192,1259286,1,8,0:0:0:0:
256,192,1259411,1,0,0:0:0:0:
256,192,1259536,1,8,0:0:0:0:
256,192,1259661,1,0,0:0:0:0:
256,192,1259786,1,0,0:0:0:0:
256,192,1259911,1,8,0:0:0:0:
256,192,1260036,1,0,0:0:0:0:
256,192,1260161,1,0,0:0:0:0:
256,192,1260286,1,8,0:0:0:0:
256,192,1260411,1,0,0:0:0:0:
256,192,1260536,1,12,0:0:0:0:
256,192,1260786,5,8,0:0:0:0:
256,192,1260911,1,0,0:0:0:0:
256,192,1261036,1,0,0:0:0:0:
256,192,1261161,1,0,0:0:0:0:
256,192,1261286,1,8,0:0:0:0:
256,192,1261411,1,0,0:0:0:0:
256,192,1261536,1,8,0:0:0:0:
256,192,1261661,1,8,0:0:0:0:
256,192,1261723,1,0,0:0:0:0:
256,192,1261786,1,0,0:0:0:0:
256,192,1261911,1,0,0:0:0:0:
256,192,1262036,1,8,0:0:0:0:
256,192,1262161,1,8,0:0:0:0:
256,192,1262286,1,0,0:0:0:0:
256,192,1262411,1,8,0:0:0:0:
256,192,1262536,1,0,0:0:0:0:
256,192,1262661,1,8,0:0:0:0:
256,192,1262786,1,8,0:0:0:0:
256,192,1262911,1,8,0:0:0:0:
256,192,1263036,1,8,0:0:0:0:
256,192,1263161,1,0,0:0:0:0:
256,192,1263223,1,0,0:0:0:0:
256,192,1263286,1,8,0:0:0:0:
256,192,1263411,1,0,0:0:0:0:
256,192,1263536,1,8,0:0:0:0:
256,192,1263661,1,8,0:0:0:0:
256,192,1263723,1,8,0:0:0:0:
256,192,1263786,1,0,0:0:0:0:
256,192,1263911,1,8,0:0:0:0:
256,192,1264036,1,8,0:0:0:0:
256,192,1264161,1,0,0:0:0:0:
256,192,1264286,1,8,0:0:0:0:
256,192,1264411,1,0,0:0:0:0:
256,192,1264536,1,12,0:0:0:0:
256,192,1264786,5,0,0:0:0:0:
256,192,1264911,1,8,0:0:0:0:
256,192,1265036,1,0,0:0:0:0:
256,192,1265161,1,0,0:0:0:0:
256,192,1265286,1,8,0:0:0:0:
256,192,1265411,1,0,0:0:0:0:
256,192,1265536,1,0,0:0:0:0:
256,192,1265661,1,8,0:0:0:0:
256,192,1265786,1,0,0:0:0:0:
256,192,1265911,1,8,0:0:0:0:
256,192,1266036,1,8,0:0:0:0:
256,192,1266161,1,8,0:0:0:0:
256,192,1266286,1,0,0:0:0:0:
256,192,1266411,1,8,0:0:0:0:
256,192,1266473,1,0,0:0:0:0:
256,192,1266536,1,0,0:0:0:0:
256,192,1266661,1,0,0:0:0:0:
256,192,1266786,1,8,0:0:0:0:
256,192,1267036,1,8,0:0:0:0:
256,192,1267161,1,0,0:0:0:0:
256,192,1267286,1,8,0:0:0:0:
256,192,1267411,1,8,0:0:0:0:
256,192,1267661,1,0,0:0:0:0:
256,192,1267786,1,8,0:0:0:0:
256,192,1267911,1,0,0:0:0:0:
256,192,1267973,1,0,0:0:0:0:
256,192,1268036,1,8,0:0:0:0:
256,192,1268098,1,0,0:0:0:0:
256,192,1268161,1,8,0:0:0:0:
256,192,1268223,1,8,0:0:0:0:
256,192,1268286,1,0,0:0:0:0:
256,192,1268348,1,0,0:0:0:0:
256,192,1268411,1,0,0:0:0:0:
256,192,1268536,1,8,0:0:0:0:
256,192,1269036,5,0,0:0:0:0:
256,192,1269536,1,0,0:0:0:0:
256,192,1270036,1,0,0:0:0:0:
256,192,1270536,1,0,0:0:0:0:
256,192,1271036,1,0,0:0:0:0:
256,192,1271536,1,0,0:0:0:0:
256,192,1272036,1,0,0:0:0:0:
256,192,1272286,1,8,0:0:0:0:
256,192,1272536,1,8,0:0:0:0:
256,192,1273036,1,0,0:0:0:0:
256,192,1273536,1,0,0:0:0:0:
256,192,1274036,1,0,0:0:0:0:
256,192,1274286,1,8,0:0:0:0:
256,192,1274536,1,8,0:0:0:0:
256,192,1275036,1,0,0:0:0:0:
256,192,1275536,1,0,0:0:0:0:
256,192,1276036,5,8,0:0:0:0:
256,192,1276161,1,0,0:0:0:0:
256,192,1276223,1,0,0:0:0:0:
256,192,1276286,1,8,0:0:0:0:
256,192,1276411,1,8,0:0:0:0:
256,192,1276536,1,4,0:0:0:0:
256,192,1276786,5,8,0:0:0:0:
256,192,1277036,1,0,0:0:0:0:
256,192,1277161,1,0,0:0:0:0:
256,192,1277286,1,8,0:0:0:0:
256,192,1277411,1,0,0:0:0:0:
256,192,1277661,1,0,0:0:0:0:
256,192,1277786,1,8,0:0:0:0:
256,192,1277911,1,0,0:0:0:0:
256,192,1278161,1,0,0:0:0:0:
256,192,1278223,1,0,0:0:0:0:
256,192,1278286,1,8,0:0:0:0:
256,192,1278536,1,0,0:0:0:0:
256,192,1278786,1,8,0:0:0:0:
256,192,1279036,1,0,0:0:0:0:
256,192,1279161,1,0,0:0:0:0:
256,192,1279286,1,8,0:0:0:0:
256,192,1279411,1,0,0:0:0:0:
256,192,1279661,1,0,0:0:0:0:
256,192,1279786,1,8,0:0:0:0:
256,192,1279911,1,0,0:0:0:0:
256,192,1279973,1,0,0:0:0:0:
256,192,1280161,1,0,0:0:0:0:
256,192,1280223,1,0,0:0:0:0:
256,192,1280286,1,8,0:0:0:0:
256,192,1280411,1,8,0:0:0:0:
256,192,1280536,1,4,0:0:0:0:
256,192,1280786,1,8,0:0:0:0:
256,192,1280911,1,0,0:0:0:0:
256,192,1281036,1,0,0:0:0:0:
256,192,1281161,1,0,0:0:0:0:
256,192,1281286,1,8,0:0:0:0:
256,192,1281411,1,0,0:0:0:0:
256,192,1281661,1,0,0:0:0:0:
256,192,1281786,1,8,0:0:0:0:
256,192,1281911,1,0,0:0:0:0:
256,192,1282161,1,0,0:0:0:0:
256,192,1282223,1,0,0:0:0:0:
256,192,1282286,1,8,0:0:0:0:
256,192,1282536,1,4,0:0:0:0:
256,192,1282786,1,8,0:0:0:0:
256,192,1282911,1,8,0:0:0:0:
256,192,1283161,1,8,0:0:0:0:
256,192,1283286,1,0,0:0:0:0:
256,192,1283411,1,0,0:0:0:0:
256,192,1283536,1,8,0:0:0:0:
256,192,1283786,1,8,0:0:0:0:
256,192,1283911,1,0,0:0:0:0:
256,192,1284161,1,0,0:0:0:0:
256,192,1284286,1,0,0:0:0:0:
256,192,1284536,1,12,0:0:0:0:
256,192,1284911,5,0,0:0:0:0:
256,192,1285286,1,0,0:0:0:0:
256,192,1285536,1,8,0:0:0:0:
256,192,1285786,1,0,0:0:0:0:
256,192,1285911,1,0,0:0:0:0:
256,192,1286036,1,0,0:0:0:0:
256,192,1286286,1,8,0:0:0:0:
256,192,1286411,1,0,0:0:0:0:
256,192,1286536,1,8,0:0:0:0:
256,192,1286786,1,0,0:0:0:0:
256,192,1287161,1,8,0:0:0:0:
256,192,1287286,1,0,0:0:0:0:
256,192,1287411,1,0,0:0:0:0:
256,192,1287536,1,8,0:0:0:0:
256,192,1287786,1,0,0:0:0:0:
256,192,1288036,1,8,0:0:0:0:
256,192,1288286,1,0,0:0:0:0:
256,192,1288411,1,0,0:0:0:0:
256,192,1288536,1,0,0:0:0:0:
256,192,1288911,1,0,0:0:0:0:
256,192,1289036,1,8,0:0:0:0:
256,192,1289286,1,0,0:0:0:0:
256,192,1289536,1,8,0:0:0:0:
256,192,1289786,1,0,0:0:0:0:
256,192,1289911,1,0,0:0:0:0:
256,192,1290036,1,0,0:0:0:0:
256,192,1290286,1,0,0:0:0:0:
256,192,1290536,1,8,0:0:0:0:
256,192,1290786,1,0,0:0:0:0:
256,192,1291036,1,8,0:0:0:0:
256,192,1291161,1,8,0:0:0:0:
256,192,1291286,1,0,0:0:0:0:
256,192,1291411,1,0,0:0:0:0:
256,192,1291536,1,8,0:0:0:0:
256,192,1291786,1,0,0:0:0:0:
256,192,1292036,1,8,0:0:0:0:
256,192,1292286,1,0,0:0:0:0:
256,192,1292411,1,0,0:0:0:0:
256,192,1292536,5,12,0:0:0:0:
256,192,1292911,1,0,0:0:0:0:
256,192,1293161,1,8,0:0:0:0:
256,192,1293286,1,0,0:0:0:0:
256,192,1293536,1,8,0:0:0:0:
256,192,1293786,1,0,0:0:0:0:
256,192,1293911,1,0,0:0:0:0:
256,192,1294036,1,8,0:0:0:0:
256,192,1294286,1,0,0:0:0:0:
256,192,1294411,1,8,0:0:0:0:
256,192,1294536,1,0,0:0:0:0:
256,192,1294786,1,0,0:0:0:0:
256,192,1295036,1,8,0:0:0:0:
256,192,1295286,1,0,0:0:0:0:
256,192,1295411,1,0,0:0:0:0:
256,192,1295536,1,8,0:0:0:0:
256,192,1295786,1,0,0:0:0:0:
256,192,1295911,1,8,0:0:0:0:
256,192,1296161,1,0,0:0:0:0:
256,192,1296286,1,8,0:0:0:0:
256,192,1296411,1,8,0:0:0:0:
256,192,1296536,5,4,0:0:0:0:
256,192,1296911,1,12,0:0:0:0:
256,192,1297286,1,12,0:0:0:0:
256,192,1297661,1,4,0:0:0:0:
256,192,1298036,1,12,0:0:0:0:
256,192,1298411,1,12,0:0:0:0:
256,192,1298536,12,0,1299286,0:0:0:0:
256,192,1299536,5,8,0:0:0:0:
256,192,1299661,1,0,0:0:0:0:
256,192,1299723,1,0,0:0:0:0:
256,192,1299786,1,0,0:0:0:0:
256,192,1299911,1,8,0:0:0:0:
256,192,1300036,1,8,0:0:0:0:
256,192,1300098,1,8,0:0:0:0:
256,192,1300161,1,0,0:0:0:0:
256,192,1300223,1,0,0:0:0:0:
256,192,1300286,1,8,0:0:0:0:
256,192,1300411,1,8,0:0:0:0:
256,192,1300536,1,4,0:0:0:0:
256,192,1300786,5,8,0:0:0:0:
256,192,1300911,1,8,0:0:0:0:
256,192,1301036,1,0,0:0:0:0:
256,192,1301161,1,0,0:0:0:0:
256,192,1301286,1,8,0:0:0:0:
256,192,1301411,1,0,0:0:0:0:
256,192,1301661,1,0,0:0:0:0:
256,192,1301786,1,8,0:0:0:0:
256,192,1301911,1,0,0:0:0:0:
256,192,1301973,1,0,0:0:0:0:
256,192,1302036,1,0,0:0:0:0:
256,192,1302161,1,0,0:0:0:0:
256,192,1302286,1,8,0:0:0:0:
256,192,1302411,1,8,0:0:0:0:
256,192,1302536,1,0,0:0:0:0:
256,192,1302786,1,8,0:0:0:0:
256,192,1302911,1,8,0:0:0:0:
256,192,1302973,1,8,0:0:0:0:
256,192,1303036,1,0,0:0:0:0:
256,192,1303161,1,0,0:0:0:0:
256,192,1303286,1,8,0:0:0:0:
256,192,1303411,1,0,0:0:0:0:
256,192,1303661,1,0,0:0:0:0:
256,192,1303786,1,8,0:0:0:0:
256,192,1303911,1,8,0:0:0:0:
256,192,1303973,1,8,0:0:0:0:
256,192,1304036,1,0,0:0:0:0:
256,192,1304161,1,8,0:0:0:0:
256,192,1304286,1,8,0:0:0:0:
256,192,1304411,1,0,0:0:0:0:
256,192,1304536,5,4,0:0:0:0:
256,192,1304786,1,8,0:0:0:0:
256,192,1304911,1,8,0:0:0:0:
256,192,1305036,1,0,0:0:0:0:
256,192,1305161,1,8,0:0:0:0:
256,192,1305286,1,8,0:0:0:0:
256,192,1305411,1,0,0:0:0:0:
256,192,1305661,1,0,0:0:0:0:
256,192,1305786,1,8,0:0:0:0:
256,192,1305911,1,0,0:0:0:0:
256,192,1305973,1,0,0:0:0:0:
256,192,1306036,1,0,0:0:0:0:
256,192,1306161,1,0,0:0:0:0:
256,192,1306286,1,8,0:0:0:0:
256,192,1306411,1,8,0:0:0:0:
256,192,1306536,1,0,0:0:0:0:
256,192,1306786,1,8,0:0:0:0:
256,192,1306911,1,8,0:0:0:0:
256,192,1306973,1,8,0:0:0:0:
256,192,1307036,1,0,0:0:0:0:
256,192,1307161,1,8,0:0:0:0:
256,192,1307286,1,8,0:0:0:0:
256,192,1307411,1,0,0:0:0:0:
256,192,1307661,1,8,0:0:0:0:
256,192,1307786,1,8,0:0:0:0:
256,192,1307911,1,0,0:0:0:0:
256,192,1307973,1,0,0:0:0:0:
256,192,1308036,1,8,0:0:0:0:
256,192,1308098,1,8,0:0:0:0:
256,192,1308161,1,0,0:0:0:0:
256,192,1308286,1,8,0:0:0:0:
256,192,1308411,1,0,0:0:0:0:
256,192,1308536,1,12,0:0:0:0:
256,192,1308786,5,0,0:0:0:0:
256,192,1308911,1,8,0:0:0:0:
256,192,1309036,1,0,0:0:0:0:
256,192,1309161,1,8,0:0:0:0:
256,192,1309286,1,8,0:0:0:0:
256,192,1309411,1,0,0:0:0:0:
256,192,1309661,1,0,0:0:0:0:
256,192,1309786,1,8,0:0:0:0:
256,192,1309911,1,8,0:0:0:0:
256,192,1310036,1,0,0:0:0:0:
256,192,1310161,1,0,0:0:0:0:
256,192,1310223,1,0,0:0:0:0:
256,192,1310286,1,8,0:0:0:0:
256,192,1310411,1,0,0:0:0:0:
256,192,1310536,1,0,0:0:0:0:
256,192,1310786,1,8,0:0:0:0:
256,192,1310911,1,0,0:0:0:0:
256,192,1311036,1,8,0:0:0:0:
256,192,1311161,1,8,0:0:0:0:
256,192,1311286,1,8,0:0:0:0:
256,192,1311411,1,0,0:0:0:0:
256,192,1311661,1,0,0:0:0:0:
256,192,1311786,1,8,0:0:0:0:
256,192,1311911,1,8,0:0:0:0:
256,192,1311973,1,8,0:0:0:0:
256,192,1312036,1,0,0:0:0:0:
256,192,1312161,1,0,0:0:0:0:
256,192,1312286,1,8,0:0:0:0:
256,192,1312411,1,8,0:0:0:0:
256,192,1312536,1,4,0:0:0:0:
256,192,1312786,5,8,0:0:0:0:
256,192,1313036,1,0,0:0:0:0:
256,192,1313161,1,0,0:0:0:0:
256,192,1313286,1,8,0:0:0:0:
256,192,1313411,1,0,0:0:0:0:
256,192,1313661,1,8,0:0:0:0:
256,192,1313786,1,0,0:0:0:0:
256,192,1313911,1,8,0:0:0:0:
256,192,1313973,1,8,0:0:0:0:
256,192,1314036,1,0,0:0:0:0:
256,192,1314161,1,0,0:0:0:0:
256,192,1314286,1,8,0:0:0:0:
256,192,1314411,1,0,0:0:0:0:
256,192,1314536,1,8,0:0:0:0:
256,192,1314661,1,0,0:0:0:0:
256,192,1314786,1,0,0:0:0:0:
256,192,1314911,1,8,0:0:0:0:
256,192,1315036,1,0,0:0:0:0:
256,192,1315161,1,0,0:0:0:0:
256,192,1315286,1,8,0:0:0:0:
256,192,1315411,1,0,0:0:0:0:
256,192,1315536,1,8,0:0:0:0:
256,192,1315598,1,8,0:0:0:0:
256,192,1315661,1,0,0:0:0:0:
256,192,1315723,1,0,0:0:0:0:
256,192,1315786,1,8,0:0:0:0:
256,192,1315848,1,0,0:0:0:0:
256,192,1315911,1,8,0:0:0:0:
256,192,1316036,1,8,0:0:0:0:
256,192,1316161,1,0,0:0:0:0:
256,192,1316223,1,0,0:0:0:0:
256,192,1316286,1,8,0:0:0:0:
256,192,1316411,1,8,0:0:0:0:
256,192,1316536,1,4,0:0:0:0:
256,192,1316786,5,8,0:0:0:0:
256,192,1316911,1,8,0:0:0:0:
256,192,1317036,1,0,0:0:0:0:
256,192,1317161,1,0,0:0:0:0:
256,192,1317286,1,8,0:0:0:0:
256,192,1317348,1,8,0:0:0:0:
256,192,1317411,1,0,0:0:0:0:
256,192,1317536,1,0,0:0:0:0:
256,192,1317661,1,8,0:0:0:0:
256,192,1317786,1,0,0:0:0:0:
256,192,1317911,1,8,0:0:0:0:
256,192,1318036,1,0,0:0:0:0:
256,192,1318098,1,0,0:0:0:0:
256,192,1318161,1,0,0:0:0:0:
256,192,1318286,1,8,0:0:0:0:
256,192,1318411,1,8,0:0:0:0:
256,192,1318536,1,0,0:0:0:0:
256,192,1318786,1,8,0:0:0:0:
256,192,1318911,1,0,0:0:0:0:
256,192,1319036,1,8,0:0:0:0:
256,192,1319161,1,8,0:0:0:0:
256,192,1319286,1,0,0:0:0:0:
256,192,1319348,1,0,0:0:0:0:
256,192,1319411,1,8,0:0:0:0:
256,192,1319536,1,0,0:0:0:0:
256,192,1319661,1,8,0:0:0:0:
256,192,1319786,1,8,0:0:0:0:
256,192,1319911,1,0,0:0:0:0:
256,192,1320036,1,8,0:0:0:0:
256,192,1320098,1,8,0:0:0:0:
256,192,1320161,1,0,0:0:0:0:
256,192,1320286,1,8,0:0:0:0:
256,192,1320411,1,8,0:0:0:0:
256,192,1320536,1,0,0:0:0:0:
256,192,1320786,1,8,0:0:0:0:
256,192,1320911,1,8,0:0:0:0:
256,192,1321036,1,0,0:0:0:0:
256,192,1321161,1,8,0:0:0:0:
256,192,1321286,1,0,0:0:0:0:
256,192,1321348,1,0,0:0:0:0:
256,192,1321411,1,8,0:0:0:0:
256,192,1321536,1,0,0:0:0:0:
256,192,1321661,1,8,0:0:0:0:
256,192,1321786,1,8,0:0:0:0:
256,192,1321911,1,8,0:0:0:0:
256,192,1322036,1,0,0:0:0:0:
256,192,1322098,1,0,0:0:0:0:
256,192,1322161,1,8,0:0:0:0:
256,192,1322223,1,8,0:0:0:0:
256,192,1322286,1,0,0:0:0:0:
256,192,1322411,1,8,0:0:0:0:
256,192,1322536,1,0,0:0:0:0:
256,192,1322661,1,0,0:0:0:0:
256,192,1322786,1,8,0:0:0:0:
256,192,1323036,1,0,0:0:0:0:
256,192,1323161,1,0,0:0:0:0:
256,192,1323286,1,8,0:0:0:0:
256,192,1323411,1,0,0:0:0:0:
256,192,1323536,1,8,0:0:0:0:
256,192,1323661,1,8,0:0:0:0:
256,192,1323786,1,0,0:0:0:0:
256,192,1323848,1,0,0:0:0:0:
256,192,1323911,1,8,0:0:0:0:
256,192,1323973,1,0,0:0:0:0:
256,192,1324036,1,8,0:0:0:0:
256,192,1324098,1,8,0:0:0:0:
256,192,1324161,1,0,0:0:0:0:
256,192,1324286,1,8,0:0:0:0:
256,192,1324411,1,8,0:0:0:0:
256,192,1324536,1,4,0:0:0:0:
256,192,1324786,5,8,0:0:0:0:
256,192,1324911,1,8,0:0:0:0:
256,192,1325036,1,0,0:0:0:0:
256,192,1325098,1,0,0:0:0:0:
256,192,1325161,1,0,0:0:0:0:
256,192,1325286,1,8,0:0:0:0:
256,192,1325411,1,0,0:0:0:0:
256,192,1325536,1,0,0:0:0:0:
256,192,1325661,1,8,0:0:0:0:
256,192,1325723,1,8,0:0:0:0:
256,192,1325786,1,0,0:0:0:0:
256,192,1325911,1,8,0:0:0:0:
256,192,1326036,1,0,0:0:0:0:
256,192,1326161,1,0,0:0:0:0:
256,192,1326223,1,0,0:0:0:0:
256,192,1326286,1,8,0:0:0:0:
256,192,1326411,1,8,0:0:0:0:
256,192,1326536,1,0,0:0:0:0:
256,192,1326786,1,8,0:0:0:0:
256,192,1326911,1,8,0:0:0:0:
256,192,1327036,1,0,0:0:0:0:
256,192,1327098,1,0,0:0:0:0:
256,192,1327161,1,8,0:0:0:0:
256,192,1327286,1,0,0:0:0:0:
256,192,1327411,1,8,0:0:0:0:
256,192,1327536,1,8,0:0:0:0:
256,192,1327661,1,0,0:0:0:0:
256,192,1327723,1,0,0:0:0:0:
256,192,1327786,1,0,0:0:0:0:
256,192,1327911,1,8,0:0:0:0:
256,192,1328036,1,0,0:0:0:0:
256,192,1328161,1,8,0:0:0:0:
256,192,1328223,1,8,0:0:0:0:
256,192,1328286,1,0,0:0:0:0:
256,192,1328411,1,0,0:0:0:0:
256,192,1328536,1,8,0:0:0:0:
256,192,1328786,1,0,0:0:0:0:
256,192,1328911,1,0,0:0:0:0:
256,192,1329036,1,8,0:0:0:0:
256,192,1329098,1,8,0:0:0:0:
256,192,1329161,1,0,0:0:0:0:
256,192,1329286,1,0,0:0:0:0:
256,192,1329411,1,8,0:0:0:0:
256,192,1329536,1,8,0:0:0:0:
256,192,1329661,1,0,0:0:0:0:
256,192,1329723,1,0,0:0:0:0:
256,192,1329786,1,0,0:0:0:0:
256,192,1329911,1,8,0:0:0:0:
256,192,1330036,1,0,0:0:0:0:
256,192,1330098,1,0,0:0:0:0:
256,192,1330161,1,8,0:0:0:0:
256,192,1330286,1,8,0:0:0:0:
256,192,1330411,1,0,0:0:0:0:
256,192,1330536,1,8,0:0:0:0:
256,192,1330661,1,0,0:0:0:0:
256,192,1330786,1,0,0:0:0:0:
256,192,1330911,1,8,0:0:0:0:
256,192,1331036,1,0,0:0:0:0:
256,192,1331098,1,0,0:0:0:0:
256,192,1331161,1,8,0:0:0:0:
256,192,1331223,1,8,0:0:0:0:
256,192,1331286,1,0,0:0:0:0:
256,192,1331348,1,0,0:0:0:0:
256,192,1331411,1,8,0:0:0:0:
256,192,1331473,1,0,0:0:0:0:
256,192,1331536,1,8,0:0:0:0:
256,192,1331661,1,0,0:0:0:0:
256,192,1331723,1,0,0:0:0:0:
256,192,1331786,1,8,0:0:0:0:
256,192,1331911,1,8,0:0:0:0:
256,192,1331973,1,8,0:0:0:0:
256,192,1332036,1,0,0:0:0:0:
256,192,1332098,1,0,0:0:0:0:
256,192,1332161,1,8,0:0:0:0:
256,192,1332223,1,0,0:0:0:0:
256,192,1332286,1,8,0:0:0:0:
256,192,1332411,1,8,0:0:0:0:
256,192,1332536,1,4,0:0:0:0:
256,192,1332786,5,8,0:0:0:0:
256,192,1333036,1,0,0:0:0:0:
256,192,1333161,1,0,0:0:0:0:
256,192,1333286,1,8,0:0:0:0:
256,192,1333411,1,0,0:0:0:0:
256,192,1333661,1,0,0:0:0:0:
256,192,1333786,1,8,0:0:0:0:
256,192,1333911,1,8,0:0:0:0:
256,192,1334036,1,0,0:0:0:0:
256,192,1334161,1,0,0:0:0:0:
256,192,1334286,1,8,0:0:0:0:
256,192,1334536,1,0,0:0:0:0:
256,192,1334786,1,8,0:0:0:0:
256,192,1334911,1,8,0:0:0:0:
256,192,1335036,1,0,0:0:0:0:
256,192,1335161,1,0,0:0:0:0:
256,192,1335286,1,8,0:0:0:0:
256,192,1335411,1,0,0:0:0:0:
256,192,1335661,1,0,0:0:0:0:
256,192,1335786,1,8,0:0:0:0:
256,192,1335911,1,8,0:0:0:0:
256,192,1335973,1,8,0:0:0:0:
256,192,1336036,1,0,0:0:0:0:
256,192,1336161,1,0,0:0:0:0:
256,192,1336223,1,0,0:0:0:0:
256,192,1336286,1,8,0:0:0:0:
256,192,1336411,1,0,0:0:0:0:
256,192,1336536,1,0,0:0:0:0:
256,192,1336786,1,8,0:0:0:0:
256,192,1337036,1,0,0:0:0:0:
256,192,1337161,1,0,0:0:0:0:
256,192,1337286,1,8,0:0:0:0:
256,192,1337411,1,0,0:0:0:0:
256,192,1337661,1,0,0:0:0:0:
256,192,1337786,1,8,0:0:0:0:
256,192,1337911,1,8,0:0:0:0:
256,192,1338036,1,0,0:0:0:0:
256,192,1338161,1,0,0:0:0:0:
256,192,1338223,1,0,0:0:0:0:
256,192,1338286,1,8,0:0:0:0:
256,192,1338536,1,0,0:0:0:0:
256,192,1338786,1,8,0:0:0:0:
256,192,1338911,1,0,0:0:0:0:
256,192,1339036,1,0,0:0:0:0:
256,192,1339161,1,8,0:0:0:0:
256,192,1339286,1,0,0:0:0:0:
256,192,1339411,1,0,0:0:0:0:
256,192,1339536,1,8,0:0:0:0:
256,192,1339661,1,0,0:0:0:0:
256,192,1339723,1,0,0:0:0:0:
256,192,1339786,1,8,0:0:0:0:
256,192,1339911,1,8,0:0:0:0:
256,192,1340036,1,0,0:0:0:0:
256,192,1340098,1,0,0:0:0:0:
256,192,1340161,1,8,0:0:0:0:
256,192,1340223,1,8,0:0:0:0:
256,192,1340286,1,0,0:0:0:0:
256,192,1340411,1,8,0:0:0:0:
256,192,1340536,1,4,0:0:0:0:
256,192,1340786,5,8,0:0:0:0:
256,192,1341036,1,0,0:0:0:0:
256,192,1341161,1,0,0:0:0:0:
256,192,1341286,1,8,0:0:0:0:
256,192,1341411,1,0,0:0:0:0:
256,192,1341661,1,0,0:0:0:0:
256,192,1341723,1,0,0:0:0:0:
256,192,1341786,1,8,0:0:0:0:
256,192,1341911,1,8,0:0:0:0:
256,192,1342036,1,0,0:0:0:0:
256,192,1342161,1,8,0:0:0:0:
256,192,1342286,1,8,0:0:0:0:
256,192,1342536,1,0,0:0:0:0:
256,192,1342786,1,8,0:0:0:0:
256,192,1343036,1,0,0:0:0:0:
256,192,1343161,1,0,0:0:0:0:
256,192,1343286,1,8,0:0:0:0:
256,192,1343411,1,0,0:0:0:0:
256,192,1343536,1,0,0:0:0:0:
256,192,1343661,1,8,0:0:0:0:
256,192,1343911,1,8,0:0:0:0:
256,192,1343973,1,8,0:0:0:0:
256,192,1344036,1,0,0:0:0:0:
256,192,1344161,1,0,0:0:0:0:
256,192,1344223,1,0,0:0:0:0:
256,192,1344286,1,8,0:0:0:0:
256,192,1344411,1,8,0:0:0:0:
256,192,1344536,1,0,0:0:0:0:
256,192,1344661,1,0,0:0:0:0:
256,192,1344786,1,8,0:0:0:0:
256,192,1345036,1,0,0:0:0:0:
256,192,1345161,1,0,0:0:0:0:
256,192,1345286,1,8,0:0:0:0:
256,192,1345411,1,8,0:0:0:0:
256,192,1345536,1,0,0:0:0:0:
256,192,1345661,1,8,0:0:0:0:
256,192,1345786,1,8,0:0:0:0:
256,192,1345848,1,8,0:0:0:0:
256,192,1345911,1,0,0:0:0:0:
256,192,1346036,1,0,0:0:0:0:
256,192,1346161,1,0,0:0:0:0:
256,192,1346286,1,8,0:0:0:0:
256,192,1346536,1,0,0:0:0:0:
256,192,1346786,1,8,0:0:0:0:
256,192,1346911,1,0,0:0:0:0:
256,192,1347036,1,8,0:0:0:0:
256,192,1347161,1,0,0:0:0:0:
256,192,1347286,1,0,0:0:0:0:
256,192,1347411,1,8,0:0:0:0:
256,192,1347536,1,0,0:0:0:0:
256,192,1347661,1,0,0:0:0:0:
256,192,1347723,1,0,0:0:0:0:
256,192,1347786,1,8,0:0:0:0:
256,192,1347848,1,0,0:0:0:0:
256,192,1347911,1,8,0:0:0:0:
256,192,1348036,1,8,0:0:0:0:
256,192,1348098,1,8,0:0:0:0:
256,192,1348161,1,0,0:0:0:0:
256,192,1348223,1,0,0:0:0:0:
256,192,1348286,1,8,0:0:0:0:
256,192,1348411,1,8,0:0:0:0:
256,192,1348536,1,4,0:0:0:0:
256,192,1348786,5,8,0:0:0:0:
256,192,1349036,1,0,0:0:0:0:
256,192,1349161,1,0,0:0:0:0:
256,192,1349286,1,8,0:0:0:0:
256,192,1349411,1,0,0:0:0:0:
256,192,1349661,1,0,0:0:0:0:
256,192,1349786,1,8,0:0:0:0:
256,192,1349911,1,8,0:0:0:0:
256,192,1349973,1,8,0:0:0:0:
256,192,1350036,1,0,0:0:0:0:
256,192,1350161,1,0,0:0:0:0:
256,192,1350286,1,8,0:0:0:0:
256,192,1350536,1,0,0:0:0:0:
256,192,1350786,1,8,0:0:0:0:
256,192,1350911,1,8,0:0:0:0:
256,192,1351036,1,0,0:0:0:0:
256,192,1351161,1,0,0:0:0:0:
256,192,1351286,1,8,0:0:0:0:
256,192,1351411,1,0,0:0:0:0:
256,192,1351661,1,0,0:0:0:0:
256,192,1351786,1,8,0:0:0:0:
256,192,1351911,1,8,0:0:0:0:
256,192,1351973,1,8,0:0:0:0:
256,192,1352036,1,0,0:0:0:0:
256,192,1352161,1,0,0:0:0:0:
256,192,1352223,1,0,0:0:0:0:
256,192,1352286,1,8,0:0:0:0:
256,192,1352411,1,8,0:0:0:0:
256,192,1352536,1,0,0:0:0:0:
256,192,1352786,1,8,0:0:0:0:
256,192,1353036,1,0,0:0:0:0:
256,192,1353161,1,0,0:0:0:0:
256,192,1353286,1,8,0:0:0:0:
256,192,1353411,1,0,0:0:0:0:
256,192,1353661,1,0,0:0:0:0:
256,192,1353786,1,8,0:0:0:0:
256,192,1353911,1,8,0:0:0:0:
256,192,1354036,1,0,0:0:0:0:
256,192,1354161,1,0,0:0:0:0:
256,192,1354223,1,0,0:0:0:0:
256,192,1354286,1,8,0:0:0:0:
256,192,1354536,1,0,0:0:0:0:
256,192,1354786,1,8,0:0:0:0:
256,192,1355036,1,0,0:0:0:0:
256,192,1355161,1,8,0:0:0:0:
256,192,1355286,1,8,0:0:0:0:
256,192,1355411,1,0,0:0:0:0:
256,192,1355536,1,8,0:0:0:0:
256,192,1355661,1,0,0:0:0:0:
256,192,1355723,1,0,0:0:0:0:
256,192,1355786,1,8,0:0:0:0:
256,192,1355911,1,8,0:0:0:0:
256,192,1356036,1,8,0:0:0:0:
256,192,1356098,1,8,0:0:0:0:
256,192,1356161,1,0,0:0:0:0:
256,192,1356223,1,0,0:0:0:0:
256,192,1356286,1,8,0:0:0:0:
256,192,1356348,1,0,0:0:0:0:
256,192,1356411,1,8,0:0:0:0:
256,192,1356536,1,4,0:0:0:0:
256,192,1356786,5,8,0:0:0:0:
256,192,1357036,1,0,0:0:0:0:
256,192,1357161,1,0,0:0:0:0:
256,192,1357286,1,8,0:0:0:0:
256,192,1357411,1,0,0:0:0:0:
256,192,1357661,1,0,0:0:0:0:
256,192,1357786,1,8,0:0:0:0:
256,192,1357911,1,8,0:0:0:0:
256,192,1358036,1,0,0:0:0:0:
256,192,1358161,1,0,0:0:0:0:
256,192,1358223,1,0,0:0:0:0:
256,192,1358286,1,8,0:0:0:0:
256,192,1358536,1,0,0:0:0:0:
256,192,1358786,1,8,0:0:0:0:
256,192,1358911,1,0,0:0:0:0:
256,192,1359036,1,0,0:0:0:0:
256,192,1359161,1,0,0:0:0:0:
256,192,1359286,1,8,0:0:0:0:
256,192,1359411,1,0,0:0:0:0:
256,192,1359661,1,0,0:0:0:0:
256,192,1359786,1,8,0:0:0:0:
256,192,1359911,1,8,0:0:0:0:
256,192,1359973,1,8,0:0:0:0:
256,192,1360036,1,0,0:0:0:0:
256,192,1360161,1,0,0:0:0:0:
256,192,1360223,1,0,0:0:0:0:
256,192,1360286,1,8,0:0:0:0:
256,192,1360536,1,8,0:0:0:0:
256,192,1360786,1,8,0:0:0:0:
256,192,1361036,1,0,0:0:0:0:
256,192,1361161,1,0,0:0:0:0:
256,192,1361286,1,8,0:0:0:0:
256,192,1361411,1,0,0:0:0:0:
256,192,1361661,1,0,0:0:0:0:
256,192,1361786,1,8,0:0:0:0:
256,192,1361911,1,8,0:0:0:0:
256,192,1362036,1,0,0:0:0:0:
256,192,1362161,1,0,0:0:0:0:
256,192,1362223,1,0,0:0:0:0:
256,192,1362286,1,8,0:0:0:0:
256,192,1362411,1,8,0:0:0:0:
256,192,1362536,1,0,0:0:0:0:
256,192,1362661,1,0,0:0:0:0:
256,192,1362786,1,8,0:0:0:0:
256,192,1362911,1,0,0:0:0:0:
256,192,1363036,1,8,0:0:0:0:
256,192,1363161,1,8,0:0:0:0:
256,192,1363286,1,0,0:0:0:0:
256,192,1363411,1,8,0:0:0:0:
256,192,1363661,1,0,0:0:0:0:
256,192,1363786,1,8,0:0:0:0:
256,192,1363848,1,8,0:0:0:0:
256,192,1363911,1,0,0:0:0:0:
256,192,1363973,1,0,0:0:0:0:
256,192,1364036,1,8,0:0:0:0:
256,192,1364098,1,0,0:0:0:0:
256,192,1364161,1,8,0:0:0:0:
256,192,1364223,1,8,0:0:0:0:
256,192,1364286,1,0,0:0:0:0:
256,192,1364411,1,0,0:0:0:0:
256,192,1364536,1,12,0:0:0:0:
256,192,1364661,12,0,1380411,0:0:0:0:
256,188,1398071,5,0,0:0:0:0:
256,188,1398304,1,0,0:0:0:0:
256,188,1398536,1,0,0:0:0:0:
256,188,1398769,5,8,0:0:0:0:
256,188,1399001,1,8,0:0:0:0:
256,188,1399932,1,0,0:0:0:0:
256,188,1400164,1,8,0:0:0:0:
256,188,1400397,1,0,0:0:0:0:
256,188,1400629,1,0,0:0:0:0:
256,188,1400862,1,8,0:0:0:0:
256,188,1401792,1,0,0:0:0:0:
256,188,1402025,1,0,0:0:0:0:
256,188,1402257,1,8,0:0:0:0:
256,188,1402490,1,8,0:0:0:0:
256,188,1402722,1,8,0:0:0:0:
256,188,1403653,1,0,0:0:0:0:
264,192,1403885,1,8,0:0:0:0:
256,188,1404118,1,0,0:0:0:0:
256,188,1404350,1,0,0:0:0:0:
256,188,1404583,1,8,0:0:0:0:
256,188,1405513,1,8,0:0:0:0:
256,188,1407374,1,0,0:0:0:0:
256,188,1409234,1,4,0:0:0:0:
256,188,1409699,1,0,0:0:0:0:
256,188,1409932,1,8,0:0:0:0:
256,188,1410164,1,0,0:0:0:0:
256,188,1410397,1,8,0:0:0:0:
256,188,1410629,1,8,0:0:0:0:
256,188,1410862,1,0,0:0:0:0:
256,188,1411094,1,12,0:0:0:0:
248,188,1412025,1,0,0:0:0:0:
248,188,1412141,1,0,0:0:0:0:
248,188,1412257,1,0,0:0:0:0:
248,188,1412374,1,0,0:0:0:0:
248,188,1412490,1,12,0:0:0:0:
248,188,1412955,1,0,0:0:0:0:
248,188,1413304,1,0,0:0:0:0:
248,188,1413420,1,8,0:0:0:0:
248,188,1413653,1,0,0:0:0:0:
248,188,1413885,1,8,0:0:0:0:
248,188,1414001,1,0,0:0:0:0:
248,188,1414118,1,0,0:0:0:0:
248,188,1414234,1,0,0:0:0:0:
248,188,1414350,1,8,0:0:0:0:
248,188,1414699,1,0,0:0:0:0:
248,188,1414815,1,8,0:0:0:0:
248,188,1415164,1,8,0:0:0:0:
252,195,1415281,1,8,0:0:0:0:
252,195,1415397,1,0,0:0:0:0:
252,195,1415629,1,0,0:0:0:0:
252,195,1415746,1,8,0:0:0:0:
252,195,1415862,1,0,0:0:0:0:
252,195,1415978,1,0,0:0:0:0:
252,195,1416094,1,0,0:0:0:0:
252,195,1416211,1,8,0:0:0:0:
252,195,1416560,1,0,0:0:0:0:
252,195,1416676,1,8,0:0:0:0:
252,195,1417025,1,8,0:0:0:0:
252,195,1417141,1,0,0:0:0:0:
252,195,1417374,1,0,0:0:0:0:
252,195,1417606,1,0,0:0:0:0:
252,195,1417722,1,8,0:0:0:0:
252,195,1417839,1,8,0:0:0:0:
252,195,1417955,1,0,0:0:0:0:
252,195,1418071,1,8,0:0:0:0:
252,195,1418420,1,8,0:0:0:0:
252,195,1418536,1,0,0:0:0:0:
252,195,1418885,1,0,0:0:0:0:
252,195,1419001,1,0,0:0:0:0:
252,195,1419118,1,8,0:0:0:0:
252,195,1419234,1,0,0:0:0:0:
252,195,1419350,1,8,0:0:0:0:
243,193,1419467,1,0,0:0:0:0:
252,195,1419583,1,8,0:0:0:0:
267,197,1419699,1,8,0:0:0:0:
252,195,1419815,1,0,0:0:0:0:
252,195,1419932,1,8,0:0:0:0:
252,195,1420164,1,0,0:0:0:0:
252,195,1420281,1,0,0:0:0:0:
252,195,1420397,1,8,0:0:0:0:
252,195,1420746,1,0,0:0:0:0:
252,195,1420862,1,8,0:0:0:0:
252,195,1421094,1,0,0:0:0:0:
252,195,1421211,1,0,0:0:0:0:
252,195,1421327,1,8,0:0:0:0:
252,195,1421443,1,8,0:0:0:0:
252,195,1421560,1,0,0:0:0:0:
252,195,1421676,1,0,0:0:0:0:
252,195,1421792,1,8,0:0:0:0:
252,195,1422141,1,0,0:0:0:0:
252,195,1422257,1,8,0:0:0:0:
252,195,1422606,1,8,0:0:0:0:
252,195,1422722,1,0,0:0:0:0:
252,195,1422839,1,0,0:0:0:0:
252,195,1422955,1,8,0:0:0:0:
252,195,1423071,1,8,0:0:0:0:
252,195,1423188,1,0,0:0:0:0:
252,195,1423304,1,8,0:0:0:0:
252,195,1423420,1,0,0:0:0:0:
252,195,1423536,1,0,0:0:0:0:
252,195,1423653,1,8,0:0:0:0:
252,195,1424001,1,0,0:0:0:0:
252,195,1424118,1,8,0:0:0:0:
252,195,1424350,1,0,0:0:0:0:
248,188,1424467,1,0,0:0:0:0:
248,188,1424583,1,8,0:0:0:0:
249,188,1424815,1,0,0:0:0:0:
249,188,1424932,1,0,0:0:0:0:
249,188,1425048,1,8,0:0:0:0:
249,188,1425164,1,8,0:0:0:0:
249,188,1425281,1,0,0:0:0:0:
248,188,1425397,1,0,0:0:0:0:
248,188,1425513,1,8,0:0:0:0:
249,188,1425862,1,0,0:0:0:0:
249,188,1425978,1,8,0:0:0:0:
248,188,1426327,1,0,0:0:0:0:
249,188,1426676,1,8,0:0:0:0:
249,188,1426908,1,0,0:0:0:0:
249,188,1427025,1,0,0:0:0:0:
249,188,1427141,1,8,0:0:0:0:
249,188,1427257,1,8,0:0:0:0:
249,188,1427374,1,0,0:0:0:0:
249,188,1427490,1,0,0:0:0:0:
249,188,1427606,1,8,0:0:0:0:
249,188,1427722,1,8,0:0:0:0:
249,188,1427839,1,4,0:0:0:0:
249,188,1428188,1,8,0:0:0:0:
249,188,1428304,1,0,0:0:0:0:
246,192,1428536,1,0,0:0:0:0:
246,192,1428769,1,0,0:0:0:0:
246,192,1428885,1,0,0:0:0:0:
246,192,1429001,1,8,0:0:0:0:
246,192,1429118,1,0,0:0:0:0:
246,192,1429234,1,8,0:0:0:0:
246,192,1429583,1,0,0:0:0:0:
246,192,1429699,1,8,0:0:0:0:
246,192,1430048,1,8,0:0:0:0:
246,192,1430164,1,0,0:0:0:0:
246,192,1430281,1,0,0:0:0:0:
246,192,1430397,1,8,0:0:0:0:
246,192,1430513,1,0,0:0:0:0:
246,192,1430629,1,8,0:0:0:0:
246,192,1430746,1,0,0:0:0:0:
246,192,1430862,1,0,0:0:0:0:
246,192,1430978,1,0,0:0:0:0:
246,192,1431094,1,8,0:0:0:0:
246,192,1431443,1,0,0:0:0:0:
246,192,1431560,1,8,0:0:0:0:
246,192,1431908,1,8,0:0:0:0:
246,192,1432257,1,0,0:0:0:0:
246,192,1432490,1,0,0:0:0:0:
246,192,1432606,1,0,0:0:0:0:
246,192,1432722,1,0,0:0:0:0:
246,192,1432839,1,0,0:0:0:0:
246,192,1432955,1,8,0:0:0:0:
246,192,1433304,1,0,0:0:0:0:
246,192,1433420,1,8,0:0:0:0:
246,192,1433769,1,8,0:0:0:0:
246,192,1433885,1,0,0:0:0:0:
246,192,1434001,1,0,0:0:0:0:
246,192,1434118,1,8,0:0:0:0:
246,192,1434234,1,8,0:0:0:0:
246,192,1434350,1,0,0:0:0:0:
246,192,1434467,1,0,0:0:0:0:
246,192,1434583,1,8,0:0:0:0:
246,192,1434699,1,0,0:0:0:0:
246,192,1434815,1,0,0:0:0:0:
246,192,1434932,1,8,0:0:0:0:
246,192,1435048,1,0,0:0:0:0:
248,188,1435164,1,8,0:0:0:0:
248,188,1435281,1,8,0:0:0:0:
240,188,1435629,1,0,0:0:0:0:
240,188,1435746,1,8,0:0:0:0:
240,188,1435978,1,0,0:0:0:0:
240,188,1436094,1,0,0:0:0:0:
240,188,1436211,1,8,0:0:0:0:
240,188,1436327,1,0,0:0:0:0:
240,188,1436443,1,0,0:0:0:0:
240,188,1436560,1,8,0:0:0:0:
240,188,1436676,1,8,0:0:0:0:
244,184,1437025,1,0,0:0:0:0:
244,184,1437141,1,8,0:0:0:0:
244,184,1437490,1,0,0:0:0:0:
244,184,1437606,1,8,0:0:0:0:
228,192,1437722,1,0,0:0:0:0:
228,192,1437839,1,8,0:0:0:0:
228,192,1437955,1,8,0:0:0:0:
228,192,1438071,1,0,0:0:0:0:
228,192,1438188,1,0,0:0:0:0:
228,192,1438304,1,8,0:0:0:0:
232,184,1438420,1,0,0:0:0:0:
232,184,1438536,1,8,0:0:0:0:
228,184,1438653,1,0,0:0:0:0:
228,184,1438769,1,0,0:0:0:0:
228,184,1438885,1,0,0:0:0:0:
228,184,1439001,1,8,0:0:0:0:
228,192,1439234,1,0,0:0:0:0:
228,196,1439350,1,0,0:0:0:0:
228,196,1439467,1,8,0:0:0:0:
228,196,1439699,1,8,0:0:0:0:
228,196,1439932,1,0,0:0:0:0:
228,192,1440048,1,0,0:0:0:0:
228,192,1440164,1,8,0:0:0:0:
228,196,1440397,1,8,0:0:0:0:
228,196,1440513,1,0,0:0:0:0:
228,196,1440629,1,0,0:0:0:0:
228,196,1440746,1,8,0:0:0:0:
228,196,1440862,1,8,0:0:0:0:
228,196,1441211,1,0,0:0:0:0:
228,196,1441327,1,8,0:0:0:0:
228,196,1441443,1,0,0:0:0:0:
224,192,1441560,1,8,0:0:0:0:
224,192,1441792,1,8,0:0:0:0:
224,184,1441908,1,0,0:0:0:0:
224,192,1442025,1,0,0:0:0:0:
260,184,1442257,5,0,0:0:0:0:
260,184,1442374,1,0,0:0:0:0:
260,184,1442490,1,0,0:0:0:0:
260,184,1442606,1,0,0:0:0:0:
260,184,1442722,1,8,0:0:0:0:
260,184,1443071,1,0,0:0:0:0:
260,184,1443420,1,8,0:0:0:0:
260,184,1443769,1,0,0:0:0:0:
260,184,1444118,1,8,0:0:0:0:
260,184,1444350,1,0,0:0:0:0:
260,184,1444583,1,8,0:0:0:0:
260,184,1448304,5,12,0:0:0:0:
260,184,1448653,1,0,0:0:0:0:
260,184,1448769,1,8,0:0:0:0:
260,184,1449001,1,0,0:0:0:0:
260,184,1449118,1,0,0:0:0:0:
260,184,1449234,1,8,0:0:0:0:
260,184,1449350,1,0,0:0:0:0:
260,184,1449467,1,0,0:0:0:0:
260,184,1449583,1,8,0:0:0:0:
260,184,1449699,1,8,0:0:0:0:
260,184,1449815,1,0,0:0:0:0:
260,184,1449932,1,8,0:0:0:0:
260,184,1450048,1,0,0:0:0:0:
260,184,1450164,1,8,0:0:0:0:
260,184,1450513,1,0,0:0:0:0:
260,184,1450629,1,8,0:0:0:0:
260,184,1450746,1,0,0:0:0:0:
260,184,1450862,1,8,0:0:0:0:
260,184,1450978,1,0,0:0:0:0:
260,184,1451094,1,8,0:0:0:0:
260,184,1451211,1,0,0:0:0:0:
260,184,1451327,1,0,0:0:0:0:
260,184,1451443,1,0,0:0:0:0:
260,184,1451560,1,8,0:0:0:0:
260,184,1451676,1,0,0:0:0:0:
260,184,1451792,1,8,0:0:0:0:
260,184,1451908,1,8,0:0:0:0:
260,184,1452025,1,0,0:0:0:0:
260,184,1452374,1,0,0:0:0:0:
260,184,1452490,1,8,0:0:0:0:
260,184,1452722,1,0,0:0:0:0:
260,184,1452839,1,8,0:0:0:0:
260,184,1452955,1,8,0:0:0:0:
260,184,1453071,1,0,0:0:0:0:
260,184,1453188,1,0,0:0:0:0:
260,184,1453304,1,0,0:0:0:0:
260,184,1453420,1,8,0:0:0:0:
260,184,1453536,1,0,0:0:0:0:
260,184,1453653,1,8,0:0:0:0:
260,184,1453769,1,0,0:0:0:0:
260,184,1453885,1,8,0:0:0:0:
260,184,1454234,1,0,0:0:0:0:
260,184,1454350,1,8,0:0:0:0:
260,184,1454467,1,0,0:0:0:0:
260,184,1454699,1,0,0:0:0:0:
260,184,1454815,1,8,0:0:0:0:
260,184,1454932,1,0,0:0:0:0:
260,184,1455048,1,0,0:0:0:0:
260,184,1455164,1,8,0:0:0:0:
260,184,1455281,1,8,0:0:0:0:
260,184,1455629,1,0,0:0:0:0:
260,184,1455746,1,8,0:0:0:0:
260,184,1456094,1,0,0:0:0:0:
260,184,1456211,1,8,0:0:0:0:
260,184,1456443,1,8,0:0:0:0:
260,184,1456676,1,0,0:0:0:0:
260,184,1456792,1,8,0:0:0:0:
260,184,1456908,1,0,0:0:0:0:
260,184,1457025,1,0,0:0:0:0:
260,184,1457141,1,8,0:0:0:0:
260,184,1457490,1,0,0:0:0:0:
260,184,1457606,1,8,0:0:0:0:
260,184,1457955,1,0,0:0:0:0:
260,184,1458071,1,8,0:0:0:0:
260,184,1458188,1,0,0:0:0:0:
260,184,1458304,1,8,0:0:0:0:
310,212,1458420,1,0,0:0:0:0:
260,184,1458536,1,0,0:0:0:0:
260,184,1458653,1,8,0:0:0:0:
260,184,1458769,1,0,0:0:0:0:
260,184,1458885,1,0,0:0:0:0:
260,184,1459001,1,8,0:0:0:0:
260,184,1459118,1,0,0:0:0:0:
260,184,1459234,1,8,0:0:0:0:
260,184,1459350,1,0,0:0:0:0:
260,184,1459467,1,8,0:0:0:0:
260,184,1459815,1,0,0:0:0:0:
260,184,1459932,1,8,0:0:0:0:
250,162,1460164,1,8,0:0:0:0:
250,162,1460281,1,8,0:0:0:0:
250,162,1460397,1,0,0:0:0:0:
250,162,1460513,1,0,0:0:0:0:
250,162,1460629,1,8,0:0:0:0:
250,162,1460746,1,0,0:0:0:0:
250,162,1460862,1,8,0:0:0:0:
250,162,1460978,1,0,0:0:0:0:
250,162,1461094,1,8,0:0:0:0:
250,162,1461211,1,8,0:0:0:0:
250,162,1461327,1,0,0:0:0:0:
250,162,1461676,1,8,0:0:0:0:
250,162,1461792,1,0,0:0:0:0:
250,162,1461908,1,8,0:0:0:0:
250,162,1462025,1,0,0:0:0:0:
250,162,1462257,1,8,0:0:0:0:
250,162,1462374,1,8,0:0:0:0:
250,162,1462490,1,0,0:0:0:0:
250,162,1462606,1,0,0:0:0:0:
250,162,1462722,1,8,0:0:0:0:
250,162,1462839,1,0,0:0:0:0:
250,162,1462955,1,0,0:0:0:0:
250,162,1463071,1,0,0:0:0:0:
250,162,1463188,1,8,0:0:0:0:
250,162,1463536,1,0,0:0:0:0:
250,162,1463653,1,8,0:0:0:0:
330,237,1463885,1,0,0:0:0:0:
286,196,1464001,1,0,0:0:0:0:
244,156,1464118,1,8,0:0:0:0:
286,196,1464234,1,8,0:0:0:0:
237,149,1464350,1,0,0:0:0:0:
289,199,1464467,1,0,0:0:0:0:
234,146,1464583,1,8,0:0:0:0:
377,246,1464932,1,0,0:0:0:0:
329,212,1465048,1,8,0:0:0:0:
183,113,1465397,1,0,0:0:0:0:
135,80,1465513,1,8,0:0:0:0:
181,115,1465629,1,0,0:0:0:0:
227,150,1465746,1,8,0:0:0:0:
271,173,1465862,1,8,0:0:0:0:
311,214,1465978,1,0,0:0:0:0:
271,173,1466094,1,8,0:0:0:0:
271,173,1466211,1,0,0:0:0:0:
271,173,1466327,1,0,0:0:0:0:
271,173,1466443,1,8,0:0:0:0:
271,173,1466792,1,0,0:0:0:0:
271,173,1466908,1,8,0:0:0:0:
367,319,1467257,1,8,0:0:0:0:
282,191,1467606,1,0,0:0:0:0:
282,191,1467839,1,0,0:0:0:0:
282,191,1467955,1,0,0:0:0:0:
282,191,1468071,1,8,0:0:0:0:
282,191,1468188,1,0,0:0:0:0:
282,191,1468304,1,8,0:0:0:0:
282,191,1468653,1,0,0:0:0:0:
282,191,1468769,1,8,0:0:0:0:
282,191,1469118,1,0,0:0:0:0:
282,191,1469234,1,8,0:0:0:0:
282,191,1469350,1,8,0:0:0:0:
282,191,1469467,1,0,0:0:0:0:
282,191,1469583,1,0,0:0:0:0:
291,212,1469699,1,8,0:0:0:0:
291,212,1469815,1,0,0:0:0:0:
291,212,1469932,1,8,0:0:0:0:
291,212,1470048,1,8,0:0:0:0:
291,212,1470164,1,0,0:0:0:0:
291,212,1470513,1,0,0:0:0:0:
291,212,1470629,1,8,0:0:0:0:
291,212,1470978,1,8,0:0:0:0:
291,212,1471094,1,0,0:0:0:0:
291,212,1471327,1,8,0:0:0:0:
291,212,1471560,1,8,0:0:0:0:
291,212,1471676,1,8,0:0:0:0:
291,212,1471792,1,0,0:0:0:0:
291,212,1471908,1,0,0:0:0:0:
291,212,1472025,1,8,0:0:0:0:
291,212,1472374,1,0,0:0:0:0:
291,212,1472490,1,8,0:0:0:0:
291,212,1472839,1,0,0:0:0:0:
291,212,1472955,1,8,0:0:0:0:
291,212,1473071,1,8,0:0:0:0:
267,265,1473188,1,0,0:0:0:0:
291,212,1473304,1,8,0:0:0:0:
291,212,1473536,1,0,0:0:0:0:
291,212,1473653,1,8,0:0:0:0:
291,212,1473769,1,8,0:0:0:0:
291,212,1473885,1,0,0:0:0:0:
291,212,1474001,1,8,0:0:0:0:
291,212,1474118,1,8,0:0:0:0:
291,212,1474234,1,0,0:0:0:0:
291,212,1474350,1,8,0:0:0:0:
291,212,1474699,1,0,0:0:0:0:
291,212,1474815,1,8,0:0:0:0:
291,212,1475048,1,8,0:0:0:0:
291,212,1475281,1,8,0:0:0:0:
291,212,1475397,1,0,0:0:0:0:
291,212,1475513,1,0,0:0:0:0:
291,212,1475629,1,8,0:0:0:0:
291,212,1475746,1,8,0:0:0:0:
291,212,1475978,1,8,0:0:0:0:
291,212,1476211,1,0,0:0:0:0:
291,212,1476560,1,0,0:0:0:0:
291,212,1476676,1,8,0:0:0:0:
291,212,1476792,1,0,0:0:0:0:
291,212,1476908,1,8,0:0:0:0:
291,212,1477025,1,8,0:0:0:0:
291,212,1477141,1,0,0:0:0:0:
291,212,1477257,1,0,0:0:0:0:
291,212,1477374,1,8,0:0:0:0:
291,212,1477490,1,8,0:0:0:0:
291,212,1477606,1,8,0:0:0:0:
291,212,1477722,1,0,0:0:0:0:
291,212,1477839,1,8,0:0:0:0:
291,212,1477955,1,0,0:0:0:0:
291,212,1478071,1,8,0:0:0:0:
291,212,1478420,1,0,0:0:0:0:
291,212,1478536,1,8,0:0:0:0:
291,212,1478769,1,0,0:0:0:0:
291,212,1478885,1,0,0:0:0:0:
291,212,1479001,1,8,0:0:0:0:
291,212,1479118,1,8,0:0:0:0:
291,212,1479234,1,0,0:0:0:0:
291,212,1479350,1,0,0:0:0:0:
291,212,1479467,1,8,0:0:0:0:
291,212,1479583,1,0,0:0:0:0:
291,212,1479699,1,0,0:0:0:0:
291,212,1479815,1,8,0:0:0:0:
291,212,1479932,1,8,0:0:0:0:
291,212,1480281,1,0,0:0:0:0:
291,212,1480397,1,8,0:0:0:0:
291,212,1480513,1,0,0:0:0:0:
291,212,1480746,1,0,0:0:0:0:
291,212,1480862,1,8,0:0:0:0:
291,212,1480978,1,8,0:0:0:0:
291,212,1481094,1,0,0:0:0:0:
291,212,1481211,1,0,0:0:0:0:
291,212,1481327,1,8,0:0:0:0:
291,212,1481443,1,0,0:0:0:0:
291,212,1481560,1,8,0:0:0:0:
291,212,1481676,1,0,0:0:0:0:
291,212,1481792,1,8,0:0:0:0:
291,212,1482141,1,0,0:0:0:0:
291,212,1482490,1,8,0:0:0:0:
291,212,1482722,1,8,0:0:0:0:
291,212,1482839,1,8,0:0:0:0:
291,212,1482955,1,0,0:0:0:0:
291,212,1483071,1,0,0:0:0:0:
291,212,1483188,1,8,0:0:0:0:
291,212,1483536,1,0,0:0:0:0:
291,212,1483653,1,8,0:0:0:0:
291,212,1484001,1,0,0:0:0:0:
291,212,1484118,1,8,0:0:0:0:
291,212,1484234,1,8,0:0:0:0:
291,212,1484583,1,0,0:0:0:0:
291,212,1484699,1,0,0:0:0:0:
291,212,1484815,1,0,0:0:0:0:
291,212,1484932,1,0,0:0:0:0:
291,212,1485048,1,8,0:0:0:0:
256,192,1485513,12,0,1491094,0:0:0:0:
